osu file format v14

[General]
AudioFilename: audio.mp3
AudioLeadIn: 0
PreviewTime: 89550
Countdown: 0
SampleSet: Soft
StackLeniency: 0.7
Mode: 3
LetterboxInBreaks: 0
SpecialStyle: 0
WidescreenStoryboard: 0

[Editor]
Bookmarks: 12009,15702,23088,37858,45240,52627,60009,67396,74779,96933,111702,126471
DistanceSpacing: 0.8
BeatDivisor: 4
GridSize: 4
TimelineZoom: 1.899999

[Metadata]
Title:Flamenco House
TitleUnicode:Flamenco House
Artist:lapix
ArtistUnicode:lapix
Creator:Umo-
Version:Extra
Source:
Tags:kaythen famoss LN long note electronic instrumental MEGAREX MRX-068
BeatmapID:2482881
BeatmapSetID:1191497

[Difficulty]
HPDrainRate:8.6
CircleSize:7
OverallDifficulty:7.6
ApproachRate:5
SliderMultiplier:1.4
SliderTickRate:1

[Events]
//Background and Video events
0,0,"lapixbg.png",0,0
//Break Periods
//Storyboard Layer 0 (Background)
//Storyboard Layer 1 (Fail)
//Storyboard Layer 2 (Pass)
//Storyboard Layer 3 (Foreground)
//Storyboard Layer 4 (Overlay)
//Storyboard Sound Samples

[TimingPoints]
935,461.538461538462,4,2,1,70,1,0
45242,-100,4,2,1,70,0,1
59550,-100,4,2,1,70,0,0
60011,-100,4,2,1,70,0,1
72935,-100,4,2,1,70,0,0
96935,-100,4,2,1,70,0,1
111242,-100,4,2,1,70,0,0
111704,-100,4,2,1,70,0,1
124627,-100,4,2,1,70,0,0

[HitObjects]
36,192,935,5,2,0:0:0:0:
182,192,935,1,0,0:0:0:0:
256,192,935,1,0,0:0:0:0:
329,192,935,1,0,0:0:0:0:
475,192,935,1,0,0:0:0:0:
402,192,1050,1,0,0:0:0:0:
109,192,1165,1,0,0:0:0:0:
329,192,1165,1,0,0:0:0:0:
36,192,1165,1,0,0:0:0:0:
182,192,1281,1,0,0:0:0:0:
475,192,1281,1,0,0:0:0:0:
36,192,1396,1,2,0:0:0:0:
109,192,1396,1,8,0:0:0:0:
329,192,1396,1,0,0:0:0:0:
402,192,1396,1,0,0:0:0:0:
182,192,1511,1,0,0:0:0:0:
256,192,1569,1,0,0:0:0:0:
36,192,1627,1,0,0:0:0:0:
329,192,1627,1,0,0:0:0:0:
475,192,1627,1,0,0:0:0:0:
402,192,1742,1,0,0:0:0:0:
36,192,1858,1,2,0:0:0:0:
109,192,1858,1,0,0:0:0:0:
329,192,1858,1,0,0:0:0:0:
256,192,1973,1,0,0:0:0:0:
182,192,2088,1,0,0:0:0:0:
402,192,2088,1,0,0:0:0:0:
36,192,2088,1,0,0:0:0:0:
329,192,2146,1,0,0:0:0:0:
256,192,2204,1,0,0:0:0:0:
475,192,2204,1,0,0:0:0:0:
36,192,2319,1,2,0:0:0:0:
109,192,2319,1,8,0:0:0:0:
182,192,2319,1,0,0:0:0:0:
402,192,2319,1,0,0:0:0:0:
256,192,2435,1,0,0:0:0:0:
329,192,2473,1,0,0:0:0:0:
109,192,2550,1,0,0:0:0:0:
402,192,2550,1,0,0:0:0:0:
475,192,2550,1,0,0:0:0:0:
182,192,2665,1,0,0:0:0:0:
36,192,2781,1,2,0:0:0:0:
256,192,2781,1,0,0:0:0:0:
475,192,2781,1,0,0:0:0:0:
329,192,2925,1,0,0:0:0:0:
182,192,3011,1,0,0:0:0:0:
402,192,3011,1,0,0:0:0:0:
475,192,3011,1,0,0:0:0:0:
109,192,3127,1,0,0:0:0:0:
329,192,3127,1,0,0:0:0:0:
36,192,3242,1,8,0:0:0:0:
182,192,3242,1,2,0:0:0:0:
402,192,3242,1,0,0:0:0:0:
475,192,3242,1,0,0:0:0:0:
256,192,3358,1,0,0:0:0:0:
109,192,3473,1,0,0:0:0:0:
329,192,3473,1,0,0:0:0:0:
402,192,3473,1,0,0:0:0:0:
182,192,3588,1,8,0:0:0:0:
475,192,3588,1,0,0:0:0:0:
36,192,3704,1,2,0:0:0:0:
109,192,3704,1,0,0:0:0:0:
402,192,3704,1,0,0:0:0:0:
329,192,3761,1,0,0:0:0:0:
256,192,3819,1,8,0:0:0:0:
475,192,3819,1,0,0:0:0:0:
109,192,3935,1,0,0:0:0:0:
402,192,3935,1,0,0:0:0:0:
36,192,3935,1,0,0:0:0:0:
182,192,4050,1,0,0:0:0:0:
329,192,4050,1,0,0:0:0:0:
36,192,4165,1,8,0:0:0:0:
256,192,4165,1,2,0:0:0:0:
402,192,4165,1,0,0:0:0:0:
475,192,4165,1,0,0:0:0:0:
109,192,4252,1,0,0:0:0:0:
182,192,4310,1,0,0:0:0:0:
256,192,4396,1,0,0:0:0:0:
402,192,4396,1,0,0:0:0:0:
475,192,4396,1,0,0:0:0:0:
36,192,4511,1,0,0:0:0:0:
109,192,4569,1,0,0:0:0:0:
182,192,4627,1,2,0:0:0:0:
329,192,4627,1,0,0:0:0:0:
402,192,4627,1,0,0:0:0:0:
475,192,4627,1,0,0:0:0:0:
36,192,4685,1,0,0:0:0:0:
256,192,4742,1,0,0:0:0:0:
109,192,4858,1,0,0:0:0:0:
329,192,4858,1,0,0:0:0:0:
36,192,4858,1,0,0:0:0:0:
182,192,4973,1,0,0:0:0:0:
475,192,4973,1,0,0:0:0:0:
36,192,5088,1,2,0:0:0:0:
109,192,5088,1,8,0:0:0:0:
329,192,5088,1,0,0:0:0:0:
402,192,5088,1,0,0:0:0:0:
256,192,5204,1,0,0:0:0:0:
109,192,5319,1,0,0:0:0:0:
329,192,5319,1,0,0:0:0:0:
402,192,5319,1,0,0:0:0:0:
256,192,5377,1,0,0:0:0:0:
182,192,5435,1,0,0:0:0:0:
109,192,5550,1,2,0:0:0:0:
256,192,5550,1,0,0:0:0:0:
402,192,5550,1,0,0:0:0:0:
329,192,5665,1,0,0:0:0:0:
109,192,5781,1,0,0:0:0:0:
182,192,5781,1,0,0:0:0:0:
36,192,5781,1,0,0:0:0:0:
402,192,5896,1,0,0:0:0:0:
475,192,5896,1,0,0:0:0:0:
36,192,6011,1,2,0:0:0:0:
109,192,6011,1,8,0:0:0:0:
182,192,6011,1,0,0:0:0:0:
329,192,6011,1,0,0:0:0:0:
256,192,6098,1,0,0:0:0:0:
329,192,6156,1,0,0:0:0:0:
36,192,6242,1,0,0:0:0:0:
109,192,6242,1,0,0:0:0:0:
475,192,6242,1,0,0:0:0:0:
182,192,6358,1,0,0:0:0:0:
256,192,6415,1,0,0:0:0:0:
36,192,6473,1,2,0:0:0:0:
329,192,6473,1,0,0:0:0:0:
475,192,6473,1,0,0:0:0:0:
109,192,6617,1,0,0:0:0:0:
329,192,6704,1,0,0:0:0:0:
402,192,6704,1,0,0:0:0:0:
475,192,6704,1,0,0:0:0:0:
256,192,6761,1,0,0:0:0:0:
109,192,6819,1,0,0:0:0:0:
182,192,6819,1,0,0:0:0:0:
36,192,6877,1,0,0:0:0:0:
256,192,6935,1,8,0:0:0:0:
329,192,6935,1,2,0:0:0:0:
402,192,6935,1,0,0:0:0:0:
475,192,6935,1,0,0:0:0:0:
109,192,7050,1,0,0:0:0:0:
182,192,7165,1,0,0:0:0:0:
402,192,7165,1,0,0:0:0:0:
475,192,7165,1,0,0:0:0:0:
36,192,7281,1,8,0:0:0:0:
109,192,7396,1,2,0:0:0:0:
182,192,7396,1,0,0:0:0:0:
256,192,7396,1,0,0:0:0:0:
329,192,7511,1,8,0:0:0:0:
475,192,7511,1,0,0:0:0:0:
109,192,7627,1,0,0:0:0:0:
182,192,7627,1,0,0:0:0:0:
36,192,7627,1,0,0:0:0:0:
256,192,7742,1,0,0:0:0:0:
402,192,7742,1,0,0:0:0:0:
329,192,7800,1,0,0:0:0:0:
36,192,7858,128,8,8319:0:0:0:0:
109,192,7858,1,2,0:0:0:0:
182,192,7858,1,0,0:0:0:100:ChimeClap.wav
475,192,7858,128,0,8319:0:0:0:0:
256,192,7973,1,0,0:0:0:0:
182,192,8088,1,0,0:0:0:0:
329,192,8088,1,0,0:0:0:0:
109,192,8204,1,0,0:0:0:0:
402,192,8204,1,0,0:0:0:0:
182,192,8319,1,2,0:0:0:0:
256,192,8319,1,0,0:0:0:0:
329,192,8319,1,0,0:0:0:0:
402,192,8435,1,0,0:0:0:0:
109,192,8550,1,0,0:0:0:0:
182,192,8550,1,0,0:0:0:0:
36,192,8550,1,0,0:0:0:0:
402,192,8665,1,0,0:0:0:0:
475,192,8665,1,0,0:0:0:0:
36,192,8781,1,8,0:0:0:0:
109,192,8781,1,2,0:0:0:0:
256,192,8781,1,0,0:0:0:0:
329,192,8781,1,0,0:0:0:0:
182,192,8896,1,0,0:0:0:0:
256,192,8954,1,0,0:0:0:0:
109,192,9011,1,0,0:0:0:0:
329,192,9011,1,0,0:0:0:0:
402,192,9011,1,0,0:0:0:0:
182,192,9127,1,0,0:0:0:0:
36,192,9242,1,2,0:0:0:0:
402,192,9242,1,0,0:0:0:0:
475,192,9242,1,0,0:0:0:0:
256,192,9358,1,0,0:0:0:0:
36,192,9473,1,0,0:0:0:0:
329,192,9473,1,0,0:0:0:0:
109,192,9473,1,0,0:0:0:0:
182,192,9531,1,0,0:0:0:0:
256,192,9588,1,0,0:0:0:0:
402,192,9588,1,0,0:0:0:0:
109,192,9704,1,8,0:0:0:0:
182,192,9704,1,2,0:0:0:0:
36,192,9704,1,0,0:0:0:0:
475,192,9704,1,0,0:0:0:0:
329,192,9819,1,0,0:0:0:0:
109,192,9935,1,0,0:0:0:0:
402,192,9935,1,0,0:0:0:0:
475,192,9935,1,0,0:0:0:0:
256,192,10050,1,0,0:0:0:0:
182,192,10165,1,2,0:0:0:0:
402,192,10165,1,0,0:0:0:0:
475,192,10165,1,0,0:0:0:0:
109,192,10281,1,0,0:0:0:0:
329,192,10396,1,0,0:0:0:0:
402,192,10396,1,0,0:0:0:0:
182,192,10396,1,0,0:0:0:0:
36,192,10511,1,0,0:0:0:0:
256,192,10511,1,0,0:0:0:0:
109,192,10627,1,2,0:0:0:0:
182,192,10627,1,8,0:0:0:0:
402,192,10627,1,0,0:0:0:0:
475,192,10627,1,0,0:0:0:0:
329,192,10742,1,0,0:0:0:0:
36,192,10858,1,0,0:0:0:0:
256,192,10858,1,0,0:0:0:0:
475,192,10858,1,0,0:0:0:0:
182,192,10973,1,8,0:0:0:0:
329,192,10973,1,0,0:0:0:0:
109,192,11088,1,2,0:0:0:0:
402,192,11088,1,0,0:0:0:0:
475,192,11088,1,0,0:0:0:0:
182,192,11146,1,0,0:0:0:0:
36,192,11204,1,8,0:0:0:0:
256,192,11204,1,0,0:0:0:0:
182,192,11319,1,0,0:0:0:0:
329,192,11319,1,0,0:0:0:0:
475,192,11319,1,0,0:0:0:0:
109,192,11435,1,0,0:0:0:0:
402,192,11435,1,0,0:0:0:0:
36,192,11550,1,2,0:0:0:0:
256,192,11550,1,8,0:0:0:0:
329,192,11550,1,0,0:0:0:0:
475,192,11550,1,0,0:0:0:0:
182,192,11665,1,0,0:0:0:0:
109,192,11781,1,0,0:0:0:0:
402,192,11781,1,0,0:0:0:0:
475,192,11781,1,0,0:0:0:0:
256,192,11896,1,0,0:0:0:0:
182,192,11954,1,0,0:0:0:0:
36,192,12011,128,2,12242:0:0:0:0:
329,192,12011,1,0,0:0:0:0:
475,192,12011,1,0,0:0:0:0:
109,192,12127,128,0,12358:0:0:0:0:
182,192,12242,128,0,12473:0:0:0:0:
402,192,12242,1,0,0:0:0:0:
36,192,12358,128,0,12588:0:0:0:0:
329,192,12358,1,0,0:0:0:0:
109,192,12473,128,8,12704:0:0:0:0:
256,192,12473,1,2,0:0:0:0:
402,192,12473,1,0,0:0:0:0:
475,192,12473,1,0,0:0:0:0:
182,192,12588,128,0,12819:0:0:0:0:
36,192,12704,128,0,12935:0:0:0:0:
402,192,12704,1,0,0:0:0:0:
109,192,12819,128,0,12935:0:0:0:0:
329,192,12819,1,0,0:0:0:0:
182,192,12935,1,2,0:0:0:0:
475,192,12935,128,0,13165:0:0:0:0:
256,192,12935,1,0,0:0:0:0:
109,192,13050,1,0,0:0:0:0:
402,192,13050,128,0,13281:0:0:0:0:
256,192,13165,1,0,0:0:0:0:
329,192,13165,128,0,13396:0:0:0:0:
109,192,13281,1,0,0:0:0:0:
475,192,13281,128,0,13511:0:0:0:0:
36,192,13396,1,8,0:0:0:0:
182,192,13396,1,2,0:0:0:0:
256,192,13396,1,0,0:0:0:0:
402,192,13396,128,0,13627:0:0:0:0:
329,192,13511,128,0,13742:0:0:0:0:
36,192,13627,1,0,0:0:0:0:
109,192,13627,1,0,0:0:0:0:
475,192,13627,128,0,13858:0:0:0:0:
402,192,13742,128,0,13858:0:0:0:0:
36,192,13858,1,2,0:0:0:0:
109,192,13858,1,0,0:0:0:0:
182,192,13858,1,0,0:0:0:0:
256,192,13915,1,0,0:0:0:0:
329,192,13973,1,0,0:0:0:0:
402,192,14031,1,0,0:0:0:0:
109,192,14088,1,0,0:0:0:0:
475,192,14088,1,0,0:0:0:0:
182,192,14146,1,0,0:0:0:0:
256,192,14204,1,0,0:0:0:0:
329,192,14204,1,0,0:0:0:0:
402,192,14261,1,0,0:0:0:0:
36,192,14319,1,2,0:0:0:0:
109,192,14319,1,8,0:0:0:0:
475,192,14319,1,0,0:0:0:0:
182,192,14377,1,0,0:0:0:0:
256,192,14435,1,0,0:0:0:0:
329,192,14492,1,0,0:0:0:0:
36,192,14550,1,0,0:0:0:0:
402,192,14550,1,0,0:0:0:0:
475,192,14550,1,0,0:0:0:0:
109,192,14608,1,0,0:0:0:0:
182,192,14665,1,8,0:0:0:0:
256,192,14723,1,0,0:0:0:0:
36,192,14781,1,2,0:0:0:0:
329,192,14781,1,0,0:0:0:0:
402,192,14781,1,0,0:0:0:0:
109,192,14838,1,0,0:0:0:0:
182,192,14896,1,8,0:0:0:0:
256,192,14896,1,0,0:0:0:0:
329,192,14954,1,0,0:0:0:0:
402,192,15011,1,0,0:0:0:0:
475,192,15011,1,0,0:0:0:0:
36,192,15069,1,0,0:0:0:0:
109,192,15127,1,0,0:0:0:0:
182,192,15127,1,0,0:0:0:0:
256,192,15185,1,0,0:0:0:0:
329,192,15242,128,0,15358:0:0:0:0:
109,192,15358,1,0,0:0:0:0:
402,192,15473,128,0,15588:0:0:0:0:
182,192,15588,1,0,0:0:0:0:
36,192,15704,1,2,0:0:0:0:
109,192,15704,1,4,0:0:0:0:
329,192,15704,1,8,0:0:0:0:
402,192,15704,1,0,0:0:0:0:
475,192,15704,1,0,0:0:0:0:
36,192,15935,1,2,0:0:0:0:
109,192,15935,1,8,0:0:0:0:
329,192,15935,1,0,0:0:0:0:
402,192,15935,1,0,0:0:0:0:
475,192,15935,1,0,0:0:0:0:
36,192,16165,1,0,0:0:0:0:
475,192,16165,1,0,0:0:0:0:
182,192,16281,1,0,0:0:0:0:
329,192,16281,1,0,0:0:0:0:
256,192,16396,1,0,0:0:0:0:
36,192,16550,128,0,16896:0:0:0:0:
329,192,16550,128,0,16896:0:0:0:0:
109,192,16627,128,0,16896:0:0:0:100:ChimeClap.wav
402,192,16627,128,0,16896:0:0:0:0:
182,192,16665,128,0,16896:0:0:0:0:
475,192,16665,128,0,16896:0:0:0:0:
182,192,16973,1,0,0:0:0:0:
329,192,16973,1,0,0:0:0:0:
182,192,17319,1,0,0:0:0:0:
329,192,17319,1,0,0:0:0:0:
182,192,17435,1,0,0:0:0:0:
329,192,17435,1,0,0:0:0:0:
36,192,17550,1,8,0:0:0:0:
109,192,17550,1,2,0:0:0:0:
256,192,17550,1,0,0:0:0:0:
402,192,17550,1,0,0:0:0:0:
475,192,17550,1,0,0:0:0:0:
329,192,17665,1,0,0:0:0:0:
36,192,17781,1,2,0:0:0:0:
109,192,17781,1,8,0:0:0:0:
256,192,17781,1,0,0:0:0:0:
402,192,17781,1,0,0:0:0:0:
475,192,17781,1,0,0:0:0:0:
182,192,17896,1,0,0:0:0:0:
329,192,17896,1,0,0:0:0:0:
36,192,18011,1,2,0:0:0:0:
109,192,18011,1,8,0:0:0:0:
256,192,18011,1,0,0:0:0:0:
402,192,18011,1,0,0:0:0:0:
475,192,18011,1,0,0:0:0:0:
182,192,18098,1,0,0:0:0:0:
256,192,18127,1,0,0:0:0:0:
329,192,18156,1,0,0:0:0:0:
36,192,18204,1,0,0:0:0:0:
182,192,18242,1,0,0:0:0:0:
402,192,18242,1,0,0:0:0:0:
109,192,18358,1,0,0:0:0:0:
36,192,18358,1,0,0:0:0:0:
182,192,18396,1,0,0:0:0:0:
256,192,18435,1,0,0:0:0:0:
329,192,18473,1,0,0:0:0:0:
475,192,18473,1,0,0:0:0:0:
182,192,18704,1,0,0:0:0:0:
109,192,18704,1,0,0:0:0:0:
475,192,18819,1,0,0:0:0:0:
329,192,18819,1,0,0:0:0:0:
256,192,18935,1,0,0:0:0:0:
36,192,18935,1,0,0:0:0:0:
109,192,19050,1,0,0:0:0:0:
182,192,19050,1,0,0:0:0:0:
475,192,19165,1,0,0:0:0:0:
256,192,19165,1,0,0:0:0:0:
402,192,19281,1,0,0:0:0:0:
329,192,19281,1,0,0:0:0:0:
36,192,19396,1,8,0:0:0:0:
256,192,19396,1,2,0:0:0:0:
109,192,19396,1,0,0:0:0:0:
475,192,19396,1,0,0:0:0:0:
182,192,19396,1,0,0:0:0:0:
402,192,19511,1,0,0:0:0:0:
109,192,19627,1,0,0:0:0:0:
329,192,19627,1,0,0:0:0:0:
329,192,19742,1,0,0:0:0:0:
36,192,19858,1,2,0:0:0:0:
109,192,19858,1,8,0:0:0:0:
182,192,19858,1,0,0:0:0:0:
475,192,19858,1,0,0:0:0:0:
402,192,19858,1,0,0:0:0:0:
256,192,19935,1,0,0:0:0:0:
329,192,19973,1,0,0:0:0:0:
402,192,20011,1,0,0:0:0:0:
475,192,20050,1,0,0:0:0:0:
109,192,20088,1,0,0:0:0:0:
182,192,20088,1,0,0:0:0:0:
182,192,20242,128,0,20588:0:0:0:0:
475,192,20242,128,0,20588:0:0:0:0:
109,192,20319,128,0,20588:0:0:0:100:ChimeClap.wav
402,192,20319,128,0,20588:0:0:0:0:
36,192,20358,128,0,20588:0:0:0:0:
329,192,20358,128,0,20588:0:0:0:0:
182,192,20665,1,0,0:0:0:0:
329,192,20665,1,0,0:0:0:0:
109,192,21011,1,0,0:0:0:0:
402,192,21011,1,0,0:0:0:0:
109,192,21127,1,0,0:0:0:0:
402,192,21127,1,0,0:0:0:0:
36,192,21242,1,8,0:0:0:0:
182,192,21242,1,2,0:0:0:0:
256,192,21242,1,0,0:0:0:0:
329,192,21242,1,0,0:0:0:0:
475,192,21242,1,0,0:0:0:0:
402,192,21358,1,0,0:0:0:0:
109,192,21358,1,0,0:0:0:0:
109,192,21473,1,0,0:0:0:0:
329,192,21473,1,0,0:0:0:0:
36,192,21588,1,8,0:0:0:0:
182,192,21588,1,2,0:0:0:0:
256,192,21588,1,0,0:0:0:0:
402,192,21588,1,0,0:0:0:0:
475,192,21588,1,0,0:0:0:0:
329,192,21704,1,0,0:0:0:0:
109,192,21704,1,0,0:0:0:0:
329,192,21819,1,0,0:0:0:0:
36,192,21819,1,0,0:0:0:0:
182,192,21935,1,8,0:0:0:0:
109,192,21935,1,2,0:0:0:0:
256,192,21935,1,0,0:0:0:0:
402,192,21935,1,0,0:0:0:0:
475,192,21935,1,0,0:0:0:0:
329,192,22050,1,0,0:0:0:0:
36,192,22165,1,2,0:0:0:0:
109,192,22165,1,0,0:0:0:0:
402,192,22165,1,0,0:0:0:0:
182,192,22242,1,0,0:0:0:0:
402,192,22310,1,0,0:0:0:0:
182,192,22396,1,0,0:0:0:0:
36,192,22550,128,0,23011:0:0:0:0:
402,192,22550,128,0,23011:0:0:0:0:
109,192,22627,128,0,23011:0:0:0:100:ChimeClap.wav
256,192,22627,128,0,23011:0:0:0:0:
475,192,22627,128,0,23011:0:0:0:0:
36,192,23088,1,2,0:0:0:0:
109,192,23088,128,4,23204:0:0:0:0:
402,192,23088,128,0,23204:0:0:0:0:
475,192,23088,1,0,0:0:0:0:
256,192,23204,1,0,0:0:0:0:
109,192,23319,1,0,0:0:0:0:
329,192,23319,1,0,0:0:0:0:
402,192,23319,1,0,0:0:0:0:
36,192,23435,1,0,0:0:0:0:
182,192,23435,1,0,0:0:0:0:
475,192,23435,1,0,0:0:0:0:
109,192,23550,1,2,0:0:0:0:
256,192,23550,128,0,23665:0:0:0:0:
402,192,23550,1,0,0:0:0:0:
329,192,23665,128,0,23781:0:0:0:0:
109,192,23781,1,0,0:0:0:0:
182,192,23781,1,0,0:0:0:0:
402,192,23781,128,0,23896:0:0:0:0:
475,192,23896,128,0,24011:0:0:0:0:
36,192,24011,128,2,24473:0:0:0:0:
256,192,24011,1,0,0:0:0:0:
329,192,24011,1,0,0:0:0:0:
109,192,24127,1,0,0:0:0:0:
402,192,24127,1,0,0:0:0:0:
182,192,24242,1,0,0:0:0:0:
329,192,24242,1,0,0:0:0:0:
475,192,24242,1,0,0:0:0:0:
182,192,24358,1,0,0:0:0:0:
329,192,24358,1,0,0:0:0:0:
475,192,24358,1,0,0:0:0:0:
256,192,24473,1,2,0:0:0:0:
402,192,24473,1,0,0:0:0:0:
109,192,24473,1,0,0:0:0:0:
182,192,24588,1,0,0:0:0:0:
475,192,24704,1,0,0:0:0:0:
36,192,24704,1,0,0:0:0:0:
109,192,24761,128,0,24819:0:0:0:0:
402,192,24761,128,0,24819:0:0:0:0:
182,192,24819,128,0,24877:0:0:0:0:
329,192,24819,128,0,24877:0:0:0:0:
36,192,24877,128,0,24935:0:0:0:0:
475,192,24877,128,0,24935:0:0:0:0:
109,192,24935,128,2,25050:0:0:0:0:
256,192,24935,1,0,0:0:0:0:
402,192,24935,128,0,25050:0:0:0:0:
329,192,25050,1,0,0:0:0:0:
182,192,25165,128,0,25281:0:0:0:0:
256,192,25165,128,0,25281:0:0:0:0:
402,192,25165,1,0,0:0:0:0:
36,192,25281,128,0,25396:0:0:0:0:
329,192,25281,1,0,0:0:0:0:
475,192,25281,128,0,25396:0:0:0:0:
182,192,25396,1,2,0:0:0:0:
256,192,25396,1,0,0:0:0:0:
402,192,25396,1,0,0:0:0:0:
109,192,25511,128,0,25627:0:0:0:0:
329,192,25511,128,0,25627:0:0:0:0:
36,192,25627,1,0,0:0:0:0:
182,192,25627,1,0,0:0:0:0:
475,192,25627,1,0,0:0:0:0:
256,192,25742,128,0,25858:0:0:0:0:
402,192,25742,128,0,25858:0:0:0:0:
36,192,25858,1,2,0:0:0:0:
109,192,25858,1,0,0:0:0:0:
329,192,25858,1,0,0:0:0:0:
182,192,25973,128,0,26088:0:0:0:0:
475,192,25973,128,0,26088:0:0:0:0:
109,192,26088,1,0,0:0:0:0:
329,192,26088,1,0,0:0:0:0:
402,192,26088,1,0,0:0:0:0:
36,192,26204,1,0,0:0:0:0:
256,192,26204,1,0,0:0:0:0:
475,192,26204,1,0,0:0:0:0:
109,192,26319,1,2,0:0:0:0:
182,192,26319,128,0,26435:0:0:0:0:
402,192,26319,128,0,26435:0:0:0:0:
256,192,26435,1,0,0:0:0:0:
36,192,26550,1,0,0:0:0:0:
109,192,26550,128,0,26665:0:0:0:0:
329,192,26550,128,0,26665:0:0:0:0:
182,192,26665,1,0,0:0:0:0:
36,192,26781,1,2,0:0:0:0:
256,192,26781,1,0,0:0:0:0:
475,192,26781,128,0,27011:0:0:0:0:
182,192,26896,1,0,0:0:0:0:
36,192,27011,1,0,0:0:0:0:
109,192,27011,1,0,0:0:0:0:
329,192,27011,1,0,0:0:0:0:
182,192,27127,1,0,0:0:0:0:
402,192,27127,1,0,0:0:0:0:
475,192,27127,1,0,0:0:0:0:
36,192,27242,1,2,0:0:0:0:
109,192,27242,1,0,0:0:0:0:
256,192,27242,128,0,27358:0:0:0:0:
329,192,27358,128,0,27473:0:0:0:0:
109,192,27473,1,0,0:0:0:0:
182,192,27473,1,0,0:0:0:0:
402,192,27473,128,0,27588:0:0:0:0:
475,192,27588,128,0,27704:0:0:0:0:
36,192,27704,128,2,28165:0:0:0:0:
256,192,27704,1,0,0:0:0:0:
329,192,27704,1,0,0:0:0:0:
109,192,27819,1,0,0:0:0:0:
182,192,27819,1,0,0:0:0:0:
329,192,27935,1,0,0:0:0:0:
402,192,27935,1,0,0:0:0:0:
475,192,27935,1,0,0:0:0:0:
329,192,28050,1,0,0:0:0:0:
402,192,28050,1,0,0:0:0:0:
475,192,28050,1,0,0:0:0:0:
109,192,28165,1,2,0:0:0:0:
256,192,28165,1,0,0:0:0:0:
182,192,28165,1,0,0:0:0:0:
402,192,28281,1,0,0:0:0:0:
329,192,28396,1,0,0:0:0:0:
36,192,28396,1,0,0:0:0:0:
109,192,28454,128,0,28511:0:0:0:0:
402,192,28454,128,0,28511:0:0:0:0:
182,192,28511,128,0,28569:0:0:0:0:
475,192,28511,128,0,28569:0:0:0:0:
36,192,28569,128,0,28627:0:0:0:0:
256,192,28569,128,0,28627:0:0:0:0:
109,192,28627,128,2,28742:0:0:0:0:
329,192,28627,128,0,28742:0:0:0:0:
475,192,28627,1,0,0:0:0:0:
402,192,28742,1,0,0:0:0:0:
182,192,28858,128,0,28973:0:0:0:0:
256,192,28858,1,0,0:0:0:0:
475,192,28858,128,0,28973:0:0:0:0:
36,192,28973,128,0,29088:0:0:0:0:
329,192,28973,128,0,29088:0:0:0:0:
402,192,28973,1,0,0:0:0:0:
182,192,29088,1,2,0:0:0:0:
256,192,29088,1,0,0:0:0:0:
475,192,29088,1,0,0:0:0:0:
109,192,29204,128,0,29319:0:0:0:0:
329,192,29204,128,0,29319:0:0:0:0:
36,192,29319,1,0,0:0:0:0:
182,192,29319,1,0,0:0:0:0:
475,192,29319,1,0,0:0:0:0:
256,192,29435,128,0,30473:0:0:0:0:
402,192,29435,128,0,29550:0:0:0:0:
36,192,29550,1,2,0:0:0:0:
109,192,29550,1,0,0:0:0:0:
329,192,29550,1,0,0:0:0:0:
182,192,29665,1,0,0:0:0:0:
36,192,29781,1,0,0:0:0:0:
402,192,29781,1,0,0:0:0:0:
475,192,29781,1,0,0:0:0:0:
109,192,29896,1,0,0:0:0:0:
182,192,29896,1,0,0:0:0:0:
329,192,29896,1,0,0:0:0:0:
36,192,30011,1,2,0:0:0:0:
402,192,30011,1,0,0:0:0:0:
475,192,30011,1,0,0:0:0:0:
329,192,30127,1,0,0:0:0:0:
36,192,30242,1,0,0:0:0:0:
109,192,30242,1,0,0:0:0:0:
402,192,30242,1,0,0:0:0:0:
475,192,30242,1,0,0:0:0:0:
182,192,30358,1,0,0:0:0:0:
36,192,30473,1,2,0:0:0:0:
329,192,30473,1,4,0:0:0:0:
475,192,30473,128,0,30704:0:0:0:0:
182,192,30588,1,0,0:0:0:0:
36,192,30704,128,0,30819:0:0:0:0:
109,192,30704,1,0,0:0:0:0:
329,192,30704,128,0,30819:0:0:0:0:
182,192,30819,128,0,30935:0:0:0:0:
256,192,30819,1,0,0:0:0:0:
402,192,30819,128,0,30935:0:0:0:0:
36,192,30935,1,2,0:0:0:0:
109,192,30935,1,0,0:0:0:0:
475,192,30935,1,0,0:0:0:0:
182,192,31050,128,0,31165:0:0:0:0:
329,192,31050,128,0,31165:0:0:0:0:
36,192,31165,1,0,0:0:0:0:
256,192,31165,1,0,0:0:0:0:
475,192,31165,1,0,0:0:0:0:
109,192,31281,128,0,31396:0:0:0:0:
182,192,31281,128,0,31396:0:0:0:0:
329,192,31396,1,2,0:0:0:0:
402,192,31396,1,0,0:0:0:0:
475,192,31396,1,0,0:0:0:0:
36,192,31511,128,0,31627:0:0:0:0:
256,192,31511,128,0,31627:0:0:0:0:
109,192,31627,1,0,0:0:0:0:
182,192,31627,1,0,0:0:0:0:
475,192,31627,1,0,0:0:0:0:
36,192,31742,1,2,0:0:0:0:
329,192,31742,128,0,31858:0:0:0:0:
402,192,31742,128,0,31858:0:0:0:0:
109,192,31858,1,0,0:0:0:0:
182,192,31858,1,0,0:0:0:0:
475,192,31858,1,0,0:0:0:0:
256,192,31973,128,0,32088:0:0:0:0:
329,192,31973,128,0,32088:0:0:0:0:
36,192,32088,1,2,0:0:0:0:
402,192,32088,1,0,0:0:0:0:
475,192,32088,1,0,0:0:0:0:
109,192,32204,128,0,32319:0:0:0:0:
182,192,32319,128,2,32435:0:0:0:0:
329,192,32319,128,0,32435:0:0:0:0:
475,192,32319,1,0,0:0:0:0:
36,192,32550,128,0,32665:0:0:0:0:
109,192,32550,128,0,32665:0:0:0:0:
256,192,32550,1,0,0:0:0:0:
182,192,32665,1,0,0:0:0:0:
402,192,32665,128,0,32781:0:0:0:0:
475,192,32665,128,0,32781:0:0:0:0:
36,192,32781,1,2,0:0:0:0:
109,192,32781,1,0,0:0:0:0:
256,192,32781,1,0,0:0:0:0:
182,192,32896,128,0,33011:0:0:0:0:
329,192,32896,128,0,33011:0:0:0:0:
109,192,33011,1,0,0:0:0:0:
402,192,33011,1,0,0:0:0:0:
475,192,33011,1,0,0:0:0:0:
256,192,33127,128,0,33704:0:0:0:0:
36,192,33242,1,2,0:0:0:0:
402,192,33242,1,0,0:0:0:0:
475,192,33242,1,0,0:0:0:0:
182,192,33358,1,0,0:0:0:0:
36,192,33473,1,0,0:0:0:0:
109,192,33473,1,0,0:0:0:0:
402,192,33473,1,0,0:0:0:0:
36,192,33588,1,2,0:0:0:0:
109,192,33588,1,0,0:0:0:0:
402,192,33588,1,0,0:0:0:0:
475,192,33704,1,0,0:0:0:0:
329,192,33819,1,0,0:0:0:0:
182,192,33877,1,0,0:0:0:0:
36,192,33935,1,2,0:0:0:0:
109,192,33935,1,0,0:0:0:0:
402,192,34011,1,0,0:0:0:0:
256,192,34088,1,0,0:0:0:0:
36,192,34165,128,2,34396:0:0:0:0:
402,192,34165,1,0,0:0:0:0:
475,192,34165,1,0,0:0:0:0:
256,192,34281,1,0,0:0:0:0:
182,192,34396,1,0,0:0:0:0:
329,192,34396,1,0,0:0:0:0:
475,192,34396,1,0,0:0:0:0:
36,192,34511,1,2,0:0:0:0:
109,192,34511,1,0,0:0:0:0:
402,192,34511,128,0,34627:0:0:0:0:
182,192,34627,1,0,0:0:0:0:
256,192,34627,128,0,34742:0:0:0:0:
475,192,34627,1,0,0:0:0:0:
109,192,34742,128,0,34858:0:0:0:0:
36,192,34858,1,2,0:0:0:0:
402,192,34858,128,0,34973:0:0:0:0:
475,192,34858,1,0,0:0:0:0:
256,192,34973,128,0,35088:0:0:0:0:
36,192,35088,1,2,0:0:0:0:
109,192,35088,128,0,35204:0:0:0:0:
329,192,35088,1,0,0:0:0:0:
475,192,35204,128,0,35319:0:0:0:0:
182,192,35319,1,0,0:0:0:0:
256,192,35319,128,0,35435:0:0:0:0:
329,192,35319,1,0,0:0:0:0:
36,192,35435,128,0,35550:0:0:0:0:
475,192,35435,1,0,0:0:0:0:
402,192,35550,128,0,35781:0:0:0:100:ChimeClap.wav
329,192,35665,128,0,35896:0:0:0:0:
182,192,35781,128,0,36011:0:0:0:0:
109,192,35896,128,0,36011:0:0:0:0:
36,192,36011,128,2,36127:0:0:0:0:
402,192,36011,128,0,36127:0:0:0:0:
475,192,36011,1,0,0:0:0:0:
256,192,36127,1,0,0:0:0:0:
109,192,36242,128,0,36358:0:0:0:0:
329,192,36242,128,0,36358:0:0:0:0:
36,192,36358,1,2,0:0:0:0:
256,192,36358,128,0,36473:0:0:0:0:
475,192,36358,128,0,36473:0:0:0:0:
109,192,36473,1,0,0:0:0:0:
182,192,36473,1,0,0:0:0:0:
402,192,36473,1,0,0:0:0:0:
36,192,36588,128,0,36704:0:0:0:0:
329,192,36588,128,0,36704:0:0:0:0:
109,192,36704,1,2,0:0:0:0:
182,192,36704,1,0,0:0:0:0:
475,192,36704,1,0,0:0:0:0:
256,192,36819,128,0,36935:0:0:0:0:
402,192,36819,128,0,36935:0:0:0:0:
475,192,36935,1,2,0:0:0:0:
36,192,36935,128,0,37050:0:0:0:0:
329,192,36935,1,0,0:0:0:0:
109,192,36992,128,0,37108:0:0:0:0:
256,192,37050,1,0,0:0:0:0:
182,192,37050,128,0,37165:0:0:0:0:
36,192,37165,1,2,0:0:0:0:
329,192,37165,128,0,37281:0:0:0:0:
475,192,37165,1,0,0:0:0:0:
109,192,37281,128,0,37396:0:0:0:0:
182,192,37281,1,0,0:0:0:0:
402,192,37281,1,0,0:0:0:0:
36,192,37396,1,0,0:0:0:0:
329,192,37396,128,0,37550:0:0:0:0:
475,192,37396,1,0,0:0:0:0:
256,192,37473,128,0,37588:0:0:0:0:
182,192,37511,128,0,37627:0:0:0:0:
36,192,37627,1,0,0:0:0:0:
109,192,37627,1,0,0:0:0:0:
329,192,37627,128,0,37858:0:0:0:0:
36,192,37858,128,2,38088:0:0:0:0:
109,192,37858,128,0,37973:0:0:0:0:
402,192,37858,128,0,37973:0:0:0:0:
475,192,37858,128,0,38088:0:0:0:0:
256,192,37973,128,0,38088:0:0:0:0:
182,192,38088,1,0,0:0:0:0:
329,192,38088,1,0,0:0:0:0:
329,192,38204,1,0,0:0:0:0:
36,192,38319,128,2,38550:0:0:0:0:
109,192,38319,128,0,38435:0:0:0:0:
402,192,38319,128,0,38435:0:0:0:0:
475,192,38319,128,0,38550:0:0:0:0:
256,192,38435,128,0,38550:0:0:0:0:
182,192,38550,1,0,0:0:0:0:
329,192,38550,1,0,0:0:0:0:
329,192,38665,1,0,0:0:0:0:
36,192,38781,128,2,39011:0:0:0:0:
109,192,38781,128,0,38896:0:0:0:0:
402,192,38781,128,0,38896:0:0:0:0:
475,192,38781,128,0,39011:0:0:0:0:
256,192,38896,128,0,39011:0:0:0:0:
182,192,39011,1,0,0:0:0:0:
329,192,39011,1,0,0:0:0:0:
182,192,39127,1,0,0:0:0:0:
36,192,39242,128,2,39473:0:0:0:0:
109,192,39242,128,0,39358:0:0:0:0:
402,192,39242,128,0,39358:0:0:0:0:
475,192,39242,128,0,39473:0:0:0:0:
256,192,39358,128,0,39473:0:0:0:0:
182,192,39473,1,0,0:0:0:0:
329,192,39473,1,0,0:0:0:0:
182,192,39588,1,0,0:0:0:0:
36,192,39704,128,2,39935:0:0:0:0:
109,192,39704,128,0,39819:0:0:0:0:
402,192,39704,128,0,39819:0:0:0:0:
475,192,39704,128,0,39935:0:0:0:0:
256,192,39819,128,0,39935:0:0:0:0:
182,192,39935,1,0,0:0:0:0:
329,192,39935,1,0,0:0:0:0:
329,192,40050,1,0,0:0:0:0:
36,192,40165,128,2,40396:0:0:0:0:
109,192,40165,128,0,40281:0:0:0:0:
402,192,40165,128,0,40281:0:0:0:0:
475,192,40165,128,0,40396:0:0:0:0:
256,192,40281,128,0,40396:0:0:0:0:
182,192,40396,1,0,0:0:0:0:
329,192,40396,1,0,0:0:0:0:
329,192,40511,1,0,0:0:0:0:
36,192,40627,128,0,40800:0:0:0:0:
109,192,40627,128,0,40685:0:0:0:0:
402,192,40627,128,0,40685:0:0:0:0:
475,192,40627,128,0,40800:0:0:0:0:
182,192,40685,128,0,40742:0:0:0:0:
329,192,40685,128,0,40742:0:0:0:0:
256,192,40742,128,0,40800:0:0:0:0:
109,192,40858,128,0,40973:0:0:0:0:
402,192,40973,128,0,41088:0:0:0:0:
182,192,41088,128,0,41319:0:0:0:0:
329,192,41165,128,0,41319:0:0:0:0:
402,192,41204,128,0,41319:0:0:0:0:
256,192,41319,128,0,41492:0:0:0:0:
36,192,41550,128,2,41665:0:0:0:0:
109,192,41550,128,0,41608:0:0:0:0:
402,192,41550,128,0,41608:0:0:0:0:
475,192,41550,128,0,41665:0:0:0:0:
256,192,41579,128,0,41665:0:0:0:0:
182,192,41665,1,0,0:0:0:0:
329,192,41665,1,0,0:0:0:0:
36,192,41781,128,2,41896:0:0:0:0:
109,192,41781,128,0,41838:0:0:0:0:
402,192,41781,128,0,41838:0:0:0:0:
475,192,41781,128,0,41896:0:0:0:0:
256,192,41810,128,0,41896:0:0:0:0:
182,192,41896,1,0,0:0:0:0:
329,192,41896,1,0,0:0:0:0:
36,192,42011,128,2,42127:0:0:0:0:
109,192,42011,128,0,42069:0:0:0:0:
402,192,42011,128,0,42069:0:0:0:0:
475,192,42011,128,0,42127:0:0:0:0:
256,192,42040,128,0,42127:0:0:0:0:
182,192,42127,1,0,0:0:0:0:
329,192,42127,1,0,0:0:0:0:
36,192,42242,128,2,42358:0:0:0:0:
109,192,42242,128,0,42300:0:0:0:0:
402,192,42242,128,0,42300:0:0:0:0:
475,192,42242,128,0,42358:0:0:0:0:
256,192,42271,128,0,42358:0:0:0:0:
182,192,42358,1,0,0:0:0:0:
329,192,42358,1,0,0:0:0:0:
329,192,42473,128,2,42531:0:0:0:0:
402,192,42473,128,0,42531:0:0:0:0:
475,192,42473,128,0,42531:0:0:0:0:
329,192,42588,128,2,42646:0:0:0:0:
402,192,42588,128,0,42646:0:0:0:0:
475,192,42588,128,0,42646:0:0:0:0:
329,192,42704,128,2,42761:0:0:0:0:
402,192,42704,128,0,42761:0:0:0:0:
475,192,42704,128,0,42761:0:0:0:0:
475,192,42819,128,2,42877:0:0:0:0:
402,192,42819,128,0,42877:0:0:0:0:
329,192,42819,128,0,42877:0:0:0:0:
36,192,42935,128,2,42992:0:0:0:0:
109,192,42935,128,0,42992:0:0:0:0:
182,192,42935,128,0,42992:0:0:0:0:
36,192,43050,128,2,43108:0:0:0:0:
109,192,43050,128,0,43108:0:0:0:0:
182,192,43050,128,0,43108:0:0:0:0:
182,192,43165,128,2,43223:0:0:0:0:
109,192,43165,128,0,43223:0:0:0:0:
36,192,43165,128,0,43223:0:0:0:0:
182,192,43281,128,2,43338:0:0:0:0:
109,192,43281,128,0,43338:0:0:0:0:
36,192,43281,128,0,43338:0:0:0:0:
36,192,43396,128,0,43742:0:0:0:0:
109,192,43396,1,0,0:0:0:0:
329,192,43396,1,0,0:0:0:0:
402,192,43396,1,0,0:0:0:0:
475,192,43396,128,0,43742:0:0:0:0:
256,192,43627,128,0,43858:0:0:0:0:
109,192,43858,128,0,44319:0:0:0:0:
182,192,43858,1,0,0:0:0:0:
329,192,43858,1,0,0:0:0:0:
402,192,43858,128,0,44319:0:0:0:0:
182,192,44088,1,0,0:0:0:0:
329,192,44088,128,0,44319:0:0:0:0:
36,192,44319,128,0,44781:0:0:0:0:
475,192,44319,128,0,44781:0:0:0:0:
182,192,44435,1,0,0:0:0:0:
329,192,44435,1,0,0:0:0:0:
109,192,44550,1,0,0:0:0:0:
256,192,44550,128,0,44781:0:0:0:0:
182,192,44665,1,0,0:0:0:0:
329,192,44665,1,0,0:0:0:0:
109,192,44781,128,0,44896:0:0:0:0:
402,192,44781,128,0,44896:0:0:0:0:
182,192,44810,128,0,44925:0:0:0:0:
329,192,44810,128,0,44925:0:0:0:0:
256,192,44838,128,0,44954:0:0:0:0:
36,192,45011,128,0,45127:0:0:0:0:
475,192,45011,128,0,45127:0:0:0:0:
182,192,45050,128,0,45242:0:0:0:0:
329,192,45050,128,0,45242:0:0:0:0:
36,192,45242,1,4,0:0:0:0:
109,192,45242,1,2,0:0:0:0:
256,192,45242,1,0,0:0:0:0:
402,192,45242,1,0,0:0:0:0:
475,192,45242,1,0,0:0:0:0:
402,192,45358,128,0,45588:0:0:0:0:
475,192,45358,128,0,45588:0:0:0:0:
36,192,45473,128,0,45588:0:0:0:0:
109,192,45473,128,0,45588:0:0:0:0:
36,192,45704,1,8,0:0:0:0:
109,192,45704,1,2,0:0:0:0:
256,192,45704,1,0,0:0:0:0:
402,192,45704,1,0,0:0:0:0:
475,192,45704,1,0,0:0:0:0:
36,192,45819,128,0,45992:0:0:0:0:
109,192,45819,128,0,45992:0:0:0:0:
402,192,45935,128,0,45992:0:0:0:0:
475,192,45935,128,0,45992:0:0:0:0:
182,192,46050,128,0,46165:0:0:0:0:
256,192,46088,128,0,46165:0:0:0:0:
329,192,46127,128,0,46165:0:0:0:0:
36,192,46165,1,2,0:0:0:0:
402,192,46165,1,0,0:0:0:0:
475,192,46165,1,0,0:0:0:0:
402,192,46281,1,0,0:0:0:0:
36,192,46396,128,0,46511:0:0:0:0:
109,192,46454,128,0,46569:0:0:0:0:
182,192,46511,128,0,46627:0:0:0:0:
256,192,46569,128,0,46627:0:0:0:0:
36,192,46627,1,8,0:0:0:0:
329,192,46627,1,2,0:0:0:0:
402,192,46627,1,0,0:0:0:0:
475,192,46627,1,0,0:0:0:0:
36,192,46742,1,0,0:0:0:0:
402,192,46858,128,0,46973:0:0:0:0:
329,192,46915,128,0,47031:0:0:0:0:
256,192,46973,128,0,47088:0:0:0:0:
182,192,47031,128,0,47088:0:0:0:0:
36,192,47088,1,2,0:0:0:0:
109,192,47088,1,0,0:0:0:0:
475,192,47088,1,0,0:0:0:0:
36,192,47204,128,0,47435:0:0:0:0:
109,192,47204,128,0,47435:0:0:0:0:
402,192,47319,128,0,47435:0:0:0:0:
475,192,47319,128,0,47435:0:0:0:0:
36,192,47550,1,8,0:0:0:0:
109,192,47550,1,2,0:0:0:0:
256,192,47550,1,0,0:0:0:0:
402,192,47550,1,0,0:0:0:0:
475,192,47550,1,0,0:0:0:0:
402,192,47665,128,0,47838:0:0:0:0:
475,192,47665,128,0,47838:0:0:0:0:
36,192,47781,128,0,47838:0:0:0:0:
109,192,47781,128,0,47838:0:0:0:0:
329,192,47896,128,0,48011:0:0:0:0:
256,192,47935,128,0,48011:0:0:0:0:
182,192,47973,128,0,48011:0:0:0:0:
36,192,48011,1,2,0:0:0:0:
109,192,48011,1,0,0:0:0:0:
475,192,48011,1,0,0:0:0:0:
109,192,48127,1,0,0:0:0:0:
475,192,48242,128,0,48358:0:0:0:0:
402,192,48300,128,0,48415:0:0:0:0:
329,192,48358,128,0,48473:0:0:0:0:
256,192,48415,128,0,48473:0:0:0:0:
36,192,48473,1,8,0:0:0:0:
109,192,48473,1,2,0:0:0:0:
182,192,48473,128,0,48531:0:0:0:0:
475,192,48473,128,0,48531:0:0:0:0:
402,192,48531,128,0,48588:0:0:0:0:
109,192,48588,128,0,48704:0:0:0:0:
329,192,48588,128,0,48704:0:0:0:0:
256,192,48704,128,0,48858:0:0:0:0:
329,192,48858,1,0,0:0:0:0:
36,192,48935,1,2,0:0:0:0:
109,192,48935,1,0,0:0:0:0:
182,192,48935,1,0,0:0:0:0:
402,192,48935,1,0,0:0:0:0:
475,192,48935,1,0,0:0:0:0:
402,192,49050,128,0,49281:0:0:0:0:
475,192,49050,128,0,49281:0:0:0:0:
36,192,49165,128,0,49281:0:0:0:0:
109,192,49165,128,0,49281:0:0:0:0:
36,192,49396,1,2,0:0:0:0:
109,192,49396,1,8,0:0:0:0:
256,192,49396,1,0,0:0:0:0:
402,192,49396,1,0,0:0:0:0:
475,192,49396,1,0,0:0:0:0:
109,192,49511,128,0,49685:0:0:0:0:
36,192,49511,128,0,49685:0:0:0:0:
402,192,49627,128,0,49685:0:0:0:0:
475,192,49627,128,0,49685:0:0:0:0:
182,192,49742,128,0,49858:0:0:0:0:
256,192,49781,128,0,49858:0:0:0:0:
329,192,49819,128,0,49858:0:0:0:0:
36,192,49858,1,2,0:0:0:0:
402,192,49858,1,0,0:0:0:0:
475,192,49858,1,0,0:0:0:0:
402,192,49973,1,0,0:0:0:0:
36,192,50088,128,0,50204:0:0:0:0:
109,192,50146,128,0,50261:0:0:0:0:
182,192,50204,128,0,50319:0:0:0:0:
256,192,50261,128,0,50319:0:0:0:0:
36,192,50319,1,2,0:0:0:0:
329,192,50319,1,8,0:0:0:0:
402,192,50319,1,0,0:0:0:0:
475,192,50319,1,0,0:0:0:0:
36,192,50435,1,0,0:0:0:0:
402,192,50550,128,0,50665:0:0:0:0:
329,192,50608,128,0,50723:0:0:0:0:
256,192,50665,128,0,50781:0:0:0:0:
182,192,50723,128,0,50781:0:0:0:0:
36,192,50781,128,2,51011:0:0:0:0:
109,192,50781,128,0,51011:0:0:0:0:
402,192,50781,1,0,0:0:0:0:
475,192,50781,1,0,0:0:0:0:
329,192,51011,1,0,0:0:0:0:
402,192,51011,1,0,0:0:0:0:
475,192,51011,1,0,0:0:0:0:
182,192,51127,1,0,0:0:0:0:
475,192,51127,1,0,0:0:0:0:
36,192,51242,1,8,0:0:0:0:
109,192,51242,1,2,0:0:0:0:
329,192,51242,1,0,0:0:0:0:
402,192,51242,1,0,0:0:0:0:
256,192,51358,1,0,0:0:0:0:
182,192,51473,1,0,0:0:0:0:
329,192,51473,1,0,0:0:0:0:
402,192,51531,128,0,51588:0:0:0:0:
109,192,51531,128,0,51588:0:0:0:0:
256,192,51588,128,0,51646:0:0:0:0:
475,192,51646,128,0,51704:0:0:0:0:
36,192,51646,128,0,51704:0:0:0:0:
109,192,51704,1,0,0:0:0:0:
182,192,51704,1,2,0:0:0:0:
402,192,51704,1,0,0:0:0:0:
329,192,51819,1,0,0:0:0:0:
256,192,51819,1,0,0:0:0:0:
109,192,51935,128,0,52050:0:0:0:0:
182,192,51935,128,0,52050:0:0:0:0:
329,192,52050,128,0,52165:0:0:0:0:
402,192,52050,128,0,52165:0:0:0:0:
36,192,52165,128,8,52338:0:0:0:0:
109,192,52165,128,2,52338:0:0:0:0:
182,192,52165,128,0,52338:0:0:0:0:
475,192,52165,128,0,52338:0:0:0:0:
36,192,52396,1,0,0:0:0:0:
109,192,52396,1,0,0:0:0:0:
182,192,52396,128,0,52511:0:0:0:0:
329,192,52396,128,0,52627:0:0:0:0:
256,192,52511,128,0,52627:0:0:0:0:
36,192,52627,1,2,0:0:0:0:
109,192,52627,1,4,0:0:0:0:
182,192,52627,1,0,0:0:0:0:
402,192,52627,1,0,0:0:0:0:
475,192,52627,1,0,0:0:0:0:
109,192,52742,128,0,52973:0:0:0:0:
182,192,52742,128,0,52973:0:0:0:0:
329,192,52858,128,0,52973:0:0:0:0:
402,192,52858,128,0,52973:0:0:0:0:
109,192,53088,1,2,0:0:0:0:
182,192,53088,1,8,0:0:0:0:
256,192,53088,1,0,0:0:0:0:
329,192,53088,1,0,0:0:0:0:
402,192,53088,1,0,0:0:0:0:
329,192,53204,128,0,53377:0:0:0:0:
402,192,53204,128,0,53377:0:0:0:0:
182,192,53319,128,0,53377:0:0:0:0:
256,192,53319,128,0,53377:0:0:0:0:
36,192,53435,128,0,53550:0:0:0:0:
109,192,53473,128,0,53550:0:0:0:0:
182,192,53511,128,0,53550:0:0:0:0:
329,192,53550,1,2,0:0:0:0:
402,192,53550,1,0,0:0:0:0:
475,192,53550,1,0,0:0:0:0:
329,192,53665,1,0,0:0:0:0:
256,192,53781,128,0,53896:0:0:0:0:
329,192,53838,128,0,53954:0:0:0:0:
402,192,53896,128,0,54011:0:0:0:0:
475,192,53954,128,0,54011:0:0:0:0:
36,192,54011,1,2,0:0:0:0:
109,192,54011,1,8,0:0:0:0:
182,192,54011,1,0,0:0:0:0:
256,192,54011,1,0,0:0:0:0:
182,192,54127,1,0,0:0:0:0:
256,192,54242,128,0,54358:0:0:0:0:
182,192,54300,128,0,54415:0:0:0:0:
109,192,54358,128,0,54473:0:0:0:0:
36,192,54415,128,0,54473:0:0:0:0:
329,192,54473,1,2,0:0:0:0:
402,192,54473,1,0,0:0:0:0:
475,192,54473,1,0,0:0:0:0:
329,192,54588,128,0,54819:0:0:0:0:
402,192,54588,128,0,54819:0:0:0:0:
109,192,54704,128,0,54819:0:0:0:0:
182,192,54704,128,0,54819:0:0:0:0:
109,192,54935,1,2,0:0:0:0:
182,192,54935,1,8,0:0:0:0:
256,192,54935,1,0,0:0:0:0:
329,192,54935,1,0,0:0:0:0:
402,192,54935,1,0,0:0:0:0:
109,192,55050,128,0,55223:0:0:0:0:
182,192,55050,128,0,55223:0:0:0:0:
256,192,55165,128,0,55223:0:0:0:0:
329,192,55165,128,0,55223:0:0:0:0:
475,192,55281,128,0,55396:0:0:0:0:
402,192,55319,128,0,55396:0:0:0:0:
329,192,55358,128,0,55396:0:0:0:0:
36,192,55396,1,2,0:0:0:0:
109,192,55396,1,0,0:0:0:0:
182,192,55396,1,0,0:0:0:0:
182,192,55511,1,0,0:0:0:0:
256,192,55627,128,0,55742:0:0:0:0:
182,192,55685,128,0,55800:0:0:0:0:
109,192,55742,128,0,55858:0:0:0:0:
36,192,55800,128,0,55858:0:0:0:0:
256,192,55858,1,2,0:0:0:0:
329,192,55858,1,8,0:0:0:0:
402,192,55858,128,0,55915:0:0:0:0:
475,192,55858,128,0,55915:0:0:0:0:
182,192,55915,128,0,55973:0:0:0:0:
36,192,55973,128,0,56088:0:0:0:0:
109,192,55973,128,0,56088:0:0:0:0:
256,192,56088,128,0,56242:0:0:0:0:
329,192,56242,1,0,0:0:0:0:
36,192,56319,1,2,0:0:0:0:
109,192,56319,1,0,0:0:0:0:
182,192,56319,1,0,0:0:0:0:
402,192,56319,1,0,0:0:0:0:
475,192,56319,1,0,0:0:0:0:
109,192,56435,128,0,56665:0:0:0:0:
182,192,56435,128,0,56665:0:0:0:0:
329,192,56550,128,0,56665:0:0:0:0:
402,192,56550,128,0,56665:0:0:0:0:
109,192,56781,1,8,0:0:0:0:
182,192,56781,1,2,0:0:0:0:
256,192,56781,1,0,0:0:0:0:
329,192,56781,1,0,0:0:0:0:
402,192,56781,1,0,0:0:0:0:
329,192,56896,128,0,57069:0:0:0:0:
402,192,56896,128,0,57069:0:0:0:0:
182,192,57011,128,0,57069:0:0:0:0:
256,192,57011,128,0,57069:0:0:0:0:
36,192,57127,128,0,57242:0:0:0:0:
109,192,57165,128,0,57242:0:0:0:0:
182,192,57204,128,0,57242:0:0:0:0:
329,192,57242,1,2,0:0:0:0:
402,192,57242,1,0,0:0:0:0:
475,192,57242,1,0,0:0:0:0:
329,192,57358,1,0,0:0:0:0:
256,192,57473,128,0,57588:0:0:0:0:
329,192,57531,128,0,57646:0:0:0:0:
402,192,57588,128,0,57704:0:0:0:0:
475,192,57646,128,0,57704:0:0:0:0:
36,192,57704,1,8,0:0:0:0:
109,192,57704,1,2,0:0:0:0:
182,192,57704,1,0,0:0:0:0:
256,192,57704,1,0,0:0:0:0:
182,192,57819,1,0,0:0:0:0:
256,192,57935,128,0,58050:0:0:0:0:
182,192,57992,128,0,58108:0:0:0:0:
109,192,58050,128,0,58165:0:0:0:0:
36,192,58108,128,0,58165:0:0:0:0:
256,192,58165,1,2,0:0:0:0:
329,192,58165,1,0,0:0:0:0:
402,192,58165,1,0,0:0:0:0:
475,192,58165,1,0,0:0:0:0:
182,192,58281,1,0,0:0:0:0:
109,192,58396,128,0,58454:0:0:0:0:
182,192,58454,128,0,58511:0:0:0:0:
256,192,58511,128,0,58627:0:0:0:0:
109,192,58627,1,0,0:0:0:0:
402,192,58627,1,0,0:0:0:0:
329,192,58742,1,0,0:0:0:0:
182,192,58800,1,0,0:0:0:0:
329,192,58858,1,0,0:0:0:0:
402,192,58858,1,0,0:0:0:0:
256,192,58973,128,0,59088:0:0:0:0:
182,192,59088,128,0,59204:0:0:0:0:
475,192,59088,1,0,0:0:0:0:
109,192,59204,1,0,0:0:0:0:
402,192,59204,1,0,0:0:0:0:
36,192,59319,1,0,0:0:0:0:
329,192,59319,128,0,59435:0:0:0:0:
475,192,59435,1,0,0:0:0:0:
182,192,59435,128,0,59550:0:0:0:0:
109,192,59550,1,0,0:0:0:0:
402,192,59550,128,0,59665:0:0:0:0:
36,192,59608,1,0,0:0:0:0:
329,192,59665,1,0,0:0:0:0:
475,192,59665,1,0,0:0:0:0:
36,192,59781,1,0,0:0:0:0:
182,192,59781,1,0,0:0:0:0:
256,192,59838,128,0,60011:0:0:0:0:
36,192,60011,1,4,0:0:0:0:
109,192,60011,1,2,0:0:0:0:
329,192,60011,1,0,0:0:0:0:
402,192,60011,1,0,0:0:0:0:
475,192,60011,1,0,0:0:0:0:
402,192,60127,128,0,60358:0:0:0:0:
475,192,60127,128,0,60358:0:0:0:0:
36,192,60242,128,0,60358:0:0:0:0:
109,192,60242,128,0,60358:0:0:0:0:
182,192,60242,1,0,0:0:0:0:
329,192,60358,1,0,0:0:0:0:
36,192,60473,1,8,0:0:0:0:
109,192,60473,1,2,0:0:0:0:
256,192,60473,1,0,0:0:0:0:
402,192,60473,1,0,0:0:0:0:
475,192,60473,1,0,0:0:0:0:
36,192,60588,128,0,60646:0:0:0:0:
109,192,60588,128,0,60646:0:0:0:0:
36,192,60704,128,0,60761:0:0:0:0:
109,192,60704,128,0,60761:0:0:0:0:
256,192,60704,1,0,0:0:0:0:
329,192,60819,128,0,60935:0:0:0:0:
475,192,60819,128,0,60935:0:0:0:0:
36,192,60935,1,2,0:0:0:0:
109,192,60935,1,0,0:0:0:0:
182,192,60935,1,0,0:0:0:0:
109,192,61050,128,0,61108:0:0:0:0:
182,192,61050,128,0,61108:0:0:0:0:
109,192,61165,128,0,61396:0:0:0:0:
182,192,61165,128,0,61396:0:0:0:0:
402,192,61165,1,0,0:0:0:0:
329,192,61281,1,0,0:0:0:0:
36,192,61396,1,8,0:0:0:0:
256,192,61396,1,2,0:0:0:0:
402,192,61396,1,0,0:0:0:0:
475,192,61396,1,0,0:0:0:0:
402,192,61511,128,0,61569:0:0:0:0:
475,192,61511,128,0,61569:0:0:0:0:
36,192,61627,1,0,0:0:0:0:
402,192,61627,128,0,61742:0:0:0:0:
475,192,61627,128,0,61742:0:0:0:0:
329,192,61685,128,0,61800:0:0:0:0:
256,192,61742,128,0,61858:0:0:0:0:
182,192,61800,128,0,61858:0:0:0:0:
36,192,61858,1,2,0:0:0:0:
109,192,61858,1,0,0:0:0:0:
402,192,61858,1,0,0:0:0:0:
475,192,61858,1,0,0:0:0:0:
402,192,61973,128,0,62204:0:0:0:0:
475,192,61973,128,0,62204:0:0:0:0:
36,192,62088,128,0,62204:0:0:0:0:
109,192,62088,128,0,62204:0:0:0:0:
182,192,62088,1,0,0:0:0:0:
329,192,62204,1,0,0:0:0:0:
36,192,62319,1,8,0:0:0:0:
109,192,62319,1,2,0:0:0:0:
256,192,62319,1,0,0:0:0:0:
402,192,62319,1,0,0:0:0:0:
475,192,62319,1,0,0:0:0:0:
36,192,62435,128,0,62492:0:0:0:0:
109,192,62435,128,0,62492:0:0:0:0:
36,192,62550,128,0,62608:0:0:0:0:
109,192,62550,128,0,62608:0:0:0:0:
256,192,62550,1,0,0:0:0:0:
402,192,62665,128,0,62781:0:0:0:0:
475,192,62665,128,0,62781:0:0:0:0:
36,192,62781,1,2,0:0:0:0:
109,192,62781,1,0,0:0:0:0:
182,192,62781,128,0,62838:0:0:0:0:
329,192,62781,128,0,62838:0:0:0:0:
256,192,62838,128,0,62896:0:0:0:0:
36,192,62896,128,0,63011:0:0:0:0:
109,192,62896,128,0,63011:0:0:0:0:
329,192,63011,1,0,0:0:0:0:
402,192,63011,128,0,63242:0:0:0:0:
475,192,63011,128,0,63242:0:0:0:0:
36,192,63127,1,0,0:0:0:0:
109,192,63127,1,0,0:0:0:0:
182,192,63185,1,0,0:0:0:0:
36,192,63242,128,8,63358:0:0:0:0:
256,192,63242,128,2,63358:0:0:0:0:
329,192,63242,1,0,0:0:0:0:
109,192,63358,128,0,63473:0:0:0:0:
402,192,63358,128,0,63473:0:0:0:0:
182,192,63473,128,0,63588:0:0:0:0:
475,192,63473,128,0,63588:0:0:0:0:
256,192,63588,128,0,63704:0:0:0:0:
36,192,63704,1,2,0:0:0:0:
109,192,63704,1,0,0:0:0:0:
329,192,63704,1,0,0:0:0:0:
402,192,63704,1,0,0:0:0:0:
475,192,63704,1,0,0:0:0:0:
402,192,63819,128,0,64050:0:0:0:0:
475,192,63819,128,0,64050:0:0:0:0:
36,192,63935,128,0,64050:0:0:0:0:
109,192,63935,128,0,64050:0:0:0:0:
182,192,63935,1,0,0:0:0:0:
329,192,64050,1,0,0:0:0:0:
36,192,64165,1,2,0:0:0:0:
109,192,64165,1,8,0:0:0:0:
256,192,64165,1,0,0:0:0:0:
402,192,64165,1,0,0:0:0:0:
475,192,64165,1,0,0:0:0:0:
36,192,64281,128,0,64338:0:0:0:0:
109,192,64281,128,0,64338:0:0:0:0:
36,192,64396,128,0,64454:0:0:0:0:
109,192,64396,128,0,64454:0:0:0:0:
256,192,64396,1,0,0:0:0:0:
329,192,64511,128,0,64627:0:0:0:0:
475,192,64511,128,0,64627:0:0:0:0:
36,192,64627,1,2,0:0:0:0:
109,192,64627,1,0,0:0:0:0:
182,192,64627,1,0,0:0:0:0:
109,192,64742,128,0,64800:0:0:0:0:
182,192,64742,128,0,64800:0:0:0:0:
109,192,64858,128,0,65088:0:0:0:0:
182,192,64858,128,0,65088:0:0:0:0:
402,192,64858,1,0,0:0:0:0:
329,192,64973,1,0,0:0:0:0:
36,192,65088,1,2,0:0:0:0:
256,192,65088,1,8,0:0:0:0:
402,192,65088,1,0,0:0:0:0:
475,192,65088,1,0,0:0:0:0:
402,192,65204,128,0,65261:0:0:0:0:
475,192,65204,128,0,65261:0:0:0:0:
36,192,65319,1,0,0:0:0:0:
402,192,65319,128,0,65435:0:0:0:0:
475,192,65319,128,0,65435:0:0:0:0:
329,192,65377,128,0,65492:0:0:0:0:
256,192,65435,128,0,65550:0:0:0:0:
182,192,65492,128,0,65550:0:0:0:0:
36,192,65550,128,2,65781:0:0:0:0:
109,192,65550,128,0,65781:0:0:0:0:
475,192,65550,1,0,0:0:0:0:
329,192,65781,1,0,0:0:0:0:
402,192,65781,1,0,0:0:0:0:
475,192,65781,1,0,0:0:0:0:
182,192,65896,1,0,0:0:0:0:
475,192,65896,1,0,0:0:0:0:
36,192,66011,1,8,0:0:0:0:
109,192,66011,1,2,0:0:0:0:
329,192,66011,1,0,0:0:0:0:
402,192,66011,1,0,0:0:0:0:
256,192,66127,1,0,0:0:0:0:
182,192,66242,1,0,0:0:0:0:
329,192,66242,1,0,0:0:0:0:
109,192,66300,128,0,66358:0:0:0:0:
402,192,66300,128,0,66358:0:0:0:0:
256,192,66358,128,0,66415:0:0:0:0:
36,192,66415,128,0,66473:0:0:0:0:
475,192,66415,128,0,66473:0:0:0:0:
402,192,66473,1,0,0:0:0:0:
329,192,66473,1,2,0:0:0:0:
109,192,66473,1,0,0:0:0:0:
256,192,66588,1,0,0:0:0:0:
182,192,66588,1,0,0:0:0:0:
109,192,66704,128,0,66819:0:0:0:0:
36,192,66704,128,0,66819:0:0:0:0:
329,192,66819,128,0,66935:0:0:0:0:
402,192,66819,128,0,66935:0:0:0:0:
36,192,66935,128,8,67108:0:0:0:0:
109,192,66935,128,2,67108:0:0:0:0:
182,192,66935,128,0,67108:0:0:0:0:
475,192,66935,128,0,67108:0:0:0:0:
36,192,67165,1,0,0:0:0:0:
109,192,67165,1,0,0:0:0:0:
182,192,67165,128,0,67281:0:0:0:0:
329,192,67165,128,0,67396:0:0:0:0:
256,192,67281,128,0,67396:0:0:0:0:
36,192,67396,1,2,0:0:0:0:
109,192,67396,1,4,0:0:0:0:
182,192,67396,1,0,0:0:0:0:
402,192,67396,1,0,0:0:0:0:
475,192,67396,1,0,0:0:0:0:
109,192,67511,128,0,67742:0:0:0:0:
182,192,67511,128,0,67742:0:0:0:0:
256,192,67627,1,0,0:0:0:0:
329,192,67627,128,0,67742:0:0:0:0:
402,192,67627,128,0,67742:0:0:0:0:
475,192,67742,1,0,0:0:0:0:
36,192,67858,1,2,0:0:0:0:
109,192,67858,1,8,0:0:0:0:
256,192,67858,1,0,0:0:0:0:
329,192,67858,1,0,0:0:0:0:
402,192,67858,1,0,0:0:0:0:
329,192,67973,128,0,68031:0:0:0:0:
402,192,67973,128,0,68031:0:0:0:0:
109,192,68088,1,0,0:0:0:0:
329,192,68088,128,0,68146:0:0:0:0:
402,192,68088,128,0,68146:0:0:0:0:
36,192,68204,128,0,68319:0:0:0:0:
182,192,68204,128,0,68319:0:0:0:0:
329,192,68319,1,2,0:0:0:0:
402,192,68319,1,0,0:0:0:0:
475,192,68319,1,0,0:0:0:0:
36,192,68435,128,0,68492:0:0:0:0:
182,192,68435,128,0,68492:0:0:0:0:
36,192,68550,128,0,68781:0:0:0:0:
182,192,68550,128,0,68781:0:0:0:0:
402,192,68550,1,0,0:0:0:0:
329,192,68665,1,0,0:0:0:0:
109,192,68781,1,2,0:0:0:0:
256,192,68781,1,8,0:0:0:0:
402,192,68781,1,0,0:0:0:0:
475,192,68781,1,0,0:0:0:0:
402,192,68896,128,0,68954:0:0:0:0:
475,192,68896,128,0,68954:0:0:0:0:
36,192,69011,1,0,0:0:0:0:
402,192,69011,128,0,69127:0:0:0:0:
475,192,69011,128,0,69127:0:0:0:0:
329,192,69069,128,0,69185:0:0:0:0:
256,192,69127,128,0,69242:0:0:0:0:
182,192,69185,128,0,69242:0:0:0:0:
36,192,69242,1,2,0:0:0:0:
109,192,69242,1,0,0:0:0:0:
402,192,69242,1,0,0:0:0:0:
475,192,69242,1,0,0:0:0:0:
109,192,69358,128,0,69588:0:0:0:0:
182,192,69358,128,0,69588:0:0:0:0:
329,192,69473,128,0,69588:0:0:0:0:
402,192,69473,128,0,69588:0:0:0:0:
256,192,69473,1,0,0:0:0:0:
475,192,69588,1,0,0:0:0:0:
36,192,69704,1,2,0:0:0:0:
109,192,69704,1,8,0:0:0:0:
256,192,69704,1,0,0:0:0:0:
329,192,69704,1,0,0:0:0:0:
402,192,69704,1,0,0:0:0:0:
329,192,69819,128,0,69877:0:0:0:0:
402,192,69819,128,0,69877:0:0:0:0:
109,192,69935,1,0,0:0:0:0:
329,192,69935,128,0,69992:0:0:0:0:
402,192,69935,128,0,69992:0:0:0:0:
36,192,70050,128,0,70165:0:0:0:0:
182,192,70050,128,0,70165:0:0:0:0:
329,192,70165,1,2,0:0:0:0:
402,192,70165,1,0,0:0:0:0:
475,192,70165,1,0,0:0:0:0:
36,192,70281,128,0,70338:0:0:0:0:
182,192,70281,128,0,70338:0:0:0:0:
36,192,70396,128,0,70627:0:0:0:0:
182,192,70396,128,0,70627:0:0:0:0:
402,192,70396,1,0,0:0:0:0:
329,192,70511,1,0,0:0:0:0:
109,192,70627,1,2,0:0:0:0:
256,192,70627,1,8,0:0:0:0:
402,192,70627,1,0,0:0:0:0:
475,192,70627,1,0,0:0:0:0:
402,192,70742,128,0,70800:0:0:0:0:
475,192,70742,128,0,70800:0:0:0:0:
36,192,70858,1,0,0:0:0:0:
402,192,70858,128,0,70973:0:0:0:0:
475,192,70858,128,0,70973:0:0:0:0:
329,192,70915,128,0,71031:0:0:0:0:
256,192,70973,128,0,71088:0:0:0:0:
182,192,71031,128,0,71088:0:0:0:0:
36,192,71088,1,2,0:0:0:0:
109,192,71088,1,0,0:0:0:0:
402,192,71088,1,0,0:0:0:0:
475,192,71088,1,0,0:0:0:0:
109,192,71204,128,0,71435:0:0:0:0:
182,192,71204,128,0,71435:0:0:0:0:
329,192,71319,128,0,71435:0:0:0:0:
402,192,71319,128,0,71435:0:0:0:0:
475,192,71435,1,0,0:0:0:0:
36,192,71550,1,8,0:0:0:0:
109,192,71550,1,2,0:0:0:0:
256,192,71550,1,0,0:0:0:0:
329,192,71550,1,0,0:0:0:0:
402,192,71550,1,0,0:0:0:0:
329,192,71665,128,0,71723:0:0:0:0:
402,192,71665,128,0,71723:0:0:0:0:
329,192,71781,128,0,71838:0:0:0:0:
402,192,71781,128,0,71838:0:0:0:0:
36,192,71896,128,0,72011:0:0:0:0:
182,192,71896,128,0,72011:0:0:0:0:
329,192,72011,1,2,0:0:0:0:
402,192,72011,1,0,0:0:0:0:
475,192,72011,1,0,0:0:0:0:
36,192,72127,128,0,72185:0:0:0:0:
182,192,72127,128,0,72185:0:0:0:0:
36,192,72242,128,0,72473:0:0:0:0:
182,192,72242,128,0,72473:0:0:0:0:
109,192,72473,1,8,0:0:0:0:
256,192,72473,1,2,0:0:0:0:
402,192,72473,1,0,0:0:0:0:
475,192,72473,1,0,0:0:0:0:
402,192,72588,128,0,72646:0:0:0:0:
475,192,72588,128,0,72646:0:0:0:0:
402,192,72704,128,0,72819:0:0:0:0:
475,192,72704,128,0,72819:0:0:0:0:
329,192,72761,128,0,72877:0:0:0:0:
256,192,72819,128,0,72935:0:0:0:0:
182,192,72877,128,0,72935:0:0:0:0:
36,192,72935,1,2,0:0:0:0:
109,192,72935,1,8,0:0:0:0:
329,192,72935,1,0,0:0:0:0:
402,192,72935,1,0,0:0:0:0:
475,192,72935,1,0,0:0:0:0:
182,192,73165,1,0,0:0:0:0:
329,192,73165,1,0,0:0:0:0:
36,192,73281,1,2,0:0:0:0:
109,192,73281,1,8,0:0:0:0:
329,192,73281,1,0,0:0:0:0:
402,192,73281,1,0,0:0:0:0:
475,192,73281,1,0,0:0:0:0:
182,192,73511,1,0,0:0:0:0:
329,192,73511,1,0,0:0:0:0:
36,192,73627,1,2,0:0:0:0:
109,192,73627,1,8,0:0:0:0:
329,192,73627,1,0,0:0:0:0:
402,192,73627,1,0,0:0:0:0:
475,192,73627,1,0,0:0:0:0:
36,192,73858,1,2,0:0:0:0:
109,192,73858,1,8,0:0:0:0:
329,192,73858,1,0,0:0:0:0:
402,192,73858,1,0,0:0:0:0:
475,192,73858,1,0,0:0:0:0:
182,192,73935,1,0,0:0:0:0:
329,192,74002,1,0,0:0:0:0:
182,192,74088,1,0,0:0:0:0:
36,192,74242,128,0,74588:0:0:0:0:
329,192,74242,128,0,74588:0:0:0:0:
109,192,74319,128,0,74588:0:0:0:100:ChimeClap.wav
402,192,74319,128,0,74588:0:0:0:0:
182,192,74358,128,0,74588:0:0:0:0:
475,192,74358,128,0,74588:0:0:0:0:
36,192,74781,1,2,0:0:0:0:
109,192,74781,128,4,74896:0:0:0:0:
402,192,74781,1,0,0:0:0:0:
475,192,74781,1,0,0:0:0:0:
182,192,74896,128,0,75011:0:0:0:0:
36,192,75011,1,0,0:0:0:0:
256,192,75011,1,0,0:0:0:0:
329,192,75011,128,0,75127:0:0:0:0:
402,192,75127,128,0,75242:0:0:0:0:
36,192,75242,1,2,0:0:0:0:
182,192,75242,1,0,0:0:0:0:
475,192,75242,128,0,75935:0:0:0:0:
256,192,75358,1,0,0:0:0:0:
109,192,75473,1,0,0:0:0:0:
329,192,75473,1,0,0:0:0:0:
402,192,75473,1,0,0:0:0:0:
182,192,75588,1,0,0:0:0:0:
36,192,75704,1,2,0:0:0:0:
109,192,75704,1,0,0:0:0:0:
329,192,75704,1,0,0:0:0:0:
256,192,75819,1,0,0:0:0:0:
36,192,75935,1,0,0:0:0:0:
109,192,75935,1,0,0:0:0:0:
329,192,75935,1,0,0:0:0:0:
36,192,76050,1,0,0:0:0:0:
109,192,76050,1,0,0:0:0:0:
329,192,76050,1,0,0:0:0:0:
182,192,76165,1,2,0:0:0:0:
402,192,76165,128,0,76281:0:0:0:0:
475,192,76165,1,0,0:0:0:0:
329,192,76281,128,0,76396:0:0:0:0:
182,192,76396,128,0,76511:0:0:0:0:
256,192,76396,1,0,0:0:0:0:
475,192,76396,1,0,0:0:0:0:
109,192,76511,128,0,76627:0:0:0:0:
36,192,76627,128,2,76742:0:0:0:0:
256,192,76627,1,0,0:0:0:0:
475,192,76627,1,0,0:0:0:0:
182,192,76742,1,0,0:0:0:0:
36,192,76858,1,0,0:0:0:0:
109,192,76858,1,0,0:0:0:0:
329,192,76858,128,0,76973:0:0:0:0:
182,192,76973,1,0,0:0:0:0:
402,192,76973,128,0,77088:0:0:0:0:
36,192,77088,1,2,0:0:0:0:
256,192,77088,1,0,0:0:0:0:
475,192,77088,1,0,0:0:0:0:
182,192,77204,128,0,77319:0:0:0:0:
109,192,77319,1,0,0:0:0:0:
256,192,77319,128,0,78242:0:0:0:0:
402,192,77319,1,0,0:0:0:0:
329,192,77435,1,0,0:0:0:0:
36,192,77550,1,2,0:0:0:0:
182,192,77550,1,0,0:0:0:0:
475,192,77550,1,0,0:0:0:0:
109,192,77665,1,0,0:0:0:0:
329,192,77781,1,0,0:0:0:0:
402,192,77781,1,0,0:0:0:0:
475,192,77781,1,0,0:0:0:0:
329,192,77896,1,0,0:0:0:0:
402,192,77896,1,0,0:0:0:0:
475,192,77896,1,0,0:0:0:0:
109,192,78011,1,2,0:0:0:0:
182,192,78011,1,0,0:0:0:0:
402,192,78098,1,0,0:0:0:0:
329,192,78127,1,0,0:0:0:0:
109,192,78242,128,0,78319:0:0:0:0:
402,192,78242,128,0,78319:0:0:0:0:
182,192,78319,128,0,78396:0:0:0:0:
329,192,78319,128,0,78396:0:0:0:0:
109,192,78396,128,0,78473:0:0:0:0:
402,192,78396,128,0,78473:0:0:0:0:
36,192,78473,128,2,78588:0:0:0:0:
256,192,78473,1,0,0:0:0:0:
475,192,78473,128,0,78588:0:0:0:0:
329,192,78588,1,0,0:0:0:0:
36,192,78704,1,0,0:0:0:0:
109,192,78704,128,0,78819:0:0:0:0:
182,192,78704,128,0,78819:0:0:0:0:
329,192,78819,128,0,78935:0:0:0:0:
402,192,78819,128,0,78935:0:0:0:0:
475,192,78819,1,0,0:0:0:0:
109,192,78935,1,2,0:0:0:0:
182,192,78935,1,0,0:0:0:0:
256,192,78935,1,0,0:0:0:0:
36,192,79050,128,0,79165:0:0:0:0:
475,192,79050,128,0,79165:0:0:0:0:
182,192,79165,1,0,0:0:0:0:
329,192,79165,1,0,0:0:0:0:
402,192,79165,1,0,0:0:0:0:
109,192,79281,128,0,79627:0:0:0:0:
256,192,79281,128,0,79627:0:0:0:0:
329,192,79396,1,2,0:0:0:0:
402,192,79396,1,0,0:0:0:0:
475,192,79396,1,0,0:0:0:0:
182,192,79511,1,0,0:0:0:0:
36,192,79627,128,0,79742:0:0:0:0:
329,192,79627,1,0,0:0:0:0:
475,192,79627,128,0,79742:0:0:0:0:
182,192,79742,1,0,0:0:0:0:
256,192,79742,1,0,0:0:0:0:
402,192,79742,1,0,0:0:0:0:
36,192,79858,1,2,0:0:0:0:
109,192,79858,1,0,0:0:0:0:
329,192,79858,1,0,0:0:0:0:
182,192,79973,1,0,0:0:0:0:
256,192,80011,1,0,0:0:0:0:
109,192,80088,128,0,80204:0:0:0:0:
402,192,80088,128,0,80204:0:0:0:0:
475,192,80088,1,0,0:0:0:0:
256,192,80204,1,0,0:0:0:0:
329,192,80261,1,0,0:0:0:0:
36,192,80319,128,2,80435:0:0:0:0:
182,192,80319,128,0,80435:0:0:0:0:
402,192,80319,1,0,0:0:0:0:
329,192,80435,1,0,0:0:0:0:
256,192,80550,1,0,0:0:0:0:
402,192,80550,128,0,80665:0:0:0:0:
475,192,80550,128,0,80665:0:0:0:0:
36,192,80665,128,0,80781:0:0:0:0:
109,192,80665,128,0,80781:0:0:0:0:
329,192,80665,1,0,0:0:0:0:
182,192,80781,1,2,0:0:0:0:
402,192,80781,1,0,0:0:0:0:
475,192,80781,1,0,0:0:0:0:
109,192,80896,128,0,81011:0:0:0:0:
329,192,80896,128,0,81011:0:0:0:0:
36,192,81011,1,0,0:0:0:0:
402,192,81011,1,0,0:0:0:0:
475,192,81011,1,0,0:0:0:0:
256,192,81127,128,0,81819:0:0:0:0:
36,192,81242,1,2,0:0:0:0:
109,192,81242,1,0,0:0:0:0:
402,192,81242,1,0,0:0:0:0:
329,192,81358,1,0,0:0:0:0:
109,192,81473,1,0,0:0:0:0:
402,192,81473,1,0,0:0:0:0:
475,192,81473,1,0,0:0:0:0:
109,192,81588,1,0,0:0:0:0:
402,192,81588,1,0,0:0:0:0:
475,192,81588,1,0,0:0:0:0:
182,192,81704,1,2,0:0:0:0:
329,192,81704,1,0,0:0:0:0:
402,192,81819,1,0,0:0:0:0:
329,192,81858,1,0,0:0:0:0:
109,192,81935,1,0,0:0:0:0:
182,192,81935,1,0,0:0:0:0:
475,192,81935,1,0,0:0:0:0:
256,192,82050,1,0,0:0:0:0:
36,192,82165,1,2,0:0:0:0:
329,192,82165,128,4,82281:0:0:0:0:
402,192,82165,128,0,82281:0:0:0:0:
256,192,82281,1,0,0:0:0:0:
36,192,82396,1,0,0:0:0:0:
109,192,82396,128,0,82511:0:0:0:0:
182,192,82396,128,0,82511:0:0:0:0:
256,192,82511,1,0,0:0:0:0:
402,192,82511,128,0,82627:0:0:0:0:
475,192,82511,128,0,82627:0:0:0:0:
36,192,82627,1,2,0:0:0:0:
109,192,82627,1,0,0:0:0:0:
182,192,82627,1,0,0:0:0:0:
256,192,82742,128,0,82858:0:0:0:0:
329,192,82742,128,0,82858:0:0:0:0:
182,192,82858,1,0,0:0:0:0:
402,192,82858,1,0,0:0:0:0:
475,192,82858,1,0,0:0:0:0:
36,192,82973,128,0,83088:0:0:0:0:
109,192,82973,128,0,83088:0:0:0:0:
256,192,83088,1,2,0:0:0:0:
402,192,83088,1,0,0:0:0:0:
475,192,83088,1,0,0:0:0:0:
36,192,83204,1,0,0:0:0:0:
182,192,83204,128,0,83319:0:0:0:0:
329,192,83204,128,0,83319:0:0:0:0:
109,192,83319,1,0,0:0:0:0:
256,192,83319,1,0,0:0:0:0:
402,192,83319,1,0,0:0:0:0:
36,192,83435,128,2,83492:0:0:0:0:
475,192,83435,128,0,83492:0:0:0:0:
109,192,83492,128,0,83550:0:0:0:0:
402,192,83492,128,0,83550:0:0:0:0:
182,192,83550,128,0,83665:0:0:0:0:
256,192,83550,1,0,0:0:0:0:
329,192,83550,128,0,83665:0:0:0:0:
402,192,83665,1,0,0:0:0:0:
36,192,83781,128,2,83896:0:0:0:0:
182,192,83781,1,0,0:0:0:0:
475,192,83781,128,0,83896:0:0:0:0:
256,192,83896,1,0,0:0:0:0:
109,192,84011,1,2,0:0:0:0:
329,192,84011,128,0,84127:0:0:0:0:
402,192,84011,128,0,84127:0:0:0:0:
256,192,84127,1,0,0:0:0:0:
36,192,84242,128,0,84358:0:0:0:0:
182,192,84242,128,0,84358:0:0:0:0:
329,192,84242,1,0,0:0:0:0:
109,192,84358,1,0,0:0:0:0:
402,192,84358,128,0,84473:0:0:0:0:
475,192,84358,128,0,84473:0:0:0:0:
182,192,84473,1,2,0:0:0:0:
256,192,84473,1,0,0:0:0:0:
329,192,84473,1,0,0:0:0:0:
36,192,84588,128,0,84704:0:0:0:0:
109,192,84588,128,0,84704:0:0:0:0:
256,192,84704,1,0,0:0:0:0:
402,192,84704,1,0,0:0:0:0:
475,192,84704,1,0,0:0:0:0:
329,192,84819,128,0,85050:0:0:0:0:
109,192,84935,1,2,0:0:0:0:
182,192,84935,1,0,0:0:0:0:
475,192,84935,1,0,0:0:0:0:
36,192,85050,128,0,85165:0:0:0:0:
256,192,85050,128,0,85165:0:0:0:0:
109,192,85165,128,0,85281:0:0:0:0:
329,192,85165,128,0,85281:0:0:0:0:
475,192,85165,1,0,0:0:0:0:
36,192,85281,1,2,0:0:0:0:
182,192,85281,128,0,85396:0:0:0:0:
402,192,85281,128,0,85396:0:0:0:0:
109,192,85396,128,0,85511:0:0:0:0:
256,192,85396,128,0,85742:0:0:0:0:
475,192,85396,1,0,0:0:0:0:
329,192,85511,1,0,0:0:0:0:
36,192,85627,1,2,0:0:0:0:
109,192,85627,1,0,0:0:0:0:
475,192,85627,1,0,0:0:0:0:
182,192,85742,1,0,0:0:0:0:
329,192,85742,1,0,0:0:0:0:
36,192,85858,1,2,0:0:0:0:
109,192,85858,128,0,85973:0:0:0:0:
402,192,85858,128,0,85973:0:0:0:0:
182,192,85973,1,0,0:0:0:0:
109,192,86088,1,0,0:0:0:0:
329,192,86088,128,0,86204:0:0:0:0:
475,192,86088,128,0,86204:0:0:0:0:
182,192,86204,1,2,0:0:0:0:
256,192,86204,128,0,86319:0:0:0:0:
402,192,86204,128,0,86319:0:0:0:0:
36,192,86319,1,0,0:0:0:0:
109,192,86319,1,0,0:0:0:0:
475,192,86319,1,0,0:0:0:0:
182,192,86435,128,0,86550:0:0:0:0:
329,192,86435,128,0,86550:0:0:0:0:
36,192,86550,1,2,0:0:0:0:
402,192,86550,1,0,0:0:0:0:
475,192,86550,1,0,0:0:0:0:
109,192,86665,128,0,86781:0:0:0:0:
256,192,86665,128,0,86781:0:0:0:0:
329,192,86781,1,2,0:0:0:0:
402,192,86781,1,0,0:0:0:0:
475,192,86781,1,0,0:0:0:0:
36,192,86896,128,0,87011:0:0:0:0:
182,192,86896,128,0,87011:0:0:0:0:
256,192,87011,1,0,0:0:0:0:
329,192,87011,1,0,0:0:0:0:
475,192,87011,1,0,0:0:0:0:
36,192,87127,1,0,0:0:0:0:
109,192,87127,128,0,87242:0:0:0:0:
402,192,87127,128,0,87242:0:0:0:0:
182,192,87242,1,0,0:0:0:100:ChimeClap.wav
475,192,87242,1,0,0:0:0:0:
329,192,87281,1,0,0:0:0:0:
109,192,87358,128,0,87588:0:0:0:0:
402,192,87358,128,0,87588:0:0:0:0:
182,192,87473,128,0,87704:0:0:0:0:
475,192,87473,128,0,87704:0:0:0:0:
36,192,87704,128,2,87819:0:0:0:0:
256,192,87704,1,0,0:0:0:0:
329,192,87704,128,0,87819:0:0:0:0:
109,192,87935,1,0,0:0:0:0:
182,192,87935,128,0,88050:0:0:0:0:
475,192,87935,128,0,88050:0:0:0:0:
36,192,88050,128,2,88165:0:0:0:0:
329,192,88050,128,0,88165:0:0:0:0:
402,192,88050,1,0,0:0:0:0:
109,192,88165,1,0,0:0:0:0:
256,192,88165,1,0,0:0:0:0:
475,192,88165,1,0,0:0:0:0:
182,192,88281,128,0,88396:0:0:0:0:
402,192,88281,128,0,88396:0:0:0:0:
109,192,88396,1,2,0:0:0:0:
329,192,88396,1,0,0:0:0:0:
475,192,88396,1,0,0:0:0:0:
36,192,88511,128,0,88627:0:0:0:0:
256,192,88511,128,0,88627:0:0:0:0:
109,192,88627,1,2,0:0:0:0:
402,192,88627,1,0,0:0:0:0:
475,192,88627,1,0,0:0:0:0:
182,192,88742,128,0,88858:0:0:0:0:
329,192,88742,128,0,88858:0:0:0:0:
36,192,88858,1,2,0:0:0:0:
256,192,88858,1,0,0:0:0:0:
475,192,88858,1,0,0:0:0:0:
109,192,88973,128,0,89088:0:0:0:0:
402,192,88973,128,0,89088:0:0:0:0:
182,192,89088,1,0,0:0:0:0:
329,192,89088,1,0,0:0:0:0:
36,192,89204,128,0,89319:0:0:0:0:
475,192,89204,128,0,89319:0:0:0:0:
109,192,89319,128,0,89435:0:0:0:0:
402,192,89319,128,0,89435:0:0:0:0:
256,192,89435,1,0,0:0:0:0:
36,192,89550,128,2,89781:0:0:0:0:
109,192,89550,128,0,89781:0:0:0:0:
402,192,89550,128,0,89665:0:0:0:0:
475,192,89550,128,0,89665:0:0:0:0:
329,192,89665,128,0,89781:0:0:0:0:
182,192,89781,1,0,0:0:0:0:
256,192,89781,1,0,0:0:0:0:
182,192,89896,1,0,0:0:0:0:
36,192,90011,128,2,90242:0:0:0:0:
109,192,90011,128,0,90242:0:0:0:0:
402,192,90011,128,0,90127:0:0:0:0:
475,192,90011,128,0,90127:0:0:0:0:
329,192,90127,128,0,90242:0:0:0:0:
182,192,90242,1,0,0:0:0:0:
256,192,90242,1,0,0:0:0:0:
182,192,90358,1,0,0:0:0:0:
36,192,90473,128,2,90588:0:0:0:0:
109,192,90473,128,0,90588:0:0:0:0:
402,192,90473,128,0,90704:0:0:0:0:
475,192,90473,128,0,90704:0:0:0:0:
182,192,90588,128,0,90704:0:0:0:0:
256,192,90704,1,0,0:0:0:0:
329,192,90704,1,0,0:0:0:0:
329,192,90819,1,0,0:0:0:0:
36,192,90935,128,2,91050:0:0:0:0:
109,192,90935,128,0,91050:0:0:0:0:
402,192,90935,128,0,91165:0:0:0:0:
475,192,90935,128,0,91165:0:0:0:0:
182,192,91050,128,0,91165:0:0:0:0:
256,192,91165,1,0,0:0:0:0:
329,192,91165,1,0,0:0:0:0:
329,192,91281,1,0,0:0:0:0:
36,192,91396,128,2,91627:0:0:0:0:
109,192,91396,128,0,91627:0:0:0:0:
402,192,91396,128,0,91511:0:0:0:0:
475,192,91396,128,0,91511:0:0:0:0:
329,192,91511,128,0,91627:0:0:0:0:
182,192,91627,1,0,0:0:0:0:
256,192,91627,1,0,0:0:0:0:
182,192,91742,1,0,0:0:0:0:
36,192,91858,128,2,92088:0:0:0:0:
109,192,91858,128,0,92088:0:0:0:0:
402,192,91858,128,0,91973:0:0:0:0:
475,192,91858,128,0,91973:0:0:0:0:
329,192,91973,128,0,92088:0:0:0:0:
182,192,92088,1,0,0:0:0:0:
256,192,92088,1,0,0:0:0:0:
182,192,92204,1,0,0:0:0:0:
36,192,92319,128,0,92492:0:0:0:0:
182,192,92319,128,0,92377:0:0:0:0:
329,192,92319,128,0,92377:0:0:0:0:
475,192,92319,128,0,92492:0:0:0:0:
109,192,92377,128,0,92435:0:0:0:0:
402,192,92377,128,0,92435:0:0:0:0:
256,192,92435,128,0,92492:0:0:0:0:
402,192,92550,128,0,92665:0:0:0:0:
109,192,92665,128,0,92781:0:0:0:0:
329,192,92781,128,0,93011:0:0:0:0:
182,192,92858,128,0,93011:0:0:0:0:
36,192,92896,128,0,93011:0:0:0:0:
256,192,93011,128,0,93185:0:0:0:0:
36,192,93242,128,2,93358:0:0:0:0:
109,192,93242,128,0,93300:0:0:0:0:
402,192,93242,128,0,93300:0:0:0:0:
475,192,93242,128,0,93358:0:0:0:0:
256,192,93271,128,0,93358:0:0:0:0:
182,192,93358,1,0,0:0:0:0:
329,192,93358,1,0,0:0:0:0:
36,192,93473,128,2,93588:0:0:0:0:
109,192,93473,128,0,93531:0:0:0:0:
402,192,93473,128,0,93531:0:0:0:0:
475,192,93473,128,0,93588:0:0:0:0:
256,192,93502,128,0,93588:0:0:0:0:
182,192,93588,1,0,0:0:0:0:
329,192,93588,1,0,0:0:0:0:
36,192,93704,128,2,93819:0:0:0:0:
109,192,93704,128,0,93761:0:0:0:0:
402,192,93704,128,0,93761:0:0:0:0:
475,192,93704,128,0,93819:0:0:0:0:
256,192,93733,128,0,93819:0:0:0:0:
182,192,93819,1,0,0:0:0:0:
329,192,93819,1,0,0:0:0:0:
36,192,93935,128,2,94050:0:0:0:0:
109,192,93935,128,0,93992:0:0:0:0:
402,192,93935,128,0,93992:0:0:0:0:
475,192,93935,128,0,94050:0:0:0:0:
256,192,93963,128,0,94050:0:0:0:0:
182,192,94050,1,0,0:0:0:0:
329,192,94050,1,0,0:0:0:0:
329,192,94165,128,2,94223:0:0:0:0:
402,192,94165,128,0,94223:0:0:0:0:
475,192,94165,128,0,94223:0:0:0:0:
329,192,94281,128,2,94338:0:0:0:0:
402,192,94281,128,0,94338:0:0:0:0:
475,192,94281,128,0,94338:0:0:0:0:
329,192,94396,128,2,94454:0:0:0:0:
402,192,94396,128,0,94454:0:0:0:0:
475,192,94396,128,0,94454:0:0:0:0:
475,192,94511,128,2,94569:0:0:0:0:
402,192,94511,128,0,94569:0:0:0:0:
329,192,94511,128,0,94569:0:0:0:0:
36,192,94627,128,2,94685:0:0:0:0:
109,192,94627,128,0,94685:0:0:0:0:
182,192,94627,128,0,94685:0:0:0:0:
36,192,94742,128,2,94800:0:0:0:0:
109,192,94742,128,0,94800:0:0:0:0:
182,192,94742,128,0,94800:0:0:0:0:
182,192,94858,128,2,94915:0:0:0:0:
109,192,94858,128,0,94915:0:0:0:0:
36,192,94858,128,0,94915:0:0:0:0:
182,192,94973,128,2,95031:0:0:0:0:
109,192,94973,128,0,95031:0:0:0:0:
36,192,94973,128,0,95031:0:0:0:0:
36,192,95088,128,0,95435:0:0:0:0:
109,192,95088,1,0,0:0:0:0:
329,192,95088,1,0,0:0:0:0:
402,192,95088,1,0,0:0:0:0:
475,192,95088,128,0,95435:0:0:0:0:
256,192,95319,128,0,95550:0:0:0:0:
109,192,95550,128,0,96011:0:0:0:0:
182,192,95550,1,0,0:0:0:0:
329,192,95550,1,0,0:0:0:0:
402,192,95550,128,0,96011:0:0:0:0:
182,192,95781,1,0,0:0:0:0:
329,192,95781,128,0,96011:0:0:0:0:
36,192,96011,128,0,96473:0:0:0:0:
475,192,96011,128,0,96473:0:0:0:0:
182,192,96127,1,0,0:0:0:0:
329,192,96127,1,0,0:0:0:0:
109,192,96242,1,0,0:0:0:0:
256,192,96242,128,0,96473:0:0:0:0:
182,192,96358,1,0,0:0:0:0:
329,192,96358,1,0,0:0:0:0:
109,192,96473,128,0,96588:0:0:0:0:
402,192,96473,128,0,96588:0:0:0:0:
182,192,96502,128,0,96617:0:0:0:0:
329,192,96502,128,0,96617:0:0:0:0:
256,192,96531,128,0,96646:0:0:0:0:
36,192,96704,128,0,96819:0:0:0:0:
475,192,96704,128,0,96819:0:0:0:0:
182,192,96742,128,0,96935:0:0:0:0:
329,192,96742,128,0,96935:0:0:0:0:
36,192,96935,1,4,0:0:0:0:
109,192,96935,1,2,0:0:0:0:
256,192,96935,1,0,0:0:0:0:
402,192,96935,1,0,0:0:0:0:
475,192,96935,1,0,0:0:0:0:
402,192,97050,128,0,97281:0:0:0:0:
475,192,97050,128,0,97281:0:0:0:0:
36,192,97165,128,0,97281:0:0:0:0:
109,192,97165,128,0,97281:0:0:0:0:
36,192,97396,1,8,0:0:0:0:
109,192,97396,1,2,0:0:0:0:
256,192,97396,1,0,0:0:0:0:
402,192,97396,1,0,0:0:0:0:
475,192,97396,1,0,0:0:0:0:
36,192,97511,128,0,97685:0:0:0:0:
109,192,97511,128,0,97685:0:0:0:0:
402,192,97627,128,0,97685:0:0:0:0:
475,192,97627,128,0,97685:0:0:0:0:
182,192,97742,128,0,97858:0:0:0:0:
256,192,97781,128,0,97858:0:0:0:0:
329,192,97819,128,0,97858:0:0:0:0:
36,192,97858,1,2,0:0:0:0:
402,192,97858,1,0,0:0:0:0:
475,192,97858,1,0,0:0:0:0:
402,192,97973,1,0,0:0:0:0:
36,192,98088,128,0,98204:0:0:0:0:
109,192,98146,128,0,98261:0:0:0:0:
182,192,98204,128,0,98319:0:0:0:0:
256,192,98261,128,0,98319:0:0:0:0:
36,192,98319,1,8,0:0:0:0:
329,192,98319,1,2,0:0:0:0:
402,192,98319,1,0,0:0:0:0:
475,192,98319,1,0,0:0:0:0:
36,192,98435,1,0,0:0:0:0:
402,192,98550,128,0,98665:0:0:0:0:
329,192,98608,128,0,98723:0:0:0:0:
256,192,98665,128,0,98781:0:0:0:0:
182,192,98723,128,0,98781:0:0:0:0:
36,192,98781,1,2,0:0:0:0:
109,192,98781,1,0,0:0:0:0:
475,192,98781,1,0,0:0:0:0:
36,192,98896,128,0,99127:0:0:0:0:
109,192,98896,128,0,99127:0:0:0:0:
402,192,99011,128,0,99127:0:0:0:0:
475,192,99011,128,0,99127:0:0:0:0:
36,192,99242,1,8,0:0:0:0:
109,192,99242,1,2,0:0:0:0:
256,192,99242,1,0,0:0:0:0:
402,192,99242,1,0,0:0:0:0:
475,192,99242,1,0,0:0:0:0:
402,192,99358,128,0,99531:0:0:0:0:
475,192,99358,128,0,99531:0:0:0:0:
36,192,99473,128,0,99531:0:0:0:0:
109,192,99473,128,0,99531:0:0:0:0:
329,192,99588,128,0,99704:0:0:0:0:
256,192,99627,128,0,99704:0:0:0:0:
182,192,99665,128,0,99704:0:0:0:0:
36,192,99704,1,2,0:0:0:0:
109,192,99704,1,0,0:0:0:0:
475,192,99704,1,0,0:0:0:0:
36,192,99819,1,0,0:0:0:0:
475,192,99935,128,0,100050:0:0:0:0:
402,192,99992,128,0,100108:0:0:0:0:
329,192,100050,128,0,100165:0:0:0:0:
256,192,100108,128,0,100165:0:0:0:0:
36,192,100165,1,8,0:0:0:0:
109,192,100165,1,2,0:0:0:0:
182,192,100165,128,0,100223:0:0:0:0:
475,192,100165,128,0,100223:0:0:0:0:
402,192,100223,128,0,100281:0:0:0:0:
109,192,100281,128,0,100396:0:0:0:0:
329,192,100281,128,0,100396:0:0:0:0:
256,192,100396,128,0,100550:0:0:0:0:
329,192,100550,1,0,0:0:0:0:
36,192,100627,1,2,0:0:0:0:
109,192,100627,1,0,0:0:0:0:
182,192,100627,1,0,0:0:0:0:
402,192,100627,1,0,0:0:0:0:
475,192,100627,1,0,0:0:0:0:
402,192,100742,128,0,100973:0:0:0:0:
475,192,100742,128,0,100973:0:0:0:0:
36,192,100858,128,0,100973:0:0:0:0:
109,192,100858,128,0,100973:0:0:0:0:
36,192,101088,1,2,0:0:0:0:
109,192,101088,1,8,0:0:0:0:
256,192,101088,1,0,0:0:0:0:
402,192,101088,1,0,0:0:0:0:
475,192,101088,1,0,0:0:0:0:
36,192,101204,128,0,101377:0:0:0:0:
109,192,101204,128,0,101377:0:0:0:0:
402,192,101319,128,0,101377:0:0:0:0:
475,192,101319,128,0,101377:0:0:0:0:
182,192,101435,128,0,101550:0:0:0:0:
256,192,101473,128,0,101550:0:0:0:0:
329,192,101511,128,0,101550:0:0:0:0:
36,192,101550,1,2,0:0:0:0:
402,192,101550,1,0,0:0:0:0:
475,192,101550,1,0,0:0:0:0:
402,192,101665,1,0,0:0:0:0:
36,192,101781,128,0,101896:0:0:0:0:
109,192,101838,128,0,101954:0:0:0:0:
182,192,101896,128,0,102011:0:0:0:0:
256,192,101954,128,0,102011:0:0:0:0:
36,192,102011,1,2,0:0:0:0:
329,192,102011,1,8,0:0:0:0:
402,192,102011,1,0,0:0:0:0:
475,192,102011,1,0,0:0:0:0:
36,192,102127,1,0,0:0:0:0:
402,192,102242,128,0,102358:0:0:0:0:
329,192,102300,128,0,102415:0:0:0:0:
256,192,102358,128,0,102473:0:0:0:0:
182,192,102415,128,0,102473:0:0:0:0:
36,192,102473,128,2,102704:0:0:0:0:
109,192,102473,128,0,102704:0:0:0:0:
402,192,102473,1,0,0:0:0:0:
475,192,102473,1,0,0:0:0:0:
329,192,102704,1,0,0:0:0:0:
402,192,102704,1,0,0:0:0:0:
475,192,102704,1,0,0:0:0:0:
182,192,102819,1,0,0:0:0:0:
475,192,102819,1,0,0:0:0:0:
36,192,102935,1,8,0:0:0:0:
109,192,102935,1,2,0:0:0:0:
329,192,102935,1,0,0:0:0:0:
402,192,102935,1,0,0:0:0:0:
256,192,103050,1,0,0:0:0:0:
182,192,103165,1,0,0:0:0:0:
329,192,103165,1,0,0:0:0:0:
109,192,103223,128,0,103281:0:0:0:0:
402,192,103223,128,0,103281:0:0:0:0:
256,192,103281,128,0,103338:0:0:0:0:
36,192,103338,128,0,103396:0:0:0:0:
475,192,103338,128,0,103396:0:0:0:0:
109,192,103396,1,0,0:0:0:0:
182,192,103396,1,0,0:0:0:0:
402,192,103396,1,2,0:0:0:0:
329,192,103511,1,0,0:0:0:0:
256,192,103511,1,0,0:0:0:0:
109,192,103627,128,0,103742:0:0:0:0:
182,192,103627,128,0,103742:0:0:0:0:
329,192,103742,128,0,103858:0:0:0:0:
402,192,103742,128,0,103858:0:0:0:0:
36,192,103858,128,8,104031:0:0:0:0:
109,192,103858,128,2,104031:0:0:0:0:
182,192,103858,128,0,104031:0:0:0:0:
475,192,103858,128,0,104031:0:0:0:0:
36,192,104088,1,0,0:0:0:0:
109,192,104088,1,0,0:0:0:0:
182,192,104088,128,0,104204:0:0:0:0:
329,192,104088,128,0,104319:0:0:0:0:
256,192,104204,128,0,104319:0:0:0:0:
36,192,104319,1,2,0:0:0:0:
109,192,104319,1,4,0:0:0:0:
182,192,104319,1,0,0:0:0:0:
402,192,104319,1,0,0:0:0:0:
475,192,104319,1,0,0:0:0:0:
109,192,104435,128,0,104665:0:0:0:0:
182,192,104435,128,0,104665:0:0:0:0:
329,192,104550,128,0,104665:0:0:0:0:
402,192,104550,128,0,104665:0:0:0:0:
109,192,104781,1,2,0:0:0:0:
182,192,104781,1,8,0:0:0:0:
256,192,104781,1,0,0:0:0:0:
329,192,104781,1,0,0:0:0:0:
402,192,104781,1,0,0:0:0:0:
329,192,104896,128,0,105069:0:0:0:0:
402,192,104896,128,0,105069:0:0:0:0:
36,192,105011,128,0,105069:0:0:0:0:
109,192,105011,128,0,105069:0:0:0:0:
256,192,105127,128,0,105242:0:0:0:0:
182,192,105165,128,0,105242:0:0:0:0:
109,192,105204,128,0,105242:0:0:0:0:
329,192,105242,1,2,0:0:0:0:
402,192,105242,1,0,0:0:0:0:
475,192,105242,1,0,0:0:0:0:
475,192,105358,1,0,0:0:0:0:
256,192,105473,128,0,105588:0:0:0:0:
329,192,105531,128,0,105646:0:0:0:0:
402,192,105588,128,0,105704:0:0:0:0:
475,192,105646,128,0,105704:0:0:0:0:
36,192,105704,1,2,0:0:0:0:
109,192,105704,1,8,0:0:0:0:
182,192,105704,1,0,0:0:0:0:
256,192,105704,1,0,0:0:0:0:
36,192,105819,1,0,0:0:0:0:
256,192,105935,128,0,106050:0:0:0:0:
182,192,105992,128,0,106108:0:0:0:0:
109,192,106050,128,0,106165:0:0:0:0:
36,192,106108,128,0,106165:0:0:0:0:
329,192,106165,1,2,0:0:0:0:
402,192,106165,1,0,0:0:0:0:
475,192,106165,1,0,0:0:0:0:
329,192,106281,128,0,106511:0:0:0:0:
402,192,106281,128,0,106511:0:0:0:0:
109,192,106396,128,0,106511:0:0:0:0:
182,192,106396,128,0,106511:0:0:0:0:
109,192,106627,1,2,0:0:0:0:
182,192,106627,1,8,0:0:0:0:
256,192,106627,1,0,0:0:0:0:
329,192,106627,1,0,0:0:0:0:
402,192,106627,1,0,0:0:0:0:
109,192,106742,128,0,106915:0:0:0:0:
182,192,106742,128,0,106915:0:0:0:0:
402,192,106858,128,0,106915:0:0:0:0:
475,192,106858,128,0,106915:0:0:0:0:
256,192,106973,128,0,107088:0:0:0:0:
329,192,107011,128,0,107088:0:0:0:0:
402,192,107050,128,0,107088:0:0:0:0:
36,192,107088,1,2,0:0:0:0:
109,192,107088,1,0,0:0:0:0:
182,192,107088,1,0,0:0:0:0:
36,192,107204,1,0,0:0:0:0:
256,192,107319,128,0,107435:0:0:0:0:
182,192,107377,128,0,107492:0:0:0:0:
109,192,107435,128,0,107550:0:0:0:0:
36,192,107492,128,0,107550:0:0:0:0:
256,192,107550,1,2,0:0:0:0:
329,192,107550,1,8,0:0:0:0:
402,192,107550,128,0,107608:0:0:0:0:
475,192,107550,128,0,107608:0:0:0:0:
182,192,107608,128,0,107665:0:0:0:0:
36,192,107665,128,0,107781:0:0:0:0:
109,192,107665,128,0,107781:0:0:0:0:
256,192,107781,128,0,107935:0:0:0:0:
329,192,107935,1,0,0:0:0:0:
36,192,108011,1,2,0:0:0:0:
109,192,108011,1,0,0:0:0:0:
182,192,108011,1,0,0:0:0:0:
402,192,108011,1,0,0:0:0:0:
475,192,108011,1,0,0:0:0:0:
109,192,108127,128,0,108358:0:0:0:0:
182,192,108127,128,0,108358:0:0:0:0:
329,192,108242,128,0,108358:0:0:0:0:
402,192,108242,128,0,108358:0:0:0:0:
109,192,108473,1,8,0:0:0:0:
182,192,108473,1,2,0:0:0:0:
256,192,108473,1,0,0:0:0:0:
329,192,108473,1,0,0:0:0:0:
402,192,108473,1,0,0:0:0:0:
329,192,108588,128,0,108761:0:0:0:0:
402,192,108588,128,0,108761:0:0:0:0:
36,192,108704,128,0,108761:0:0:0:0:
109,192,108704,128,0,108761:0:0:0:0:
256,192,108819,128,0,108935:0:0:0:0:
182,192,108858,128,0,108935:0:0:0:0:
109,192,108896,128,0,108935:0:0:0:0:
329,192,108935,1,2,0:0:0:0:
402,192,108935,1,0,0:0:0:0:
475,192,108935,1,0,0:0:0:0:
475,192,109050,1,0,0:0:0:0:
256,192,109165,128,0,109281:0:0:0:0:
329,192,109223,128,0,109338:0:0:0:0:
402,192,109281,128,0,109396:0:0:0:0:
475,192,109338,128,0,109396:0:0:0:0:
36,192,109396,1,8,0:0:0:0:
109,192,109396,1,2,0:0:0:0:
182,192,109396,1,0,0:0:0:0:
256,192,109396,1,0,0:0:0:0:
36,192,109511,1,0,0:0:0:0:
256,192,109627,128,0,109742:0:0:0:0:
182,192,109685,128,0,109800:0:0:0:0:
109,192,109742,128,0,109858:0:0:0:0:
36,192,109800,128,0,109858:0:0:0:0:
256,192,109858,1,2,0:0:0:0:
329,192,109858,1,0,0:0:0:0:
402,192,109858,1,0,0:0:0:0:
475,192,109858,1,0,0:0:0:0:
182,192,109973,1,0,0:0:0:0:
109,192,110088,128,0,110146:0:0:0:0:
182,192,110146,128,0,110204:0:0:0:0:
256,192,110204,128,0,110319:0:0:0:0:
109,192,110319,1,0,0:0:0:0:
402,192,110319,1,0,0:0:0:0:
329,192,110435,1,0,0:0:0:0:
182,192,110492,1,0,0:0:0:0:
329,192,110550,1,0,0:0:0:0:
402,192,110550,1,0,0:0:0:0:
256,192,110665,128,0,110781:0:0:0:0:
182,192,110781,128,0,110896:0:0:0:0:
475,192,110781,1,0,0:0:0:0:
109,192,110896,1,0,0:0:0:0:
402,192,110896,1,0,0:0:0:0:
36,192,111011,1,0,0:0:0:0:
329,192,111011,128,0,111127:0:0:0:0:
402,192,111127,1,0,0:0:0:0:
182,192,111127,128,0,111242:0:0:0:0:
109,192,111242,1,0,0:0:0:0:
256,192,111242,128,0,111358:0:0:0:0:
36,192,111300,1,0,0:0:0:0:
329,192,111358,1,0,0:0:0:0:
402,192,111358,1,0,0:0:0:0:
36,192,111473,1,0,0:0:0:0:
182,192,111473,1,0,0:0:0:0:
256,192,111531,128,0,111704:0:0:0:0:
36,192,111704,1,4,0:0:0:0:
109,192,111704,1,2,0:0:0:0:
329,192,111704,1,0,0:0:0:0:
402,192,111704,1,0,0:0:0:0:
475,192,111704,1,0,0:0:0:0:
402,192,111819,128,0,112050:0:0:0:0:
475,192,111819,128,0,112050:0:0:0:0:
36,192,111935,128,0,112050:0:0:0:0:
109,192,111935,128,0,112050:0:0:0:0:
182,192,111935,1,0,0:0:0:0:
329,192,112050,1,0,0:0:0:0:
36,192,112165,1,8,0:0:0:0:
109,192,112165,1,2,0:0:0:0:
256,192,112165,1,0,0:0:0:0:
402,192,112165,1,0,0:0:0:0:
475,192,112165,1,0,0:0:0:0:
36,192,112281,128,0,112338:0:0:0:0:
109,192,112281,128,0,112338:0:0:0:0:
36,192,112396,128,0,112454:0:0:0:0:
109,192,112396,128,0,112454:0:0:0:0:
256,192,112396,1,0,0:0:0:0:
329,192,112511,128,0,112627:0:0:0:0:
475,192,112511,128,0,112627:0:0:0:0:
36,192,112627,1,2,0:0:0:0:
109,192,112627,1,0,0:0:0:0:
182,192,112627,1,0,0:0:0:0:
109,192,112742,128,0,112800:0:0:0:0:
182,192,112742,128,0,112800:0:0:0:0:
109,192,112858,128,0,113088:0:0:0:0:
182,192,112858,128,0,113088:0:0:0:0:
402,192,112858,1,0,0:0:0:0:
329,192,112973,1,0,0:0:0:0:
36,192,113088,1,8,0:0:0:0:
256,192,113088,1,2,0:0:0:0:
402,192,113088,1,0,0:0:0:0:
475,192,113088,1,0,0:0:0:0:
402,192,113204,128,0,113261:0:0:0:0:
475,192,113204,128,0,113261:0:0:0:0:
36,192,113319,1,0,0:0:0:0:
402,192,113319,128,0,113435:0:0:0:0:
475,192,113319,128,0,113435:0:0:0:0:
329,192,113377,128,0,113492:0:0:0:0:
256,192,113435,128,0,113550:0:0:0:0:
182,192,113492,128,0,113550:0:0:0:0:
36,192,113550,1,2,0:0:0:0:
109,192,113550,1,0,0:0:0:0:
402,192,113550,1,0,0:0:0:0:
475,192,113550,1,0,0:0:0:0:
402,192,113665,128,0,113896:0:0:0:0:
475,192,113665,128,0,113896:0:0:0:0:
36,192,113781,128,0,113896:0:0:0:0:
109,192,113781,128,0,113896:0:0:0:0:
182,192,113781,1,0,0:0:0:0:
329,192,113896,1,0,0:0:0:0:
36,192,114011,1,8,0:0:0:0:
109,192,114011,1,2,0:0:0:0:
256,192,114011,1,0,0:0:0:0:
402,192,114011,1,0,0:0:0:0:
475,192,114011,1,0,0:0:0:0:
36,192,114127,128,0,114185:0:0:0:0:
109,192,114127,128,0,114185:0:0:0:0:
36,192,114242,128,0,114300:0:0:0:0:
109,192,114242,128,0,114300:0:0:0:0:
256,192,114242,1,0,0:0:0:0:
402,192,114358,128,0,114473:0:0:0:0:
475,192,114358,128,0,114473:0:0:0:0:
36,192,114473,1,2,0:0:0:0:
109,192,114473,1,0,0:0:0:0:
182,192,114473,128,0,114531:0:0:0:0:
329,192,114473,128,0,114531:0:0:0:0:
256,192,114531,128,0,114588:0:0:0:0:
36,192,114588,128,0,114704:0:0:0:0:
109,192,114588,128,0,114704:0:0:0:0:
329,192,114704,1,0,0:0:0:0:
402,192,114704,128,0,114935:0:0:0:0:
475,192,114704,128,0,114935:0:0:0:0:
36,192,114819,1,0,0:0:0:0:
109,192,114819,1,0,0:0:0:0:
182,192,114877,1,0,0:0:0:0:
36,192,114935,128,8,115050:0:0:0:0:
256,192,114935,128,2,115050:0:0:0:0:
329,192,114935,1,0,0:0:0:0:
109,192,115050,128,0,115165:0:0:0:0:
402,192,115050,128,0,115165:0:0:0:0:
182,192,115165,128,0,115281:0:0:0:0:
475,192,115165,128,0,115281:0:0:0:0:
256,192,115281,128,0,115396:0:0:0:0:
36,192,115396,1,2,0:0:0:0:
109,192,115396,1,0,0:0:0:0:
329,192,115396,1,0,0:0:0:0:
402,192,115396,1,0,0:0:0:0:
475,192,115396,1,0,0:0:0:0:
402,192,115511,128,0,115742:0:0:0:0:
475,192,115511,128,0,115742:0:0:0:0:
36,192,115627,128,0,115742:0:0:0:0:
109,192,115627,128,0,115742:0:0:0:0:
182,192,115627,1,0,0:0:0:0:
329,192,115742,1,0,0:0:0:0:
36,192,115858,1,2,0:0:0:0:
109,192,115858,1,8,0:0:0:0:
256,192,115858,1,0,0:0:0:0:
402,192,115858,1,0,0:0:0:0:
475,192,115858,1,0,0:0:0:0:
36,192,115973,128,0,116031:0:0:0:0:
109,192,115973,128,0,116031:0:0:0:0:
36,192,116088,128,0,116146:0:0:0:0:
109,192,116088,128,0,116146:0:0:0:0:
256,192,116088,1,0,0:0:0:0:
329,192,116204,128,0,116319:0:0:0:0:
475,192,116204,128,0,116319:0:0:0:0:
36,192,116319,1,2,0:0:0:0:
109,192,116319,1,0,0:0:0:0:
182,192,116319,1,0,0:0:0:0:
109,192,116435,128,0,116492:0:0:0:0:
182,192,116435,128,0,116492:0:0:0:0:
109,192,116550,128,0,116781:0:0:0:0:
182,192,116550,128,0,116781:0:0:0:0:
402,192,116550,1,0,0:0:0:0:
329,192,116665,1,0,0:0:0:0:
36,192,116781,1,2,0:0:0:0:
256,192,116781,1,8,0:0:0:0:
402,192,116781,1,0,0:0:0:0:
475,192,116781,1,0,0:0:0:0:
402,192,116896,128,0,116954:0:0:0:0:
475,192,116896,128,0,116954:0:0:0:0:
36,192,117011,1,0,0:0:0:0:
402,192,117011,128,0,117127:0:0:0:0:
475,192,117011,128,0,117127:0:0:0:0:
329,192,117069,128,0,117185:0:0:0:0:
256,192,117127,128,0,117242:0:0:0:0:
182,192,117185,128,0,117242:0:0:0:0:
36,192,117242,128,2,117473:0:0:0:0:
109,192,117242,128,0,117473:0:0:0:0:
475,192,117242,1,0,0:0:0:0:
329,192,117473,1,0,0:0:0:0:
402,192,117473,1,0,0:0:0:0:
475,192,117473,1,0,0:0:0:0:
182,192,117588,1,0,0:0:0:0:
475,192,117588,1,0,0:0:0:0:
36,192,117704,1,8,0:0:0:0:
109,192,117704,1,2,0:0:0:0:
329,192,117704,1,0,0:0:0:0:
402,192,117704,1,0,0:0:0:0:
256,192,117819,1,0,0:0:0:0:
182,192,117935,1,0,0:0:0:0:
329,192,117935,1,0,0:0:0:0:
109,192,117992,128,0,118050:0:0:0:0:
402,192,117992,128,0,118050:0:0:0:0:
256,192,118050,128,0,118108:0:0:0:0:
36,192,118108,128,0,118165:0:0:0:0:
475,192,118108,128,0,118165:0:0:0:0:
402,192,118165,1,0,0:0:0:0:
329,192,118165,1,2,0:0:0:0:
109,192,118165,1,0,0:0:0:0:
256,192,118281,1,0,0:0:0:0:
182,192,118281,1,0,0:0:0:0:
109,192,118396,128,0,118511:0:0:0:0:
36,192,118396,128,0,118511:0:0:0:0:
475,192,118511,128,0,118627:0:0:0:0:
402,192,118511,128,0,118627:0:0:0:0:
36,192,118627,128,8,118800:0:0:0:0:
109,192,118627,128,2,118800:0:0:0:0:
182,192,118627,128,0,118800:0:0:0:0:
329,192,118627,128,0,118800:0:0:0:0:
36,192,118858,1,0,0:0:0:0:
109,192,118858,1,0,0:0:0:0:
182,192,118858,128,0,118973:0:0:0:0:
329,192,118858,128,0,119088:0:0:0:0:
256,192,118973,128,0,119088:0:0:0:0:
36,192,119088,1,2,0:0:0:0:
109,192,119088,1,4,0:0:0:0:
182,192,119088,1,0,0:0:0:0:
402,192,119088,1,0,0:0:0:0:
475,192,119088,1,0,0:0:0:0:
109,192,119204,128,0,119435:0:0:0:0:
182,192,119204,128,0,119435:0:0:0:0:
329,192,119319,128,0,119435:0:0:0:0:
402,192,119319,128,0,119435:0:0:0:0:
256,192,119319,1,0,0:0:0:0:
475,192,119435,1,0,0:0:0:0:
36,192,119550,1,2,0:0:0:0:
109,192,119550,1,8,0:0:0:0:
256,192,119550,1,0,0:0:0:0:
329,192,119550,1,0,0:0:0:0:
402,192,119550,1,0,0:0:0:0:
329,192,119665,128,0,119723:0:0:0:0:
402,192,119665,128,0,119723:0:0:0:0:
109,192,119781,1,0,0:0:0:0:
329,192,119781,128,0,119838:0:0:0:0:
402,192,119781,128,0,119838:0:0:0:0:
36,192,119896,128,0,120011:0:0:0:0:
182,192,119896,128,0,120011:0:0:0:0:
329,192,120011,1,2,0:0:0:0:
402,192,120011,1,0,0:0:0:0:
475,192,120011,1,0,0:0:0:0:
36,192,120127,128,0,120185:0:0:0:0:
182,192,120127,128,0,120185:0:0:0:0:
36,192,120242,128,0,120473:0:0:0:0:
182,192,120242,128,0,120473:0:0:0:0:
402,192,120242,1,0,0:0:0:0:
329,192,120358,1,0,0:0:0:0:
109,192,120473,1,2,0:0:0:0:
256,192,120473,1,8,0:0:0:0:
402,192,120473,1,0,0:0:0:0:
475,192,120473,1,0,0:0:0:0:
109,192,120588,128,0,120646:0:0:0:0:
402,192,120588,128,0,120646:0:0:0:0:
36,192,120704,1,0,0:0:0:0:
182,192,120704,128,0,120819:0:0:0:0:
256,192,120704,128,0,120819:0:0:0:0:
329,192,120761,128,0,120877:0:0:0:0:
402,192,120819,128,0,120935:0:0:0:0:
475,192,120877,128,0,120935:0:0:0:0:
36,192,120935,1,2,0:0:0:0:
109,192,120935,1,0,0:0:0:0:
182,192,120935,1,0,0:0:0:0:
256,192,120935,1,0,0:0:0:0:
109,192,121050,128,0,121281:0:0:0:0:
182,192,121050,128,0,121281:0:0:0:0:
329,192,121165,128,0,121281:0:0:0:0:
402,192,121165,128,0,121281:0:0:0:0:
256,192,121165,1,0,0:0:0:0:
475,192,121281,1,0,0:0:0:0:
36,192,121396,1,2,0:0:0:0:
109,192,121396,1,8,0:0:0:0:
256,192,121396,1,0,0:0:0:0:
329,192,121396,1,0,0:0:0:0:
402,192,121396,1,0,0:0:0:0:
329,192,121511,128,0,121569:0:0:0:0:
402,192,121511,128,0,121569:0:0:0:0:
109,192,121627,1,0,0:0:0:0:
329,192,121627,128,0,121685:0:0:0:0:
402,192,121627,128,0,121685:0:0:0:0:
36,192,121742,128,0,121858:0:0:0:0:
182,192,121742,128,0,121858:0:0:0:0:
329,192,121858,1,2,0:0:0:0:
402,192,121858,1,0,0:0:0:0:
475,192,121858,1,0,0:0:0:0:
36,192,121973,128,0,122031:0:0:0:0:
182,192,121973,128,0,122031:0:0:0:0:
36,192,122088,128,0,122319:0:0:0:0:
182,192,122088,128,0,122319:0:0:0:0:
402,192,122088,1,0,0:0:0:0:
329,192,122204,1,0,0:0:0:0:
109,192,122319,1,2,0:0:0:0:
256,192,122319,1,8,0:0:0:0:
402,192,122319,1,0,0:0:0:0:
475,192,122319,1,0,0:0:0:0:
109,192,122435,128,0,122492:0:0:0:0:
402,192,122435,128,0,122492:0:0:0:0:
36,192,122550,1,0,0:0:0:0:
182,192,122550,128,0,122665:0:0:0:0:
256,192,122550,128,0,122665:0:0:0:0:
329,192,122608,128,0,122723:0:0:0:0:
402,192,122665,128,0,122781:0:0:0:0:
475,192,122723,128,0,122781:0:0:0:0:
36,192,122781,1,2,0:0:0:0:
109,192,122781,1,0,0:0:0:0:
182,192,122781,1,0,0:0:0:0:
256,192,122781,1,0,0:0:0:0:
109,192,122896,128,0,123127:0:0:0:0:
182,192,122896,128,0,123127:0:0:0:0:
329,192,123011,128,0,123127:0:0:0:0:
402,192,123011,128,0,123127:0:0:0:0:
475,192,123127,1,0,0:0:0:0:
36,192,123242,1,8,0:0:0:0:
109,192,123242,1,2,0:0:0:0:
256,192,123242,1,0,0:0:0:0:
329,192,123242,1,0,0:0:0:0:
402,192,123242,1,0,0:0:0:0:
329,192,123358,128,0,123415:0:0:0:0:
402,192,123358,128,0,123415:0:0:0:0:
329,192,123473,128,0,123531:0:0:0:0:
402,192,123473,128,0,123531:0:0:0:0:
36,192,123588,128,0,123704:0:0:0:0:
182,192,123588,128,0,123704:0:0:0:0:
329,192,123704,1,2,0:0:0:0:
402,192,123704,1,0,0:0:0:0:
475,192,123704,1,0,0:0:0:0:
36,192,123819,128,0,123877:0:0:0:0:
182,192,123819,128,0,123877:0:0:0:0:
36,192,123935,128,0,124165:0:0:0:0:
182,192,123935,128,0,124165:0:0:0:0:
109,192,124165,1,8,0:0:0:0:
256,192,124165,1,2,0:0:0:0:
402,192,124165,1,0,0:0:0:0:
475,192,124165,1,0,0:0:0:0:
109,192,124281,128,0,124338:0:0:0:0:
402,192,124281,128,0,124338:0:0:0:0:
182,192,124396,128,0,124511:0:0:0:0:
256,192,124396,128,0,124511:0:0:0:0:
329,192,124454,128,0,124569:0:0:0:0:
402,192,124511,128,0,124627:0:0:0:0:
475,192,124569,128,0,124627:0:0:0:0:
36,192,124627,1,2,0:0:0:0:
109,192,124627,1,8,0:0:0:0:
182,192,124627,1,0,0:0:0:0:
256,192,124627,1,0,0:0:0:0:
329,192,124627,1,0,0:0:0:0:
182,192,124858,1,0,0:0:0:0:
329,192,124858,1,0,0:0:0:0:
36,192,124973,1,2,0:0:0:0:
109,192,124973,1,8,0:0:0:0:
329,192,124973,1,0,0:0:0:0:
402,192,124973,1,0,0:0:0:0:
475,192,124973,1,0,0:0:0:0:
182,192,125204,1,0,0:0:0:0:
329,192,125204,1,0,0:0:0:0:
36,192,125319,1,2,0:0:0:0:
109,192,125319,1,8,0:0:0:0:
329,192,125319,1,0,0:0:0:0:
402,192,125319,1,0,0:0:0:0:
475,192,125319,1,0,0:0:0:0:
36,192,125550,1,2,0:0:0:0:
109,192,125550,1,8,0:0:0:0:
329,192,125550,1,0,0:0:0:0:
402,192,125550,1,0,0:0:0:0:
475,192,125550,1,0,0:0:0:0:
182,192,125627,1,0,0:0:0:0:
329,192,125694,1,0,0:0:0:0:
182,192,125781,1,0,0:0:0:0:
36,192,125935,128,0,126281:0:0:0:0:
329,192,125935,128,0,126281:0:0:0:0:
109,192,126011,128,0,126281:0:0:0:100:ChimeClap.wav
402,192,126011,128,0,126281:0:0:0:0:
182,192,126050,128,0,126281:0:0:0:0:
475,192,126050,128,0,126281:0:0:0:0:
36,192,126473,5,2,0:0:0:0:
182,192,126473,1,0,0:0:0:0:
256,192,126473,1,4,0:0:0:0:
475,192,126473,1,0,0:0:0:0:
329,192,126473,1,0,0:0:0:0:
402,192,126588,1,0,0:0:0:0:
109,192,126704,1,0,0:0:0:0:
329,192,126704,1,0,0:0:0:0:
36,192,126704,1,0,0:0:0:0:
182,192,126819,1,0,0:0:0:0:
475,192,126819,1,0,0:0:0:0:
36,192,126935,1,2,0:0:0:0:
109,192,126935,1,8,0:0:0:0:
329,192,126935,1,0,0:0:0:0:
402,192,126935,1,0,0:0:0:0:
182,192,127050,1,0,0:0:0:0:
256,192,127108,1,0,0:0:0:0:
36,192,127165,1,0,0:0:0:0:
329,192,127165,1,0,0:0:0:0:
475,192,127165,1,0,0:0:0:0:
402,192,127281,1,0,0:0:0:0:
36,192,127396,1,2,0:0:0:0:
109,192,127396,1,0,0:0:0:0:
329,192,127396,1,0,0:0:0:0:
256,192,127511,1,0,0:0:0:0:
182,192,127627,1,0,0:0:0:0:
402,192,127627,1,0,0:0:0:0:
36,192,127627,1,0,0:0:0:0:
329,192,127685,1,0,0:0:0:0:
256,192,127742,1,0,0:0:0:0:
475,192,127742,1,0,0:0:0:0:
36,192,127858,1,2,0:0:0:0:
109,192,127858,1,8,0:0:0:0:
182,192,127858,1,0,0:0:0:0:
402,192,127858,1,0,0:0:0:0:
256,192,127973,1,0,0:0:0:0:
329,192,128011,1,0,0:0:0:0:
109,192,128088,1,0,0:0:0:0:
402,192,128088,1,0,0:0:0:0:
475,192,128088,1,0,0:0:0:0:
182,192,128204,1,0,0:0:0:0:
475,192,128319,1,2,0:0:0:0:
256,192,128319,1,0,0:0:0:0:
36,192,128319,1,0,0:0:0:0:
182,192,128463,1,0,0:0:0:0:
329,192,128550,1,0,0:0:0:0:
109,192,128550,1,0,0:0:0:0:
36,192,128550,1,0,0:0:0:0:
402,192,128665,1,0,0:0:0:0:
182,192,128665,1,0,0:0:0:0:
475,192,128781,1,8,0:0:0:0:
329,192,128781,1,2,0:0:0:0:
109,192,128781,1,0,0:0:0:0:
36,192,128781,1,0,0:0:0:0:
256,192,128896,1,0,0:0:0:0:
402,192,129011,1,0,0:0:0:0:
182,192,129011,1,0,0:0:0:0:
109,192,129011,1,0,0:0:0:0:
329,192,129127,1,0,0:0:0:0:
475,192,129242,1,2,0:0:0:0:
402,192,129242,1,0,0:0:0:0:
109,192,129242,1,0,0:0:0:0:
182,192,129300,1,0,0:0:0:0:
256,192,129358,1,0,0:0:0:0:
36,192,129358,1,0,0:0:0:0:
402,192,129473,1,0,0:0:0:0:
109,192,129473,1,0,0:0:0:0:
475,192,129473,1,0,0:0:0:0:
329,192,129588,1,0,0:0:0:0:
182,192,129588,1,0,0:0:0:0:
475,192,129704,1,8,0:0:0:0:
256,192,129704,1,2,0:0:0:0:
109,192,129704,1,0,0:0:0:0:
36,192,129704,1,0,0:0:0:0:
402,192,129790,1,0,0:0:0:0:
329,192,129848,1,0,0:0:0:0:
256,192,129935,1,0,0:0:0:0:
109,192,129935,1,0,0:0:0:0:
36,192,129935,1,0,0:0:0:0:
475,192,130050,1,0,0:0:0:0:
402,192,130108,1,0,0:0:0:0:
329,192,130165,1,2,0:0:0:0:
182,192,130165,1,0,0:0:0:0:
109,192,130165,1,0,0:0:0:0:
36,192,130165,1,0,0:0:0:0:
475,192,130223,1,0,0:0:0:0:
256,192,130281,1,0,0:0:0:0:
402,192,130396,1,0,0:0:0:0:
182,192,130396,1,0,0:0:0:0:
475,192,130396,1,0,0:0:0:0:
329,192,130511,1,0,0:0:0:0:
36,192,130511,1,0,0:0:0:0:
475,192,130627,1,2,0:0:0:0:
402,192,130627,1,8,0:0:0:0:
182,192,130627,1,0,0:0:0:0:
109,192,130627,1,0,0:0:0:0:
256,192,130742,1,0,0:0:0:0:
402,192,130858,1,0,0:0:0:0:
182,192,130858,1,0,0:0:0:0:
109,192,130858,1,0,0:0:0:0:
256,192,130915,1,0,0:0:0:0:
329,192,130973,1,0,0:0:0:0:
402,192,131088,1,2,0:0:0:0:
256,192,131088,1,0,0:0:0:0:
109,192,131088,1,0,0:0:0:0:
182,192,131204,1,0,0:0:0:0:
402,192,131319,1,0,0:0:0:0:
329,192,131319,1,0,0:0:0:0:
475,192,131319,1,0,0:0:0:0:
109,192,131435,1,0,0:0:0:0:
36,192,131435,1,0,0:0:0:0:
475,192,131550,1,2,0:0:0:0:
402,192,131550,1,8,0:0:0:0:
329,192,131550,1,0,0:0:0:0:
182,192,131550,1,0,0:0:0:0:
256,192,131636,1,0,0:0:0:0:
182,192,131694,1,0,0:0:0:0:
475,192,131781,1,0,0:0:0:0:
402,192,131781,1,0,0:0:0:0:
36,192,131781,1,0,0:0:0:0:
329,192,131896,1,0,0:0:0:0:
256,192,131954,1,0,0:0:0:0:
475,192,132011,1,2,0:0:0:0:
182,192,132011,1,0,0:0:0:0:
36,192,132011,1,0,0:0:0:0:
109,192,132156,1,0,0:0:0:0:
329,192,132242,1,0,0:0:0:0:
402,192,132242,1,0,0:0:0:0:
475,192,132242,1,0,0:0:0:0:
256,192,132300,1,0,0:0:0:0:
109,192,132358,1,0,0:0:0:0:
182,192,132358,1,0,0:0:0:0:
36,192,132415,1,0,0:0:0:0:
256,192,132473,1,8,0:0:0:0:
329,192,132473,1,2,0:0:0:0:
402,192,132473,1,0,0:0:0:0:
475,192,132473,1,0,0:0:0:0:
109,192,132588,1,0,0:0:0:0:
182,192,132704,1,0,0:0:0:0:
402,192,132704,1,0,0:0:0:0:
475,192,132704,1,0,0:0:0:0:
36,192,132819,1,0,0:0:0:0:
109,192,132935,1,2,0:0:0:0:
182,192,132935,1,0,0:0:0:0:
256,192,132935,1,0,0:0:0:0:
329,192,133050,1,0,0:0:0:0:
475,192,133050,1,0,0:0:0:0:
109,192,133165,1,0,0:0:0:0:
182,192,133165,1,0,0:0:0:0:
36,192,133165,1,0,0:0:0:0:
256,192,133281,1,0,0:0:0:0:
402,192,133281,1,0,0:0:0:0:
329,192,133338,1,0,0:0:0:0:
36,192,133396,128,8,133858:0:0:0:0:
109,192,133396,1,2,0:0:0:0:
182,192,133396,1,0,0:0:0:100:ChimeClap.wav
475,192,133396,128,0,133858:0:0:0:0:
256,192,133511,1,0,0:0:0:0:
182,192,133627,1,0,0:0:0:0:
329,192,133627,1,0,0:0:0:0:
109,192,133742,1,0,0:0:0:0:
402,192,133742,1,0,0:0:0:0:
182,192,133858,1,2,0:0:0:0:
256,192,133858,1,0,0:0:0:0:
329,192,133858,1,0,0:0:0:0:
402,192,133973,1,0,0:0:0:0:
109,192,134088,1,0,0:0:0:0:
182,192,134088,1,0,0:0:0:0:
36,192,134088,1,0,0:0:0:0:
402,192,134204,1,0,0:0:0:0:
475,192,134204,1,0,0:0:0:0:
36,192,134319,1,8,0:0:0:0:
109,192,134319,1,2,0:0:0:0:
256,192,134319,1,0,0:0:0:0:
329,192,134319,1,0,0:0:0:0:
182,192,134435,1,0,0:0:0:0:
256,192,134492,1,0,0:0:0:0:
109,192,134550,1,0,0:0:0:0:
329,192,134550,1,0,0:0:0:0:
402,192,134550,1,0,0:0:0:0:
182,192,134665,1,0,0:0:0:0:
36,192,134781,1,2,0:0:0:0:
402,192,134781,1,0,0:0:0:0:
475,192,134781,1,0,0:0:0:0:
256,192,134896,1,0,0:0:0:0:
109,192,135011,1,0,0:0:0:0:
329,192,135011,1,0,0:0:0:0:
182,192,135011,1,0,0:0:0:0:
402,192,135069,1,0,0:0:0:0:
36,192,135127,1,0,0:0:0:0:
475,192,135127,1,0,0:0:0:0:
109,192,135242,1,8,0:0:0:0:
182,192,135242,1,2,0:0:0:0:
256,192,135242,1,0,0:0:0:0:
329,192,135242,1,0,0:0:0:0:
402,192,135358,1,0,0:0:0:0:
109,192,135473,1,0,0:0:0:0:
36,192,135473,1,0,0:0:0:0:
475,192,135473,1,0,0:0:0:0:
256,192,135588,1,0,0:0:0:0:
182,192,135704,1,2,0:0:0:0:
402,192,135704,1,0,0:0:0:0:
475,192,135704,1,0,0:0:0:0:
109,192,135819,1,0,0:0:0:0:
329,192,135935,1,0,0:0:0:0:
402,192,135935,1,0,0:0:0:0:
182,192,135935,1,0,0:0:0:0:
36,192,136050,1,0,0:0:0:0:
256,192,136050,1,0,0:0:0:0:
109,192,136165,1,2,0:0:0:0:
182,192,136165,1,8,0:0:0:0:
402,192,136165,1,0,0:0:0:0:
475,192,136165,1,0,0:0:0:0:
329,192,136281,1,0,0:0:0:0:
36,192,136396,1,0,0:0:0:0:
256,192,136396,1,0,0:0:0:0:
475,192,136396,1,0,0:0:0:0:
182,192,136511,1,0,0:0:0:0:
109,192,136627,1,2,0:0:0:0:
402,192,136627,1,0,0:0:0:0:
475,192,136627,1,0,0:0:0:0:
182,192,136685,1,0,0:0:0:0:
36,192,136742,1,0,0:0:0:0:
256,192,136742,1,0,0:0:0:0:
182,192,136858,1,0,0:0:0:0:
329,192,136858,1,0,0:0:0:0:
475,192,136858,1,0,0:0:0:0:
109,192,136973,1,0,0:0:0:0:
402,192,136973,1,0,0:0:0:0:
36,192,137088,1,2,0:0:0:0:
256,192,137088,1,8,0:0:0:0:
329,192,137088,1,0,0:0:0:0:
475,192,137088,1,0,0:0:0:0:
182,192,137204,1,0,0:0:0:0:
109,192,137319,1,0,0:0:0:0:
402,192,137319,1,0,0:0:0:0:
475,192,137319,1,0,0:0:0:0:
256,192,137435,1,0,0:0:0:0:
182,192,137492,1,0,0:0:0:0:
36,192,137550,128,2,137781:0:0:0:0:
329,192,137550,1,0,0:0:0:0:
475,192,137550,1,0,0:0:0:0:
109,192,137665,128,0,137896:0:0:0:0:
182,192,137781,128,0,138011:0:0:0:0:
402,192,137781,1,0,0:0:0:0:
36,192,137896,128,0,138127:0:0:0:0:
329,192,137896,1,0,0:0:0:0:
109,192,138011,128,8,138242:0:0:0:0:
256,192,138011,1,2,0:0:0:0:
402,192,138011,1,0,0:0:0:0:
475,192,138011,1,0,0:0:0:0:
182,192,138127,128,0,138358:0:0:0:0:
36,192,138242,128,0,138473:0:0:0:0:
402,192,138242,1,0,0:0:0:0:
109,192,138358,128,0,138473:0:0:0:0:
329,192,138358,1,0,0:0:0:0:
182,192,138473,1,2,0:0:0:0:
475,192,138473,128,0,138704:0:0:0:0:
256,192,138473,1,0,0:0:0:0:
109,192,138588,1,0,0:0:0:0:
402,192,138588,128,0,138819:0:0:0:0:
256,192,138704,1,0,0:0:0:0:
329,192,138704,128,0,138935:0:0:0:0:
109,192,138819,1,0,0:0:0:0:
475,192,138819,128,0,139050:0:0:0:0:
36,192,138935,1,8,0:0:0:0:
182,192,138935,1,2,0:0:0:0:
256,192,138935,1,0,0:0:0:0:
402,192,138935,128,0,139165:0:0:0:0:
329,192,139050,128,0,139281:0:0:0:0:
36,192,139165,1,0,0:0:0:0:
109,192,139165,1,0,0:0:0:0:
475,192,139165,128,0,139396:0:0:0:0:
402,192,139281,128,0,139396:0:0:0:0:
36,192,139396,1,2,0:0:0:0:
109,192,139396,1,0,0:0:0:0:
182,192,139396,1,0,0:0:0:0:
256,192,139454,1,0,0:0:0:0:
329,192,139511,1,0,0:0:0:0:
402,192,139569,1,0,0:0:0:0:
109,192,139627,1,0,0:0:0:0:
475,192,139627,1,0,0:0:0:0:
182,192,139685,1,0,0:0:0:0:
256,192,139742,1,0,0:0:0:0:
329,192,139742,1,0,0:0:0:0:
402,192,139800,1,0,0:0:0:0:
36,192,139858,1,2,0:0:0:0:
109,192,139858,1,8,0:0:0:0:
475,192,139858,1,0,0:0:0:0:
182,192,139915,1,0,0:0:0:0:
256,192,139973,1,0,0:0:0:0:
329,192,140031,1,0,0:0:0:0:
36,192,140088,1,0,0:0:0:0:
402,192,140088,1,0,0:0:0:0:
475,192,140088,1,0,0:0:0:0:
109,192,140146,1,0,0:0:0:0:
182,192,140204,1,0,0:0:0:0:
256,192,140261,1,0,0:0:0:0:
36,192,140319,1,2,0:0:0:0:
329,192,140319,1,0,0:0:0:0:
402,192,140319,1,0,0:0:0:0:
109,192,140377,1,0,0:0:0:0:
182,192,140435,1,0,0:0:0:0:
256,192,140435,1,0,0:0:0:0:
329,192,140492,1,0,0:0:0:0:
402,192,140550,1,0,0:0:0:0:
475,192,140550,1,0,0:0:0:0:
36,192,140608,1,0,0:0:0:0:
109,192,140665,1,0,0:0:0:0:
182,192,140665,1,0,0:0:0:0:
256,192,140723,1,0,0:0:0:0:
475,192,140781,1,0,0:0:0:0:
402,192,140781,1,0,0:0:0:0:
329,192,140781,1,0,0:0:0:70:Cymatics - House Clap 2.wav
36,192,141011,1,8,0:0:0:0:
109,192,141011,1,0,0:0:0:0:
182,192,141011,1,0,0:0:0:0:
36,192,141127,1,0,0:0:0:70:Cymatics - House Clap 2.wav
109,192,141127,1,0,0:0:0:0:
475,192,141127,1,0,0:0:0:0:
