osu file format v14

[General]
AudioFilename: audio.ogg
AudioLeadIn: 0
PreviewTime: 96935
Countdown: 0
SampleSet: Soft
StackLeniency: 0
Mode: 0
LetterboxInBreaks: 0
WidescreenStoryboard: 1

[Editor]
Bookmarks: 935,8319,15704,23088,37858,43396,45242,50781,52627,58165,60011,65550,67396,72935,74781,89550,96935,102473,104319,109858,111704,117242,119088,124627,126473,133858,141242
DistanceSpacing: 0.8
BeatDivisor: 4
GridSize: 32
TimelineZoom: 1.7

[Metadata]
Title:Flamenco House
TitleUnicode:Flamenco House
Artist:lapix
ArtistUnicode:lapix
Creator:Luminiscental
Version:Insane
Source:
Tags:electronic instrumental megarex mrx-068 axaptice jezag kkipalt that_otaku nikolomara celektus nik
BeatmapID:3857255
BeatmapSetID:1865291

[Difficulty]
HPDrainRate:5
CircleSize:4
OverallDifficulty:7
ApproachRate:8.5
SliderMultiplier:1.6
SliderTickRate:1

[Events]
//Background and Video events
0,0,"bg.jpg",0,0
//Break Periods
//Storyboard Layer 0 (Background)
//Storyboard Layer 1 (Fail)
//Storyboard Layer 2 (Pass)
//Storyboard Layer 3 (Foreground)
//Storyboard Layer 4 (Overlay)
//Storyboard Sound Samples

[TimingPoints]
895,461.538461538462,4,2,1,60,1,0
895,-100,4,2,1,60,0,0
8279,-71.4285714285714,4,2,1,65,0,0
10125,-71.4285714285714,4,2,1,70,0,0
11971,-71.4285714285714,4,2,1,75,0,0
12895,-71.4285714285714,4,2,1,80,0,0
13818,-100,4,2,1,85,0,0
14971,-71.4285714285714,4,2,1,85,0,0
15202,-71.4285714285714,4,2,1,50,0,0
15664,-71.4285714285714,4,2,2,50,0,0
15895,-142.857142857143,4,2,2,50,0,0
16587,-142.857142857143,4,2,1,50,0,0
17510,-142.857142857143,4,2,2,50,0,0
20279,-142.857142857143,4,2,1,50,0,0
21202,-100,4,2,2,50,0,0
22587,-99.9999999999999,4,2,1,50,0,0
23048,-71.4285714285714,4,2,3,70,0,0
23164,-71.4285714285714,4,2,1,70,0,0
23510,-71.4285714285714,4,2,3,70,0,0
23625,-71.4285714285714,4,2,1,70,0,0
23971,-71.4285714285714,4,2,3,70,0,0
24087,-71.4285714285714,4,2,1,70,0,0
24433,-71.4285714285714,4,2,3,70,0,0
24664,-71.4285714285714,4,2,1,70,0,0
24895,-71.4285714285714,4,2,3,70,0,0
25010,-71.4285714285714,4,2,1,70,0,0
25356,-71.4285714285714,4,2,3,70,0,0
25471,-71.4285714285714,4,2,1,70,0,0
25818,-71.4285714285714,4,2,3,70,0,0
25933,-71.4285714285714,4,2,1,70,0,0
26279,-71.4285714285714,4,2,3,70,0,0
26395,-71.4285714285714,4,2,1,70,0,0
26741,-71.4285714285714,4,2,3,70,0,0
26856,-71.4285714285714,4,2,1,70,0,0
27202,-71.4285714285714,4,2,3,70,0,0
27318,-71.4285714285714,4,2,1,70,0,0
27664,-71.4285714285714,4,2,3,70,0,0
27779,-71.4285714285714,4,2,1,70,0,0
28125,-71.4285714285714,4,2,3,70,0,0
28356,-71.4285714285714,4,2,1,70,0,0
28587,-71.4285714285714,4,2,3,70,0,0
28702,-71.4285714285714,4,2,1,70,0,0
29048,-71.4285714285714,4,2,3,70,0,0
29164,-71.4285714285714,4,2,1,70,0,0
29510,-71.4285714285714,4,2,3,70,0,0
29625,-71.4285714285714,4,2,1,70,0,0
29971,-71.4285714285714,4,2,3,70,0,0
30202,-71.4285714285714,4,2,1,70,0,0
30433,-71.4285714285714,4,2,3,70,0,0
30548,-71.4285714285714,4,2,1,70,0,0
30895,-71.4285714285714,4,2,3,70,0,0
31010,-71.4285714285714,4,2,1,70,0,0
31356,-71.4285714285714,4,2,3,70,0,0
31471,-71.4285714285714,4,2,1,70,0,0
31818,-71.4285714285714,4,2,3,70,0,0
31933,-71.4285714285714,4,2,1,70,0,0
32279,-71.4285714285714,4,2,3,70,0,0
32395,-71.4285714285714,4,2,1,70,0,0
32741,-71.4285714285714,4,2,3,70,0,0
32856,-71.4285714285714,4,2,1,70,0,0
33202,-71.4285714285714,4,2,3,70,0,0
33318,-71.4285714285714,4,2,1,70,0,0
33664,-71.4285714285714,4,2,3,70,0,0
33952,-71.4285714285714,4,2,1,70,0,0
34010,-71.4285714285714,4,2,3,70,0,0
34068,-71.4285714285714,4,2,1,70,0,0
34125,-71.4285714285714,4,2,3,70,0,0
34356,-71.4285714285714,4,2,1,70,0,0
34587,-71.4285714285714,4,2,3,70,0,0
34702,-71.4285714285714,4,2,1,70,0,0
35048,-71.4285714285714,4,2,3,70,0,0
35164,-71.4285714285714,4,2,1,70,0,0
35510,-71.4285714285714,4,2,1,50,0,0
35971,-71.4285714285714,4,2,3,70,0,0
36087,-71.4285714285714,4,2,1,70,0,0
36318,-71.4285714285714,4,2,3,70,0,0
36433,-71.4285714285714,4,2,1,70,0,0
36664,-71.4285714285714,4,2,3,70,0,0
36779,-71.4285714285714,4,2,1,70,0,0
36895,-71.4285714285714,4,2,3,70,0,0
37010,-71.4285714285714,4,2,1,70,0,0
39664,-71.4285714285714,4,2,1,75,0,0
41510,-100,4,2,1,80,0,0
41971,-100,4,2,1,85,0,0
42433,-100,4,2,1,90,0,0
42895,-100,4,2,1,95,0,0
43356,-100,4,2,1,60,0,0
44741,-100,4,2,1,60,0,0
45202,-62.5,4,2,3,100,0,1
45318,-62.5,4,2,1,100,0,1
52125,-62.5,4,2,3,100,0,1
52241,-62.5,4,2,1,100,0,1
52587,-62.5,4,2,3,100,0,1
52702,-62.5,4,2,1,100,0,1
58125,-100,4,2,2,85,0,1
59510,-62.5,4,2,3,85,0,0
59625,-62.5,4,2,1,85,0,0
59971,-52.6315789473684,4,2,3,100,0,1
60087,-52.6315789473684,4,2,1,100,0,1
65510,-62.5,4,2,1,100,0,1
66895,-62.5,4,2,3,100,0,1
67125,-62.5,4,2,1,100,0,1
67356,-52.6315789473684,4,2,3,100,0,1
67471,-52.6315789473684,4,2,1,100,0,1
72895,-100,4,2,2,80,0,0
74279,-100,4,2,1,80,0,0
74510,-71.4285714285714,4,2,1,80,0,0
74741,-71.4285714285714,4,2,3,70,0,0
74856,-71.4285714285714,4,2,1,70,0,0
75202,-71.4285714285714,4,2,3,70,0,0
75433,-71.4285714285714,4,2,1,70,0,0
75664,-71.4285714285714,4,2,3,70,0,0
75779,-71.4285714285714,4,2,1,70,0,0
76125,-71.4285714285714,4,2,3,70,0,0
76241,-71.4285714285714,4,2,1,70,0,0
76587,-71.4285714285714,4,2,3,70,0,0
76818,-71.4285714285714,4,2,1,70,0,0
77048,-71.4285714285714,4,2,3,70,0,0
77164,-71.4285714285714,4,2,1,70,0,0
77510,-71.4285714285714,4,2,3,70,0,0
77625,-71.4285714285714,4,2,1,70,0,0
77971,-71.4285714285714,4,2,3,70,0,0
78202,-71.4285714285714,4,2,1,70,0,0
78433,-71.4285714285714,4,2,3,70,0,0
78548,-71.4285714285714,4,2,1,70,0,0
78895,-71.4285714285714,4,2,3,70,0,0
79010,-71.4285714285714,4,2,1,70,0,0
79356,-71.4285714285714,4,2,3,70,0,0
79471,-71.4285714285714,4,2,1,70,0,0
79818,-71.4285714285714,4,2,3,70,0,0
80048,-71.4285714285714,4,2,1,70,0,0
80279,-71.4285714285714,4,2,3,70,0,0
80395,-71.4285714285714,4,2,1,70,0,0
80741,-71.4285714285714,4,2,3,70,0,0
80856,-71.4285714285714,4,2,1,70,0,0
81202,-71.4285714285714,4,2,3,70,0,0
81318,-71.4285714285714,4,2,1,70,0,0
81664,-71.4285714285714,4,2,3,70,0,0
81895,-71.4285714285714,4,2,1,70,0,0
82125,-71.4285714285714,4,2,3,70,0,0
82241,-71.4285714285714,4,2,1,70,0,0
82587,-71.4285714285714,4,2,3,70,0,0
82702,-71.4285714285714,4,2,1,70,0,0
83048,-71.4285714285714,4,2,3,70,0,0
83164,-71.4285714285714,4,2,1,70,0,0
83395,-71.4285714285714,4,2,3,70,0,0
83741,-71.4285714285714,4,2,1,70,0,0
83971,-71.4285714285714,4,2,3,70,0,0
84087,-71.4285714285714,4,2,1,70,0,0
84433,-71.4285714285714,4,2,3,70,0,0
84548,-71.4285714285714,4,2,1,70,0,0
84895,-71.4285714285714,4,2,3,70,0,0
85010,-71.4285714285714,4,2,1,70,0,0
85356,-71.4285714285714,4,2,3,70,0,0
85818,-71.4285714285714,4,2,3,70,0,0
85933,-71.4285714285714,4,2,1,70,0,0
86279,-71.4285714285714,4,2,3,70,0,0
86395,-71.4285714285714,4,2,1,70,0,0
86741,-71.4285714285714,4,2,3,70,0,0
86856,-71.4285714285714,4,2,1,70,0,0
87202,-111.111111111111,4,2,1,70,0,0
87664,-71.4285714285714,4,2,3,70,0,0
87779,-71.4285714285714,4,2,1,70,0,0
88010,-71.4285714285714,4,2,3,70,0,0
88125,-71.4285714285714,4,2,1,70,0,0
88356,-71.4285714285714,4,2,3,70,0,0
88471,-71.4285714285714,4,2,1,70,0,0
88587,-71.4285714285714,4,2,3,70,0,0
88702,-71.4285714285714,4,2,1,70,0,0
89510,-71.4285714285714,4,2,1,70,0,0
90433,-71.4285714285714,4,2,1,75,0,0
91356,-71.4285714285714,4,2,1,80,0,0
92279,-71.4285714285714,4,2,1,50,0,0
93202,-100,4,2,1,70,0,0
93664,-100,4,2,1,85,0,0
94125,-100,4,2,1,90,0,0
94587,-100,4,2,1,95,0,0
95048,-100,4,2,1,60,0,0
96433,-99.9999999999999,4,2,1,60,0,0
96895,-62.5,4,2,3,100,0,1
97010,-62.5,4,2,1,100,0,1
103818,-62.5,4,2,3,100,0,1
103933,-62.5,4,2,1,100,0,1
104279,-62.5,4,2,3,100,0,1
104395,-62.5,4,2,1,100,0,1
109818,-100,4,2,2,100,0,1
111202,-62.5,4,2,3,85,0,0
111318,-62.5,4,2,1,85,0,0
111664,-52.6315789473684,4,2,3,100,0,1
111779,-52.6315789473684,4,2,1,100,0,1
117202,-62.5,4,2,1,100,0,1
118587,-62.5,4,2,3,100,0,1
118818,-62.5,4,2,1,100,0,1
119048,-52.6315789473684,4,2,3,100,0,1
119164,-52.6315789473684,4,2,1,100,0,1
124587,-100,4,2,2,80,0,0
125971,-100,4,2,1,80,0,0
126433,-100,4,2,1,60,0,0
133818,-100,4,2,1,60,0,0
137510,-100,4,2,1,60,0,0
139356,-100,4,2,1,60,0,0
139818,-100,4,2,4,60,0,0
139875,-100,4,2,1,60,0,0

[Colours]
Combo1 : 180,186,190
Combo2 : 139,45,21
Combo3 : 242,190,81
Combo4 : 122,91,186
Combo5 : 106,123,188

[HitObjects]
198,191,895,6,0,L|206:142,1,40,8|8,1:2|2:2,0:0:0:0:
244,206,1125,1,8,2:2:0:0:
242,243,1241,1,8,2:2:0:0:
212,253,1356,1,8,1:1:0:0:
111,194,1587,1,8,2:2:0:0:
31,262,1818,6,0,L|77:281,1,40,8|8,1:2|2:2,0:0:0:0:
57,373,2048,1,8,2:2:0:0:
37,343,2164,1,8,2:2:0:0:
54,320,2279,1,8,1:1:0:0:
160,355,2510,1,8,2:2:0:0:
273,306,2741,6,0,L|230:275,1,40,8|8,1:2|2:2,0:0:0:0:
266,346,2971,1,8,2:2:0:0:
295,341,3087,1,8,2:2:0:0:
314,311,3202,1,8,1:1:0:0:
456,247,3433,5,8,2:2:0:0:
468,277,3548,2,0,L|418:245,1,40,8|8,0:1|1:2,0:0:0:0:
407,209,3779,2,0,L|348:224,1,40,8|8,2:1|2:2,0:0:0:0:
307,340,4125,1,8,1:1:0:0:
250,243,4356,1,8,2:2:0:0:
146,287,4587,6,0,L|121:231,1,40,8|8,1:2|2:2,0:0:0:0:
146,171,4818,1,8,2:2:0:0:
144,209,4933,1,8,2:2:0:0:
125,230,5048,1,8,1:1:0:0:
55,136,5279,1,8,2:2:0:0:
0,240,5510,6,0,L|59:212,1,40,8|8,1:2|2:2,0:0:0:0:
72,294,5741,1,8,2:2:0:0:
33,277,5856,1,8,2:2:0:0:
8,295,5971,1,8,1:1:0:0:
70,384,6202,1,8,2:2:0:0:
192,307,6433,6,0,L|210:346,1,40,8|8,1:2|2:2,0:0:0:0:
245,309,6664,1,8,2:2:0:0:
239,272,6779,1,8,2:2:0:0:
201,258,6895,1,8,1:1:0:0:
120,158,7125,5,8,2:2:0:0:
148,172,7241,2,0,L|195:156,1,40,8|8,0:1|1:2,0:0:0:0:
214,119,7471,2,0,L|267:137,1,40,8|8,2:1|2:2,0:0:0:0:
363,318,7818,1,12,1:1:0:0:
395,226,8048,1,8,2:2:0:0:
486,325,8279,6,0,L|424:305,1,55.9999982910157,8|8,1:2|2:2,0:0:0:0:
359,224,8510,1,8,2:2:0:0:
361,201,8625,1,8,2:2:0:0:
346,182,8741,2,0,L|279:196,1,55.9999982910157,8|0,1:1|0:0,0:0:0:0:
227,277,8971,5,8,2:2:0:0:
213,254,9087,2,0,L|156:233,2,55.9999982910157,0|8|8,3:0|1:2|2:2,0:0:0:0:
306,334,9433,2,0,L|335:278,1,55.9999982910157,8|8,2:2|2:2,0:0:0:0:
422,236,9664,1,8,1:1:0:0:
451,235,9779,1,0,3:0:0:0:
468,204,9895,2,0,L|422:172,1,55.9999982910157,8|0,2:2|0:0,0:0:0:0:
314,131,10125,6,0,L|338:70,1,55.9999982910157,8|8,1:2|2:2,0:0:0:0:
265,17,10356,1,8,2:2:0:0:
242,38,10471,1,8,2:2:0:0:
204,21,10587,2,0,L|139:47,1,55.9999982910157,8|0,1:1|0:0,0:0:0:0:
50,90,10818,5,8,2:2:0:0:
58,63,10933,2,0,L|92:115,1,55.9999982910157,8|8,0:1|1:2,0:0:0:0:
181,150,11164,1,8,2:1:0:0:
165,131,11279,2,0,L|153:189,1,55.9999982910157,8|8,2:2|2:2,0:0:0:0:
102,277,11510,1,8,1:1:0:0:
141,270,11625,1,0,0:0:0:0:
174,292,11741,1,8,2:2:0:0:
203,282,11856,1,0,0:0:0:0:
229,311,11971,6,0,L|188:373,1,55.9999982910157,8|8,1:2|3:2,0:0:0:0:
105,366,12202,2,0,L|161:343,1,55.9999982910157,8|8,3:2|3:2,0:0:0:0:
329,360,12433,2,0,L|381:378,1,55.9999982910157,8|0,1:1|3:3,0:0:0:0:
480,341,12664,2,0,L|409:348,1,55.9999982910157,8|0,3:2|3:3,0:0:0:0:
298,263,12895,6,0,L|321:193,1,55.9999982910157,8|8,1:2|3:2,0:0:0:0:
249,125,13125,2,0,L|286:192,1,55.9999982910157,8|8,3:2|3:2,0:0:0:0:
471,154,13356,2,0,L|417:123,1,55.9999982910157,8|0,1:1|3:3,0:0:0:0:
437,27,13587,2,0,L|423:92,1,55.9999982910157,8|0,3:2|3:3,0:0:0:0:
316,77,13818,6,0,L|345:58,2,26.6666666666667,8|0|0,1:2|3:0|3:0,0:0:0:0:
250,75,14048,2,0,L|286:67,2,26.6666666666667,8|0|0,3:2|3:0|3:0,0:0:0:0:
175,51,14279,2,0,L|216:56,2,26.6666666666667,8|0|0,1:1|3:0|3:0,0:0:0:0:
108,24,14510,2,0,L|142:21,2,26.6666666666667,8|0|0,3:2|3:0|3:0,0:0:0:0:
37,48,14741,2,0,L|74:24,2,26.6666666666667,8|0|0,1:2|3:0|3:0,0:0:0:0:
0,115,14971,2,0,L|21:42,2,55.9999982910157,8|8|2,3:2|3:2|2:2,0:0:0:0:
0,115,15433,1,2,2:2:0:0:
178,191,15664,5,12,1:2:0:0:
87,206,15895,1,8,1:2:0:0:
202,238,16125,1,8,2:2:0:0:
184,217,16241,1,8,2:2:0:0:
343,164,16587,5,12,2:2:0:0:
312,144,16933,1,8,2:2:0:0:
311,184,17279,2,0,L|345:193,1,27.9999991455078,8|8,2:2|2:2,0:0:0:0:
428,281,17510,5,8,1:2:0:0:
339,346,17741,1,8,1:2:0:0:
260,280,17971,1,8,1:2:0:0:
221,273,18087,2,0,L|174:297,2,27.9999991455078,8|8|8,2:2|2:2|2:2,0:0:0:0:
296,325,18433,1,8,2:2:0:0:
183,330,18664,6,0,L|219:342,1,27.9999991455078,8|8,2:2|2:2,0:0:0:0:
117,296,18895,2,0,L|165:281,1,27.9999991455078,8|8,2:2|2:2,0:0:0:0:
48,326,19125,2,0,L|90:336,1,27.9999991455078,8|0,2:2|0:0,0:0:0:0:
198,301,19356,5,8,1:2:0:0:
65,223,19587,1,8,2:2:0:0:
74,253,19702,1,8,2:2:0:0:
53,278,19818,1,8,1:2:0:0:
29,297,19933,2,0,L|15:335,1,27.9999991455078,8|0,2:2|2:2,0:0:0:0:
227,259,20279,5,12,2:2:0:0:
204,222,20625,1,8,2:2:0:0:
252,221,20971,2,0,L|242:190,1,27.9999991455078,8|8,2:2|2:2,0:0:0:0:
142,125,21202,6,0,L|197:108,1,40,8|0,1:2|3:3,0:0:0:0:
296,111,21433,1,8,3:2:0:0:
280,92,21548,2,0,L|342:103,1,40,8|0,1:2|3:3,0:0:0:0:
424,69,21779,1,8,3:2:0:0:
416,95,21895,2,0,L|463:76,1,40,8|0,1:2|3:3,0:0:0:0:
500,2,22125,1,8,1:2:0:0:
440,257,22587,6,0,P|441:206|484:235,1,120,4|0,2:2|0:0,0:0:0:0:
493,351,23048,1,14,3:2:0:0:
477,331,23164,2,0,L|407:356,1,55.9999982910157
334,323,23395,5,10,2:2:0:0:
313,345,23510,1,10,3:2:0:0:
278,359,23625,1,2,2:2:0:0:
248,328,23741,1,10,2:2:0:0:
218,306,23856,1,2,2:2:0:0:
178,322,23971,2,0,B|145:232|145:232|170:201,1,111.999996582031,10|8,3:2|2:2,0:0:0:0:
235,177,24318,2,0,B|208:152|208:152|184:142,1,55.9999982910157,8|8,2:2|3:2,0:0:0:0:
75,68,24664,6,0,L|47:84,3,27.9999991455078,10|2|2|2,2:2|2:2|2:2|2:2,0:0:0:0:
31,70,24895,2,0,L|91:82,1,55.9999982910157,10|0,3:2|0:0,0:0:0:0:
177,127,25125,1,2,2:2:0:0:
171,94,25241,2,0,L|136:167,1,55.9999982910157,10|8,3:2|3:2,0:0:0:0:
67,207,25471,2,0,B|99:225|99:225|110:257,1,55.9999982910157,2|8,3:2|2:2,0:0:0:0:
139,361,25702,2,0,B|152:342|152:342|112:319,1,55.9999982910157,2|8,3:2|3:2,0:0:0:0:
24,330,25933,1,10,3:2:0:0:
176,283,26164,5,8,2:2:0:0:
205,300,26279,2,0,L|274:272,1,55.9999982910157,10|0,3:2|0:0,0:0:0:0:
273,177,26510,2,0,L|328:181,1,55.9999982910157,10|0,3:2|0:0,0:0:0:0:
422,292,26741,1,10,3:2:0:0:
446,304,26856,2,0,L|418:251,1,55.9999982910157
441,160,27087,5,10,2:2:0:0:
421,127,27202,1,10,3:2:0:0:
380,119,27318,1,2,2:2:0:0:
348,137,27433,1,10,2:2:0:0:
308,119,27548,1,2,2:2:0:0:
314,67,27664,2,0,B|365:9|365:9|312:1,1,111.999996582031,10|8,3:2|2:2,0:0:0:0:
218,40,28010,1,8,2:2:0:0:
241,22,28125,1,8,3:2:0:0:
448,48,28356,6,0,L|483:36,3,27.9999991455078,10|2|2|2,2:2|2:2|2:2|2:2,0:0:0:0:
490,13,28587,2,0,L|467:68,1,55.9999982910157,10|0,3:2|0:0,0:0:0:0:
404,165,28818,1,2,2:2:0:0:
375,146,28933,2,0,B|401:126|401:126|438:133,1,55.9999982910157,10|8,3:2|3:2,0:0:0:0:
498,224,29164,1,2,2:2:0:0:
357,303,29395,1,2,3:2:0:0:
373,266,29510,2,0,L|397:317,1,55.9999982910157,8|8,3:2|2:2,0:0:0:0:
512,355,29741,5,8,2:2:0:0:
469,348,29856,1,8,2:2:0:0:
441,384,29971,1,8,3:2:0:0:
335,276,30202,1,8,2:2:0:0:
201,378,30433,6,0,L|260:363,1,55.9999982910157,14|0,3:2|0:0,0:0:0:0:
349,264,30664,1,2,2:2:0:0:
380,278,30779,2,0,L|327:306,1,55.9999982910157,10|8,3:2|3:2,0:0:0:0:
187,212,31010,2,0,L|256:253,1,55.9999982910157,2|8,3:2|2:2,0:0:0:0:
359,126,31241,2,0,L|318:183,1,55.9999982910157,2|8,3:2|3:2,0:0:0:0:
152,210,31471,2,0,L|207:253,1,55.9999982910157,10|8,3:2|2:2,0:0:0:0:
344,282,31702,2,0,L|298:318,1,55.9999982910157,10|8,3:2|3:2,0:0:0:0:
154,353,31933,2,0,L|223:371,1,55.9999982910157,2|8,3:2|2:2,0:0:0:0:
333,343,32164,5,2,2:2:0:0:
361,365,32279,2,0,L|335:289,1,55.9999982910157,10|0,3:2|0:0,0:0:0:0:
386,204,32510,1,2,2:2:0:0:
360,221,32625,2,0,L|396:154,1,55.9999982910157,10|8,3:2|3:2,0:0:0:0:
339,34,32856,2,0,L|351:97,1,55.9999982910157,2|8,3:2|2:2,0:0:0:0:
406,156,33087,1,2,3:2:0:0:
434,131,33202,2,0,L|309:93,1,111.999996582031,8|8,3:2|2:2,0:0:0:0:
293,97,33548,1,8,2:2:0:0:
266,117,33664,1,8,3:2:0:0:
116,36,33895,6,0,L|77:31,3,27.9999991455078,10|2|2|2,3:2|2:2|3:2|2:2,0:0:0:0:
58,54,34125,2,0,B|106:101|106:101|163:122,1,111.999996582031,10|0,3:2|0:0,0:0:0:0:
189,134,34471,1,10,2:2:0:0:
203,168,34587,1,10,3:2:0:0:
201,211,34702,1,2,2:2:0:0:
170,236,34818,2,0,B|141:264|141:264|139:288,1,55.9999982910157,10|2,2:2|2:2,0:0:0:0:
244,337,35048,5,10,3:2:0:0:
209,317,35164,1,10,2:2:0:0:
173,322,35279,1,10,2:2:0:0:
147,347,35395,1,10,2:2:0:0:
103,363,35510,2,0,B|74:351|74:351|86:325,3,55.9999982910157,2|2|2|2,2:2|2:2|2:2|2:2,0:0:0:0:
26,218,35971,5,10,3:2:0:0:
50,192,36087,1,2,2:2:0:0:
90,190,36202,1,10,2:2:0:0:
124,215,36318,2,0,B|138:230|138:230|189:244,1,55.9999982910157,10|0,3:2|0:0,0:0:0:0:
237,168,36548,2,0,B|245:148|245:148|267:194,1,55.9999982910157,2|8,3:2|3:2,0:0:0:0:
255,270,36779,5,2,2:2:0:0:
281,253,36895,1,10,3:2:0:0:
307,279,37010,1,10,2:2:0:0:
343,272,37125,1,10,2:2:0:0:
362,300,37241,1,10,2:2:0:0:
399,308,37356,2,0,B|443:298|443:298|442:283,1,55.9999982910157,10|2,2:2|2:2,0:0:0:0:
351,228,37587,1,10,2:2:0:0:
483,378,37818,5,2,1:2:0:0:
328,353,38279,5,2,1:2:0:0:
173,328,38741,5,2,1:2:0:0:
18,303,39202,5,2,1:2:0:0:
173,278,39664,5,2,1:2:0:0:
328,253,40125,5,2,1:2:0:0:
483,228,40587,5,2,2:2:0:0:
461,208,40702,1,2,2:2:0:0:
421,217,40818,1,2,2:2:0:0:
409,189,40933,1,2,2:2:0:0:
370,197,41048,2,0,B|329:188|329:188|324:172,1,55.9999982910157,2|2,2:2|2:2,0:0:0:0:
373,107,41279,1,2,2:2:0:0:
231,189,41510,5,10,1:2:0:0:
121,141,41741,5,10,1:2:0:0:
222,170,41971,5,10,1:2:0:0:
289,94,42202,5,10,1:2:0:0:
212,151,42433,5,10,1:2:0:0:
201,134,42548,5,10,1:2:0:0:
190,117,42664,5,10,1:2:0:0:
179,100,42779,5,10,1:2:0:0:
168,83,42895,5,10,1:2:0:0:
157,66,43010,5,10,1:2:0:0:
146,49,43126,5,10,1:2:0:0:
135,32,43240,5,10,1:2:0:0:
124,15,43356,5,8,2:2:0:0:
77,23,43818,1,8,2:2:0:0:
25,6,44279,1,8,2:2:0:0:
121,152,44741,6,0,B|122:120|122:120|156:178,1,80,0|2,0:0|2:1,0:0:0:0:
416,250,45202,2,0,L|487:230,2,64,6|0|0,1:2|0:0|0:0,0:0:0:0:
255,308,45664,1,8,1:1:0:0:
281,285,45779,2,0,L|345:302,2,64,2|0|2,2:2|0:0|2:2,0:0:0:0:
172,228,46125,1,0,1:1:0:0:
190,252,46241,1,0,0:0:0:0:
178,283,46356,2,0,L|103:306,1,64,2|0,2:2|0:0,0:0:0:0:
16,306,46587,1,8,1:1:0:0:
0,342,46702,1,0,0:0:0:0:
14,366,46818,2,0,L|84:380,1,64,2|0,2:2|0:0,0:0:0:0:
257,333,47048,6,0,L|322:367,1,64,2|0,1:2|0:0,0:0:0:0:
326,384,47279,1,0,0:0:0:0:
254,199,47510,2,0,L|190:220,1,64,8|2,1:1|2:2,0:0:0:0:
172,244,47741,1,0,0:0:0:0:
126,223,47856,1,2,2:2:0:0:
128,179,47971,2,0,L|204:195,2,64,0|0|2,1:1|0:0|2:2,0:0:0:0:
39,116,48433,5,8,1:1:0:0:
50,82,48548,1,2,2:2:0:0:
67,98,48664,1,2,2:2:0:0:
377,66,48895,6,0,L|454:91,2,64,2|0|0,1:2|0:0|0:0,0:0:0:0:
174,38,49356,1,8,1:1:0:0:
205,53,49471,2,0,L|276:29,2,64,2|0|2,2:2|0:0|2:2,0:0:0:0:
94,97,49818,1,0,1:1:0:0:
75,71,49933,1,0,0:0:0:0:
95,48,50048,2,0,B|134:54|134:54|159:76,1,64,2|0,2:2|0:0,0:0:0:0:
36,146,50279,2,0,B|5:183|5:183|-10:220,2,64,8|0|2,1:1|0:0|2:2,0:0:0:0:
298,130,50741,5,2,1:2:0:0:
271,105,50856,1,0,0:0:0:0:
236,110,50971,1,10,2:2:0:0:
211,136,51087,1,10,2:2:0:0:
204,173,51202,2,0,P|224:200|269:207,1,64,8|8,1:1|2:2,0:0:0:0:
345,196,51433,6,0,P|358:205|368:227,3,32,10|2|2|2,2:2|2:2|2:2|2:2,0:0:0:0:
367,241,51664,1,2,1:2:0:0:
280,345,51895,2,0,P|283:311|297:279,1,64,10|10,2:2|2:2,0:0:0:0:
389,291,52125,1,8,1:1:0:0:
428,264,52241,1,0,0:0:0:0:
425,220,52356,1,2,1:2:0:0:
72,295,52587,6,0,L|31:359,2,64,6|0|0,1:2|0:0|0:0,0:0:0:0:
243,192,53048,1,8,1:1:0:0:
229,223,53164,2,0,L|156:250,2,64,2|0|2,2:2|0:0|2:2,0:0:0:0:
348,148,53510,1,0,1:1:0:0:
362,110,53625,1,0,0:0:0:0:
334,78,53741,2,0,L|321:151,1,64,2|0,2:2|0:0,0:0:0:0:
240,244,53971,1,8,1:1:0:0:
207,227,54087,1,0,0:0:0:0:
210,185,54202,2,0,L|266:242,1,64,2|0,2:2|0:0,0:0:0:0:
427,293,54433,6,0,L|454:224,1,64,2|0,1:2|0:0,0:0:0:0:
487,218,54664,1,0,0:0:0:0:
341,380,54895,2,0,L|305:299,1,64,8|2,1:1|2:2,0:0:0:0:
329,282,55125,1,0,0:0:0:0:
317,237,55241,1,2,2:2:0:0:
278,235,55356,2,0,L|229:286,2,64,0|0|2,1:1|0:0|2:2,0:0:0:0:
429,211,55818,5,8,1:1:0:0:
460,223,55933,1,2,2:2:0:0:
439,183,56048,1,2,2:2:0:0:
235,125,56279,6,0,L|196:60,2,64,2|0|0,1:2|0:0|0:0,0:0:0:0:
395,232,56741,1,8,1:1:0:0:
360,218,56856,2,0,L|344:154,2,64,2|0|2,2:2|0:0|2:2,0:0:0:0:
399,354,57202,1,0,1:1:0:0:
369,327,57318,1,0,0:0:0:0:
328,341,57433,2,0,B|295:360|295:360|271:381,1,64,2|0,2:2|0:0,0:0:0:0:
236,277,57664,2,0,B|270:293|270:293|293:319,2,64,8|0|2,1:1|0:0|2:2,0:0:0:0:
101,361,58125,5,2,1:2:0:0:
68,383,58241,1,0,0:0:0:0:
23,364,58356,1,10,2:2:0:0:
31,309,58471,1,10,1:2:0:0:
148,363,58702,1,8,2:2:0:0:
246,287,58933,5,2,2:2:0:0:
232,236,59048,1,2,1:2:0:0:
196,220,59164,1,10,2:2:0:0:
170,254,59279,1,10,2:2:0:0:
128,254,59395,1,10,2:2:0:0:
111,212,59510,2,0,B|134:182|134:182|174:207,1,64,8|0,1:1|0:0,0:0:0:0:
192,287,59741,2,0,B|227:300|227:300|243:262,1,64,2|0,1:2|0:0,0:0:0:0:
182,56,59971,6,0,L|94:34,2,75.9999979705811,6|0|2,1:2|0:0|2:2,0:0:0:0:
353,114,60318,1,2,2:2:0:0:
319,98,60433,2,0,L|255:142,1,75.9999979705811,8|2,1:1|2:2,0:0:0:0:
120,197,60664,1,2,2:2:0:0:
107,164,60779,2,0,L|184:203,1,75.9999979705811,2|0,2:2|1:1,0:0:0:0:
276,258,61010,1,2,2:2:0:0:
266,225,61125,2,0,B|225:277|225:277|209:369,1,151.999995941162,2|8,2:2|1:1,0:0:0:0:
99,374,61471,1,2,2:2:0:0:
115,349,61587,2,0,L|200:319,1,75.9999979705811,2|0,2:2|0:0,0:0:0:0:
367,355,61818,6,0,L|324:277,1,75.9999979705811,2|0,1:2|0:0,0:0:0:0:
243,161,62048,1,2,2:2:0:0:
218,187,62164,1,2,2:2:0:0:
233,226,62279,2,0,L|313:252,1,75.9999979705811,8|2,1:1|2:2,0:0:0:0:
474,319,62510,1,2,2:2:0:0:
428,331,62625,1,2,2:2:0:0:
396,311,62741,6,0,B|419:256|419:256|448:245,2,75.9999979705811,2|2|2,1:2|2:2|2:2,0:0:0:0:
244,304,63202,1,8,1:1:0:0:
256,268,63318,1,2,2:2:0:0:
290,255,63433,1,2,2:2:0:0:
321,270,63548,1,2,2:2:0:0:
370,275,63664,6,0,L|439:237,2,75.9999979705811,2|0|2,1:2|0:0|2:2,0:0:0:0:
266,216,64010,1,2,2:2:0:0:
251,246,64125,2,0,L|153:278,1,75.9999979705811,8|2,1:1|2:2,0:0:0:0:
22,183,64356,1,2,2:2:0:0:
15,217,64471,2,0,L|91:255,1,75.9999979705811,2|0,2:2|1:1,0:0:0:0:
181,160,64702,1,2,2:2:0:0:
160,189,64818,2,0,B|134:141|134:141|145:99,1,75.9999979705811,2|0,2:2|0:0,0:0:0:0:
269,22,65048,2,0,B|273:47|273:47|241:93,2,75.9999979705811,8|2|2,1:1|2:2|2:2,0:0:0:0:
22,73,65510,6,0,P|49:62|63:88,1,64,2|0,1:2|0:0,0:0:0:0:
48,165,65741,1,8,2:2:0:0:
80,194,65856,2,0,P|114:178|137:142,2,64,8|8|8,2:2|1:1|2:2,0:0:0:0:
15,289,66202,2,0,P|5:276|2:260,3,32,10|2|2|2,2:2|2:2|2:2|2:2,0:0:0:0:
10,239,66433,1,2,1:2:0:0:
146,310,66664,1,10,2:2:0:0:
103,298,66779,1,10,2:2:0:0:
137,340,66895,2,0,B|215:319|215:319|233:332|233:332|346:349,1,192,8|0,1:1|0:0,0:0:0:0:
399,103,67356,6,0,L|336:161,2,75.9999979705811,6|0|2,1:2|0:0|2:2,0:0:0:0:
508,229,67702,1,2,2:2:0:0:
467,207,67818,2,0,L|441:290,1,75.9999979705811,8|2,1:1|2:2,0:0:0:0:
328,294,68048,1,2,2:2:0:0:
346,330,68164,2,0,L|406:270,1,75.9999979705811,2|0,2:2|1:1,0:0:0:0:
382,144,68395,1,2,2:2:0:0:
357,107,68510,2,0,B|402:28|402:28|487:68,1,151.999995941162,2|8,2:2|1:1,0:0:0:0:
512,195,68856,1,2,2:2:0:0:
493,168,68971,2,0,L|411:154,1,75.9999979705811,2|0,2:2|0:0,0:0:0:0:
190,105,69202,6,0,L|267:67,1,75.9999979705811,2|0,1:2|0:0,0:0:0:0:
374,188,69433,1,2,2:2:0:0:
393,155,69548,1,2,2:2:0:0:
353,140,69664,2,0,L|275:198,1,75.9999979705811,8|2,1:1|2:2,0:0:0:0:
157,256,69895,1,2,2:2:0:0:
171,229,70010,2,0,B|195:227|195:227|248:259,2,75.9999979705811,2|0|2,2:2|1:1|2:2,0:0:0:0:
54,288,70356,2,0,L|33:216,1,75.9999979705811,2|2,2:2|2:2,0:0:0:0:
66,100,70587,1,8,1:1:0:0:
71,68,70702,1,2,2:2:0:0:
31,65,70818,2,0,L|60:145,1,75.9999979705811,2|2,2:2|2:2,0:0:0:0:
30,257,71048,6,0,L|-4:337,2,75.9999979705811,2|0|2,1:2|0:0|2:2,0:0:0:0:
120,197,71395,1,2,2:2:0:0:
149,214,71510,2,0,L|121:133,1,75.9999979705811,8|2,1:1|2:2,0:0:0:0:
197,32,71741,1,2,2:2:0:0:
166,52,71856,2,0,L|148:139,2,75.9999979705811,2|0|2,2:2|1:1|2:2,0:0:0:0:
276,76,72202,2,0,L|296:149,1,75.9999979705811,2|0,2:2|0:0,0:0:0:0:
420,219,72433,1,8,1:1:0:0:
456,191,72548,1,2,2:2:0:0:
418,170,72664,2,0,L|393:251,1,75.9999979705811,2|0,2:2|0:0,0:0:0:0:
256,213,72895,6,0,L|285:186,2,40,8|0|8,1:2|3:3|3:2,0:0:0:0:
396,183,73241,2,0,L|409:146,2,40,8|0|8,1:2|3:3|3:2,0:0:0:0:
511,120,73587,2,0,L|500:82,1,40,8|0,1:2|3:3,0:0:0:0:
380,50,73818,1,8,1:2:0:0:
380,50,74279,1,4,2:2:0:0:
512,299,74741,6,0,B|499:273|499:273|472:250,1,55.9999982910157,14|2,3:2|2:2,0:0:0:0:
333,273,74971,2,0,B|351:248|351:248|383:232,1,55.9999982910157,2|10,3:2|2:2,0:0:0:0:
464,371,75202,2,0,B|416:323|416:323|354:299,2,111.999996582031,10|8|8,3:2|2:2|3:2,0:0:0:0:
288,316,75895,1,8,2:2:0:0:
266,354,76010,1,8,2:2:0:0:
235,350,76125,6,0,B|216:324|216:324|190:309,1,55.9999982910157,10|2,3:2|2:2,0:0:0:0:
53,347,76356,2,0,B|91:344|91:344|124:329,1,55.9999982910157,10|2,3:2|2:2,0:0:0:0:
34,307,76587,1,10,3:2:0:0:
197,240,76818,1,2,3:2:0:0:
172,270,76933,2,0,B|144:248|144:248|129:210,1,55.9999982910157,10|8,3:2|3:2,0:0:0:0:
55,136,77164,1,2,3:2:0:0:
54,162,77279,2,0,B|87:142|87:142|107:109,2,55.9999982910157,10|0|8,3:2|0:0|3:2,0:0:0:0:
45,202,77741,1,8,2:2:0:0:
94,193,77856,1,8,2:2:0:0:
130,221,77971,1,8,3:2:0:0:
260,143,78202,6,0,L|235:154,3,27.9999991455078,10|2|2|2,2:2|2:2|2:2|2:2,0:0:0:0:
216,178,78433,2,0,B|249:193|249:193|286:187,1,55.9999982910157,10|0,3:2|0:0,0:0:0:0:
372,134,78664,1,2,2:2:0:0:
402,144,78779,2,0,B|388:176|388:176|360:197,1,55.9999982910157,10|8,3:2|3:2,0:0:0:0:
251,227,79010,2,0,B|287:241|287:241|304:264,1,55.9999982910157,2|8,3:2|2:2,0:0:0:0:
391,338,79241,2,0,B|427:349|427:349|451:273,1,111.999996582031,2|0,3:2|3:2,0:0:0:0:
400,208,79587,1,10,2:2:0:0:
396,176,79702,1,8,2:2:0:0:
438,199,79818,1,8,3:2:0:0:
377,47,80048,6,0,B|361:79|361:79|330:98,1,55.9999982910157,10|0,2:2|0:0,0:0:0:0:
194,52,80279,2,0,B|237:64|237:64|261:79,1,55.9999982910157,10|0,3:2|0:0,0:0:0:0:
343,148,80510,1,2,2:2:0:0:
357,119,80625,2,0,B|311:132|311:132|292:143,1,55.9999982910157,10|8,3:2|3:2,0:0:0:0:
206,188,80856,2,0,B|253:202|253:202|266:214,1,55.9999982910157,2|8,3:2|2:2,0:0:0:0:
349,284,81087,1,2,3:2:0:0:
346,246,81202,2,0,B|293:303|293:303|281:347,1,111.999996582031,8|8,3:2|2:2,0:0:0:0:
173,356,81548,1,8,2:2:0:0:
202,327,81664,1,8,3:2:0:0:
88,349,81895,1,8,2:2:0:0:
14,199,82125,6,0,B|34:178|34:178|32:207,1,55.9999982910157,14|0,3:2|0:0,0:0:0:0:
113,260,82356,1,2,2:2:0:0:
102,284,82471,2,0,B|122:307|122:307|128:270,1,55.9999982910157,10|8,3:2|3:2,0:0:0:0:
74,178,82702,2,0,B|61:150|61:150|92:165,1,55.9999982910157,2|8,3:2|2:2,0:0:0:0:
186,201,82933,2,0,B|219:198|219:198|195:174,1,55.9999982910157,2|8,3:2|3:2,0:0:0:0:
94,119,83164,2,0,B|90:87|90:87|113:110,1,55.9999982910157,10|8,3:2|2:2,0:0:0:0:
217,134,83395,1,10,3:2:0:0:
185,154,83510,1,10,3:2:0:0:
299,155,83741,1,10,2:2:0:0:
170,57,83971,6,0,B|171:36|171:36|218:60,1,55.9999982910157,10|0,3:2|0:0,0:0:0:0:
316,105,84202,1,2,2:2:0:0:
334,77,84318,2,0,B|331:59|331:59|299:77,1,55.9999982910157,10|8,3:2|3:2,0:0:0:0:
240,183,84548,1,2,2:2:0:0:
286,173,84664,1,10,2:2:0:0:
289,213,84779,2,0,B|294:238|294:238|386:286,1,111.999996582031,2|10,3:2|3:2,0:0:0:0:
473,291,85125,1,10,2:2:0:0:
489,263,85241,1,10,2:2:0:0:
505,313,85356,2,0,B|474:229|474:229|468:250,1,111.999996582031,10|8,3:2|3:2,0:0:0:0:
309,373,85818,6,0,B|326:358|326:358|369:344,1,55.9999982910157,10|0,3:2|0:0,0:0:0:0:
474,384,86048,1,2,2:2:0:0:
506,359,86164,2,0,B|489:343|489:343|451:329,1,55.9999982910157,10|8,3:2|3:2,0:0:0:0:
318,291,86395,2,0,B|337:309|337:309|292:354,1,55.9999982910157,2|8,3:2|2:2,0:0:0:0:
192,349,86625,2,0,B|187:376|187:376|214:384,1,55.9999982910157,2|8,3:2|3:2,0:0:0:0:
288,282,86856,2,0,B|291:250|291:250|248:241,1,55.9999982910157,10|8,3:2|2:2,0:0:0:0:
138,245,87087,1,10,3:2:0:0:
138,278,87202,2,0,B|161:264|161:264|176:206|176:206|196:186,1,107.999996704102
354,154,87664,6,0,B|358:125|358:125|313:77,1,55.9999982910157,10|0,3:2|0:0,0:0:0:0:
211,110,87895,1,10,2:2:0:0:
188,77,88010,2,0,B|217:63|217:63|258:83,1,55.9999982910157,10|0,3:2|0:0,0:0:0:0:
389,55,88241,2,0,B|351:68|351:68|327:105,1,55.9999982910157,2|8,3:2|3:2,0:0:0:0:
211,144,88471,2,0,B|228:114|228:114|268:101,1,55.9999982910157,2|8,3:2|3:2,0:0:0:0:
367,91,88702,2,0,B|390:116|390:116|420:121,1,55.9999982910157,10|8,3:2|2:2,0:0:0:0:
511,40,88933,1,10,3:2:0:0:
478,59,89048,2,0,L|496:6,1,55.9999982910157,8|2,3:2|3:2,0:0:0:0:
392,9,89279,1,10,2:2:0:0:
501,155,89510,5,2,1:2:0:0:
346,180,89971,5,2,1:2:0:0:
191,205,90433,5,2,1:2:0:0:
36,230,90894,5,2,1:2:0:0:
191,255,91356,5,2,1:2:0:0:
346,280,91818,5,2,1:2:0:0:
501,305,92279,5,2,2:2:0:0:
464,299,92395,1,2,2:2:0:0:
451,333,92510,1,2,2:2:0:0:
413,326,92625,1,2,2:2:0:0:
390,360,92741,2,0,B|341:347|341:347|328:317,1,55.9999982910157,2|2,2:2|2:2,0:0:0:0:
357,258,92971,1,2,2:2:0:0:
215,348,93202,5,10,1:2:0:0:
98,292,93433,5,10,1:2:0:0:
204,323,93664,5,10,1:2:0:0:
284,249,93895,5,10,1:2:0:0:
193,298,94125,5,10,1:2:0:0:
182,273,94241,5,10,1:2:0:0:
171,248,94356,5,10,1:2:0:0:
160,223,94471,5,10,1:2:0:0:
149,198,94587,5,10,1:2:0:0:
138,173,94703,5,10,1:2:0:0:
127,148,94818,5,10,1:2:0:0:
116,123,94933,5,10,1:2:0:0:
105,98,95048,5,8,2:2:0:0:
154,116,95510,1,8,2:2:0:0:
196,87,95971,1,8,2:2:0:0:
286,126,96202,1,8,2:2:0:0:
362,77,96433,2,0,B|351:55|351:55|331:124,1,80,0|2,0:0|0:1,0:0:0:0:
59,376,96895,6,0,L|-7:352,2,64,6|0|0,1:2|0:0|0:0,0:0:0:0:
188,349,97356,1,8,1:1:0:0:
151,334,97471,2,0,L|82:357,2,64,2|0|2,2:2|0:0|2:2,0:0:0:0:
283,344,97818,1,0,1:1:0:0:
319,320,97933,1,0,0:0:0:0:
336,352,98048,2,0,L|270:325,1,64,2|0,2:2|0:0,0:0:0:0:
176,279,98279,1,8,1:1:0:0:
143,265,98395,1,0,0:0:0:0:
137,297,98510,2,0,L|212:257,1,64,2|0,2:2|0:0,0:0:0:0:
400,216,98741,6,0,L|475:241,1,64,2|0,1:2|0:0,0:0:0:0:
474,255,98971,1,0,0:0:0:0:
296,137,99202,1,8,1:1:0:0:
325,148,99318,2,0,L|402:119,2,64,2|0|2,2:2|0:0|2:2,0:0:0:0:
187,211,99664,1,0,1:1:0:0:
175,181,99779,2,0,L|243:208,1,64,0|2,0:0|2:2,0:0:0:0:
417,249,100125,5,8,1:1:0:0:
421,210,100241,1,2,2:2:0:0:
375,231,100356,1,2,2:2:0:0:
407,30,100587,6,0,L|478:-2,2,64,2|0|0,1:2|0:0|0:0,0:0:0:0:
263,101,101048,1,8,1:1:0:0:
244,69,101164,2,0,L|339:92,2,64,2|0|2,2:2|0:0|2:2,0:0:0:0:
118,14,101510,1,0,1:1:0:0:
79,28,101625,1,0,0:0:0:0:
73,66,101741,2,0,L|149:49,1,64,2|0,2:2|0:0,0:0:0:0:
265,67,101971,1,8,1:1:0:0:
285,94,102087,1,0,0:0:0:0:
269,127,102202,2,0,L|186:107,1,64,2|0,2:2|0:0,0:0:0:0:
108,149,102433,5,2,1:2:0:0:
73,137,102548,1,0,0:0:0:0:
39,159,102664,1,10,2:2:0:0:
38,194,102779,1,10,2:2:0:0:
67,223,102895,2,0,P|96:199|133:211,1,64,8|8,1:1|2:2,0:0:0:0:
198,268,103125,6,0,P|213:258|223:240,3,32,10|2|2|2,2:2|2:2|2:2|2:2,0:0:0:0:
220,220,103356,1,2,1:2:0:0:
59,338,103587,2,0,P|82:310|124:297,1,64,10|10,2:2|2:2,0:0:0:0:
221,362,103818,1,8,1:1:0:0:
195,324,103933,1,0,0:0:0:0:
150,329,104048,1,2,1:2:0:0:
437,214,104279,6,0,L|520:235,2,64,6|0|0,1:2|0:0|0:0,0:0:0:0:
262,168,104741,1,8,1:1:0:0:
287,185,104856,2,0,L|351:160,2,64,2|0|2,2:2|0:0|2:2,0:0:0:0:
189,233,105202,1,0,1:1:0:0:
164,201,105318,1,0,0:0:0:0:
135,220,105433,2,0,L|204:252,1,64,2|0,2:2|0:0,0:0:0:0:
312,296,105664,1,8,1:1:0:0:
341,261,105779,1,0,0:0:0:0:
352,291,105895,2,0,L|283:274,1,64,2|0,2:2|0:0,0:0:0:0:
111,194,106125,6,0,L|56:234,1,64,2|0,1:2|0:0,0:0:0:0:
49,262,106356,1,0,0:0:0:0:
159,105,106587,2,0,L|76:111,1,64,8|2,1:1|2:2,0:0:0:0:
61,132,106818,1,0,0:0:0:0:
20,103,106933,1,2,2:2:0:0:
36,68,107048,2,0,L|98:98,2,64,0|0|2,1:1|0:0|2:2,0:0:0:0:
110,14,107510,5,8,1:1:0:0:
135,31,107625,1,2,2:2:0:0:
154,0,107741,1,2,2:2:0:0:
428,30,107971,6,0,L|496:62,2,64,2|0|0,1:2|0:0|0:0,0:0:0:0:
256,77,108433,1,8,1:1:0:0:
292,81,108548,2,0,L|340:20,2,64,2|0|2,2:2|0:0|2:2,0:0:0:0:
220,197,108895,1,0,1:1:0:0:
195,176,109010,1,0,0:0:0:0:
205,146,109125,2,0,L|268:171,1,64,2|0,2:2|0:0,0:0:0:0:
361,266,109356,1,8,1:1:0:0:
381,246,109471,1,0,0:0:0:0:
366,217,109587,2,0,L|309:257,1,64,2|0,2:2|0:0,0:0:0:0:
215,362,109818,5,2,1:2:0:0:
176,334,109933,1,0,0:0:0:0:
188,286,110048,1,10,2:2:0:0:
241,272,110164,1,10,1:2:0:0:
326,364,110395,1,10,2:2:0:0:
430,308,110625,5,2,2:2:0:0:
447,257,110741,1,2,1:2:0:0:
421,227,110856,1,8,2:2:0:0:
374,233,110971,1,10,2:2:0:0:
334,262,111087,1,10,2:2:0:0:
296,224,111202,2,0,B|311:189|311:189|350:186,1,64,8|0,1:1|0:0,0:0:0:0:
436,221,111433,2,0,B|470:212|470:212|471:179,1,64,2|0,1:2|0:0,0:0:0:0:
266,11,111664,6,0,L|184:36,2,75.9999979705811,6|0|2,1:2|0:0|2:2,0:0:0:0:
386,93,112010,1,2,2:2:0:0:
372,65,112125,2,0,L|302:37,1,75.9999979705811,8|2,1:1|2:2,0:0:0:0:
156,29,112356,1,2,2:2:0:0:
133,62,112471,2,0,L|57:80,1,75.9999979705811,2|0,2:2|1:1,0:0:0:0:
0,177,112702,1,2,2:2:0:0:
38,196,112818,2,0,B|86:167|86:167|183:184,1,151.999995941162,2|8,2:2|1:1,0:0:0:0:
284,249,113164,1,2,2:2:0:0:
279,211,113279,2,0,L|226:268,1,75.9999979705811,2|0,2:2|0:0,0:0:0:0:
84,366,113510,6,0,L|178:343,1,75.9999979705811,2|0,1:2|0:0,0:0:0:0:
327,380,113741,1,2,2:2:0:0:
334,346,113856,1,2,2:2:0:0:
301,328,113971,2,0,L|242:379,1,75.9999979705811,8|2,1:1|2:2,0:0:0:0:
80,323,114202,1,2,2:2:0:0:
76,283,114318,1,2,2:2:0:0:
104,272,114433,6,0,B|130:287|130:287|155:337,2,75.9999979705811,2|2|2,1:2|2:2|2:2,0:0:0:0:
5,180,114895,1,8,1:1:0:0:
14,141,115010,1,2,2:2:0:0:
50,126,115125,1,2,2:2:0:0:
93,133,115241,1,2,2:2:0:0:
90,176,115356,6,0,L|-4:153,2,75.9999979705811,2|0|2,1:2|0:0|2:2,0:0:0:0:
223,234,115702,1,2,2:2:0:0:
226,194,115818,2,0,L|159:239,2,75.9999979705811,8|2|2,1:1|2:2|2:2,0:0:0:0:
321,122,116164,2,0,L|359:192,1,75.9999979705811,2|0,2:2|1:1,0:0:0:0:
454,273,116395,1,2,2:2:0:0:
465,229,116510,2,0,B|429:243|429:243|393:293,1,75.9999979705811,2|0,2:2|0:0,0:0:0:0:
287,338,116741,2,0,B|240:356|240:356|191:335,2,75.9999979705811,8|2|2,1:1|2:2|2:2,0:0:0:0:
493,368,117202,6,0,P|492:333|445:326,1,64,2|0,1:2|0:0,0:0:0:0:
365,297,117433,1,8,2:2:0:0:
354,253,117548,2,0,P|374:226|407:211,2,64,8|8|8,2:2|1:1|2:2,0:0:0:0:
277,304,117895,2,0,P|263:296|251:277,3,32,10|2|2|2,2:2|2:2|2:2|2:2,0:0:0:0:
257,260,118125,1,2,1:2:0:0:
314,150,118356,1,10,2:2:0:0:
347,109,118471,1,10,2:2:0:0:
303,112,118587,2,0,B|246:156|246:156|225:185|225:185|123:206,1,192,8|0,1:1|0:0,0:0:0:0:
209,10,119048,6,0,L|306:27,2,75.9999979705811,6|0|2,1:2|0:0|2:2,0:0:0:0:
98,65,119395,1,2,2:2:0:0:
125,78,119510,2,0,L|212:42,1,75.9999979705811,8|2,1:1|2:2,0:0:0:0:
348,41,119741,1,2,2:2:0:0:
369,74,119856,2,0,L|276:55,1,75.9999979705811,2|0,2:2|1:1,0:0:0:0:
227,164,120087,1,2,2:2:0:0:
217,133,120202,2,0,B|273:153|273:153|343:231,1,151.999995941162,2|8,2:2|1:1,0:0:0:0:
464,268,120548,1,2,2:2:0:0:
452,237,120664,2,0,L|395:295,1,75.9999979705811,2|0,2:2|0:0,0:0:0:0:
249,361,120895,6,0,L|282:286,2,75.9999979705811,2|0|2,1:2|0:0|2:2,0:0:0:0:
133,382,121241,1,2,2:2:0:0:
105,355,121356,2,0,L|188:322,1,75.9999979705811,8|2,1:1|2:2,0:0:0:0:
327,353,121587,1,2,2:2:0:0:
356,364,121702,2,0,B|394:347|394:347|381:300,2,75.9999979705811,2|0|2,2:2|1:1|2:2,0:0:0:0:
262,270,122048,2,0,B|351:201|351:201|410:218,1,151.999995941162,2|8,2:2|1:1,0:0:0:0:
478,312,122395,1,2,2:2:0:0:
512,304,122510,2,0,L|433:263,1,75.9999979705811,2|2,2:2|2:2,0:0:0:0:
306,195,122741,6,0,L|209:224,2,75.9999979705811,2|0|2,1:2|0:0|2:2,0:0:0:0:
465,165,123087,1,2,2:2:0:0:
448,137,123202,2,0,L|375:105,1,75.9999979705811,8|2,1:1|2:2,0:0:0:0:
256,72,123433,1,2,2:2:0:0:
261,102,123548,2,0,L|326:46,1,75.9999979705811,2|0,2:2|1:1,0:0:0:0:
452,21,123779,1,2,2:2:0:0:
477,46,123895,2,0,L|395:26,1,75.9999979705811,2|0,2:2|0:0,0:0:0:0:
272,28,124125,1,8,1:1:0:0:
250,56,124241,1,2,2:2:0:0:
214,30,124356,2,0,L|301:57,1,75.9999979705811,2|0,2:2|0:0,0:0:0:0:
463,171,124587,6,0,L|404:144,2,40,8|0|8,1:2|3:3|3:2,0:0:0:0:
331,111,124933,2,0,L|289:130,2,40,8|0|8,1:2|3:3|3:2,0:0:0:0:
203,184,125279,2,0,L|158:158,1,40,8|0,1:2|3:3,0:0:0:0:
130,77,125510,1,8,1:2:0:0:
130,77,125971,1,4,2:2:0:0:
28,222,126433,6,0,L|81:197,1,40,8|8,1:2|2:2,0:0:0:0:
59,257,126664,1,8,2:2:0:0:
24,273,126779,1,8,2:2:0:0:
0,253,126895,1,8,1:1:0:0:
71,353,127125,1,8,2:2:0:0:
200,263,127356,6,0,L|140:238,1,40,8|8,1:2|2:2,0:0:0:0:
199,227,127587,1,8,2:2:0:0:
236,221,127702,1,8,2:2:0:0:
262,255,127818,1,8,1:1:0:0:
336,201,128048,1,8,2:2:0:0:
425,300,128279,6,0,L|365:278,1,40,8|8,1:2|2:2,0:0:0:0:
306,334,128510,1,8,2:2:0:0:
342,332,128625,1,8,2:2:0:0:
361,304,128741,1,8,1:1:0:0:
501,259,128971,5,8,2:2:0:0:
480,232,129087,2,0,L|453:287,2,40,0|8|8,3:0|1:2|3:2,0:0:0:0:
404,166,129433,1,8,2:2:0:0:
421,135,129548,1,8,2:2:0:0:
466,134,129664,2,0,L|438:92,1,40,8|0,1:1|0:0,0:0:0:0:
339,64,129895,2,0,L|381:35,1,40,8|0,2:2|0:0,0:0:0:0:
495,37,130125,6,0,L|449:12,1,40,8|8,1:2|2:2,0:0:0:0:
465,81,130356,1,8,2:2:0:0:
499,68,130471,1,8,2:2:0:0:
512,32,130587,1,8,1:1:0:0:
396,22,130818,1,8,2:2:0:0:
331,107,131048,6,0,L|296:73,1,40,8|8,1:2|2:2,0:0:0:0:
229,91,131279,1,8,2:2:0:0:
254,66,131395,1,8,2:2:0:0:
302,62,131510,1,8,1:1:0:0:
376,132,131741,1,8,2:2:0:0:
253,200,131971,6,0,L|302:166,1,40,8|8,1:2|2:2,0:0:0:0:
287,233,132202,1,8,2:2:0:0:
251,237,132318,1,8,2:2:0:0:
223,211,132433,1,8,1:1:0:0:
335,337,132664,5,8,2:2:0:0:
300,325,132779,2,0,L|264:342,2,40,0|8|8,3:0|1:2|3:2,0:0:0:0:
391,258,133125,1,8,2:2:0:0:
417,277,133241,1,8,2:2:0:0:
441,251,133356,2,0,L|385:280,1,40,8|0,1:1|0:0,0:0:0:0:
269,299,133587,1,8,2:2:0:0:
137,201,133818,6,0,L|179:212,1,40,8|8,1:2|2:2,0:0:0:0:
165,163,134048,1,8,2:2:0:0:
131,163,134164,1,8,2:2:0:0:
106,184,134279,1,8,1:1:0:0:
2,111,134510,5,10,2:2:0:0:
10,150,134625,2,0,L|24:112,2,40,2|8|8,3:2|1:2|3:2,0:0:0:0:
53,272,134971,2,0,L|44:216,1,40,8|8,2:2|2:2,0:0:0:0:
3,254,135202,1,8,1:1:0:0:
132,300,135433,1,8,2:2:0:0:
33,380,135664,6,0,L|81:360,1,40,8|8,1:2|2:2,0:0:0:0:
140,370,135895,1,8,2:2:0:0:
103,364,136010,1,8,2:2:0:0:
89,334,136125,1,8,1:1:0:0:
213,285,136356,5,10,2:2:0:0:
203,257,136471,2,0,L|178:296,2,40,2|8|8,3:2|1:2|3:2,0:0:0:0:
361,246,136818,2,0,L|304:226,1,40,8|8,2:2|2:2,0:0:0:0:
290,248,137048,1,8,1:1:0:0:
397,210,137279,1,8,2:2:0:0:
249,120,137510,6,0,L|304:92,1,40,8|8,1:2|3:2,0:0:0:0:
290,73,137741,2,0,L|340:69,1,40,8|8,3:2|3:2,0:0:0:0:
407,129,137971,2,0,L|446:97,1,40,8|0,1:1|3:3,0:0:0:0:
465,104,138202,2,0,L|474:56,1,40,10|2,3:2|3:2,0:0:0:0:
360,0,138433,6,0,L|372:52,1,40,8|8,1:2|3:2,0:0:0:0:
319,101,138664,2,0,L|335:64,1,40,8|8,3:2|3:2,0:0:0:0:
210,47,138895,2,0,L|231:98,1,40,8|0,1:1|3:3,0:0:0:0:
253,163,139125,2,0,L|205:120,1,40,8|0,3:2|3:3,0:0:0:0:
74,102,139356,5,10,1:2:0:0:
52,135,139471,2,0,L|136:117,1,80,8|8,3:2|3:2,0:0:0:0:
171,246,139818,5,10,1:1:0:0:
154,215,139933,2,0,L|69:194,1,80,0|2,3:3|3:2,0:0:0:0:
6,259,140279,6,0,L|51:248,1,40,8|8,1:2|3:2,0:0:0:0:
105,316,140510,5,10,3:2:0:0:
79,302,140625,1,8,3:2:0:0:
59,340,140741,1,8,2:2:0:0:
9,259,140971,5,8,2:2:0:0:
1,281,141087,1,8,2:2:0:0:
