osu file format v14

[General]
AudioFilename: audio.mp3
AudioLeadIn: 0
PreviewTime: 55912
Countdown: 1
SampleSet: Normal
StackLeniency: 0.7
Mode: 0
LetterboxInBreaks: 0
WidescreenStoryboard: 0

[Editor]
Bookmarks: 4954,11529,18104,26734,31255,44406,50981,57556,60844,61152,61460,61666,61974,64132,70707,73995,74303,74611,74817,75125,75433,75638,76049,76460,77282,83858,95364,102762,110159
DistanceSpacing: 0.3
BeatDivisor: 8
GridSize: 32
TimelineZoom: 2.1

[Metadata]
Title:Finaly Dive
TitleUnicode:Finaly Dive
Artist:lapix
ArtistUnicode:lapix
Creator:Zunv
Version:Extra
Source:
Tags:
BeatmapID:1559347
BeatmapSetID:738889

[Difficulty]
HPDrainRate:7.8
CircleSize:4.3
OverallDifficulty:7.8
ApproachRate:9.3
SliderMultiplier:2.6
SliderTickRate:1

[Events]
//Background and Video events
0,0,"bg.jpg",0,0
//Break Periods
//Storyboard Layer 0 (Background)
//Storyboard Layer 1 (Fail)
//Storyboard Layer 2 (Pass)
//Storyboard Layer 3 (Foreground)
//Storyboard Sound Samples

[TimingPoints]
4954,410.958904109589,4,1,0,40,1,0
4954,-400,4,1,0,40,0,0
11529,-153.846153846154,4,1,0,40,0,0
18104,-66.6666666666667,4,1,0,40,0,0
18515,-55.5555555555556,4,1,0,40,0,0
18926,-71.4285714285714,4,1,0,40,0,0
19953,-55.5555555555556,4,1,0,40,0,0
20159,-71.4285714285714,4,1,0,40,0,0
20364,-55.5555555555556,4,1,0,40,0,0
20570,-71.4285714285714,4,1,0,40,0,0
21392,-50,4,1,0,40,0,0
21597,-71.4285714285714,4,1,0,40,0,0
23036,-100,4,1,0,40,0,0
23447,-55.5555555555556,4,1,0,40,0,0
23858,-71.4285714285714,4,1,0,40,0,0
27967,-50,4,1,0,40,0,0
28173,-71.4285714285714,4,1,0,40,0,0
28789,-100,4,1,0,40,0,0
30536,-125,4,1,0,40,0,0
30844,-166.666666666667,4,1,0,40,0,0
31255,-55.5555555555556,4,1,0,40,0,0
31871,-71.4285714285714,4,1,0,40,0,0
32899,-50,4,1,0,40,0,0
33104,-71.4285714285714,4,1,0,40,0,0
36597,-55.5555555555556,4,1,0,40,0,0
36906,-71.4285714285714,4,1,0,40,0,0
37419,-55.5555555555556,4,1,0,40,0,0
38241,-71.4285714285714,4,1,0,40,0,0
50981,-100,4,1,0,40,0,0
53447,-50,4,1,0,40,0,0
54063,-133.333333333333,4,1,0,40,0,0
55912,-100,4,1,0,40,0,0
57556,-55.5555555555556,4,1,0,40,0,1
70604,-55.5555555555556,4,1,0,40,0,0
70707,-55.5555555555556,4,1,0,40,0,1
83858,-71.4285714285714,4,1,0,40,0,0
97830,-200,4,1,0,40,0,0
100296,-400,4,1,0,40,0,0

[HitObjects]
270,336,4954,6,0,B|148:405|24:297|24:297|82:303|126:258|124:209|94:170,1,455
40,222,8241,6,0,B|75:254|131:258|165:219|182:195|173:145|147:116|147:116|222:166|314:157|346:82,1,455
148,116,11529,6,0,L|141:74,15,42.2499980659486
94,170,13173,6,0,L|52:176,1,42.2499980659486
190,195,13378,2,0,L|231:201,1,42.2499980659486
48,264,13584,2,0,L|6:270,1,42.2499980659486
234,289,13789,2,0,L|275:295,1,42.2499980659486
190,195,13995,5,0,0:0:0:0:
161,164,14097,1,0,0:0:0:0:
147,124,14200,1,0,0:0:0:0:
151,83,14303,1,0,0:0:0:0:
172,46,14406,1,0,0:0:0:0:
202,74,14508,1,0,0:0:0:0:
242,88,14611,1,0,0:0:0:0:
283,84,14714,1,0,0:0:0:0:
318,63,14817,6,0,L|351:58,15,21.1249990329743
348,94,15638,6,0,L|362:77,1,21.1249990329743
374,126,15741,2,0,L|394:117,1,21.1249990329743
382,167,15844,2,0,L|404:168,1,21.1249990329743
371,207,15947,2,0,L|390:217,1,21.1249990329743
341,238,16049,2,0,L|354:255,1,21.1249990329743
301,252,16152,2,0,L|304:273,1,21.1249990329743
260,246,16255,2,0,L|253:266,1,21.1249990329743
225,223,16358,2,0,L|210:237,1,21.1249990329743
196,205,16460,6,0,L|174:208,4,21.1249990329743
191,282,16769,5,0,0:0:0:0:
149,280,16871,1,0,0:0:0:0:
114,256,16974,1,0,0:0:0:0:
97,218,17077,2,0,L|91:177,1,42.2499980659486
100,28,17282,2,0,P|102:68|128:100,1,84.4999961318971
218,155,17590,1,0,0:0:0:0:
218,155,17693,2,0,L|212:114,3,42.2499980659486
336,34,18104,2,0,P|311:146|408:85,1,292.50001115799
408,111,18515,6,0,P|412:169|427:225,1,116.999996429443
478,348,18721,1,0,0:0:0:0:
478,348,18823,1,0,0:0:0:0:
478,348,18926,6,0,B|385:317|385:317|301:319,1,181.999994445801
202,377,19234,1,0,0:0:0:0:
202,377,19337,2,0,B|233:284|233:284|230:200,1,181.999994445801
107,0,19748,6,0,L|104:90,1,90.9999972229005
158,289,19953,6,0,L|154:160,1,116.999996429443
83,99,20159,6,0,L|85:189,1,90.9999972229005
176,181,20364,6,0,L|179:52,1,116.999996429443
137,247,20570,2,0,P|186:258|224:241,1,90.9999972229005
288,144,20775,1,0,0:0:0:0:
288,144,20878,1,0,0:0:0:0:
288,144,20981,2,0,B|417:137|417:137|388:150|366:173,1,181.999994445801
300,384,21392,6,0,L|306:254,1,130
308,220,21597,1,0,0:0:0:0:
126,330,21803,2,0,P|44:299|26:213,1,181.999994445801
116,141,22111,1,0,0:0:0:0:
116,141,22214,2,0,L|120:232,1,90.9999972229005
223,384,22419,1,0,0:0:0:0:
223,384,22522,1,0,0:0:0:0:
223,384,22625,2,0,B|217:284,1,90.9999972229005
220,97,22830,2,0,B|216:188,1,90.9999972229005
368,161,23036,6,0,P|404:90|323:93,1,195
315,90,23447,6,0,P|412:85|367:172,1,233.999992858887
214,6,23755,5,0,0:0:0:0:
214,6,23858,2,0,L|219:96,1,90.9999972229005
267,267,24063,2,0,L|272:177,1,90.9999972229005
375,44,24269,2,0,B|369:173|369:173|358:142|338:118,1,181.999994445801
191,331,24680,6,0,P|273:365|352:315,1,181.999994445801
432,132,24988,1,0,0:0:0:0:
432,132,25090,2,0,L|427:222,1,90.9999972229005
344,126,25296,1,0,0:0:0:0:
344,126,25399,1,0,0:0:0:0:
344,126,25501,2,0,B|351:-9|351:-9|376:43,1,181.999994445801
512,304,25810,1,0,0:0:0:0:
512,304,25912,2,0,L|330:294,1,181.999994445801
70,35,26323,6,0,L|74:125,1,90.9999972229005
153,321,26529,1,0,0:0:0:0:
153,321,26632,1,0,0:0:0:0:
153,321,26734,2,0,L|157:230,1,90.9999972229005
299,99,26940,2,0,L|208:103,1,90.9999972229005
0,119,27145,1,0,0:0:0:0:
258,214,27351,1,0,0:0:0:0:
0,309,27556,2,0,L|182:298,1,181.999994445801
422,222,27864,1,0,0:0:0:0:
422,222,27967,6,0,L|292:216,1,130
258,214,28172,1,0,0:0:0:0:
406,136,28378,2,0,P|341:77|255:94,1,181.999994445801
76,195,28686,5,0,0:0:0:0:
76,195,28789,2,0,B|81:98|81:98|169:146,1,195
92,280,29200,2,0,B|6:323|6:323|1:224,1,195
82,99,29611,1,0,0:0:0:0:
159,380,29919,1,0,0:0:0:0:
78,34,30227,2,0,L|81:98,1,65
75,367,30536,6,0,P|98:321|143:297,1,104
435,224,30844,6,0,B|409:276|409:276|359:304,1,116.999996429443
258,323,31255,6,0,P|289:235|335:316,1,233.999992858887
105,315,31666,5,0,0:0:0:0:
140,317,31769,1,0,0:0:0:0:
167,318,31871,2,0,L|262:323,1,90.9999972229005
506,315,32077,2,0,B|420:346|420:346|335:316,1,181.999994445801
416,142,32385,1,0,0:0:0:0:
416,169,32488,2,0,L|421:264,1,90.9999972229005
354,104,32693,2,0,L|349:13,1,90.9999972229005
184,165,32899,6,0,L|314:171,1,130
348,173,33104,1,0,0:0:0:0:
500,68,33310,6,0,L|495:163,1,90.9999972229005
478,384,33515,1,0,0:0:0:0:
476,349,33618,1,0,0:0:0:0:
475,322,33720,2,0,L|470:227,1,90.9999972229005
284,0,33926,2,0,L|279:90,1,90.9999972229005
344,296,34132,2,0,L|348:205,1,90.9999972229005
409,78,34337,1,0,0:0:0:0:
260,320,34543,2,0,P|321:381|405:359,2,181.999994445801
0,71,35159,6,0,L|91:75,1,90.9999972229005
0,329,35364,1,0,0:0:0:0:
2,294,35467,1,0,0:0:0:0:
3,267,35570,2,0,L|8:172,1,90.9999972229005
293,243,35775,1,0,0:0:0:0:
258,245,35878,1,0,0:0:0:0:
231,245,35981,2,0,L|140:249,1,90.9999972229005
329,339,36186,1,0,0:0:0:0:
356,339,36289,2,0,L|447:343,2,90.9999972229005
78,293,36597,6,0,P|30:212|122:229,1,233.999992858887
212,347,36906,5,0,0:0:0:0:
212,320,37008,2,0,L|216:229,1,90.9999972229005
169,51,37214,2,0,L|173:141,1,90.9999972229005
215,229,37419,1,0,0:0:0:0:
244,209,37521,1,0,0:0:0:0:
264,180,37624,1,0,0:0:0:0:
272,146,37727,1,0,0:0:0:0:
267,111,37830,6,0,P|345:161|331:69,1,233.999992858887
7,148,38241,5,0,0:0:0:0:
253,32,38447,1,0,0:0:0:0:
0,160,38652,2,0,L|90:164,1,90.9999972229005
354,170,38858,1,0,0:0:0:0:
326,169,38960,1,0,0:0:0:0:
298,165,39063,2,0,B|198:159|198:159|317:58,2,181.999994445801
484,103,39680,5,0,0:0:0:0:
456,101,39783,1,0,0:0:0:0:
429,100,39885,2,0,L|338:95,1,90.9999972229005
73,81,40090,2,0,L|163:85,1,90.9999972229005
162,285,40296,1,0,0:0:0:0:
164,257,40399,2,0,L|168:166,1,90.9999972229005
232,350,40707,2,0,P|151:384|78:335,1,181.999994445801
252,0,41118,6,0,L|243:182,1,181.999994445801
341,384,41529,1,0,0:0:0:0:
342,356,41631,1,0,0:0:0:0:
343,329,41734,1,0,0:0:0:0:
345,302,41837,1,0,0:0:0:0:
346,274,41940,2,0,B|353:143|353:143|297:198,1,181.999994445801
132,375,42248,1,0,0:0:0:0:
159,376,42351,2,0,L|358:384,1,181.999994445801
83,98,42762,6,0,P|8:122|51:187,1,181.999994445801
221,176,43070,2,0,P|296:201|250:265,1,181.999994445801
84,274,43378,2,0,P|9:297|52:363,1,181.999994445801
250,265,43686,1,0,0:0:0:0:
275,254,43789,1,0,0:0:0:0:
300,244,43892,1,0,0:0:0:0:
325,235,43995,2,0,L|364:220,12,22.7499993057251
231,270,44406,6,0,P|161:214|148:126,1,181.999994445801
387,106,44714,1,0,0:0:0:0:
387,106,44817,2,0,P|456:161|469:249,1,181.999994445801
434,379,45125,1,0,0:0:0:0:
417,357,45227,1,0,0:0:0:0:
393,343,45330,1,0,0:0:0:0:
366,337,45433,2,0,L|270:342,2,90.9999972229005
511,245,45844,1,0,0:0:0:0:
175,157,46049,6,0,P|230:227|318:240,1,181.999994445801
511,245,46358,2,0,L|420:240,1,90.9999972229005
432,46,46666,2,0,L|427:136,1,90.9999972229005
371,330,46871,1,0,0:0:0:0:
349,314,46974,1,0,0:0:0:0:
332,292,47077,1,0,0:0:0:0:
321,267,47180,1,0,0:0:0:0:
317,240,47282,2,0,P|331:152|282:77,1,181.999994445801
126,180,47693,6,0,L|217:176,1,90.9999972229005
512,237,47899,2,0,L|402:241,1,90.9999972229005
318,241,48104,1,0,0:0:0:0:
412,140,48310,1,0,0:0:0:0:
412,140,48412,2,0,L|416:49,1,90.9999972229005
106,102,48721,2,0,L|196:106,1,90.9999972229005
0,277,48926,1,0,0:0:0:0:
0,277,49029,1,0,0:0:0:0:
0,277,49131,2,0,L|4:186,1,90.9999972229005
17,6,49337,5,0,0:0:0:0:
216,274,49543,1,0,0:0:0:0:
216,274,49645,1,0,0:0:0:0:
216,273,49748,2,0,P|131:280|103:201,1,181.999994445801
132,29,50056,1,0,0:0:0:0:
0,384,50364,1,0,0:0:0:0:
212,268,50570,1,0,0:0:0:0:
0,152,50775,5,0,0:0:0:0:
25,161,50878,1,0,0:0:0:0:
51,163,50981,2,0,P|147:162|234:119,1,195
302,0,51597,1,0,0:0:0:0:
51,163,51803,1,0,0:0:0:0:
374,384,52419,1,0,0:0:0:0:
102,276,52625,5,0,0:0:0:0:
341,166,52933,1,0,0:0:0:0:
325,159,53241,1,0,0:0:0:0:
102,276,53447,6,0,P|145:323|207:342,1,130
431,94,53755,2,0,P|387:141|325:160,1,130
147,89,54063,6,0,L|193:104,17,48.750001859665
76,43,55912,6,0,L|-7:71,1,65
57,187,56118,2,0,L|118:166,1,65
199,194,56323,1,0,0:0:0:0:
193,212,56426,1,0,0:0:0:0:
187,230,56529,1,0,0:0:0:0:
181,248,56632,1,0,0:0:0:0:
175,266,56734,5,0,0:0:0:0:
212,256,56837,1,0,0:0:0:0:
249,246,56940,1,0,0:0:0:0:
274,239,57043,1,0,0:0:0:0:
323,226,57145,5,0,0:0:0:0:
285,180,57248,1,0,0:0:0:0:
247,134,57351,1,0,0:0:0:0:
210,88,57453,1,0,0:0:0:0:
172,41,57556,6,0,P|150:95|104:129,1,116.999996429443
3,224,57762,1,0,0:0:0:0:
33,260,57864,1,0,0:0:0:0:
75,279,57967,2,0,P|132:275|179:241,1,116.999996429443
59,70,58173,2,0,P|63:128|97:175,1,116.999996429443
305,93,58378,1,0,0:0:0:0:
258,91,58480,1,0,0:0:0:0:
213,107,58583,1,0,0:0:0:0:
181,141,58686,1,0,0:0:0:0:
165,184,58788,1,0,0:0:0:0:
169,230,58891,1,0,0:0:0:0:
191,270,58995,2,0,P|240:302|298:303,1,116.999996429443
272,199,59200,6,0,P|273:141|304:92,1,116.999996429443
369,245,59406,1,0,0:0:0:0:
340,282,59508,1,0,0:0:0:0:
298,303,59611,2,0,P|240:302|191:270,1,116.999996429443
475,228,59817,2,0,P|468:285|433:331,1,116.999996429443
272,198,60022,1,0,0:0:0:0:
276,151,60124,1,0,0:0:0:0:
294,107,60227,1,0,0:0:0:0:
329,76,60330,1,0,0:0:0:0:
374,64,60432,1,0,0:0:0:0:
420,72,60535,1,0,0:0:0:0:
457,100,60639,2,0,P|480:152|473:209,1,116.999996429443
377,373,60844,6,0,B|386:213|386:213|382:264|342:300,1,233.999992858887
294,318,61152,2,0,L|166:324,1,116.999996429443
0,221,61358,1,0,0:0:0:0:
46,225,61460,2,0,L|173:231,1,116.999996429443
263,72,61666,2,0,B|254:232|254:232|258:181|298:145,1,233.999992858887
345,126,61974,2,0,L|472:119,1,116.999996429443
263,72,62180,5,0,0:0:0:0:
216,74,62282,1,0,0:0:0:0:
177,100,62385,1,0,0:0:0:0:
156,141,62488,2,0,P|158:199|198:244,1,116.999996429443
287,247,62693,5,0,0:0:0:0:
245,164,62796,1,0,0:0:0:0:
194,242,62899,2,0,P|206:298|253:336,1,116.999996429443
394,258,63104,1,0,0:0:0:0:
394,258,63207,1,0,0:0:0:0:
394,258,63310,2,0,P|341:233|283:248,1,116.999996429443
36,370,63515,1,0,0:0:0:0:
36,370,63618,1,0,0:0:0:0:
36,370,63721,2,0,L|163:376,1,116.999996429443
357,366,63926,2,0,L|240:359,1,116.999996429443
26,278,64132,5,0,0:0:0:0:
60,275,64234,1,0,0:0:0:0:
95,273,64337,2,0,L|211:267,1,116.999996429443
334,156,64543,2,0,L|217:150,1,116.999996429443
357,366,64748,2,0,L|363:250,1,116.999996429443
223,82,64953,5,0,0:0:0:0:
220,116,65055,1,0,0:0:0:0:
218,151,65159,2,0,L|212:268,1,116.999996429443
208,384,65364,1,0,0:0:0:0:
512,209,65570,1,0,0:0:0:0:
144,79,65775,6,0,L|148:195,1,116.999996429443
208,384,65981,1,0,0:0:0:0:
208,384,66084,1,0,0:0:0:0:
208,384,66186,2,0,L|212:267,1,116.999996429443
271,78,66392,2,0,L|275:194,1,116.999996429443
455,261,66597,2,0,L|304:261,1,116.999996429443
84,267,66803,1,0,0:0:0:0:
84,267,66906,1,0,0:0:0:0:
84,267,67008,1,0,0:0:0:0:
459,377,67214,2,0,L|454:260,1,116.999996429443
294,122,67419,6,0,P|243:213|337:260,1,233.999992858887
430,189,67727,1,0,0:0:0:0:
430,189,67830,2,0,L|313:193,1,116.999996429443
127,210,68036,1,0,0:0:0:0:
453,260,68241,2,0,P|501:165|407:117,1,233.999992858887
307,345,68549,1,0,0:0:0:0:
309,309,68652,2,0,L|313:193,1,116.999996429443
403,0,68858,2,0,L|407:116,1,116.999996429443
401,336,69063,5,0,0:0:0:0:
275,47,69269,1,0,0:0:0:0:
240,53,69371,1,0,0:0:0:0:
209,70,69474,2,0,P|176:117|173:175,1,116.999996429443
322,305,69680,1,0,0:0:0:0:
340,275,69782,1,0,0:0:0:0:
342,240,69885,2,0,P|320:186|274:153,1,116.999996429443
100,249,70090,1,0,0:0:0:0:
129,269,70193,2,0,P|186:276|239:253,1,116.999996429443
68,149,70399,2,0,P|-4:238|46:340,1,233.999992858887
173,175,70707,6,0,P|207:128|211:70,1,116.999996429443
239,253,70912,1,0,0:0:0:0:
269,288,71015,1,0,0:0:0:0:
313,307,71119,2,0,P|369:300|416:266,1,116.999996429443
372,99,71323,2,0,P|336:144|330:202,1,116.999996429443
475,116,71529,2,0,P|468:58|433:12,1,116.999996429443
211,70,71734,1,0,0:0:0:0:
197,115,71837,1,0,0:0:0:0:
207,160,71940,1,0,0:0:0:0:
240,193,72043,1,0,0:0:0:0:
386,75,72145,2,0,P|328:81|283:117,1,116.999996429443
330,244,72351,5,0,0:0:0:0:
300,279,72454,1,0,0:0:0:0:
256,298,72558,2,0,P|200:291|153:257,1,116.999996429443
197,90,72762,2,0,P|233:135|239:193,1,116.999996429443
94,107,72968,2,0,P|101:49|136:3,1,116.999996429443
140,179,73173,1,0,0:0:0:0:
95,191,73276,1,0,0:0:0:0:
50,182,73379,1,0,0:0:0:0:
16,149,73482,1,0,0:0:0:0:
135,3,73584,2,0,P|128:61|93:108,1,116.999996429443
0,313,73789,2,0,P|46:278|103:272,1,116.999996429443
261,356,73995,6,0,P|282:246|195:177,1,233.999992858887
183,284,74303,2,0,P|284:237|289:125,1,233.999992858887
100,28,74611,2,0,L|216:35,1,116.999996429443
374,242,74817,6,0,P|264:263|195:176,1,233.999992858887
302,163,75125,2,0,P|255:264|143:269,1,233.999992858887
46,80,75433,2,0,L|53:196,1,116.999996429443
72,380,75638,5,0,0:0:0:0:
74,344,75740,1,0,0:0:0:0:
88,312,75843,1,0,0:0:0:0:
112,286,75946,1,0,0:0:0:0:
143,269,76048,5,0,0:0:0:0:
194,282,76152,1,0,0:0:0:0:
245,269,76255,1,0,0:0:0:0:
283,235,76358,1,0,0:0:0:0:
302,185,76460,5,0,0:0:0:0:
232,180,76562,1,0,0:0:0:0:
180,134,76665,1,0,0:0:0:0:
168,66,76768,1,0,0:0:0:0:
201,6,76871,2,0,L|317:13,1,116.999996429443
449,106,77077,2,0,L|333:113,1,116.999996429443
180,134,77282,2,0,L|64:141,1,116.999996429443
0,335,77488,1,0,0:0:0:0:
46,337,77590,1,0,0:0:0:0:
92,338,77693,2,0,B|249:347|249:347|189:340|170:289,1,233.999992858887
63,141,78104,6,0,P|135:222|235:178,1,233.999992858887
236,86,78412,1,0,0:0:0:0:
156,131,78515,2,0,P|166:239|273:262,1,233.999992858887
387,26,78926,6,0,L|393:153,1,116.999996429443
273,261,79132,1,0,0:0:0:0:
227,270,79234,1,0,0:0:0:0:
182,254,79337,2,0,L|175:137,1,116.999996429443
393,142,79543,5,0,0:0:0:0:
439,133,79645,1,0,0:0:0:0:
484,149,79748,2,0,L|490:265,1,116.999996429443
291,162,79954,1,0,0:0:0:0:
282,116,80056,1,0,0:0:0:0:
298,71,80159,2,0,L|414:64,1,116.999996429443
175,137,80364,2,0,L|58:130,1,116.999996429443
174,223,80570,6,0,P|258:156|212:58,1,233.999992858887
32,352,80981,1,0,0:0:0:0:
416,192,81186,1,0,0:0:0:0:
32,32,81392,6,0,P|33:141|138:169,1,233.999992858887
199,97,81700,1,0,0:0:0:0:
104,85,81803,2,0,P|45:177|117:262,1,233.999992858887
210,238,82111,1,0,0:0:0:0:
138,171,82214,2,0,P|35:215|46:325,1,233.999992858887
330,378,82522,2,0,L|202:384,1,116.999996429443
416,191,82830,2,0,L|409:318,1,116.999996429443
327,43,83036,2,0,P|326:156|219:222,1,233.999992858887
207,78,83344,1,0,0:0:0:0:
215,98,83447,2,0,L|212:149,12,29.2499991073609
206,314,83858,5,0,0:0:0:0:
40,66,84063,1,0,0:0:0:0:
61,82,84166,1,0,0:0:0:0:
88,84,84269,2,0,P|141:60|58:41,1,181.999994445801
83,220,84680,2,0,L|88:315,1,90.9999972229005
213,131,84885,2,0,L|217:40,1,90.9999972229005
167,204,85090,2,0,P|254:206|299:131,1,181.999994445801
111,139,85399,5,0,0:0:0:0:
93,161,85501,2,0,P|91:247|166:292,1,181.999994445801
419,161,85912,2,0,P|420:247|345:292,1,181.999994445801
126,35,86323,2,0,L|216:39,1,90.9999972229005
419,161,86529,1,0,0:0:0:0:
398,177,86632,1,0,0:0:0:0:
371,179,86735,2,0,P|317:155|400:136,1,181.999994445801
430,258,87043,5,0,0:0:0:0:
407,269,87145,2,0,P|317:270|244:216,1,181.999994445801
63,74,87556,2,0,P|152:73|226:127,1,181.999994445801
126,384,87967,2,0,L|131:293,1,90.9999972229005
224,125,88173,2,0,L|229:215,1,90.9999972229005
308,101,88378,2,0,P|245:40|162:64,1,181.999994445801
296,188,88686,5,0,0:0:0:0:
321,188,88789,2,0,P|387:132|374:47,1,181.999994445801
190,223,89200,2,0,P|225:302|311:311,1,181.999994445801
175,6,89611,6,0,L|171:97,1,90.9999972229005
277,229,89817,2,0,L|281:138,1,90.9999972229005
52,170,90022,2,0,L|47:260,1,90.9999972229005
45,288,90227,1,0,0:0:0:0:
175,6,90433,5,0,0:0:0:0:
367,224,90638,2,0,L|276:228,1,90.9999972229005
45,288,90844,2,0,L|135:292,1,90.9999972229005
163,294,91049,1,0,0:0:0:0:
0,64,91255,5,0,0:0:0:0:
40,378,91460,2,0,L|44:287,1,90.9999972229005
139,117,91666,2,0,L|143:207,1,90.9999972229005
243,91,91871,5,0,0:0:0:0:
227,57,91974,1,0,0:0:0:0:
200,30,92077,2,0,P|160:11|112:15,1,90.9999972229005
43,237,92282,1,0,0:0:0:0:
59,271,92385,1,0,0:0:0:0:
86,295,92488,2,0,P|126:311|177:306,1,90.9999972229005
140,120,92693,2,0,P|130:164|142:207,1,90.9999972229005
266,251,92899,5,0,0:0:0:0:
259,284,93001,1,0,0:0:0:0:
244,316,93104,1,0,0:0:0:0:
216,340,93207,1,0,0:0:0:0:
181,351,93310,2,0,L|172:306,1,45.4999986114502
139,352,93412,2,0,L|139:306,1,45.4999986114502
105,348,93515,2,0,L|113:303,1,45.4999986114502
68,330,93618,2,0,L|99:297,1,45.4999986114502
47,305,93721,6,0,P|40:217|109:163,1,181.999994445801
280,113,94029,2,0,P|286:200|217:254,1,181.999994445801
107,163,94337,2,0,L|197:159,1,90.9999972229005
28,113,94543,6,0,P|21:201|90:255,1,181.999994445801
258,300,94851,2,0,P|265:212|197:157,1,181.999994445801
88,254,95159,2,0,L|178:250,1,90.9999972229005
329,240,95364,1,0,0:0:0:0:
256,192,95467,12,0,96597,0:0:0:0:
141,94,97008,5,0,0:0:0:0:
322,340,97317,1,0,0:0:0:0:
450,63,97625,1,0,0:0:0:0:
450,63,97830,2,0,P|374:127|273:189,1,195
141,263,98652,5,0,0:0:0:0:
322,17,98961,1,0,0:0:0:0:
450,294,99269,1,0,0:0:0:0:
450,294,99474,2,0,P|374:230|273:168,1,195
296,383,100296,6,0,P|313:338|323:290,1,97.5
215,0,101118,2,0,P|198:45|188:93,1,97.5
323,289,101940,2,0,P|340:244|350:196,1,97.5
188,93,102762,2,0,P|170:138|160:186,1,97.5
197,353,103584,6,0,L|192:327,1,16.25
290,306,103789,2,0,L|295:280,1,16.25
173,247,103995,2,0,L|168:221,1,16.25
313,200,104200,2,0,L|318:174,1,16.25
146,130,104406,6,0,L|141:104,7,16.25
64,201,105227,2,0,L|59:227,7,16.25
169,231,106049,2,0,L|195:226,7,16.25
256,192,106871,12,0,110159,0:0:0:0:
