osu file format v14

[General]
AudioFilename: audio.mp3
AudioLeadIn: 0
PreviewTime: 97475
Countdown: 0
SampleSet: Normal
StackLeniency: 0.7
Mode: 3
LetterboxInBreaks: 0
SpecialStyle: 0
WidescreenStoryboard: 0

[Editor]
Bookmarks: 42855,44510,97475,137199,149228,151075,181062,240661,246454,247281,283695
DistanceSpacing: 1
BeatDivisor: 4
GridSize: 4
TimelineZoom: 2.699996

[Metadata]
Title:Discloze (Extended)
TitleUnicode:Discloze (Extended)
Artist:lapix
ArtistUnicode:lapix
Creator:Alternater
Version:Sevillanas
Source:SOUND VOLTEX III GRAVITY WARS
Tags:MRX-009 Megarex DoNotMess hi tech hi-tech sdvx 3 perfect comes beatmania IIDX 22 PENDUAL PSYTRANCE
BeatmapID:1519426
BeatmapSetID:719520

[Difficulty]
HPDrainRate:9
CircleSize:4
OverallDifficulty:8.2
ApproachRate:5
SliderMultiplier:1.4
SliderTickRate:1

[Events]
//Background and Video events
0,0,"discloze.jpg",0,0
//Break Periods
//Storyboard Layer 0 (Background)
//Storyboard Layer 1 (Fail)
//Storyboard Layer 2 (Pass)
//Storyboard Layer 3 (Foreground)
//Storyboard Sound Samples

[TimingPoints]
1489,413.793103448276,4,1,1,60,1,0
2730,-12.5,4,1,1,60,0,0
2756,-500,4,1,1,60,0,0
2911,-333.333333333333,4,1,1,60,0,0
2937,-250,4,1,1,60,0,0
2963,-166.666666666667,4,1,1,60,0,0
2989,-125,4,1,1,60,0,0
3014,-100,4,1,1,60,0,0
3040,-76.9230769230769,4,1,1,60,0,0
3066,-62.5,4,1,1,60,0,0
3092,-50,4,1,1,60,0,0
3118,-40,4,1,1,60,0,0
3144,-35.7142857142857,4,1,1,60,0,0
3170,-250,4,1,1,60,0,0
3248,-100,4,1,1,60,0,0
6248,-32.258064516129,4,1,1,60,0,0
6274,-142.857142857143,4,1,1,60,0,0
6455,-35.7142857142857,4,1,1,60,0,0
6481,-250,4,1,1,60,0,0
6558,-100,4,1,1,60,0,0
9558,-32.258064516129,4,1,1,60,0,0
9584,-142.857142857143,4,1,1,60,0,0
9765,-35.7142857142857,4,1,1,60,0,0
9791,-250,4,1,1,60,0,0
9869,-100,4,1,1,60,0,0
12869,-32.258064516129,4,1,1,60,0,0
12895,-142.857142857143,4,1,1,60,0,0
13076,-35.7142857142857,4,1,1,60,0,0
13101,-250,4,1,1,60,0,0
13179,-100,4,1,1,60,0,0
16178,-333.333333333333,4,1,1,60,0,0
16204,-200,4,1,1,60,0,0
16230,-142.857142857143,4,1,1,60,0,0
16256,-111.111111111111,4,1,1,60,0,0
16282,-90.9090909090909,4,1,1,60,0,0
16307,-76.9230769230769,4,1,1,60,0,0
16333,-66.6666666666667,4,1,1,60,0,0
16359,-58.8235294117647,4,1,1,60,0,0
16386,-32.258064516129,4,1,1,60,0,0
16412,-142.857142857143,4,1,1,60,0,0
16593,-100,4,1,1,60,0,0
19696,-32.258064516129,4,1,1,60,0,0
19722,-142.857142857143,4,1,1,60,0,0
19902,-100,4,1,1,60,0,0
23007,-32.258064516129,4,1,1,60,0,0
23032,-142.857142857143,4,1,1,60,0,0
23213,-100,4,1,1,60,0,0
29627,-111.111111111111,4,1,1,60,0,0
29938,-125,4,1,1,60,0,0
30248,-142.857142857143,4,1,1,60,0,0
30558,-166.666666666667,4,1,1,60,0,0
31308,-33.3333333333333,4,1,1,60,0,0
31360,-166.666666666667,4,1,1,60,0,0
31619,-38.4615384615385,4,1,1,60,0,0
31670,-166.666666666667,4,1,1,60,0,0
31877,-45.4545454545455,4,1,1,60,0,0
31929,-166.666666666667,4,1,1,60,0,0
32084,-33.3333333333333,4,1,1,60,0,0
32110,-200,4,1,1,60,0,0
32213,-40,4,1,1,60,0,0
32239,-200,4,1,1,60,0,0
32317,-55.5555555555556,4,1,1,60,0,0
32343,-166.666666666667,4,1,1,60,0,0
32395,-55.5555555555556,4,1,1,60,0,0
32420,-166.666666666667,4,1,1,60,0,0
32472,-55.5555555555556,4,1,1,60,0,0
32498,-166.666666666667,4,1,1,60,0,0
32550,-100,4,1,1,60,0,0
33015,-33.3333333333333,4,1,1,60,0,0
33041,-200,4,1,1,60,0,0
33119,-99.009900990099,4,1,1,60,0,0
33558,-28.5714285714286,4,1,1,60,0,0
33584,-200,4,1,1,60,0,0
33688,-98.0392156862745,4,1,1,60,0,0
34153,-33.3333333333333,4,1,1,60,0,0
34179,-200,4,1,1,60,0,0
34257,-97.0873786407767,4,1,1,60,0,0
34593,-28.5714285714286,4,1,1,60,0,0
34619,-200,4,1,1,60,0,0
34748,-96.1538461538461,4,1,1,60,0,0
35084,-41.6666666666667,4,1,1,60,0,0
35110,-333.333333333333,4,1,1,60,0,0
35162,-95.2380952380952,4,1,1,60,0,0
35395,-41.6666666666667,4,1,1,60,0,0
35420,-333.333333333333,4,1,1,60,0,0
35472,-94.3396226415094,4,1,1,60,0,0
35705,-33.3333333333333,4,1,1,60,0,0
35731,-200,4,1,1,60,0,0
35834,-93.4579439252336,4,1,1,60,0,0
36093,-52.6315789473684,4,1,1,60,0,0
36119,-1000,4,1,1,60,0,0
36145,-100,4,1,1,60,0,0
36248,-35.7142857142857,4,1,1,60,0,0
36274,-250,4,1,1,60,0,0
36351,-100,4,1,1,60,0,0
36455,-35.0877192982456,4,1,1,60,0,0
36481,-222.222222222222,4,1,1,60,0,0
36558,-95.2380952380952,4,1,1,60,0,0
36662,-34.4827586206897,4,1,1,60,0,0
36688,-200,4,1,1,60,0,0
36765,-90.9090909090909,4,1,1,60,0,0
36869,-33.8983050847458,4,1,1,60,0,0
36895,-181.818181818182,4,1,1,60,0,0
36972,-86.9565217391304,4,1,1,60,0,0
37076,-92.5925925925926,4,1,1,60,0,0
38731,-90.9090909090909,4,1,1,60,0,0
40386,-89.2857142857143,4,1,1,60,0,0
41213,-47.6190476190476,4,1,1,60,0,0
41239,-1000,4,1,1,60,0,0
41265,-47.6190476190476,4,1,1,60,0,0
41291,-1000,4,1,1,60,0,0
41317,-47.6190476190476,4,1,1,60,0,0
41343,-1000,4,1,1,60,0,0
41369,-47.6190476190476,4,1,1,60,0,0
41395,-1000,4,1,1,60,0,0
41420,-47.6190476190476,4,1,1,60,0,0
41446,-1000,4,1,1,60,0,0
41472,-47.6190476190476,4,1,1,60,0,0
41498,-1000,4,1,1,60,0,0
41524,-47.6190476190476,4,1,1,60,0,0
41550,-1000,4,1,1,60,0,0
41576,-47.6190476190476,4,1,1,60,0,0
41601,-1000,4,1,1,60,0,0
41627,-90.9090909090909,4,1,1,60,0,0
42041,-166.666666666667,4,1,1,60,0,0
42076,-142.857142857143,4,1,1,60,0,0
42110,-125,4,1,1,60,0,0
42145,-111.111111111111,4,1,1,60,0,0
42179,-100,4,1,1,60,0,0
42213,-90.9090909090909,4,1,1,60,0,0
42248,-83.3333333333333,4,1,1,60,0,0
42282,-76.9230769230769,4,1,1,60,0,0
42317,-71.4285714285714,4,1,1,60,0,0
42351,-100,4,1,1,60,0,0
42455,-200,4,1,1,60,0,0
42489,-142.857142857143,4,1,1,60,0,0
42524,-111.111111111111,4,1,1,60,0,0
42558,-90.9090909090909,4,1,1,60,0,0
42593,-76.9230769230769,4,1,1,60,0,0
42627,-66.6666666666667,4,1,1,60,0,0
42662,-200,4,1,1,60,0,0
42696,-142.857142857143,4,1,1,60,0,0
42731,-111.111111111111,4,1,1,60,0,0
42765,-90.9090909090909,4,1,1,60,0,0
42800,-76.9230769230769,4,1,1,60,0,0
42834,-66.6666666666667,4,1,1,60,0,0
42869,-25,4,1,1,60,0,0
42920,-166.666666666667,4,1,1,60,0,0
43903,-40,4,1,1,60,0,0
43955,-200,4,1,1,60,0,0
44110,-45.4545454545455,4,1,1,60,0,0
44162,-250,4,1,1,60,0,0
44317,-45.4545454545455,4,1,1,60,0,0
44369,-250,4,1,1,60,0,0
44524,-40,4,1,1,60,0,0
44576,-200,4,1,1,60,0,0
44731,-100,4,1,1,60,0,0
45765,-40,4,1,1,60,0,0
45817,-200,4,1,1,60,0,0
45972,-100,4,1,1,60,0,0
46800,-40,4,1,1,60,0,0
46851,-200,4,1,1,60,0,0
47007,-40,4,1,1,60,0,0
47058,-200,4,1,1,60,0,0
47213,-40,4,1,1,60,0,0
47265,-200,4,1,1,60,0,0
47420,-100,4,1,1,60,0,0
47938,-66.6666666666667,4,1,1,60,0,0
47989,-76.9230769230769,4,1,1,60,0,0
48041,-90.9090909090909,4,1,1,60,0,0
48093,-111.111111111111,4,1,1,60,0,0
48145,-142.857142857143,4,1,1,60,0,0
48196,-200,4,1,1,60,0,0
48248,-100,4,1,1,60,0,0
48351,-66.6666666666667,4,1,1,60,0,0
48403,-76.9230769230769,4,1,1,60,0,0
48455,-90.9090909090909,4,1,1,60,0,0
48507,-111.111111111111,4,1,1,60,0,0
48558,-142.857142857143,4,1,1,60,0,0
48610,-200,4,1,1,60,0,0
48662,-100,4,1,1,60,0,0
49489,-57.1428571428571,4,1,1,60,0,0
49541,-400,4,1,1,60,0,0
49593,-57.1428571428571,4,1,1,60,0,0
49645,-400,4,1,1,60,0,0
49696,-57.1428571428571,4,1,1,60,0,0
49748,-400,4,1,1,60,0,0
49800,-57.1428571428571,4,1,1,60,0,0
49851,-400,4,1,1,60,0,0
49903,-57.1428571428571,4,1,1,60,0,0
49955,-400,4,1,1,60,0,0
50007,-57.1428571428571,4,1,1,60,0,0
50058,-400,4,1,1,60,0,0
50110,-57.1428571428571,4,1,1,60,0,0
50162,-400,4,1,1,60,0,0
50213,-57.1428571428571,4,1,1,60,0,0
50265,-400,4,1,1,60,0,0
50317,-100,4,1,1,60,0,0
50731,-76.9230769230769,4,1,1,60,0,0
50834,-90.9090909090909,4,1,1,60,0,0
50938,-111.111111111111,4,1,1,60,0,0
51041,-142.857142857143,4,1,1,60,0,0
51145,-40,4,1,1,60,0,0
51196,-200,4,1,1,60,0,0
51351,-100,4,1,1,60,0,0
52799,-250,4,1,1,60,0,0
52876,-35.7142857142857,4,1,1,60,0,0
52902,-100,4,1,1,60,0,0
52954,-250,4,1,1,60,0,0
53032,-35.7142857142857,4,1,1,60,0,0
53057,-100,4,1,1,60,0,0
53109,-250,4,1,1,60,0,0
53187,-35.7142857142857,4,1,1,60,0,0
53213,-250,4,1,1,60,0,0
53290,-35.7142857142857,4,1,1,60,0,0
53316,-100,4,1,1,60,0,0
53368,-250,4,1,1,60,0,0
53445,-35.7142857142857,4,1,1,60,0,0
53471,-100,4,1,1,60,0,0
53523,-250,4,1,1,60,0,0
53601,-35.7142857142857,4,1,1,60,0,0
53626,-250,4,1,1,60,0,0
53704,-35.7142857142857,4,1,1,60,0,0
53730,-250,4,1,1,60,0,0
53807,-35.7142857142857,4,1,1,60,0,0
53833,-250,4,1,1,60,0,0
53911,-35.7142857142857,4,1,1,60,0,0
53937,-250,4,1,1,60,0,0
54014,-35.7142857142857,4,1,1,60,0,0
54040,-333.333333333333,4,1,1,60,0,0
54075,-58.8235294117647,4,1,1,60,0,0
54109,-100,4,1,1,60,0,0
54178,-333.333333333333,4,1,1,60,0,0
54213,-58.8235294117647,4,1,1,60,0,0
54247,-100,4,1,1,60,0,0
54316,-333.333333333333,4,1,1,60,0,0
54351,-58.8235294117647,4,1,1,60,0,0
54385,-100,4,1,1,60,0,0
55696,-35.7142857142857,4,1,1,60,0,0
55722,-250,4,1,1,60,0,0
55800,-100,4,1,1,60,0,0
55903,-35.7142857142857,4,1,1,60,0,0
55929,-250,4,1,1,60,0,0
56007,-100,4,1,1,60,0,0
56110,-35.7142857142857,4,1,1,60,0,0
56136,-125,4,1,1,60,0,0
57351,-43.4782608695652,4,1,1,60,0,0
57377,-333.333333333333,4,1,1,60,0,0
57455,-125,4,1,1,60,0,0
57558,-43.4782608695652,4,1,1,60,0,0
57584,-333.333333333333,4,1,1,60,0,0
57662,-125,4,1,1,60,0,0
57765,-40,4,1,1,60,0,0
57817,-200,4,1,1,60,0,0
57972,-100,4,1,1,60,0,0
58593,-90.9090909090909,4,1,1,60,0,0
59317,-100,4,1,1,60,0,0
60041,-40,4,1,1,60,0,0
60093,-200,4,1,1,60,0,0
60248,-40,4,1,1,60,0,0
60300,-200,4,1,1,60,0,0
60455,-100,4,1,1,60,0,0
61179,-66.6666666666667,4,1,1,60,0,0
61231,-76.9230769230769,4,1,1,60,0,0
61282,-90.9090909090909,4,1,1,60,0,0
61334,-111.111111111111,4,1,1,60,0,0
61386,-142.857142857143,4,1,1,60,0,0
61438,-200,4,1,1,60,0,0
61489,-100,4,1,1,60,0,0
61593,-66.6666666666667,4,1,1,60,0,0
61645,-76.9230769230769,4,1,1,60,0,0
61696,-90.9090909090909,4,1,1,60,0,0
61748,-111.111111111111,4,1,1,60,0,0
61800,-142.857142857143,4,1,1,60,0,0
61851,-200,4,1,1,60,0,0
61903,-100,4,1,1,60,0,0
62731,-57.1428571428571,4,1,1,60,0,0
62782,-400,4,1,1,60,0,0
62834,-57.1428571428571,4,1,1,60,0,0
62886,-400,4,1,1,60,0,0
62938,-57.1428571428571,4,1,1,60,0,0
62989,-400,4,1,1,60,0,0
63041,-57.1428571428571,4,1,1,60,0,0
63093,-400,4,1,1,60,0,0
63145,-57.1428571428571,4,1,1,60,0,0
63196,-400,4,1,1,60,0,0
63248,-57.1428571428571,4,1,1,60,0,0
63300,-400,4,1,1,60,0,0
63351,-57.1428571428571,4,1,1,60,0,0
63403,-400,4,1,1,60,0,0
63455,-57.1428571428571,4,1,1,60,0,0
63507,-400,4,1,1,60,0,0
63558,-100,4,1,1,60,0,0
63972,-90.9090909090909,4,1,1,60,0,0
64076,-100,4,1,1,60,0,0
64179,-111.111111111111,4,1,1,60,0,0
64282,-111.111111111111,4,1,1,60,0,0
64386,-40,4,1,1,60,0,0
64438,-200,4,1,1,60,0,0
64593,-100,4,1,1,60,0,0
65317,-66.6666666666667,4,1,1,60,0,0
65369,-76.9230769230769,4,1,1,60,0,0
65420,-90.9090909090909,4,1,1,60,0,0
65472,-111.111111111111,4,1,1,60,0,0
65524,-142.857142857143,4,1,1,60,0,0
65576,-200,4,1,1,60,0,0
65627,-100,4,1,1,60,0,0
66040,-250,4,1,1,60,0,0
66118,-35.7142857142857,4,1,1,60,0,0
66144,-100,4,1,1,60,0,0
66195,-250,4,1,1,60,0,0
66273,-35.7142857142857,4,1,1,60,0,0
66299,-100,4,1,1,60,0,0
66351,-250,4,1,1,60,0,0
66428,-35.7142857142857,4,1,1,60,0,0
66454,-250,4,1,1,60,0,0
66532,-35.7142857142857,4,1,1,60,0,0
66557,-100,4,1,1,60,0,0
66609,-250,4,1,1,60,0,0
66687,-35.7142857142857,4,1,1,60,0,0
66713,-100,4,1,1,60,0,0
66764,-250,4,1,1,60,0,0
66842,-35.7142857142857,4,1,1,60,0,0
66868,-250,4,1,1,60,0,0
66945,-35.7142857142857,4,1,1,60,0,0
66971,-250,4,1,1,60,0,0
67049,-35.7142857142857,4,1,1,60,0,0
67075,-250,4,1,1,60,0,0
67152,-35.7142857142857,4,1,1,60,0,0
67178,-250,4,1,1,60,0,0
67256,-35.7142857142857,4,1,1,60,0,0
67282,-333.333333333333,4,1,1,60,0,0
67316,-58.8235294117647,4,1,1,60,0,0
67351,-100,4,1,1,60,0,0
67420,-333.333333333333,4,1,1,60,0,0
67454,-58.8235294117647,4,1,1,60,0,0
67489,-100,4,1,1,60,0,0
67557,-333.333333333333,4,1,1,60,0,0
67592,-58.8235294117647,4,1,1,60,0,0
67626,-100,4,1,1,60,0,0
68524,-55.5555555555556,4,1,1,60,0,0
68576,-500,4,1,1,60,0,0
68627,-100,4,1,1,60,0,0
68731,-55.5555555555556,4,1,1,60,0,0
68782,-500,4,1,1,60,0,0
68834,-100,4,1,1,60,0,0
68938,-55.5555555555556,4,1,1,60,0,0
68989,-500,4,1,1,60,0,0
69041,-100,4,1,1,60,0,0
69145,-55.5555555555556,4,1,1,60,0,0
69196,-500,4,1,1,60,0,0
69248,-100,4,1,1,60,0,0
69351,-58.8235294117647,4,1,1,60,0,0
69377,-66.6666666666667,4,1,1,60,0,0
69403,-76.9230769230769,4,1,1,60,0,0
69429,-111.111111111111,4,1,1,60,0,0
69455,-142.857142857143,4,1,1,60,0,0
69481,-200,4,1,1,60,0,0
69507,-333.333333333333,4,1,1,60,0,0
69532,-500,4,1,1,60,0,0
69558,-125,4,1,1,60,0,0
70386,-40,4,1,1,60,0,0
70438,-200,4,1,1,60,0,0
70593,-45.4545454545455,4,1,1,60,0,0
70645,-250,4,1,1,60,0,0
70800,-45.4545454545455,4,1,1,60,0,0
70851,-250,4,1,1,60,0,0
71007,-40,4,1,1,60,0,0
71058,-200,4,1,1,60,0,0
71213,-100,4,1,1,60,0,0
72248,-40,4,1,1,60,0,0
72300,-200,4,1,1,60,0,0
72455,-100,4,1,1,60,0,0
72662,-90.9090909090909,4,1,1,60,0,0
74213,-100,4,1,1,60,0,0
74420,-66.6666666666667,4,1,1,60,0,0
74472,-76.9230769230769,4,1,1,60,0,0
74524,-90.9090909090909,4,1,1,60,0,0
74576,-111.111111111111,4,1,1,60,0,0
74627,-142.857142857143,4,1,1,60,0,0
74679,-200,4,1,1,60,0,0
74731,-100,4,1,1,60,0,0
74834,-66.6666666666667,4,1,1,60,0,0
74886,-76.9230769230769,4,1,1,60,0,0
74938,-90.9090909090909,4,1,1,60,0,0
74989,-111.111111111111,4,1,1,60,0,0
75041,-142.857142857143,4,1,1,60,0,0
75093,-200,4,1,1,60,0,0
75145,-100,4,1,1,60,0,0
76386,-57.1428571428571,4,1,1,60,0,0
76438,-400,4,1,1,60,0,0
76489,-57.1428571428571,4,1,1,60,0,0
76541,-400,4,1,1,60,0,0
76593,-57.1428571428571,4,1,1,60,0,0
76645,-400,4,1,1,60,0,0
76696,-57.1428571428571,4,1,1,60,0,0
76748,-400,4,1,1,60,0,0
76800,-57.1428571428571,4,1,1,60,0,0
76851,-400,4,1,1,60,0,0
76903,-57.1428571428571,4,1,1,60,0,0
76955,-400,4,1,1,60,0,0
77007,-57.1428571428571,4,1,1,60,0,0
77058,-400,4,1,1,60,0,0
77110,-57.1428571428571,4,1,1,60,0,0
77162,-400,4,1,1,60,0,0
77213,-76.9230769230769,4,1,1,60,0,0
77317,-90.9090909090909,4,1,1,60,0,0
77420,-111.111111111111,4,1,1,60,0,0
77524,-142.857142857143,4,1,1,60,0,0
77627,-40,4,1,1,60,0,0
77679,-200,4,1,1,60,0,0
77834,-100,4,1,1,60,0,0
79282,-250,4,1,1,60,0,0
79359,-35.7142857142857,4,1,1,60,0,0
79385,-100,4,1,1,60,0,0
79437,-250,4,1,1,60,0,0
79514,-35.7142857142857,4,1,1,60,0,0
79540,-100,4,1,1,60,0,0
79592,-250,4,1,1,60,0,0
79670,-35.7142857142857,4,1,1,60,0,0
79695,-250,4,1,1,60,0,0
79773,-35.7142857142857,4,1,1,60,0,0
79799,-100,4,1,1,60,0,0
79851,-250,4,1,1,60,0,0
79928,-35.7142857142857,4,1,1,60,0,0
79954,-100,4,1,1,60,0,0
80006,-250,4,1,1,60,0,0
80083,-35.7142857142857,4,1,1,60,0,0
80109,-250,4,1,1,60,0,0
80187,-35.7142857142857,4,1,1,60,0,0
80213,-250,4,1,1,60,0,0
80290,-35.7142857142857,4,1,1,60,0,0
80316,-250,4,1,1,60,0,0
80394,-35.7142857142857,4,1,1,60,0,0
80420,-250,4,1,1,60,0,0
80497,-35.7142857142857,4,1,1,60,0,0
80523,-333.333333333333,4,1,1,60,0,0
80557,-58.8235294117647,4,1,1,60,0,0
80592,-100,4,1,1,60,0,0
80661,-333.333333333333,4,1,1,60,0,0
80695,-58.8235294117647,4,1,1,60,0,0
80730,-100,4,1,1,60,0,0
80799,-333.333333333333,4,1,1,60,0,0
80833,-58.8235294117647,4,1,1,60,0,0
80868,-100,4,1,1,60,0,0
82179,-40,4,1,1,60,0,0
82231,-200,4,1,1,60,0,0
82386,-40,4,1,1,60,0,0
82438,-200,4,1,1,60,0,0
82593,-125,4,1,1,60,0,0
83834,-43.4782608695652,4,1,1,60,0,0
83860,-333.333333333333,4,1,1,60,0,0
83938,-100,4,1,1,60,0,0
84041,-43.4782608695652,4,1,1,60,0,0
84067,-333.333333333333,4,1,1,60,0,0
84145,-100,4,1,1,60,0,0
84248,-40,4,1,1,60,0,0
84300,-200,4,1,1,60,0,0
84455,-100,4,1,1,60,0,0
85076,-90.9090909090909,4,1,1,60,0,0
85800,-100,4,1,1,60,0,0
86524,-40,4,1,1,60,0,0
86576,-200,4,1,1,60,0,0
86731,-40,4,1,1,60,0,0
86782,-200,4,1,1,60,0,0
86938,-40,4,1,1,60,0,0
86989,-200,4,1,1,60,0,0
87145,-100,4,1,1,60,0,0
87662,-66.6666666666667,4,1,1,60,0,0
87713,-76.9230769230769,4,1,1,60,0,0
87765,-90.9090909090909,4,1,1,60,0,0
87817,-111.111111111111,4,1,1,60,0,0
87869,-142.857142857143,4,1,1,60,0,0
87920,-200,4,1,1,60,0,0
87972,-100,4,1,1,60,0,0
88076,-66.6666666666667,4,1,1,60,0,0
88127,-76.9230769230769,4,1,1,60,0,0
88179,-90.9090909090909,4,1,1,60,0,0
88231,-111.111111111111,4,1,1,60,0,0
88282,-142.857142857143,4,1,1,60,0,0
88334,-200,4,1,1,60,0,0
88386,-100,4,1,1,60,0,0
89627,-57.1428571428571,4,1,1,60,0,0
89679,-400,4,1,1,60,0,0
89731,-57.1428571428571,4,1,1,60,0,0
89782,-400,4,1,1,60,0,0
89834,-57.1428571428571,4,1,1,60,0,0
89886,-400,4,1,1,60,0,0
89938,-57.1428571428571,4,1,1,60,0,0
89989,-400,4,1,1,60,0,0
90041,-57.1428571428571,4,1,1,60,0,0
90093,-400,4,1,1,60,0,0
90145,-57.1428571428571,4,1,1,60,0,0
90196,-400,4,1,1,60,0,0
90248,-57.1428571428571,4,1,1,60,0,0
90300,-400,4,1,1,60,0,0
90351,-57.1428571428571,4,1,1,60,0,0
90403,-400,4,1,1,60,0,0
90455,-76.9230769230769,4,1,1,60,0,0
90558,-90.9090909090909,4,1,1,60,0,0
90662,-111.111111111111,4,1,1,60,0,0
90765,-142.857142857143,4,1,1,60,0,0
90869,-40,4,1,1,60,0,0
90920,-200,4,1,1,60,0,0
91076,-100,4,1,1,60,0,0
91800,-62.5,4,1,1,60,0,0
91851,-83.3333333333333,4,1,1,60,0,0
91903,-125,4,1,1,60,0,0
91955,-250.000000000001,4,1,1,60,0,0
92007,-100,4,1,1,60,0,0
92524,-250.000000000001,4,1,1,60,0,0
92601,-35.7142857142857,4,1,1,60,0,0
92627,-100,4,1,1,60,0,0
92679,-250.000000000001,4,1,1,60,0,0
92757,-35.7142857142857,4,1,1,60,0,0
92782,-100,4,1,1,60,0,0
92834,-250.000000000001,4,1,1,60,0,0
92912,-35.7142857142857,4,1,1,60,0,0
92938,-250.000000000001,4,1,1,60,0,0
93015,-35.7142857142857,4,1,1,60,0,0
93041,-100,4,1,1,60,0,0
93093,-250.000000000001,4,1,1,60,0,0
93170,-35.7142857142857,4,1,1,60,0,0
93196,-100,4,1,1,60,0,0
93248,-250.000000000001,4,1,1,60,0,0
93326,-35.7142857142857,4,1,1,60,0,0
93351,-100,4,1,1,60,0,0
93972,-200,4,1,1,60,0,0
94153,-22.2222222222222,4,1,1,60,0,0
94179,-100,4,1,1,60,0,0
95007,-58.8235294117647,4,1,1,60,0,0
95058,-333.333333333333,4,1,1,60,0,0
95110,-100,4,1,1,60,0,0
95213,-58.8235294117647,4,1,1,60,0,0
95265,-333.333333333333,4,1,1,60,0,0
95317,-100,4,1,1,60,0,0
95420,-58.8235294117647,4,1,1,60,0,0
95472,-333.333333333333,4,1,1,60,0,0
95524,-100,4,1,1,60,0,0
96662,-62.5,4,1,1,60,0,0
96688,-250,4,1,1,60,0,0
96713,-62.5,4,1,1,60,0,0
96739,-250,4,1,1,60,0,0
96765,-62.5,4,1,1,60,0,0
96791,-250,4,1,1,60,0,0
96817,-62.5,4,1,1,60,0,0
96843,-250,4,1,1,60,0,0
96869,-58.8235294117647,4,1,1,60,0,0
96895,-333.333333333333,4,1,1,60,0,0
96920,-58.8235294117647,4,1,1,60,0,0
96946,-333.333333333333,4,1,1,60,0,0
96972,-58.8235294117647,4,1,1,60,0,0
96998,-333.333333333333,4,1,1,60,0,0
97024,-58.8235294117647,4,1,1,60,0,0
97050,-333.333333333333,4,1,1,60,0,0
97076,-55.5555555555556,4,1,1,60,0,0
97101,-500,4,1,1,60,0,0
97127,-55.5555555555556,4,1,1,60,0,0
97153,-500,4,1,1,60,0,0
97179,-55.5555555555556,4,1,1,60,0,0
97205,-500,4,1,1,60,0,0
97231,-55.5555555555556,4,1,1,60,0,0
97257,-500,4,1,1,60,0,0
97282,-52.6315789473684,4,1,1,60,0,0
97308,-1000,4,1,1,60,0,0
97334,-52.6315789473684,4,1,1,60,0,0
97360,-1000,4,1,1,60,0,0
97386,-52.6315789473684,4,1,1,60,0,0
97412,-1000,4,1,1,60,0,0
97438,-52.6315789473684,4,1,1,60,0,0
97463,-1000,4,1,1,60,0,0
97489,-40,4,1,1,60,0,1
97515,-400,4,1,1,60,0,1
97567,-100,4,1,1,60,0,1
97903,-40,4,1,1,60,0,1
97929,-400,4,1,1,60,0,1
97981,-100,4,1,1,60,0,1
98317,-40,4,1,1,60,0,1
98343,-400,4,1,1,60,0,1
98395,-100,4,1,1,60,0,1
98731,-40,4,1,1,60,0,1
98757,-400,4,1,1,60,0,1
98808,-100,4,1,1,60,0,1
99145,-40,4,1,1,60,0,1
99170,-400,4,1,1,60,0,1
99222,-100,4,1,1,60,0,1
99558,-40,4,1,1,60,0,1
99584,-400,4,1,1,60,0,1
99636,-100,4,1,1,60,0,1
99972,-40,4,1,1,60,0,1
99998,-400,4,1,1,60,0,1
100050,-100,4,1,1,60,0,1
100386,-40,4,1,1,60,0,1
100412,-400,4,1,1,60,0,1
100463,-100,4,1,1,60,0,1
100800,-40,4,1,1,60,0,1
100826,-400,4,1,1,60,0,1
100877,-100,4,1,1,60,0,1
101213,-40,4,1,1,60,0,1
101239,-400,4,1,1,60,0,1
101291,-100,4,1,1,60,0,1
101627,-40,4,1,1,60,0,1
101653,-400,4,1,1,60,0,1
101705,-100,4,1,1,60,0,1
102041,-40,4,1,1,60,0,1
102067,-400,4,1,1,60,0,1
102119,-100,4,1,1,60,0,1
102455,-40,4,1,1,60,0,1
102481,-400,4,1,1,60,0,1
102532,-100,4,1,1,60,0,1
102869,-40,4,1,1,60,0,1
102895,-400,4,1,1,60,0,1
102946,-100,4,1,1,60,0,1
103282,-35.7142857142857,4,1,1,60,0,1
103308,-250.000000000001,4,1,1,60,0,1
103386,-35.7142857142857,4,1,1,60,0,1
103412,-250.000000000001,4,1,1,60,0,1
103489,-35.7142857142857,4,1,1,60,0,1
103515,-250.000000000001,4,1,1,60,0,1
103593,-35.7142857142857,4,1,1,60,0,1
103619,-250.000000000001,4,1,1,60,0,1
103696,-35.7142857142857,4,1,1,60,0,1
103722,-250.000000000001,4,1,1,60,0,1
103800,-35.7142857142857,4,1,1,60,0,1
103826,-250.000000000001,4,1,1,60,0,1
103903,-35.7142857142857,4,1,1,60,0,1
103929,-250.000000000001,4,1,1,60,0,1
104007,-35.7142857142857,4,1,1,60,0,1
104032,-250.000000000001,4,1,1,60,0,1
104110,-40,4,1,1,60,0,1
104136,-400,4,1,1,60,0,1
104188,-100,4,1,1,60,0,1
104524,-40,4,1,1,60,0,1
104550,-400,4,1,1,60,0,1
104601,-100,4,1,1,60,0,1
104938,-40,4,1,1,60,0,1
104963,-400,4,1,1,60,0,1
105015,-100,4,1,1,60,0,1
105351,-40,4,1,1,60,0,1
105377,-400,4,1,1,60,0,1
105429,-100,4,1,1,60,0,1
105765,-40,4,1,1,60,0,1
105791,-400,4,1,1,60,0,1
105843,-100,4,1,1,60,0,1
106179,-40,4,1,1,60,0,1
106205,-400,4,1,1,60,0,1
106257,-100,4,1,1,60,0,1
106593,-40,4,1,1,60,0,1
106619,-400,4,1,1,60,0,1
106670,-100,4,1,1,60,0,1
107007,-40,4,1,1,60,0,1
107032,-400,4,1,1,60,0,1
107084,-100,4,1,1,60,0,1
107420,-40,4,1,1,60,0,1
107446,-400,4,1,1,60,0,1
107498,-100,4,1,1,60,0,1
107834,-40,4,1,1,60,0,1
107860,-400,4,1,1,60,0,1
107912,-100,4,1,1,60,0,1
108248,-30.7692307692308,4,1,1,60,0,1
108274,-400,4,1,1,60,0,1
108351,-100,4,1,1,60,0,1
108454,-30.7692307692308,4,1,1,60,0,1
108480,-400,4,1,1,60,0,1
108557,-100,4,1,1,60,0,1
108662,-40,4,1,1,60,0,1
108688,-400,4,1,1,60,0,1
108739,-100,4,1,1,60,0,1
109076,-40,4,1,1,60,0,1
109101,-400,4,1,1,60,0,1
109153,-100,4,1,1,60,0,1
109489,-30.7692307692308,4,1,1,60,0,1
109514,-400,4,1,1,60,0,1
109592,-100,4,1,1,60,0,1
109695,-30.7692307692308,4,1,1,60,0,1
109721,-400,4,1,1,60,0,1
109799,-100,4,1,1,60,0,1
109903,-35.7142857142857,4,1,1,60,0,1
109929,-250.000000000001,4,1,1,60,0,1
110007,-35.7142857142857,4,1,1,60,0,1
110032,-250.000000000001,4,1,1,60,0,1
110110,-35.7142857142857,4,1,1,60,0,1
110136,-250.000000000001,4,1,1,60,0,1
110213,-35.7142857142857,4,1,1,60,0,1
110239,-250.000000000001,4,1,1,60,0,1
110317,-35.7142857142857,4,1,1,60,0,1
110343,-250.000000000001,4,1,1,60,0,1
110420,-35.7142857142857,4,1,1,60,0,1
110446,-250.000000000001,4,1,1,60,0,1
110524,-35.7142857142857,4,1,1,60,0,1
110550,-250.000000000001,4,1,1,60,0,1
110627,-35.7142857142857,4,1,1,60,0,1
110653,-250.000000000001,4,1,1,60,0,1
110731,-40,4,1,1,60,0,1
110757,-400,4,1,1,60,0,1
110808,-100,4,1,1,60,0,1
111145,-40,4,1,1,60,0,1
111170,-400,4,1,1,60,0,1
111222,-100,4,1,1,60,0,1
111558,-40,4,1,1,60,0,1
111584,-400,4,1,1,60,0,1
111636,-100,4,1,1,60,0,1
111972,-40,4,1,1,60,0,1
111998,-400,4,1,1,60,0,1
112050,-100,4,1,1,60,0,1
112386,-40,4,1,1,60,0,1
112412,-400,4,1,1,60,0,1
112463,-100,4,1,1,60,0,1
112800,-40,4,1,1,60,0,1
112826,-400,4,1,1,60,0,1
112877,-100,4,1,1,60,0,1
113213,-40,4,1,1,60,0,1
113239,-400,4,1,1,60,0,1
113291,-100,4,1,1,60,0,1
113627,-40,4,1,1,60,0,1
113653,-400,4,1,1,60,0,1
113705,-100,4,1,1,60,0,1
114041,-40,4,1,1,60,0,1
114067,-400,4,1,1,60,0,1
114119,-100,4,1,1,60,0,1
114455,-40,4,1,1,60,0,1
114481,-400,4,1,1,60,0,1
114532,-100,4,1,1,60,0,1
114869,-40,4,1,1,60,0,1
114895,-400,4,1,1,60,0,1
114946,-100,4,1,1,60,0,1
115282,-40,4,1,1,60,0,1
115308,-400,4,1,1,60,0,1
115360,-100,4,1,1,60,0,1
115696,-40,4,1,1,60,0,1
115722,-400,4,1,1,60,0,1
115774,-100,4,1,1,60,0,1
116110,-40,4,1,1,60,0,1
116136,-400,4,1,1,60,0,1
116188,-100,4,1,1,60,0,1
116524,-38.4615384615385,4,1,1,60,0,1
116550,-500,4,1,1,60,0,1
116601,-100,4,1,1,60,0,1
116731,-38.4615384615385,4,1,1,60,0,1
116757,-500,4,1,1,60,0,1
116808,-100,4,1,1,60,0,1
116938,-38.4615384615385,4,1,1,60,0,1
116963,-500,4,1,1,60,0,1
117015,-100,4,1,1,60,0,1
117145,-38.4615384615385,4,1,1,60,0,1
117170,-500,4,1,1,60,0,1
117222,-100,4,1,1,60,0,1
117351,-40,4,1,1,60,0,1
117377,-400,4,1,1,60,0,1
117429,-100,4,1,1,60,0,1
117765,-40,4,1,1,60,0,1
117791,-400,4,1,1,60,0,1
117843,-100,4,1,1,60,0,1
118179,-40,4,1,1,60,0,1
118205,-400,4,1,1,60,0,1
118257,-100,4,1,1,60,0,1
118593,-40,4,1,1,60,0,1
118619,-400,4,1,1,60,0,1
118670,-100,4,1,1,60,0,1
119007,-35.7142857142857,4,1,1,60,0,1
119032,-250,4,1,1,60,0,1
119110,-40,4,1,1,60,0,1
119136,-400,4,1,1,60,0,1
119188,-100,4,1,1,60,0,1
119420,-40,4,1,1,60,0,1
119446,-400,4,1,1,60,0,1
119498,-100,4,1,1,60,0,1
120661,-40,4,1,1,60,0,0
120688,-200,4,1,1,60,0,0
120739,-100,4,1,1,60,0,0
121075,-66.6666666666667,4,1,1,60,0,0
121126,-86.9565217391304,4,1,1,60,0,0
121178,-117.647058823529,4,1,1,60,0,0
121230,-200,4,1,1,60,0,0
121282,-100,4,1,1,60,0,0
121489,-40,4,1,1,60,0,0
121515,-200,4,1,1,60,0,0
121567,-100,4,1,1,60,0,0
123145,-102.040816326531,4,1,1,60,0,0
123248,-104.166666666667,4,1,1,60,0,0
123351,-106.382978723404,4,1,1,60,0,0
123455,-108.695652173913,4,1,1,60,0,0
123558,-111.111111111111,4,1,1,60,0,0
123972,-117.647058823529,4,1,1,30,0,0
130592,-117.647058823529,4,1,1,35,0,0
133902,-117.647058823529,4,1,1,40,0,0
135557,-117.647058823529,4,1,1,45,0,0
135971,-117.647058823529,4,1,1,50,0,0
136385,-117.647058823529,4,1,1,55,0,0
137213,428.571428571429,4,1,1,60,1,0
137213,-28.5714285714286,4,1,1,60,0,0
137267,-105.263157894737,4,1,1,60,0,0
138070,-28.5714285714286,4,1,1,60,0,0
138123,-111.111111111111,4,1,1,60,0,0
138927,-50,4,1,1,60,0,0
138980,-113.636363636364,4,1,1,60,0,0
140641,-58.8235294117647,4,1,1,60,0,0
140694,-125,4,1,1,60,0,0
142355,-50,4,1,1,60,0,0
142409,-117.647058823529,4,1,1,60,0,0
144069,-113.636363636364,4,1,1,60,0,0
144498,-111.111111111111,4,1,1,60,0,0
144927,-108.695652173913,4,1,1,60,0,0
145355,-106.382978723404,4,1,1,60,0,0
145784,-104.166666666667,4,1,1,60,0,0
146212,-102.040816326531,4,1,1,60,0,0
146641,-100,4,1,1,60,0,0
147069,-97.0873786407767,4,1,1,60,0,0
147498,-94.3396226415094,4,1,1,60,0,0
147927,-91.743119266055,4,1,1,60,0,0
149212,468.75,4,1,1,60,1,0
149212,-87.719298245614,4,1,1,60,0,0
149680,-90.9090909090909,4,1,1,60,0,0
150149,-95.2380952380952,4,1,1,60,0,0
150618,-101.010101010101,4,1,1,60,0,0
151087,-19.6463654223969,4,1,1,60,0,0
151145,-175.438596491228,4,1,1,60,0,0
151555,-88.4955752212389,4,1,1,60,0,0
152493,-19.6463654223969,4,1,1,60,0,0
152551,-175.438596491228,4,1,1,60,0,0
152962,-88.4955752212389,4,1,1,60,0,0
154837,-52.0833333333333,4,1,1,60,0,0
154895,-58.8235294117647,4,1,1,60,0,0
154954,-68.0272108843537,4,1,1,60,0,0
155012,-80.6451612903226,4,1,1,60,0,0
155071,-98.0392156862745,4,1,1,60,0,0
155129,-126.582278481013,4,1,1,60,0,0
155188,-175.438596491228,4,1,1,60,0,0
155247,-294.117647058824,4,1,1,60,0,0
155305,-88.4955752212389,4,1,1,60,0,0
156712,-28.5714285714286,4,1,1,60,0,0
156770,-126.582278481013,4,1,1,60,0,0
157180,-88.4955752212389,4,1,1,60,0,0
158587,-19.6463654223969,4,1,1,60,0,0
158645,-175.438596491228,4,1,1,60,0,0
159055,-88.4955752212389,4,1,1,60,0,0
159993,-19.6463654223969,4,1,1,60,0,0
160051,-175.438596491228,4,1,1,60,0,0
160462,-126.582278481013,4,1,1,60,0,0
160872,-35.3356890459364,4,1,1,60,0,0
160930,-88.4955752212389,4,1,1,60,0,0
162337,-126.582278481013,4,1,1,60,0,0
162747,-35.3356890459364,4,1,1,60,0,0
162805,-88.4955752212389,4,1,1,60,0,0
163391,-55.2486187845304,4,1,1,60,0,0
163450,-73.5294117647059,4,1,1,60,0,0
163508,-111.111111111111,4,1,1,60,0,0
163567,-222.222222222222,4,1,1,60,0,0
163713,-22.075055187638,4,1,1,60,0,0
163743,-88.4955752212389,4,1,1,60,0,0
164212,-294.117647058824,4,1,1,60,0,0
164270,-175.438596491228,4,1,1,60,0,0
164329,-126.582278481013,4,1,1,60,0,0
164387,-98.0392156862745,4,1,1,60,0,0
164446,-80.450522928399,4,1,1,60,0,0
164504,-68.0272108843537,4,1,1,60,0,0
164563,-58.8235294117647,4,1,1,60,0,0
164622,-52.0833333333333,4,1,1,60,0,0
164680,-88.4955752212389,4,1,1,60,0,0
165618,-35.3356890459364,4,1,1,60,0,0
165647,-175.438596491228,4,1,1,60,0,0
165735,-88.4955752212389,4,1,1,60,0,0
165852,-35.3356890459364,4,1,1,60,0,0
165881,-175.438596491228,4,1,1,60,0,0
165969,-88.4955752212389,4,1,1,60,0,0
172883,-19.6463654223969,4,1,1,60,0,0
172913,-175.438596491228,4,1,1,60,0,0
173118,-19.6463654223969,4,1,1,60,0,0
173147,-175.438596491228,4,1,1,60,0,0
173352,-19.6463654223969,4,1,1,60,0,0
173381,-175.438596491228,4,1,1,60,0,0
173587,-88.4955752212389,4,1,1,60,0,0
175930,-126.582278481013,4,1,1,60,0,0
176126,-35.3356890459364,4,1,1,60,0,0
176165,-126.582278481013,4,1,1,60,0,0
176243,-55.2486187845304,4,1,1,60,0,0
176282,-126.582278481013,4,1,1,60,0,0
176477,-35.3356890459364,4,1,1,60,0,0
176516,-126.582278481013,4,1,1,60,0,0
176594,-55.2486187845304,4,1,1,60,0,0
176633,-126.582278481013,4,1,1,60,0,0
176829,-35.3356890459364,4,1,1,60,0,0
176868,-126.582278481013,4,1,1,60,0,0
177063,-35.3356890459364,4,1,1,60,0,0
177102,-126.582278481013,4,1,1,60,0,0
177297,-35.3356890459364,4,1,1,60,0,0
177337,-88.4955752212389,4,1,1,60,0,0
180149,-40.1606425702811,4,1,1,60,0,0
180178,-147.058823529412,4,1,1,60,0,0
180266,-40.1606425702811,4,1,1,60,0,0
180295,-147.058823529412,4,1,1,60,0,0
180383,-35.3356890459364,4,1,1,60,0,0
180413,-175.438596491228,4,1,1,60,0,0
180501,-35.3356890459364,4,1,1,60,0,0
180530,-175.438596491228,4,1,1,60,0,0
180618,-31.6055625790139,4,1,1,60,0,0
180647,-222.222222222222,4,1,1,60,0,0
180735,-31.6055625790139,4,1,1,60,0,0
180764,-222.222222222222,4,1,1,60,0,0
180852,-28.5714285714286,4,1,1,60,0,0
180881,-294.117647058824,4,1,1,60,0,0
180969,-28.5714285714286,4,1,1,60,0,0
180999,-294.117647058824,4,1,1,60,0,0
181083,413.793103448276,4,1,1,60,1,0
181083,-100,4,1,1,60,0,0
207565,-66.6666666666667,4,1,1,60,0,0
207591,-133.333333333333,4,1,1,60,0,0
207643,-100,4,1,1,60,0,0
207979,-66.6666666666667,4,1,1,60,0,0
208005,-133.333333333333,4,1,1,60,0,0
208057,-100,4,1,1,60,0,0
208393,-66.6666666666667,4,1,1,60,0,0
208419,-133.333333333333,4,1,1,60,0,0
208470,-100,4,1,1,60,0,0
208807,-66.6666666666667,4,1,1,60,0,0
208833,-133.333333333333,4,1,1,60,0,0
208884,-100,4,1,1,60,0,0
209220,-62.5,4,1,1,60,0,0
209246,-142.857142857143,4,1,1,60,0,0
209298,-100,4,1,1,60,0,0
209634,-62.5,4,1,1,60,0,0
209660,-142.857142857143,4,1,1,60,0,0
209712,-100,4,1,1,60,0,0
210048,-62.5,4,1,1,60,0,0
210074,-142.857142857143,4,1,1,60,0,0
210126,-100,4,1,1,60,0,0
210462,-20,4,1,1,60,0,0
210514,-43.4782608695652,4,1,1,60,0,0
210565,-83.3333333333333,4,1,1,60,0,0
210617,-125,4,1,1,60,0,0
210669,-166.666666666667,4,1,1,60,0,0
210720,-200,4,1,1,60,0,0
210772,-250,4,1,1,60,0,0
210824,-285.714285714286,4,1,1,60,0,0
210876,-58.8235294117647,4,1,1,60,0,0
210901,-153.846153846153,4,1,1,60,0,0
210953,-100,4,1,1,60,0,0
211289,-58.8235294117647,4,1,1,60,0,0
211315,-153.846153846153,4,1,1,60,0,0
211367,-100,4,1,1,60,0,0
211703,-58.8235294117647,4,1,1,60,0,0
211729,-153.846153846153,4,1,1,60,0,0
211781,-100,4,1,1,60,0,0
212117,-58.8235294117647,4,1,1,60,0,0
212143,-153.846153846153,4,1,1,60,0,0
212195,-100,4,1,1,60,0,0
212531,-55.5555555555556,4,1,1,60,0,0
212557,-166.666666666667,4,1,1,60,0,0
212608,-100,4,1,1,60,0,0
212945,-55.5555555555556,4,1,1,60,0,0
212970,-166.666666666667,4,1,1,60,0,0
213022,-100,4,1,1,60,0,0
213358,-55.5555555555556,4,1,1,60,0,0
213384,-166.666666666667,4,1,1,60,0,0
213436,-100,4,1,1,60,0,0
213772,-20,4,1,1,60,0,0
213824,-43.4782608695652,4,1,1,60,0,0
213876,-83.3333333333333,4,1,1,60,0,0
213927,-125,4,1,1,60,0,0
213979,-166.666666666667,4,1,1,60,0,0
214031,-200,4,1,1,60,0,0
214083,-250.000000000001,4,1,1,60,0,0
214134,-285.714285714286,4,1,1,60,0,0
214186,-52.6315789473684,4,1,1,60,0,0
214212,-181.818181818181,4,1,1,60,0,0
214264,-100,4,1,1,60,0,0
214600,-52.6315789473684,4,1,1,60,0,0
214626,-181.818181818181,4,1,1,60,0,0
214677,-100,4,1,1,60,0,0
215014,-52.6315789473684,4,1,1,60,0,0
215039,-181.818181818181,4,1,1,60,0,0
215091,-100,4,1,1,60,0,0
215427,-52.6315789473684,4,1,1,60,0,0
215453,-181.818181818181,4,1,1,60,0,0
215505,-100,4,1,1,60,0,0
215841,-50,4,1,1,60,0,0
215867,-200,4,1,1,60,0,0
215919,-100,4,1,1,60,0,0
216255,-50,4,1,1,60,0,0
216281,-200,4,1,1,60,0,0
216333,-100,4,1,1,60,0,0
216669,-50,4,1,1,60,0,0
216695,-200,4,1,1,60,0,0
216746,-100,4,1,1,60,0,0
217083,-20,4,1,1,60,0,0
217134,-43.4782608695652,4,1,1,60,0,0
217186,-83.3333333333333,4,1,1,60,0,0
217238,-125,4,1,1,60,0,0
217289,-166.666666666667,4,1,1,60,0,0
217341,-200,4,1,1,60,0,0
217393,-250.000000000001,4,1,1,60,0,0
217445,-285.714285714286,4,1,1,60,0,0
217496,-47.6190476190476,4,1,1,60,0,0
217522,-222.222222222222,4,1,1,60,0,0
217574,-100,4,1,1,60,0,0
217910,-47.6190476190476,4,1,1,60,0,0
217936,-222.222222222222,4,1,1,60,0,0
217988,-100,4,1,1,60,0,0
218324,-47.6190476190476,4,1,1,60,0,0
218350,-222.222222222222,4,1,1,60,0,0
218401,-100,4,1,1,60,0,0
218738,-47.6190476190476,4,1,1,60,0,0
218764,-222.222222222222,4,1,1,60,0,0
218815,-100,4,1,1,60,0,0
219151,-45.4545454545455,4,1,1,60,0,0
219177,-250,4,1,1,60,0,0
219229,-100,4,1,1,60,0,0
219565,-45.4545454545455,4,1,1,60,0,0
219591,-250,4,1,1,60,0,0
219643,-100,4,1,1,60,0,0
219979,-45.4545454545455,4,1,1,60,0,0
220005,-250,4,1,1,60,0,0
220057,-100,4,1,1,60,0,0
220393,-20,4,1,1,60,0,0
220445,-43.4782608695652,4,1,1,60,0,0
220496,-83.3333333333333,4,1,1,60,0,0
220548,-125,4,1,1,60,0,0
220600,-166.666666666667,4,1,1,60,0,0
220651,-200,4,1,1,60,0,0
220703,-250.000000000001,4,1,1,60,0,0
220755,-285.714285714286,4,1,1,60,0,0
220807,-45.4545454545455,4,1,1,60,0,0
220833,-250,4,1,1,60,0,0
220884,-100,4,1,1,60,0,0
221014,-45.4545454545455,4,1,1,60,0,0
221039,-250,4,1,1,60,0,0
221091,-100,4,1,1,60,0,0
221220,-45.4545454545455,4,1,1,60,0,0
221246,-250,4,1,1,60,0,0
221298,-100,4,1,1,60,0,0
221634,-45.4545454545455,4,1,1,60,0,0
221660,-250,4,1,1,60,0,0
221712,-100,4,1,1,60,0,0
221841,-45.4545454545455,4,1,1,60,0,0
221867,-250,4,1,1,60,0,0
221919,-100,4,1,1,60,0,0
222048,-45.4545454545455,4,1,1,60,0,0
222074,-250,4,1,1,60,0,0
222126,-100,4,1,1,60,0,0
222462,-43.4782608695652,4,1,1,60,0,0
222488,-285.714285714286,4,1,1,60,0,0
222539,-100,4,1,1,60,0,0
222669,-43.4782608695652,4,1,1,60,0,0
222695,-285.714285714286,4,1,1,60,0,0
222746,-100,4,1,1,60,0,0
222876,-43.4782608695652,4,1,1,60,0,0
222901,-285.714285714286,4,1,1,60,0,0
222953,-100,4,1,1,60,0,0
223289,-43.4782608695652,4,1,1,60,0,0
223315,-285.714285714286,4,1,1,60,0,0
223367,-100,4,1,1,60,0,0
223496,-43.4782608695652,4,1,1,60,0,0
223522,-285.714285714286,4,1,1,60,0,0
223574,-100,4,1,1,60,0,0
223703,-43.4782608695652,4,1,1,60,0,0
223729,-285.714285714286,4,1,1,60,0,0
223781,-100,4,1,1,60,0,0
224117,-41.6666666666667,4,1,1,60,0,0
224143,-333.333333333333,4,1,1,60,0,0
224195,-100,4,1,1,60,0,0
224324,-41.6666666666667,4,1,1,60,0,0
224350,-333.333333333333,4,1,1,60,0,0
224401,-100,4,1,1,60,0,0
224531,-41.6666666666667,4,1,1,60,0,0
224557,-333.333333333333,4,1,1,60,0,0
224608,-100,4,1,1,60,0,0
224945,-41.6666666666667,4,1,1,60,0,0
224970,-333.333333333333,4,1,1,60,0,0
225022,-100,4,1,1,60,0,0
225151,-41.6666666666667,4,1,1,60,0,0
225177,-333.333333333333,4,1,1,60,0,0
225229,-100,4,1,1,60,0,0
225358,-41.6666666666667,4,1,1,60,0,0
225384,-333.333333333333,4,1,1,60,0,0
225436,-100,4,1,1,60,0,0
225772,-55.5555555555556,4,1,1,60,0,0
225798,-136.986301369863,4,1,1,60,0,0
225876,-55.5555555555556,4,1,1,60,0,0
225901,-136.986301369863,4,1,1,60,0,0
225979,-55.5555555555556,4,1,1,60,0,0
226005,-136.986301369863,4,1,1,60,0,0
226083,-55.5555555555556,4,1,1,60,0,0
226108,-136.986301369863,4,1,1,60,0,0
226186,-55.5555555555556,4,1,1,60,0,0
226212,-136.986301369863,4,1,1,60,0,0
226289,-55.5555555555556,4,1,1,60,0,0
226315,-136.986301369863,4,1,1,60,0,0
226393,-100,4,1,1,60,0,0
226600,-52.6315789473684,4,1,1,60,0,0
226626,-142.857142857143,4,1,1,60,0,0
226703,-52.6315789473684,4,1,1,60,0,0
226729,-142.857142857143,4,1,1,60,0,0
226807,-52.6315789473684,4,1,1,60,0,0
226833,-142.857142857143,4,1,1,60,0,0
226910,-52.6315789473684,4,1,1,60,0,0
226936,-142.857142857143,4,1,1,60,0,0
227014,-52.6315789473684,4,1,1,60,0,0
227039,-142.857142857143,4,1,1,60,0,0
227117,-52.6315789473684,4,1,1,60,0,0
227143,-142.857142857143,4,1,1,60,0,0
227220,-100,4,1,1,60,0,0
227427,-50,4,1,1,60,0,0
227453,-149.253731343284,4,1,1,60,0,0
227531,-50,4,1,1,60,0,0
227557,-149.253731343284,4,1,1,60,0,0
227634,-50,4,1,1,60,0,0
227660,-149.253731343284,4,1,1,60,0,0
227738,-50,4,1,1,60,0,0
227764,-149.253731343284,4,1,1,60,0,0
227841,-47.6190476190476,4,1,1,60,0,0
227867,-158.730158730159,4,1,1,60,0,0
227945,-47.6190476190476,4,1,1,60,0,0
227970,-158.730158730159,4,1,1,60,0,0
228048,-47.6190476190476,4,1,1,60,0,0
228074,-158.730158730159,4,1,1,60,0,0
228151,-47.6190476190476,4,1,1,60,0,0
228177,-158.730158730159,4,1,1,60,0,0
228255,-45.4545454545455,4,1,1,60,0,0
228281,-166.666666666667,4,1,1,60,0,0
228358,-45.4545454545455,4,1,1,60,0,0
228384,-166.666666666667,4,1,1,60,0,0
228462,-45.4545454545455,4,1,1,60,0,0
228488,-166.666666666667,4,1,1,60,0,0
228565,-45.4545454545455,4,1,1,60,0,0
228591,-166.666666666667,4,1,1,60,0,0
228669,-43.4782608695652,4,1,1,60,0,0
228695,-175.438596491228,4,1,1,60,0,0
228772,-43.4782608695652,4,1,1,60,0,0
228798,-175.438596491228,4,1,1,60,0,0
228876,-43.4782608695652,4,1,1,60,0,0
228901,-175.438596491228,4,1,1,60,0,0
228979,-43.4782608695652,4,1,1,60,0,0
229005,-175.438596491228,4,1,1,60,0,0
229083,-41.6666666666667,4,1,1,60,0,0
229108,-188.679245283019,4,1,1,60,0,0
229186,-41.6666666666667,4,1,1,60,0,0
229212,-188.679245283019,4,1,1,60,0,0
229289,-41.6666666666667,4,1,1,60,0,0
229315,-188.679245283019,4,1,1,60,0,0
229393,-41.6666666666667,4,1,1,60,0,0
229419,-188.679245283019,4,1,1,60,0,0
229496,-40,4,1,1,60,0,0
229522,-200,4,1,1,60,0,0
229600,-40,4,1,1,60,0,0
229626,-200,4,1,1,60,0,0
229703,-40,4,1,1,60,0,0
229729,-200,4,1,1,60,0,0
229807,-40,4,1,1,60,0,0
229833,-200,4,1,1,60,0,0
229910,-38.4615384615385,4,1,1,60,0,0
229936,-212.765957446809,4,1,1,60,0,0
230014,-38.4615384615385,4,1,1,60,0,0
230039,-212.765957446809,4,1,1,60,0,0
230117,-38.4615384615385,4,1,1,60,0,0
230143,-212.765957446809,4,1,1,60,0,0
230220,-38.4615384615385,4,1,1,60,0,0
230246,-212.765957446809,4,1,1,60,0,0
230324,-37.037037037037,4,1,1,60,0,0
230350,-232.558139534884,4,1,1,60,0,0
230427,-37.037037037037,4,1,1,60,0,0
230453,-232.558139534884,4,1,1,60,0,0
230531,-37.037037037037,4,1,1,60,0,0
230557,-232.558139534884,4,1,1,60,0,0
230634,-37.037037037037,4,1,1,60,0,0
230660,-232.558139534884,4,1,1,60,0,0
230738,-35.7142857142857,4,1,1,60,0,0
230764,-250,4,1,1,60,0,0
230841,-35.7142857142857,4,1,1,60,0,0
230867,-250,4,1,1,60,0,0
230945,-35.7142857142857,4,1,1,60,0,0
230970,-250,4,1,1,60,0,0
231048,-35.7142857142857,4,1,1,60,0,0
231074,-250,4,1,1,60,0,0
231151,-34.4827586206897,4,1,1,60,0,0
231177,-270.27027027027,4,1,1,60,0,0
231255,-34.4827586206897,4,1,1,60,0,0
231281,-270.27027027027,4,1,1,60,0,0
231358,-34.4827586206897,4,1,1,60,0,0
231384,-270.27027027027,4,1,1,60,0,0
231462,-34.4827586206897,4,1,1,60,0,0
231488,-270.27027027027,4,1,1,60,0,0
231565,-33.3333333333333,4,1,1,60,0,0
231591,-303.030303030303,4,1,1,60,0,0
231669,-33.3333333333333,4,1,1,60,0,0
231695,-303.030303030303,4,1,1,60,0,0
231772,-33.3333333333333,4,1,1,60,0,0
231798,-303.030303030303,4,1,1,60,0,0
231876,-33.3333333333333,4,1,1,60,0,0
231901,-303.030303030303,4,1,1,60,0,0
231979,-32.258064516129,4,1,1,60,0,0
232005,-333.333333333333,4,1,1,60,0,0
232083,-32.258064516129,4,1,1,60,0,0
232108,-333.333333333333,4,1,1,60,0,0
232186,-32.258064516129,4,1,1,60,0,0
232212,-333.333333333333,4,1,1,60,0,0
232289,-32.258064516129,4,1,1,60,0,0
232315,-333.333333333333,4,1,1,60,0,0
232393,-31.25,4,1,1,60,0,0
232419,-370.37037037037,4,1,1,60,0,0
232496,-31.25,4,1,1,60,0,0
232522,-370.37037037037,4,1,1,60,0,0
232600,-31.25,4,1,1,60,0,0
232626,-370.37037037037,4,1,1,60,0,0
232703,-31.25,4,1,1,60,0,0
232729,-370.37037037037,4,1,1,60,0,0
232807,-30.3030303030303,4,1,1,60,0,0
232833,-434.782608695652,4,1,1,60,0,0
232910,-30.3030303030303,4,1,1,60,0,0
232936,-434.782608695652,4,1,1,60,0,0
233014,-30.3030303030303,4,1,1,60,0,0
233039,-434.782608695652,4,1,1,60,0,0
233117,-30.3030303030303,4,1,1,60,0,0
233143,-434.782608695652,4,1,1,60,0,0
233220,-29.4117647058824,4,1,1,60,0,0
233246,-500,4,1,1,60,0,0
233324,-29.4117647058824,4,1,1,60,0,0
233350,-500,4,1,1,60,0,0
233427,-29.4117647058824,4,1,1,60,0,0
233453,-500,4,1,1,60,0,0
233531,-29.4117647058824,4,1,1,60,0,0
233557,-500,4,1,1,60,0,0
233634,-28.5714285714286,4,1,1,60,0,0
233660,-588.235294117647,4,1,1,60,0,0
233738,-28.5714285714286,4,1,1,60,0,0
233764,-588.235294117647,4,1,1,60,0,0
233841,-28.5714285714286,4,1,1,60,0,0
233867,-588.235294117647,4,1,1,60,0,0
233945,-28.5714285714286,4,1,1,60,0,0
233970,-588.235294117647,4,1,1,60,0,0
234048,-58.8235294117647,4,1,1,60,0,0
234083,-333.333333333333,4,1,1,60,0,0
234117,-100,4,1,1,60,0,0
234186,-58.8235294117647,4,1,1,60,0,0
234220,-333.333333333333,4,1,1,60,0,0
234255,-100,4,1,1,60,0,0
234324,-58.8235294117647,4,1,1,60,0,0
234358,-333.333333333333,4,1,1,60,0,0
234393,-100,4,1,1,60,0,0
234462,-58.8235294117647,4,1,1,60,0,0
234496,-333.333333333333,4,1,1,60,0,0
234531,-100,4,1,1,60,0,0
234600,-57.1428571428571,4,1,1,60,0,0
234634,-400,4,1,1,60,0,0
234669,-100,4,1,1,60,0,0
234738,-57.1428571428571,4,1,1,60,0,0
234772,-400,4,1,1,60,0,0
234807,-100,4,1,1,60,0,0
234876,-57.1428571428571,4,1,1,60,0,0
234910,-400,4,1,1,60,0,0
234945,-100,4,1,1,60,0,0
235014,-55.5555555555556,4,1,1,60,0,0
235048,-500,4,1,1,60,0,0
235083,-100,4,1,1,60,0,0
235151,-55.5555555555556,4,1,1,60,0,0
235186,-500,4,1,1,60,0,0
235220,-100,4,1,1,60,0,0
235289,-55.5555555555556,4,1,1,60,0,0
235324,-500,4,1,1,60,0,0
235358,-100,4,1,1,60,0,0
235427,-55.5555555555556,4,1,1,60,0,0
235462,-500,4,1,1,60,0,0
235496,-100,4,1,1,60,0,0
235565,-54.054054054054,4,1,1,60,0,0
235600,-666.666666666667,4,1,1,60,0,0
235634,-111.111111111111,4,1,1,60,0,0
235703,-54.054054054054,4,1,1,60,0,0
235738,-666.666666666667,4,1,1,60,0,0
235772,-100,4,1,1,60,0,0
235841,-54.054054054054,4,1,1,60,0,0
235876,-666.666666666667,4,1,1,60,0,0
235910,-100,4,1,1,60,0,0
235979,-54.054054054054,4,1,1,60,0,0
236014,-666.666666666667,4,1,1,60,0,0
236048,-100,4,1,1,60,0,0
236117,-53.475935828877,4,1,1,60,0,0
236151,-769.230769230769,4,1,1,60,0,0
236186,-100,4,1,1,60,0,0
236255,-53.475935828877,4,1,1,60,0,0
236289,-769.230769230769,4,1,1,60,0,0
236324,-100,4,1,1,60,0,0
236393,-53.475935828877,4,1,1,60,0,0
236427,-769.230769230769,4,1,1,60,0,0
236462,-100,4,1,1,60,0,0
236531,-53.475935828877,4,1,1,60,0,0
236565,-769.230769230769,4,1,1,60,0,0
236600,-100,4,1,1,60,0,0
236669,-52.6315789473684,4,1,1,60,0,0
236703,-1000,4,1,1,60,0,0
236738,-100,4,1,1,60,0,0
236807,-52.6315789473684,4,1,1,60,0,0
236841,-1000,4,1,1,60,0,0
236876,-100,4,1,1,60,0,0
236945,-52.6315789473684,4,1,1,60,0,0
236979,-1000,4,1,1,60,0,0
237014,-100,4,1,1,60,0,0
237083,-52.6315789473684,4,1,1,60,0,0
237117,-1000,4,1,1,60,0,0
237151,-100,4,1,1,60,0,0
237220,-52.6315789473684,4,1,1,60,0,0
237255,-1000,4,1,1,60,0,0
237289,-100,4,1,1,60,0,0
237358,-66.6666666666667,4,1,1,60,0,0
237393,-200,4,1,1,60,0,0
237427,-66.6666666666667,4,1,1,60,0,0
237462,-200,4,1,1,60,0,0
237496,-66.6666666666667,4,1,1,60,0,0
237531,-200,4,1,1,60,0,0
237565,-66.6666666666667,4,1,1,60,0,0
237600,-200,4,1,1,60,0,0
237634,-64.5161290322581,4,1,1,60,0,0
237669,-222.222222222222,4,1,1,60,0,0
237703,-64.5161290322581,4,1,1,60,0,0
237738,-222.222222222222,4,1,1,60,0,0
237772,-64.5161290322581,4,1,1,60,0,0
237807,-222.222222222222,4,1,1,60,0,0
237841,-64.5161290322581,4,1,1,60,0,0
237876,-222.222222222222,4,1,1,60,0,0
237910,-62.5,4,1,1,60,0,0
237945,-250,4,1,1,60,0,0
237979,-62.5,4,1,1,60,0,0
238014,-250,4,1,1,60,0,0
238048,-62.5,4,1,1,60,0,0
238083,-250,4,1,1,60,0,0
238117,-62.5,4,1,1,60,0,0
238151,-250,4,1,1,60,0,0
238186,-60.6060606060606,4,1,1,60,0,0
238220,-285.714285714286,4,1,1,60,0,0
238255,-60.6060606060606,4,1,1,60,0,0
238289,-285.714285714286,4,1,1,60,0,0
238324,-60.6060606060606,4,1,1,60,0,0
238358,-285.714285714286,4,1,1,60,0,0
238393,-60.6060606060606,4,1,1,60,0,0
238427,-285.714285714286,4,1,1,60,0,0
238462,-58.8235294117647,4,1,1,60,0,0
238496,-333.333333333333,4,1,1,60,0,0
238531,-58.8235294117647,4,1,1,60,0,0
238565,-333.333333333333,4,1,1,60,0,0
238600,-58.8235294117647,4,1,1,60,0,0
238634,-333.333333333333,4,1,1,60,0,0
238669,-58.8235294117647,4,1,1,60,0,0
238703,-333.333333333333,4,1,1,60,0,0
238738,-57.1428571428571,4,1,1,60,0,0
238772,-400,4,1,1,60,0,0
238807,-57.1428571428571,4,1,1,60,0,0
238841,-400,4,1,1,60,0,0
238876,-57.1428571428571,4,1,1,60,0,0
238910,-400,4,1,1,60,0,0
238945,-57.1428571428571,4,1,1,60,0,0
238979,-400,4,1,1,60,0,0
239014,-55.5555555555556,4,1,1,60,0,0
239048,-500,4,1,1,60,0,0
239083,-55.5555555555556,4,1,1,60,0,0
239117,-500,4,1,1,60,0,0
239151,-55.5555555555556,4,1,1,60,0,0
239186,-500,4,1,1,60,0,0
239220,-55.5555555555556,4,1,1,60,0,0
239255,-500,4,1,1,60,0,0
239289,-54.054054054054,4,1,1,60,0,0
239324,-666.666666666667,4,1,1,60,0,0
239358,-54.054054054054,4,1,1,60,0,0
239393,-666.666666666667,4,1,1,60,0,0
239427,-54.054054054054,4,1,1,60,0,0
239462,-666.666666666667,4,1,1,60,0,0
239496,-54.054054054054,4,1,1,60,0,0
239531,-666.666666666667,4,1,1,60,0,0
239565,-52.6315789473684,4,1,1,60,0,0
239600,-1000,4,1,1,60,0,0
239634,-52.6315789473684,4,1,1,60,0,0
239669,-1000,4,1,1,60,0,0
239703,-52.6315789473684,4,1,1,60,0,0
239738,-1000,4,1,1,60,0,0
239772,-52.6315789473684,4,1,1,60,0,0
239807,-1000,4,1,1,60,0,0
239841,-52.6315789473684,4,1,1,60,0,0
239876,-1000,4,1,1,60,0,0
239910,-52.6315789473684,4,1,1,60,0,0
239945,-1000,4,1,1,60,0,0
239979,-52.6315789473684,4,1,1,60,0,0
240014,-1000,4,1,1,60,0,0
240048,-52.6315789473684,4,1,1,60,0,0
240083,-1000,4,1,1,60,0,0
240117,-52.6315789473684,4,1,1,60,0,0
240151,-1000,4,1,1,60,0,0
240186,-52.6315789473684,4,1,1,60,0,0
240220,-1000,4,1,1,60,0,0
240255,-52.6315789473684,4,1,1,60,0,0
240289,-1000,4,1,1,60,0,0
240324,-52.6315789473684,4,1,1,60,0,0
240358,-1000,4,1,1,60,0,0
240393,-52.6315789473684,4,1,1,60,0,0
240427,-1000,4,1,1,60,0,0
240462,-52.6315789473684,4,1,1,60,0,0
240496,-1000,4,1,1,60,0,0
240531,-52.6315789473684,4,1,1,60,0,0
240565,-1000,4,1,1,60,0,0
240600,-52.6315789473684,4,1,1,60,0,0
240634,-1000,4,1,1,60,0,0
240669,-142.857142857143,4,1,1,60,0,0
242324,-100,4,1,1,60,0,0
243151,-98.0392156862745,4,1,1,60,0,0
243565,-96.1538461538461,4,1,1,60,0,0
243979,-95.2380952380952,4,1,1,60,0,0
244393,-94.3396226415094,4,1,1,60,0,0
244807,-93.4579439252336,4,1,1,60,0,0
245220,-92.5925925925926,4,1,1,60,0,0
245634,-91.743119266055,4,1,1,60,0,0
246462,-66.6666666666667,4,1,1,60,0,0
246488,-90.9090909090909,4,1,1,60,0,0
246514,-111.111111111111,4,1,1,60,0,0
246539,-117.647058823529,4,1,1,60,0,0
247289,-40,4,1,1,60,0,1
247315,-400,4,1,1,60,0,1
247367,-100,4,1,1,60,0,1
247703,-40,4,1,1,60,0,1
247729,-400,4,1,1,60,0,1
247781,-100,4,1,1,60,0,1
248117,-40,4,1,1,60,0,1
248143,-400,4,1,1,60,0,1
248195,-100,4,1,1,60,0,1
248531,-40,4,1,1,60,0,1
248557,-400,4,1,1,60,0,1
248608,-100,4,1,1,60,0,1
248945,-40,4,1,1,60,0,1
248970,-400,4,1,1,60,0,1
249022,-100,4,1,1,60,0,1
249358,-40,4,1,1,60,0,1
249384,-400,4,1,1,60,0,1
249436,-100,4,1,1,60,0,1
249772,-40,4,1,1,60,0,1
249798,-400,4,1,1,60,0,1
249850,-100,4,1,1,60,0,1
250186,-40,4,1,1,60,0,1
250212,-400,4,1,1,60,0,1
250264,-100,4,1,1,60,0,1
250600,-40,4,1,1,60,0,1
250626,-400,4,1,1,60,0,1
250677,-100,4,1,1,60,0,1
251014,-40,4,1,1,60,0,1
251039,-400,4,1,1,60,0,1
251091,-100,4,1,1,60,0,1
251427,-40,4,1,1,60,0,1
251453,-400,4,1,1,60,0,1
251505,-100,4,1,1,60,0,1
251841,-40,4,1,1,60,0,1
251867,-400,4,1,1,60,0,1
251919,-100,4,1,1,60,0,1
252255,-40,4,1,1,60,0,1
252281,-400,4,1,1,60,0,1
252333,-100,4,1,1,60,0,1
252669,-40,4,1,1,60,0,1
252695,-400,4,1,1,60,0,1
252746,-100,4,1,1,60,0,1
253083,-40,4,1,1,60,0,1
253108,-400,4,1,1,60,0,1
253160,-100,4,1,1,60,0,1
253496,-40,4,1,1,60,0,1
253522,-400,4,1,1,60,0,1
253574,-100,4,1,1,60,0,1
253910,-40,4,1,1,60,0,1
253936,-400,4,1,1,60,0,1
253988,-100,4,1,1,60,0,1
254324,-40,4,1,1,60,0,1
254350,-400,4,1,1,60,0,1
254401,-100,4,1,1,60,0,1
254738,-40,4,1,1,60,0,1
254764,-400,4,1,1,60,0,1
254815,-100,4,1,1,60,0,1
255151,-40,4,1,1,60,0,1
255177,-400,4,1,1,60,0,1
255229,-100,4,1,1,60,0,1
255565,-40,4,1,1,60,0,1
255591,-400,4,1,1,60,0,1
255643,-100,4,1,1,60,0,1
255979,-40,4,1,1,60,0,1
256005,-400,4,1,1,60,0,1
256057,-100,4,1,1,60,0,1
256393,-40,4,1,1,60,0,1
256419,-400,4,1,1,60,0,1
256470,-100,4,1,1,60,0,1
256807,-40,4,1,1,60,0,1
256833,-400,4,1,1,60,0,1
256884,-100,4,1,1,60,0,1
257220,-40,4,1,1,60,0,1
257246,-400,4,1,1,60,0,1
257298,-100,4,1,1,60,0,1
257634,-40,4,1,1,60,0,1
257660,-400,4,1,1,60,0,1
257712,-100,4,1,1,60,0,1
258048,-40,4,1,1,60,0,1
258074,-400,4,1,1,60,0,1
258126,-100,4,1,1,60,0,1
258462,-40,4,1,1,60,0,1
258488,-400,4,1,1,60,0,1
258539,-100,4,1,1,60,0,1
258876,-40,4,1,1,60,0,1
258901,-400,4,1,1,60,0,1
258953,-100,4,1,1,60,0,1
259289,-33.3333333333333,4,1,1,60,0,1
259315,-303.030303030303,4,1,1,60,0,1
259393,-33.3333333333333,4,1,1,60,0,1
259419,-303.030303030303,4,1,1,60,0,1
259496,-33.3333333333333,4,1,1,60,0,1
259522,-303.030303030303,4,1,1,60,0,1
259600,-33.3333333333333,4,1,1,60,0,1
259626,-303.030303030303,4,1,1,60,0,1
259703,-40,4,1,1,60,0,1
259729,-400,4,1,1,60,0,1
259781,-100,4,1,1,60,0,1
260117,-55.5555555555556,4,1,1,60,0,1
260143,-500,4,1,1,60,0,1
260169,-55.5555555555556,4,1,1,60,0,1
260195,-500,4,1,1,60,0,1
260220,-35.7142857142857,4,1,1,60,0,1
260246,-250,4,1,1,60,0,1
260324,-35.7142857142857,4,1,1,60,0,1
260350,-250,4,1,1,60,0,1
260427,-100,4,1,1,60,0,1
260531,-40,4,1,1,60,0,1
260557,-400,4,1,1,60,0,1
260608,-100,4,1,1,60,0,1
260945,-40,4,1,1,60,0,1
260970,-400,4,1,1,60,0,1
261022,-100,4,1,1,60,0,1
261358,-40,4,1,1,60,0,1
261384,-400,4,1,1,60,0,1
261436,-100,4,1,1,60,0,1
261772,-40,4,1,1,60,0,1
261798,-400,4,1,1,60,0,1
261850,-100,4,1,1,60,0,1
262186,-40,4,1,1,60,0,1
262212,-400,4,1,1,60,0,1
262264,-100,4,1,1,60,0,1
262600,-40,4,1,1,60,0,1
262626,-400,4,1,1,60,0,1
262677,-100,4,1,1,60,0,1
263014,-40,4,1,1,60,0,1
263039,-400,4,1,1,60,0,1
263091,-100,4,1,1,60,0,1
263427,-40,4,1,1,60,0,1
263453,-400,4,1,1,60,0,1
263505,-100,4,1,1,60,0,1
263841,-40,4,1,1,60,0,1
263867,-400,4,1,1,60,0,1
263919,-100,4,1,1,60,0,1
264255,-40,4,1,1,60,0,1
264281,-400,4,1,1,60,0,1
264333,-100,4,1,1,60,0,1
264669,-40,4,1,1,60,0,1
264695,-400,4,1,1,60,0,1
264746,-100,4,1,1,60,0,1
265083,-40,4,1,1,60,0,1
265108,-400,4,1,1,60,0,1
265160,-100,4,1,1,60,0,1
265496,-40,4,1,1,60,0,1
265522,-400,4,1,1,60,0,1
265574,-100,4,1,1,60,0,1
265910,-40,4,1,1,60,0,1
265936,-400,4,1,1,60,0,1
265988,-100,4,1,1,60,0,1
266324,-40,4,1,1,60,0,1
266350,-400,4,1,1,60,0,1
266401,-100,4,1,1,60,0,1
266738,-40,4,1,1,60,0,1
266764,-400,4,1,1,60,0,1
266815,-100,4,1,1,60,0,1
266945,-40,4,1,1,60,0,1
266970,-400,4,1,1,60,0,1
267022,-100,4,1,1,60,0,1
267151,-40,4,1,1,60,0,1
267177,-400,4,1,1,60,0,1
267229,-100,4,1,1,60,0,1
267565,-40,4,1,1,60,0,1
267591,-400,4,1,1,60,0,1
267643,-100,4,1,1,60,0,1
267979,-40,4,1,1,60,0,1
268005,-400,4,1,1,60,0,1
268057,-100,4,1,1,60,0,1
268393,-40,4,1,1,60,0,1
268419,-400,4,1,1,60,0,1
268470,-100,4,1,1,60,0,1
268807,-40,4,1,1,60,0,1
268833,-400,4,1,1,60,0,1
268884,-100,4,1,1,60,0,1
269220,-40,4,1,1,60,0,1
269246,-400,4,1,1,60,0,1
269298,-100,4,1,1,60,0,1
269634,-40,4,1,1,60,0,1
269660,-400,4,1,1,60,0,1
269712,-100,4,1,1,60,0,1
270048,-40,4,1,1,60,0,1
270074,-400,4,1,1,60,0,1
270126,-100,4,1,1,60,0,1
270462,-40,4,1,1,60,0,1
270488,-400,4,1,1,60,0,1
270539,-100,4,1,1,60,0,1
270876,-40,4,1,1,60,0,1
270901,-400,4,1,1,60,0,1
270953,-100,4,1,1,60,0,1
271289,-40,4,1,1,60,0,1
271315,-400,4,1,1,60,0,1
271367,-100,4,1,1,60,0,1
271703,-40,4,1,1,60,0,1
271729,-400,4,1,1,60,0,1
271781,-100,4,1,1,60,0,1
272117,-40,4,1,1,60,0,1
272143,-400,4,1,1,60,0,1
272195,-100,4,1,1,60,0,1
272531,-40,4,1,1,60,0,1
272557,-400,4,1,1,60,0,1
272608,-100,4,1,1,60,0,1
272945,-40,4,1,1,60,0,1
272970,-400,4,1,1,60,0,1
273022,-100,4,1,1,60,0,1
273358,-40,4,1,1,60,0,1
273384,-400,4,1,1,60,0,1
273436,-100,4,1,1,60,0,1
273565,-40,4,1,1,60,0,1
273591,-400,4,1,1,60,0,1
273643,-100,4,1,1,60,0,1
273772,-40,4,1,1,60,0,1
273798,-400,4,1,1,60,0,1
273850,-100,4,1,1,60,0,1
274186,-40,4,1,1,60,0,1
274212,-400,4,1,1,60,0,1
274264,-100,4,1,1,60,0,1
274393,-90.9090909090909,4,1,1,60,0,1
275427,-40,4,1,1,60,0,1
275453,-400,4,1,1,60,0,1
275505,-100,4,1,1,60,0,1
275841,-40,4,1,1,60,0,1
275867,-400,4,1,1,60,0,1
275919,-100,4,1,1,60,0,1
276048,-90.9090909090909,4,1,1,60,0,1
277083,-40,4,1,1,60,0,1
277108,-400,4,1,1,60,0,1
277160,-100,4,1,1,60,0,1
277496,-40,4,1,1,60,0,1
277522,-400,4,1,1,60,0,1
277574,-100,4,1,1,60,0,1
277910,-40,4,1,1,60,0,1
277936,-400,4,1,1,60,0,1
277988,-100,4,1,1,60,0,1
278324,-40,4,1,1,60,0,1
278350,-400,4,1,1,60,0,1
278401,-100,4,1,1,60,0,1
278738,-40,4,1,1,60,0,1
278764,-400,4,1,1,60,0,1
278815,-100,4,1,1,60,0,1
279151,-40,4,1,1,60,0,1
279177,-400,4,1,1,60,0,1
279229,-100,4,1,1,60,0,1
279565,-40,4,1,1,60,0,1
279591,-400,4,1,1,60,0,1
279643,-100,4,1,1,60,0,1
279979,-40,4,1,1,60,0,1
280005,-400,4,1,1,60,0,1
280057,-100,4,1,1,60,0,1
282720,-111.111111111111,4,1,1,60,0,0
283083,-105.263157894737,4,1,1,60,0,0
283134,-99.009900990099,4,1,1,60,0,0
283186,-92.5925925925926,4,1,1,60,0,0
283238,-86.2068965517241,4,1,1,60,0,0
283289,-100,4,1,1,60,0,0
283496,-249.999999999999,4,1,1,60,0,0
283651,-35.7142857142857,4,1,1,60,0,0
283703,-100,4,1,1,60,0,0
295289,-26.3157894736842,4,1,1,60,0,0
295315,-166.666666666667,4,1,1,60,0,0
295496,-45.4545454545455,4,1,1,60,0,0
295522,-166.666666666667,4,1,1,60,0,0
295600,-26.3157894736842,4,1,1,60,0,0
295626,-166.666666666667,4,1,1,60,0,0
295807,-33.3333333333333,4,1,1,60,0,0
295858,-166.666666666667,4,1,1,60,0,0
296117,-26.3157894736842,4,1,1,60,0,0
296143,-166.666666666667,4,1,1,60,0,0
296324,-45.4545454545455,4,1,1,60,0,0
296350,-166.666666666667,4,1,1,60,0,0
296427,-100,4,1,1,60,0,0
296738,-45.4545454545455,4,1,1,60,0,0
296764,-166.666666666667,4,1,1,60,0,0
296841,-100,4,1,1,60,0,0
300255,-104.166666666667,4,1,1,60,0,0
301910,-108.695652173913,4,1,1,60,0,0
303565,-113.636363636364,4,1,1,60,0,0
305220,-119.047619047619,4,1,1,60,0,0
306876,-125,4,1,1,60,0,0
309358,-133.333333333333,4,1,1,60,0,0

[HitObjects]
192,192,2213,5,8,2:0:0:0:
64,192,2316,1,4,3:0:0:0:
320,192,2316,1,2,2:0:0:0:
448,192,2316,1,0,0:0:0:0:
192,192,2420,1,8,2:0:0:0:
320,192,2523,128,2,2626:2:0:0:0:
64,192,2730,1,8,2:0:0:0:
448,192,2730,1,0,0:0:0:0:
64,192,3144,1,4,3:0:0:0:
448,192,3144,1,2,2:0:0:0:
192,192,3144,1,0,0:0:0:0:
320,192,3247,1,0,0:0:0:0:
64,192,3454,1,0,0:0:0:0:
192,192,3557,1,0,0:0:0:0:
448,192,3764,1,8,2:0:0:0:
64,192,3764,1,0,0:0:0:0:
320,192,3971,1,0,0:0:0:0:
64,192,4178,1,0,0:0:0:0:
192,192,4230,1,0,0:0:0:0:
320,192,4282,1,0,0:0:0:0:
448,192,4333,1,0,0:0:0:0:
192,192,4385,1,0,0:0:0:0:
64,192,4592,1,0,0:0:0:0:
320,192,4799,1,8,2:0:0:0:
448,192,4799,1,0,0:0:0:0:
192,192,4902,1,0,0:0:0:0:
448,192,5109,1,0,0:0:0:0:
320,192,5213,1,0,0:0:0:0:
64,192,5420,1,8,2:0:0:0:
448,192,5420,1,0,0:0:0:0:
192,192,5626,1,0,0:0:0:0:
448,192,5833,1,0,0:0:0:0:
320,192,5885,1,0,0:0:0:0:
192,192,5937,1,0,0:0:0:0:
64,192,5989,1,0,0:0:0:0:
320,192,6040,1,0,0:0:0:0:
192,192,6247,1,2,2:0:0:0:
64,192,6247,1,8,2:0:0:0:
448,192,6247,1,0,0:0:0:0:
64,192,6454,1,4,3:0:0:0:
192,192,6454,1,2,2:0:0:0:
448,192,6454,1,0,0:0:0:0:
320,192,6557,1,0,0:0:0:0:
64,192,6764,1,0,0:0:0:0:
192,192,6868,1,0,0:0:0:0:
64,192,7075,1,8,2:0:0:0:
448,192,7075,1,0,0:0:0:0:
320,192,7282,1,0,0:0:0:0:
64,192,7489,1,0,0:0:0:0:
192,192,7540,1,0,0:0:0:0:
320,192,7592,1,0,0:0:0:0:
448,192,7644,1,0,0:0:0:0:
64,192,7695,1,0,0:0:0:0:
192,192,7902,1,0,0:0:0:0:
320,192,8109,1,8,2:0:0:0:
448,192,8109,1,0,0:0:0:0:
192,192,8213,1,0,0:0:0:0:
448,192,8420,1,0,0:0:0:0:
320,192,8523,1,0,0:0:0:0:
64,192,8730,1,8,2:0:0:0:
448,192,8730,1,0,0:0:0:0:
192,192,8937,1,0,0:0:0:0:
448,192,9144,1,0,0:0:0:0:
320,192,9195,1,0,0:0:0:0:
192,192,9247,1,0,0:0:0:0:
64,192,9299,1,0,0:0:0:0:
448,192,9351,1,0,0:0:0:0:
192,192,9557,1,8,2:0:0:0:
320,192,9557,1,2,2:0:0:0:
192,192,9764,1,4,3:0:0:0:
64,192,9764,1,2,2:0:0:0:
448,192,9764,1,0,0:0:0:0:
320,192,9868,1,0,0:0:0:0:
64,192,10075,1,0,0:0:0:0:
192,192,10178,1,0,0:0:0:0:
64,192,10385,1,8,2:0:0:0:
448,192,10385,1,0,0:0:0:0:
320,192,10592,1,0,0:0:0:0:
64,192,10799,1,0,0:0:0:0:
192,192,10851,1,0,0:0:0:0:
320,192,10902,1,0,0:0:0:0:
448,192,10954,1,0,0:0:0:0:
192,192,11006,1,0,0:0:0:0:
64,192,11213,1,0,0:0:0:0:
320,192,11420,1,8,2:0:0:0:
448,192,11420,1,0,0:0:0:0:
192,192,11523,1,0,0:0:0:0:
64,192,11730,1,0,0:0:0:0:
192,192,11833,1,0,0:0:0:0:
448,192,11989,1,0,0:0:0:0:
320,192,12040,1,8,2:0:0:0:
64,192,12040,1,0,0:0:0:0:
192,192,12144,1,0,0:0:0:0:
448,192,12247,1,0,0:0:0:0:
320,192,12351,1,0,0:0:0:0:
64,192,12454,1,0,0:0:0:0:
64,192,12557,1,0,0:0:0:0:
192,192,12661,1,8,2:0:0:0:
448,192,12661,1,0,0:0:0:0:
448,192,12868,1,8,2:0:0:0:
320,192,12868,1,2,2:0:0:0:
64,192,12868,1,0,0:0:0:0:
64,192,13075,1,4,3:0:0:0:
320,192,13075,1,2,2:0:0:0:
448,192,13075,1,0,0:0:0:0:
192,192,13178,1,0,0:0:0:0:
448,192,13385,1,0,0:0:0:0:
320,192,13489,1,0,0:0:0:0:
64,192,13695,1,8,2:0:0:0:
192,192,13695,1,0,0:0:0:0:
320,192,13747,1,0,0:0:0:0:
448,192,13799,1,0,0:0:0:0:
64,192,13902,1,0,0:0:0:0:
192,192,14006,1,0,0:0:0:0:
320,192,14057,1,0,0:0:0:0:
448,192,14109,1,2,2:0:0:0:
64,192,14109,1,0,0:0:0:0:
320,192,14213,1,0,0:0:0:0:
192,192,14264,1,0,0:0:0:0:
64,192,14316,1,0,0:0:0:0:
448,192,14420,1,0,0:0:0:0:
448,192,14523,1,8,2:0:0:0:
320,192,14523,1,0,0:0:0:0:
192,192,14626,1,0,0:0:0:0:
320,192,14678,1,0,0:0:0:0:
448,192,14730,1,2,2:0:0:0:
64,192,14730,1,0,0:0:0:0:
64,192,14833,1,0,0:0:0:0:
320,192,14937,1,0,0:0:0:0:
192,192,15040,1,0,0:0:0:0:
64,192,15144,1,2,2:0:0:0:
448,192,15144,1,0,0:0:0:0:
320,192,15247,1,0,0:0:0:0:
192,192,15299,1,0,0:0:0:0:
64,192,15351,1,8,2:0:0:0:
448,192,15351,1,0,0:0:0:0:
320,192,15454,1,0,0:0:0:0:
64,192,15557,1,0,0:0:0:0:
192,192,15661,1,8,2:0:0:0:
448,192,15661,1,0,0:0:0:0:
320,192,15764,1,4,3:0:0:0:
192,192,15764,1,2,2:0:0:0:
64,192,15764,1,0,0:0:0:0:
448,192,15868,1,0,0:0:0:0:
320,192,15971,1,0,0:0:0:0:
192,192,16075,1,8,2:0:0:0:
64,192,16075,1,0,0:0:0:0:
192,192,16178,1,4,3:0:0:0:
64,192,16178,1,2,2:0:0:0:
448,192,16178,1,0,0:0:0:0:
448,192,16385,1,8,2:0:0:0:
320,192,16385,1,4,3:0:0:0:
192,192,16385,1,2,2:0:0:0:
64,192,16385,1,0,0:0:0:0:
448,192,16592,1,8,2:0:0:0:
320,192,16592,1,0,0:0:0:0:
192,192,16695,1,0,0:0:0:0:
64,192,16799,1,2,2:0:0:0:
320,192,16799,1,0,0:0:0:0:
64,192,17006,1,8,2:0:0:0:
192,192,17006,1,0,0:0:0:0:
320,192,17109,1,0,0:0:0:0:
448,192,17213,1,0,0:0:0:0:
64,192,17316,1,0,0:0:0:0:
192,192,17420,1,8,2:0:0:0:
320,192,17420,1,0,0:0:0:0:
448,192,17523,1,0,0:0:0:0:
320,192,17626,1,2,2:0:0:0:
64,192,17626,1,0,0:0:0:0:
192,192,17833,1,8,2:0:0:0:
448,192,17833,1,0,0:0:0:0:
320,192,17937,1,0,0:0:0:0:
192,192,18040,1,4,3:0:0:0:
64,192,18040,1,2,2:0:0:0:
448,192,18040,1,0,0:0:0:0:
320,192,18247,1,8,2:0:0:0:
448,192,18247,1,0,0:0:0:0:
192,192,18351,1,0,0:0:0:0:
64,192,18454,1,2,2:0:0:0:
320,192,18454,1,0,0:0:0:0:
192,192,18609,1,0,0:0:0:0:
320,192,18661,1,8,2:0:0:0:
448,192,18661,1,0,0:0:0:0:
192,192,18764,1,0,0:0:0:0:
64,192,18868,1,0,0:0:0:0:
448,192,18971,1,0,0:0:0:0:
320,192,19075,1,8,2:0:0:0:
192,192,19075,1,0,0:0:0:0:
64,192,19178,1,0,0:0:0:0:
320,192,19282,1,2,2:0:0:0:
448,192,19282,1,0,0:0:0:0:
192,192,19385,1,0,0:0:0:0:
64,192,19489,1,8,2:0:0:0:
448,192,19489,1,0,0:0:0:0:
320,192,19592,1,0,0:0:0:0:
192,192,19695,1,4,3:0:0:0:
64,192,19695,1,2,2:0:0:0:
448,192,19695,1,0,0:0:0:0:
192,192,19902,1,8,2:0:0:0:
320,192,19902,1,0,0:0:0:0:
448,192,20006,1,0,0:0:0:0:
64,192,20109,1,2,2:0:0:0:
320,192,20109,1,0,0:0:0:0:
64,192,20316,1,8,2:0:0:0:
192,192,20316,1,0,0:0:0:0:
320,192,20368,1,0,0:0:0:0:
448,192,20420,1,0,0:0:0:0:
192,192,20523,1,0,0:0:0:0:
64,192,20626,1,0,0:0:0:0:
192,192,20678,1,0,0:0:0:0:
320,192,20730,1,8,2:0:0:0:
448,192,20730,1,0,0:0:0:0:
192,192,20833,1,0,0:0:0:0:
320,192,20885,1,0,0:0:0:0:
448,192,20937,1,2,2:0:0:0:
64,192,20937,1,0,0:0:0:0:
192,192,20989,1,0,0:0:0:0:
320,192,21040,1,0,0:0:0:0:
320,192,21144,1,8,2:0:0:0:
448,192,21144,1,0,0:0:0:0:
64,192,21247,1,0,0:0:0:0:
320,192,21299,1,0,0:0:0:0:
64,192,21351,1,4,3:0:0:0:
192,192,21351,1,2,2:0:0:0:
448,192,21351,1,0,0:0:0:0:
320,192,21454,1,0,0:0:0:0:
64,192,21557,1,8,2:0:0:0:
448,192,21557,1,0,0:0:0:0:
320,192,21609,1,0,0:0:0:0:
192,192,21661,1,0,0:0:0:0:
448,192,21764,1,4,3:0:0:0:
320,192,21764,1,2,2:0:0:0:
64,192,21868,1,0,0:0:0:0:
192,192,21920,1,0,0:0:0:0:
320,192,21971,1,8,2:0:0:0:
448,192,21971,1,0,0:0:0:0:
64,192,22075,1,0,0:0:0:0:
448,192,22075,1,0,0:0:0:0:
192,192,22178,1,0,0:0:0:0:
320,192,22282,1,0,0:0:0:0:
192,192,22385,1,8,2:0:0:0:
64,192,22385,1,0,0:0:0:0:
448,192,22489,1,0,0:0:0:0:
64,192,22592,128,2,22902:2:0:0:0:
192,192,22592,1,0,0:0:0:0:
320,192,22695,1,0,0:0:0:0:
192,192,22799,128,8,22902:2:0:0:0:
448,192,22799,1,0,0:0:0:0:
320,192,22902,1,0,0:0:0:0:
64,192,23006,1,4,3:0:0:0:
192,192,23006,1,2,2:0:0:0:
448,192,23006,1,0,0:0:0:0:
64,192,23213,1,8,2:0:0:0:
320,192,23213,1,0,0:0:0:0:
448,192,23316,1,0,0:0:0:0:
192,192,23420,1,2,2:0:0:0:
320,192,23420,1,0,0:0:0:0:
64,192,23626,1,8,2:0:0:0:
192,192,23626,1,0,0:0:0:0:
320,192,23730,1,0,0:0:0:0:
448,192,23833,1,0,0:0:0:0:
64,192,23937,1,0,0:0:0:0:
192,192,24040,1,8,2:0:0:0:
320,192,24040,1,0,0:0:0:0:
448,192,24144,1,0,0:0:0:0:
320,192,24247,1,2,2:0:0:0:
64,192,24247,1,0,0:0:0:0:
192,192,24351,1,0,0:0:0:0:
320,192,24454,1,8,2:0:0:0:
448,192,24454,1,0,0:0:0:0:
64,192,24557,1,0,0:0:0:0:
192,192,24661,1,4,3:0:0:0:
320,192,24661,1,2,2:0:0:0:
448,192,24661,1,0,0:0:0:0:
64,192,24730,1,0,0:0:0:0:
192,192,24799,1,0,0:0:0:0:
320,192,24868,1,8,2:0:0:0:
448,192,24868,1,0,0:0:0:0:
192,192,24971,1,0,0:0:0:0:
320,192,25023,1,0,0:0:0:0:
64,192,25075,1,2,2:0:0:0:
448,192,25075,1,0,0:0:0:0:
192,192,25178,1,0,0:0:0:0:
64,192,25230,1,0,0:0:0:0:
320,192,25282,1,8,2:0:0:0:
448,192,25282,1,0,0:0:0:0:
192,192,25385,1,0,0:0:0:0:
64,192,25489,1,0,0:0:0:0:
448,192,25592,1,0,0:0:0:0:
320,192,25644,1,0,0:0:0:0:
192,192,25695,1,8,2:0:0:0:
64,192,25695,1,0,0:0:0:0:
448,192,25764,1,0,0:0:0:0:
64,192,25833,1,0,0:0:0:0:
192,192,25902,1,2,2:0:0:0:
320,192,25902,1,0,0:0:0:0:
448,192,25971,1,0,0:0:0:0:
64,192,26040,1,0,0:0:0:0:
320,192,26109,1,8,2:0:0:0:
448,192,26109,1,0,0:0:0:0:
192,192,26178,1,0,0:0:0:0:
320,192,26247,1,0,0:0:0:0:
192,192,26316,1,4,3:0:0:0:
64,192,26316,1,2,2:0:0:0:
448,192,26316,1,0,0:0:0:0:
320,192,26368,1,0,0:0:0:0:
192,192,26420,1,0,0:0:0:0:
448,192,26523,1,8,2:0:0:0:
320,192,26523,1,0,0:0:0:0:
64,192,26575,1,0,0:0:0:0:
192,192,26626,1,0,0:0:0:0:
320,192,26678,1,0,0:0:0:0:
448,192,26730,1,2,2:0:0:0:
64,192,26730,1,0,0:0:0:0:
192,192,26799,1,0,0:0:0:0:
320,192,26868,1,0,0:0:0:0:
192,192,26937,1,8,2:0:0:0:
64,192,26937,1,0,0:0:0:0:
448,192,27040,1,0,0:0:0:0:
320,192,27092,1,0,0:0:0:0:
192,192,27144,1,0,0:0:0:0:
64,192,27195,1,0,0:0:0:0:
320,192,27247,1,0,0:0:0:0:
448,192,27299,1,0,0:0:0:0:
192,192,27351,1,8,2:0:0:0:
64,192,27351,1,0,0:0:0:0:
448,192,27454,1,0,0:0:0:0:
64,192,27506,1,0,0:0:0:0:
192,192,27557,1,2,2:0:0:0:
320,192,27557,1,0,0:0:0:0:
448,192,27626,1,0,0:0:0:0:
320,192,27695,1,0,0:0:0:0:
192,192,27764,1,8,2:0:0:0:
64,192,27764,1,0,0:0:0:0:
320,192,27868,1,0,0:0:0:0:
192,192,27920,1,0,0:0:0:0:
64,192,27971,1,4,3:0:0:0:
448,192,27971,1,2,2:0:0:0:
320,192,27971,1,0,0:0:0:0:
448,192,28075,1,0,0:0:0:0:
192,192,28178,1,8,2:0:0:0:
64,192,28178,1,0,0:0:0:0:
192,192,28282,1,8,2:0:0:0:
64,192,28282,1,0,0:0:0:0:
64,192,28385,1,4,3:0:0:0:
320,192,28385,1,2,2:0:0:0:
448,192,28385,1,0,0:0:0:0:
448,192,28489,1,0,0:0:0:0:
320,192,28592,1,8,2:0:0:0:
192,192,28592,1,0,0:0:0:0:
64,192,28695,5,2,2:0:0:0:
448,192,28695,1,0,0:0:0:0:
320,192,28799,1,0,0:0:0:0:
192,192,28851,1,0,0:0:0:0:
64,192,28902,1,0,0:0:0:0:
448,192,29006,1,8,2:0:0:0:
192,192,29006,128,0,29109:0:0:0:0:
320,192,29109,1,0,0:0:0:0:
64,192,29161,1,0,0:0:0:0:
192,192,29213,1,2,2:0:0:0:
448,192,29213,1,0,0:0:0:0:
64,192,29316,128,0,29420:0:0:0:0:
192,192,29420,1,8,2:0:0:0:
448,192,29420,128,0,29523:0:0:0:0:
320,192,29523,1,0,0:0:0:0:
64,192,29626,1,4,3:0:0:0:
192,192,29626,1,2,2:0:0:0:
448,192,29626,1,0,0:0:0:0:
64,192,29833,5,0,0:0:0:0:
448,192,29937,1,0,0:0:0:0:
64,192,30144,1,0,0:0:0:0:
448,192,30247,1,0,0:0:0:0:
64,192,30454,1,0,0:0:0:0:
448,192,30557,128,0,31307:0:0:0:0:
192,192,31307,1,0,0:0:0:0:
320,192,31618,1,0,0:0:0:0:
192,192,31876,1,0,0:0:0:0:
320,192,32083,1,0,0:0:0:0:
192,192,32213,1,0,0:0:0:0:
320,192,32316,1,0,0:0:0:0:
192,192,32394,1,0,0:0:0:0:
320,192,32471,1,0,0:0:0:0:
64,192,32549,1,0,0:0:0:0:
192,192,32601,1,0,0:0:0:0:
320,192,32652,1,0,0:0:0:0:
448,192,32704,1,0,0:0:0:0:
192,192,32756,1,0,0:0:0:0:
320,192,32807,1,0,0:0:0:0:
448,192,32859,1,0,0:0:0:0:
64,192,32911,1,0,0:0:0:0:
320,192,33014,1,0,0:0:0:0:
448,192,33118,1,0,0:0:0:0:
64,192,33170,1,0,0:0:0:0:
192,192,33221,1,0,0:0:0:0:
320,192,33273,1,0,0:0:0:0:
448,192,33325,1,0,0:0:0:0:
192,192,33376,1,0,0:0:0:0:
320,192,33428,1,0,0:0:0:0:
448,192,33480,1,0,0:0:0:0:
64,192,33532,1,0,0:0:0:0:
320,192,33687,1,0,0:0:0:0:
448,192,33764,1,0,0:0:0:0:
192,192,33842,1,0,0:0:0:0:
64,192,33920,1,0,0:0:0:0:
192,192,33971,1,0,0:0:0:0:
320,192,34023,1,0,0:0:0:0:
448,192,34075,1,0,0:0:0:0:
64,192,34126,1,0,0:0:0:0:
320,192,34256,1,0,0:0:0:0:
192,192,34359,1,0,0:0:0:0:
448,192,34411,1,0,0:0:0:0:
320,192,34463,1,0,0:0:0:0:
192,192,34514,1,0,0:0:0:0:
64,192,34566,1,0,0:0:0:0:
192,192,34747,1,0,0:0:0:0:
448,192,34799,1,0,0:0:0:0:
320,192,34851,1,0,0:0:0:0:
64,192,34902,1,0,0:0:0:0:
192,192,34954,1,0,0:0:0:0:
320,192,35006,1,0,0:0:0:0:
448,192,35057,1,0,0:0:0:0:
64,192,35161,1,0,0:0:0:0:
192,192,35213,1,0,0:0:0:0:
320,192,35264,1,0,0:0:0:0:
448,192,35316,1,0,0:0:0:0:
64,192,35368,1,0,0:0:0:0:
192,192,35394,1,0,0:0:0:0:
448,192,35471,1,0,0:0:0:0:
320,192,35523,1,0,0:0:0:0:
64,192,35575,1,0,0:0:0:0:
192,192,35626,1,0,0:0:0:0:
448,192,35678,1,0,0:0:0:0:
320,192,35704,1,0,0:0:0:0:
64,192,35833,1,0,0:0:0:0:
192,192,35885,1,0,0:0:0:0:
320,192,35937,1,0,0:0:0:0:
448,192,35989,1,0,0:0:0:0:
192,192,36040,1,0,0:0:0:0:
320,192,36092,1,0,0:0:0:0:
64,192,36144,1,0,0:0:0:0:
192,192,36195,1,0,0:0:0:0:
320,192,36247,128,0,36454:0:0:0:0:
64,192,36351,128,0,36454:0:0:0:0:
192,192,36454,128,0,36661:0:0:0:0:
448,192,36557,128,0,36661:0:0:0:0:
320,192,36661,128,0,36868:0:0:0:0:
64,192,36764,128,0,36868:0:0:0:0:
192,192,36868,128,0,37075:0:0:0:0:
320,192,36971,128,0,37075:0:0:0:0:
448,192,37075,128,0,37282:0:0:0:0:
64,192,37178,128,0,37385:0:0:0:0:
192,192,37282,128,0,37454:0:0:0:0:
320,192,37351,128,0,37523:0:0:0:0:
448,192,37420,128,0,37592:0:0:0:0:
64,192,37489,128,0,37626:0:0:0:0:
192,192,37557,128,0,37695:0:0:0:0:
320,192,37626,128,0,37764:0:0:0:0:
448,192,37695,128,0,37833:0:0:0:0:
64,192,37747,128,0,37851:0:0:0:0:
192,192,37799,128,0,37902:0:0:0:0:
320,192,37851,128,0,37954:0:0:0:0:
448,192,37902,128,0,38006:0:0:0:0:
64,192,37954,128,0,38057:0:0:0:0:
192,192,38006,128,0,38109:0:0:0:0:
320,192,38057,128,0,38161:0:0:0:0:
448,192,38109,128,0,38213:0:0:0:0:
64,192,38178,128,0,38316:0:0:0:0:
192,192,38247,128,0,38385:0:0:0:0:
320,192,38316,128,0,38454:0:0:0:0:
448,192,38385,128,0,38523:0:0:0:0:
64,192,38454,128,0,38592:0:0:0:0:
192,192,38523,128,0,38730:0:0:0:0:
320,192,38626,128,0,38833:0:0:0:0:
448,192,38730,128,0,38937:0:0:0:0:
64,192,38833,128,0,39040:0:0:0:0:
192,192,38989,128,0,39195:0:0:0:0:
320,192,39092,128,0,39299:0:0:0:0:
448,192,39247,128,0,39454:0:0:0:0:
64,192,39351,128,0,39506:0:0:0:0:
192,192,39454,128,0,39609:0:0:0:0:
320,192,39557,128,0,39661:0:0:0:0:
448,192,39609,128,0,39713:0:0:0:0:
64,192,39661,128,0,39764:0:0:0:0:
192,192,39713,128,0,39816:0:0:0:0:
320,192,39764,128,0,39868:0:0:0:0:
448,192,39816,128,0,39920:0:0:0:0:
64,192,39868,128,0,39971:0:0:0:0:
192,192,39920,128,0,40023:0:0:0:0:
320,192,39971,128,0,40075:0:0:0:0:
448,192,40023,128,0,40126:0:0:0:0:
64,192,40075,128,0,40178:0:0:0:0:
192,192,40126,128,0,40230:0:0:0:0:
320,192,40178,128,0,40282:0:0:0:0:
448,192,40230,128,0,40333:0:0:0:0:
64,192,40282,128,0,40385:0:0:0:0:
192,192,40333,128,0,40437:0:0:0:0:
448,192,40385,128,8,40799:2:0:0:0:
320,192,40385,128,0,40592:0:0:0:0:
192,192,40592,128,8,40799:2:0:0:0:
64,192,40592,128,0,41213:0:0:0:0:
320,192,40799,128,0,40902:0:0:0:0:
448,192,40902,128,0,41006:0:0:0:0:
192,192,41006,128,0,41213:0:0:0:0:
448,192,41213,1,0,0:0:0:0:
320,192,41264,1,0,0:0:0:0:
192,192,41316,1,0,0:0:0:0:
64,192,41368,1,0,0:0:0:0:
448,192,41420,1,0,0:0:0:0:
320,192,41471,1,0,0:0:0:0:
192,192,41523,1,0,0:0:0:0:
64,192,41575,1,0,0:0:0:0:
448,192,41626,1,0,0:0:0:0:
448,192,41730,1,0,0:0:0:0:
448,192,41833,1,0,0:0:0:0:
448,192,41937,1,0,0:0:0:0:
448,192,42040,1,8,2:0:0:0:
64,192,42040,1,0,0:0:0:0:
448,192,42351,1,0,0:0:0:0:
320,192,42454,1,0,0:0:0:0:
192,192,42661,1,0,0:0:0:0:
64,192,42868,128,8,43902:2:0:0:0:
192,192,43282,128,0,43902:0:0:0:0:
320,192,43695,128,0,43902:0:0:0:0:
448,192,43902,128,0,44109:0:0:0:0:
64,192,44109,1,0,0:0:0:0:
192,192,44109,1,0,0:0:0:0:
64,192,44523,1,4,3:0:0:0:
192,192,44523,1,2,2:0:0:0:
448,192,44523,1,0,0:0:0:0:
320,192,44523,1,0,0:0:0:0:
64,192,44730,128,8,44937:2:0:0:0:
192,192,44730,128,0,44937:0:0:0:0:
320,192,44937,1,4,3:0:0:0:
448,192,44937,1,0,0:0:0:0:
320,192,45144,128,0,45351:0:0:0:0:
192,192,45247,128,0,45351:0:0:0:0:
64,192,45351,1,8,2:0:0:0:
448,192,45351,1,0,0:0:0:0:
192,192,45454,1,0,0:0:0:0:
448,192,45557,128,0,45661:0:0:0:0:
320,192,45661,1,0,0:0:0:0:
448,192,45764,1,4,3:0:0:0:
192,192,45764,1,2,2:0:0:0:
64,192,45764,1,0,0:0:0:0:
64,192,45971,1,4,3:0:0:0:
320,192,45971,128,2,46075:2:0:0:0:
448,192,45971,128,0,46075:0:0:0:0:
64,192,46178,1,8,2:0:0:0:
448,192,46178,1,0,0:0:0:0:
192,192,46282,128,0,46385:0:0:0:0:
320,192,46385,1,0,0:0:0:0:
64,192,46489,1,0,0:0:0:0:
448,192,46592,1,4,3:0:0:0:
192,192,46592,128,2,46695:2:0:0:0:
320,192,46592,1,0,0:0:0:0:
448,192,46799,128,8,47006:2:0:0:0:
64,192,46799,1,0,0:0:0:0:
192,192,47006,1,8,2:0:0:0:
64,192,47006,128,0,47213:0:0:0:0:
448,192,47213,128,8,47420:2:0:0:0:
320,192,47213,128,0,47420:0:0:0:0:
64,192,47420,1,4,3:0:0:0:
192,192,47420,1,0,0:0:0:0:
320,192,47523,128,0,47626:0:0:0:0:
192,192,47626,1,0,0:0:0:0:
320,192,47730,128,0,47833:0:0:0:0:
64,192,47833,1,4,3:0:0:0:
192,192,47833,1,0,0:0:0:0:
448,192,47937,128,0,48247:0:0:0:0:
192,192,48247,1,4,3:0:0:0:
64,192,48247,1,0,0:0:0:0:
448,192,48351,128,0,48661:0:0:0:0:
192,192,48661,1,4,3:0:0:0:
64,192,48661,1,0,0:0:0:0:
448,192,48764,128,0,48868:0:0:0:0:
320,192,48868,1,0,0:0:0:0:
192,192,48971,1,0,0:0:0:0:
64,192,49075,1,4,3:0:0:0:
320,192,49075,1,2,2:0:0:0:
448,192,49075,1,0,0:0:0:0:
192,192,49178,1,0,0:0:0:0:
64,192,49282,1,8,2:0:0:0:
448,192,49282,1,0,0:0:0:0:
192,192,49385,1,0,0:0:0:0:
320,192,49489,1,4,3:0:0:0:
64,192,49489,1,2,2:0:0:0:
448,192,49489,1,0,0:0:0:0:
192,192,49592,1,0,0:0:0:0:
64,192,49695,1,8,2:0:0:0:
448,192,49695,1,0,0:0:0:0:
192,192,49799,1,8,2:0:0:0:
320,192,49799,1,0,0:0:0:0:
192,192,49902,1,4,3:0:0:0:
448,192,49902,1,2,2:0:0:0:
64,192,49902,1,0,0:0:0:0:
320,192,50006,1,0,0:0:0:0:
64,192,50109,1,8,2:0:0:0:
448,192,50109,1,0,0:0:0:0:
320,192,50213,1,8,2:0:0:0:
192,192,50213,1,0,0:0:0:0:
64,192,50316,1,4,3:0:0:0:
320,192,50316,1,2,2:0:0:0:
448,192,50316,1,0,0:0:0:0:
192,192,50420,1,0,0:0:0:0:
64,192,50523,1,8,2:0:0:0:
448,192,50523,1,0,0:0:0:0:
320,192,50626,1,0,0:0:0:0:
192,192,50730,1,4,3:0:0:0:
64,192,50730,1,2,2:0:0:0:
448,192,50730,128,0,50833:0:0:0:0:
320,192,50833,128,0,50937:0:0:0:0:
192,192,50937,128,0,51040:0:0:0:0:
64,192,51040,128,0,51144:0:0:0:0:
320,192,51144,1,4,3:0:0:0:
192,192,51144,1,2,2:0:0:0:
448,192,51144,1,0,0:0:0:0:
320,192,51351,128,0,51557:0:0:0:0:
192,192,51557,1,4,3:0:0:0:
64,192,51557,1,2,2:0:0:0:
448,192,51557,1,0,0:0:0:0:
320,192,51661,1,0,0:0:0:0:
192,192,51764,1,0,0:0:0:0:
448,192,51868,1,8,2:0:0:0:
64,192,51868,1,0,0:0:0:0:
192,192,51971,128,8,52075:2:0:0:0:
320,192,51971,128,0,52178:0:0:0:0:
64,192,52075,128,8,52178:2:0:0:0:
448,192,52075,128,0,52489:0:0:0:0:
192,192,52178,128,0,52282:0:0:0:0:
320,192,52282,128,0,52385:0:0:0:0:
64,192,52385,1,4,3:0:0:0:
192,192,52385,1,0,0:0:0:0:
320,192,52489,1,0,0:0:0:0:
192,192,52592,1,8,2:0:0:0:
64,192,52592,1,0,0:0:0:0:
320,192,52695,1,0,0:0:0:0:
192,192,52799,128,4,52902:3:0:0:0:
64,192,52799,128,0,52902:0:0:0:0:
320,192,52954,128,8,53057:2:0:0:0:
448,192,52954,128,0,53057:0:0:0:0:
192,192,53109,128,8,53213:2:0:0:0:
64,192,53109,128,0,53213:0:0:0:0:
320,192,53213,128,4,53316:3:0:0:0:
448,192,53213,128,0,53316:0:0:0:0:
192,192,53368,128,8,53471:2:0:0:0:
64,192,53368,128,0,53471:0:0:0:0:
320,192,53523,128,8,53626:2:0:0:0:
448,192,53523,128,0,53626:0:0:0:0:
192,192,53626,128,4,53730:3:0:0:0:
64,192,53626,1,0,0:0:0:0:
320,192,53730,128,8,53833:2:0:0:0:
192,192,53833,128,8,53937:2:0:0:0:
320,192,53937,128,8,54040:2:0:0:0:
64,192,54040,128,4,54109:3:0:0:0:
448,192,54040,128,0,54109:0:0:0:0:
448,192,54178,128,8,54247:2:0:0:0:
64,192,54178,128,0,54247:0:0:0:0:
64,192,54316,128,8,54385:2:0:0:0:
448,192,54316,128,0,54385:0:0:0:0:
448,192,54454,1,4,3:0:0:0:
320,192,54454,1,2,2:0:0:0:
64,192,54454,1,0,0:0:0:0:
192,192,54557,1,0,0:0:0:0:
320,192,54661,1,0,0:0:0:0:
320,192,54764,1,0,0:0:0:0:
192,192,54868,1,4,3:0:0:0:
64,192,54868,1,2,2:0:0:0:
448,192,54868,1,0,0:0:0:0:
320,192,54971,1,0,0:0:0:0:
448,192,55075,1,8,2:0:0:0:
64,192,55075,1,0,0:0:0:0:
192,192,55178,1,0,0:0:0:0:
320,192,55282,1,4,3:0:0:0:
448,192,55282,1,0,0:0:0:0:
64,192,55385,128,0,55592:0:0:0:0:
192,192,55489,128,0,55592:0:0:0:0:
320,192,55592,1,0,0:0:0:0:
192,192,55695,1,8,2:0:0:0:
448,192,55695,128,0,55799:0:0:0:0:
64,192,55799,128,0,55902:0:0:0:0:
448,192,55902,128,0,56006:0:0:0:0:
64,192,56006,128,0,56109:0:0:0:0:
192,192,56109,1,4,3:0:0:0:
448,192,56109,1,2,2:0:0:0:
320,192,56109,128,0,56316:0:0:0:0:
192,192,56316,128,0,56420:0:0:0:0:
320,192,56420,128,0,56523:0:0:0:0:
192,192,56523,128,0,56937:0:0:0:0:
320,192,56730,128,0,56937:0:0:0:0:
448,192,56937,128,0,57247:0:0:0:0:
64,192,57144,128,0,57661:0:0:0:0:
320,192,57351,128,8,57454:2:0:0:0:
448,192,57351,128,0,57661:0:0:0:0:
192,192,57557,128,0,57661:0:0:0:0:
448,192,57764,1,8,2:0:0:0:
64,192,57764,1,4,3:0:0:0:
192,192,57764,1,0,0:0:0:0:
320,192,57764,128,2,57971:2:0:0:0:
192,192,57971,1,0,0:0:0:0:
320,192,58178,1,4,3:0:0:0:
64,192,58178,128,2,58592:2:0:0:0:
448,192,58178,128,0,58385:0:0:0:0:
192,192,58385,1,0,0:0:0:0:
320,192,58592,128,4,59006:3:0:0:0:
192,192,58592,128,2,58799:2:0:0:0:
448,192,58592,128,0,59213:0:0:0:0:
64,192,58799,128,0,59316:0:0:0:0:
192,192,59006,128,0,59316:0:0:0:0:
320,192,59213,128,0,59316:0:0:0:0:
320,192,59420,1,4,3:0:0:0:
448,192,59420,1,0,0:0:0:0:
192,192,59523,1,2,2:0:0:0:
64,192,59523,1,0,0:0:0:0:
320,192,59626,1,0,0:0:0:0:
192,192,59730,1,0,0:0:0:0:
320,192,59833,1,4,3:0:0:0:
448,192,59833,1,2,2:0:0:0:
64,192,59833,1,0,0:0:0:0:
64,192,60040,1,8,2:0:0:0:
192,192,60040,128,0,60247:0:0:0:0:
320,192,60247,128,4,60454:3:0:0:0:
448,192,60247,1,0,0:0:0:0:
64,192,60454,1,0,0:0:0:0:
192,192,60661,1,4,3:0:0:0:
320,192,60661,1,0,0:0:0:0:
192,192,60764,1,0,0:0:0:0:
448,192,60868,1,0,0:0:0:0:
320,192,60971,1,0,0:0:0:0:
192,192,61075,1,4,3:0:0:0:
64,192,61075,1,0,0:0:0:0:
448,192,61178,128,0,61489:0:0:0:0:
192,192,61489,1,4,3:0:0:0:
64,192,61489,1,0,0:0:0:0:
448,192,61592,128,0,61902:0:0:0:0:
192,192,61902,1,4,3:0:0:0:
64,192,61902,1,0,0:0:0:0:
448,192,62006,128,0,62213:0:0:0:0:
320,192,62109,128,0,62213:0:0:0:0:
192,192,62213,1,0,0:0:0:0:
64,192,62316,1,4,3:0:0:0:
320,192,62316,1,2,2:0:0:0:
448,192,62316,1,0,0:0:0:0:
320,192,62523,1,8,2:0:0:0:
192,192,62523,1,0,0:0:0:0:
448,192,62730,1,4,3:0:0:0:
192,192,62730,1,2,2:0:0:0:
64,192,62730,1,0,0:0:0:0:
320,192,62833,1,0,0:0:0:0:
448,192,62937,1,8,2:0:0:0:
192,192,62937,1,0,0:0:0:0:
64,192,63040,1,8,2:0:0:0:
320,192,63040,1,0,0:0:0:0:
192,192,63144,1,4,3:0:0:0:
64,192,63144,1,2,2:0:0:0:
448,192,63144,1,0,0:0:0:0:
320,192,63247,1,0,0:0:0:0:
448,192,63351,1,8,2:0:0:0:
64,192,63351,1,0,0:0:0:0:
320,192,63454,1,8,2:0:0:0:
192,192,63454,1,0,0:0:0:0:
320,192,63557,1,4,3:0:0:0:
448,192,63557,1,2,2:0:0:0:
64,192,63557,1,0,0:0:0:0:
192,192,63661,1,0,0:0:0:0:
448,192,63764,1,10,2:0:0:0:
64,192,63764,1,0,0:0:0:0:
320,192,63868,1,0,0:0:0:0:
192,192,63971,1,4,3:0:0:0:
64,192,63971,1,2,2:0:0:0:
448,192,63971,128,0,64075:0:0:0:0:
320,192,64075,128,0,64178:0:0:0:0:
192,192,64178,128,0,64282:0:0:0:0:
64,192,64282,128,0,64385:0:0:0:0:
192,192,64385,1,4,3:0:0:0:
320,192,64385,1,2,2:0:0:0:
448,192,64385,1,0,0:0:0:0:
64,192,64592,128,0,64799:0:0:0:0:
192,192,64799,1,4,3:0:0:0:
320,192,64799,1,0,0:0:0:0:
448,192,65006,1,0,0:0:0:0:
320,192,65109,1,0,0:0:0:0:
192,192,65213,1,4,3:0:0:0:
64,192,65213,1,0,0:0:0:0:
448,192,65316,128,0,65626:0:0:0:0:
64,192,65626,1,4,3:0:0:0:
192,192,65626,1,0,0:0:0:0:
320,192,65730,1,8,2:0:0:0:
448,192,65730,1,0,0:0:0:0:
192,192,65833,1,4,3:0:0:0:
64,192,65833,1,0,0:0:0:0:
320,192,65937,1,8,2:0:0:0:
448,192,65937,1,0,0:0:0:0:
448,192,66040,128,4,66144:3:0:0:0:
64,192,66040,128,0,66144:0:0:0:0:
320,192,66195,128,8,66299:2:0:0:0:
192,192,66195,128,0,66299:0:0:0:0:
64,192,66351,128,8,66454:2:0:0:0:
448,192,66351,128,0,66454:0:0:0:0:
192,192,66454,128,4,66557:3:0:0:0:
320,192,66454,128,0,66557:0:0:0:0:
64,192,66609,128,8,66713:2:0:0:0:
448,192,66609,128,0,66713:0:0:0:0:
192,192,66764,128,8,66868:2:0:0:0:
320,192,66764,128,0,66868:0:0:0:0:
64,192,66868,128,4,66971:3:0:0:0:
448,192,66868,1,0,0:0:0:0:
320,192,66971,128,0,67075:0:0:0:0:
192,192,67075,128,0,67178:0:0:0:0:
448,192,67178,128,0,67282:0:0:0:0:
192,192,67282,128,4,67351:3:0:0:0:
320,192,67282,128,0,67351:0:0:0:0:
192,192,67420,128,8,67489:2:0:0:0:
320,192,67420,128,0,67489:0:0:0:0:
192,192,67557,128,8,67626:2:0:0:0:
320,192,67557,128,0,67626:0:0:0:0:
64,192,67695,1,8,2:0:0:0:
192,192,67695,1,4,3:0:0:0:
320,192,67695,1,2,2:0:0:0:
448,192,67695,1,0,0:0:0:0:
448,192,67799,1,0,0:0:0:0:
192,192,67902,1,0,0:0:0:0:
192,192,68006,1,0,0:0:0:0:
448,192,68109,1,0,0:0:0:0:
320,192,68213,1,0,0:0:0:0:
192,192,68316,1,8,2:0:0:0:
64,192,68316,1,0,0:0:0:0:
320,192,68420,1,0,0:0:0:0:
448,192,68523,1,4,3:0:0:0:
64,192,68523,128,2,68626:2:0:0:0:
192,192,68523,1,0,0:0:0:0:
320,192,68626,1,0,0:0:0:0:
64,192,68730,1,4,3:0:0:0:
448,192,68730,128,2,68833:2:0:0:0:
192,192,68730,1,0,0:0:0:0:
320,192,68833,1,0,0:0:0:0:
64,192,68937,128,4,69040:3:0:0:0:
448,192,68937,128,2,69040:2:0:0:0:
192,192,69040,128,0,69144:0:0:0:0:
320,192,69040,128,0,69144:0:0:0:0:
448,192,69144,128,4,69247:3:0:0:0:
64,192,69144,128,2,69247:2:0:0:0:
192,192,69247,128,0,69351:0:0:0:0:
320,192,69247,128,0,69351:0:0:0:0:
448,192,69351,1,0,0:0:0:0:
64,192,69557,1,0,0:0:0:0:
320,192,69661,1,0,0:0:0:0:
448,192,69764,128,0,69868:0:0:0:0:
64,192,69868,1,0,0:0:0:0:
192,192,69971,1,0,0:0:0:0:
448,192,70075,1,0,0:0:0:0:
320,192,70178,1,0,0:0:0:0:
192,192,70230,1,0,0:0:0:0:
320,192,70282,1,0,0:0:0:0:
192,192,70333,1,0,0:0:0:0:
448,192,70385,128,0,70592:0:0:0:0:
64,192,70592,1,8,2:0:0:0:
192,192,70592,1,0,0:0:0:0:
64,192,71006,1,2,2:0:0:0:
448,192,71006,1,0,0:0:0:0:
320,192,71006,1,0,0:0:0:0:
192,192,71006,128,4,71213:3:0:0:0:
320,192,71213,1,0,0:0:0:0:
448,192,71420,1,0,0:0:0:0:
64,192,71420,128,0,71833:0:0:0:0:
192,192,71626,128,0,71833:0:0:0:0:
320,192,71833,1,8,2:0:0:0:
448,192,71833,1,0,0:0:0:0:
192,192,71937,1,0,0:0:0:0:
64,192,72040,128,0,72144:0:0:0:0:
64,192,72247,1,4,3:0:0:0:
320,192,72247,1,2,2:0:0:0:
448,192,72247,1,0,0:0:0:0:
64,192,72454,1,8,2:0:0:0:
448,192,72454,1,0,0:0:0:0:
448,192,72661,128,8,72971:2:0:0:0:
320,192,72661,128,2,72764:2:0:0:0:
64,192,72661,128,0,72868:0:0:0:0:
192,192,72764,128,0,73282:0:0:0:0:
320,192,72868,128,0,73282:0:0:0:0:
64,192,72971,128,0,73178:0:0:0:0:
448,192,73075,128,0,73592:0:0:0:0:
64,192,73282,128,0,74006:0:0:0:0:
192,192,73489,128,4,73695:3:0:0:0:
320,192,73489,128,0,73695:0:0:0:0:
448,192,73695,128,0,74213:0:0:0:0:
192,192,73902,128,4,74213:3:0:0:0:
320,192,73902,128,0,74213:0:0:0:0:
64,192,74109,128,0,74213:0:0:0:0:
64,192,74316,1,4,3:0:0:0:
192,192,74316,1,0,0:0:0:0:
448,192,74420,128,0,74730:0:0:0:0:
192,192,74730,1,4,3:0:0:0:
64,192,74730,1,0,0:0:0:0:
448,192,74833,128,0,75144:0:0:0:0:
192,192,75144,1,4,3:0:0:0:
64,192,75144,1,0,0:0:0:0:
320,192,75247,128,0,75351:0:0:0:0:
64,192,75351,1,0,0:0:0:0:
192,192,75454,1,0,0:0:0:0:
448,192,75557,1,4,3:0:0:0:
64,192,75557,1,0,0:0:0:0:
320,192,75661,1,0,0:0:0:0:
192,192,75764,1,0,0:0:0:0:
64,192,75868,128,0,75920:0:0:0:0:
192,192,75920,128,0,75971:0:0:0:0:
320,192,75971,128,4,76178:3:0:0:0:
448,192,75971,1,0,0:0:0:0:
64,192,76075,128,0,76282:0:0:0:0:
448,192,76178,128,0,76385:0:0:0:0:
192,192,76282,128,0,76385:0:0:0:0:
320,192,76385,128,4,76489:3:0:0:0:
64,192,76385,1,0,0:0:0:0:
448,192,76489,128,0,76592:0:0:0:0:
192,192,76489,1,0,0:0:0:0:
320,192,76592,1,8,2:0:0:0:
64,192,76592,1,0,0:0:0:0:
192,192,76695,1,8,2:0:0:0:
448,192,76695,1,0,0:0:0:0:
448,192,76799,1,4,3:0:0:0:
64,192,76799,1,0,0:0:0:0:
320,192,76799,1,0,0:0:0:0:
192,192,76902,1,0,0:0:0:0:
64,192,77006,1,8,2:0:0:0:
448,192,77006,1,0,0:0:0:0:
192,192,77109,1,8,2:0:0:0:
320,192,77109,1,0,0:0:0:0:
320,192,77213,1,4,3:0:0:0:
448,192,77213,1,0,0:0:0:0:
64,192,77213,128,0,77316:0:0:0:0:
192,192,77316,128,0,77420:0:0:0:0:
320,192,77420,128,0,77523:0:0:0:0:
448,192,77523,128,0,77626:0:0:0:0:
320,192,77626,1,4,3:0:0:0:
192,192,77626,1,2,2:0:0:0:
64,192,77626,1,0,0:0:0:0:
448,192,77833,1,0,0:0:0:0:
192,192,78040,1,4,3:0:0:0:
64,192,78040,1,0,0:0:0:0:
448,192,78040,128,0,78454:0:0:0:0:
320,192,78247,128,0,78454:0:0:0:0:
192,192,78454,1,4,3:0:0:0:
64,192,78454,1,0,0:0:0:0:
320,192,78557,1,8,2:0:0:0:
448,192,78557,1,0,0:0:0:0:
192,192,78661,128,8,78764:2:0:0:0:
64,192,78661,128,0,78868:0:0:0:0:
448,192,78868,128,4,79178:3:0:0:0:
320,192,78868,128,0,78971:0:0:0:0:
192,192,78971,1,0,0:0:0:0:
64,192,79075,128,8,79178:2:0:0:0:
320,192,79075,1,0,0:0:0:0:
192,192,79178,1,0,0:0:0:0:
64,192,79282,128,2,79385:2:0:0:0:
320,192,79282,128,4,79385:3:0:0:0:
448,192,79437,128,8,79540:2:0:0:0:
192,192,79437,128,0,79540:0:0:0:0:
320,192,79592,128,8,79695:2:0:0:0:
64,192,79592,128,0,79695:0:0:0:0:
192,192,79695,128,4,79799:3:0:0:0:
448,192,79695,128,0,79799:0:0:0:0:
320,192,79851,128,8,79954:2:0:0:0:
64,192,79851,128,0,79954:0:0:0:0:
448,192,80006,128,8,80109:2:0:0:0:
192,192,80006,128,0,80109:0:0:0:0:
320,192,80109,1,4,3:0:0:0:
64,192,80109,128,0,80213:0:0:0:0:
448,192,80213,128,0,80316:0:0:0:0:
320,192,80316,128,0,80420:0:0:0:0:
192,192,80420,128,0,80523:0:0:0:0:
448,192,80523,128,4,80592:3:0:0:0:
64,192,80523,128,0,80592:0:0:0:0:
64,192,80661,128,8,80730:2:0:0:0:
448,192,80661,128,0,80730:0:0:0:0:
64,192,80799,128,8,80868:2:0:0:0:
448,192,80799,128,0,80868:0:0:0:0:
192,192,80937,1,8,2:0:0:0:
64,192,80937,1,4,3:0:0:0:
448,192,80937,1,2,2:0:0:0:
320,192,80937,1,0,0:0:0:0:
320,192,81040,1,0,0:0:0:0:
192,192,81144,1,0,0:0:0:0:
192,192,81247,1,0,0:0:0:0:
320,192,81351,1,4,3:0:0:0:
448,192,81351,1,2,2:0:0:0:
64,192,81351,1,0,0:0:0:0:
192,192,81454,1,0,0:0:0:0:
320,192,81557,1,0,0:0:0:0:
64,192,81661,1,0,0:0:0:0:
192,192,81764,1,4,3:0:0:0:
448,192,81764,1,0,0:0:0:0:
64,192,81868,128,0,82075:0:0:0:0:
448,192,81971,128,0,82075:0:0:0:0:
64,192,82178,1,4,3:0:0:0:
320,192,82178,1,2,2:0:0:0:
448,192,82178,1,0,0:0:0:0:
64,192,82385,1,8,2:0:0:0:
448,192,82385,1,0,0:0:0:0:
448,192,82592,1,4,3:0:0:0:
64,192,82592,1,2,2:0:0:0:
192,192,82592,128,0,82799:0:0:0:0:
320,192,82799,128,0,82902:0:0:0:0:
192,192,82902,128,0,83006:0:0:0:0:
320,192,83006,128,0,83420:0:0:0:0:
192,192,83213,128,0,83420:0:0:0:0:
448,192,83420,128,0,83730:0:0:0:0:
64,192,83626,128,0,84144:0:0:0:0:
192,192,83833,128,8,83937:2:0:0:0:
448,192,83833,128,0,84144:0:0:0:0:
320,192,84040,128,0,84144:0:0:0:0:
64,192,84247,1,10,2:0:0:0:
448,192,84247,1,8,2:0:0:0:
192,192,84247,128,4,84454:3:0:0:0:
320,192,84247,1,0,0:0:0:0:
448,192,84454,1,0,0:0:0:0:
320,192,84661,1,4,3:0:0:0:
64,192,84661,128,2,85075:2:0:0:0:
192,192,84661,128,0,84868:0:0:0:0:
448,192,84868,1,0,0:0:0:0:
448,192,85075,128,4,85282:3:0:0:0:
320,192,85075,128,2,85489:2:0:0:0:
192,192,85075,128,0,85695:0:0:0:0:
64,192,85282,128,0,85799:0:0:0:0:
448,192,85489,128,0,85799:0:0:0:0:
320,192,85695,128,0,85799:0:0:0:0:
192,192,85902,1,4,3:0:0:0:
64,192,85902,1,0,0:0:0:0:
320,192,86006,1,8,2:0:0:0:
448,192,86006,1,0,0:0:0:0:
64,192,86109,1,0,0:0:0:0:
192,192,86213,1,0,0:0:0:0:
448,192,86316,1,4,3:0:0:0:
64,192,86316,1,2,2:0:0:0:
320,192,86316,1,0,0:0:0:0:
192,192,86523,1,8,2:0:0:0:
448,192,86523,128,0,86730:0:0:0:0:
64,192,86730,128,4,86937:3:0:0:0:
320,192,86730,1,0,0:0:0:0:
320,192,86937,128,2,87144:2:0:0:0:
448,192,86937,128,0,87144:0:0:0:0:
64,192,87144,1,4,3:0:0:0:
192,192,87144,1,0,0:0:0:0:
64,192,87351,128,2,87557:2:0:0:0:
448,192,87351,128,0,87557:0:0:0:0:
192,192,87557,1,4,3:0:0:0:
320,192,87557,1,0,0:0:0:0:
448,192,87661,128,0,87971:0:0:0:0:
192,192,87971,1,4,3:0:0:0:
64,192,87971,1,0,0:0:0:0:
448,192,88075,128,0,88385:0:0:0:0:
192,192,88385,1,4,3:0:0:0:
64,192,88385,1,0,0:0:0:0:
448,192,88489,128,0,88592:0:0:0:0:
320,192,88592,1,8,2:0:0:0:
64,192,88592,1,0,0:0:0:0:
192,192,88695,1,0,0:0:0:0:
64,192,88799,1,4,3:0:0:0:
448,192,88799,1,0,0:0:0:0:
320,192,88902,1,0,0:0:0:0:
192,192,89006,1,8,2:0:0:0:
448,192,89006,1,0,0:0:0:0:
320,192,89109,128,0,89161:0:0:0:0:
192,192,89161,128,0,89213:0:0:0:0:
64,192,89213,128,4,89420:3:0:0:0:
448,192,89213,1,0,0:0:0:0:
320,192,89316,128,0,89523:0:0:0:0:
448,192,89420,128,0,89626:0:0:0:0:
64,192,89523,128,0,89730:0:0:0:0:
192,192,89626,128,4,89730:3:0:0:0:
320,192,89626,1,0,0:0:0:0:
448,192,89730,1,0,0:0:0:0:
64,192,89833,1,8,2:0:0:0:
320,192,89833,1,0,0:0:0:0:
448,192,89937,1,8,2:0:0:0:
192,192,89937,1,0,0:0:0:0:
64,192,90040,1,4,3:0:0:0:
448,192,90040,1,0,0:0:0:0:
320,192,90040,1,2,2:0:0:0:
192,192,90144,1,0,0:0:0:0:
64,192,90247,1,8,2:0:0:0:
448,192,90247,1,0,0:0:0:0:
320,192,90351,1,8,2:0:0:0:
192,192,90351,1,0,0:0:0:0:
448,192,90454,128,4,90557:3:0:0:0:
192,192,90454,1,0,0:0:0:0:
64,192,90454,1,0,0:0:0:0:
320,192,90557,128,0,90661:0:0:0:0:
192,192,90661,128,0,90764:0:0:0:0:
64,192,90764,128,0,90868:0:0:0:0:
320,192,90868,1,4,3:0:0:0:
448,192,90868,1,2,2:0:0:0:
192,192,90868,1,0,0:0:0:0:
64,192,91075,1,0,0:0:0:0:
320,192,91282,128,4,91695:3:0:0:0:
448,192,91282,1,2,2:0:0:0:
64,192,91282,1,0,0:0:0:0:
192,192,91489,128,0,91695:0:0:0:0:
64,192,91695,1,4,3:0:0:0:
448,192,91695,1,0,0:0:0:0:
320,192,91799,128,8,92006:2:0:0:0:
192,192,91799,128,0,92006:0:0:0:0:
192,192,92109,1,4,3:0:0:0:
448,192,92109,1,0,0:0:0:0:
320,192,92213,1,0,0:0:0:0:
64,192,92316,1,8,2:0:0:0:
448,192,92316,1,0,0:0:0:0:
192,192,92420,1,0,0:0:0:0:
320,192,92523,128,4,92626:3:0:0:0:
448,192,92523,128,0,92626:0:0:0:0:
192,192,92678,128,8,92782:2:0:0:0:
64,192,92678,128,0,92782:0:0:0:0:
448,192,92833,128,8,92937:2:0:0:0:
320,192,92833,128,0,92937:0:0:0:0:
64,192,92937,128,4,93040:3:0:0:0:
192,192,92937,128,0,93040:0:0:0:0:
448,192,93092,128,8,93195:2:0:0:0:
320,192,93092,128,0,93195:0:0:0:0:
192,192,93247,128,8,93351:2:0:0:0:
64,192,93247,128,0,93351:0:0:0:0:
320,192,93351,1,0,0:0:0:0:
448,192,93402,1,0,0:0:0:0:
64,192,93454,1,0,0:0:0:0:
192,192,93506,1,0,0:0:0:0:
320,192,93557,1,0,0:0:0:0:
448,192,93609,1,0,0:0:0:0:
192,192,93661,1,0,0:0:0:0:
320,192,93713,1,0,0:0:0:0:
448,192,93764,1,8,2:0:0:0:
64,192,93764,1,0,0:0:0:0:
448,192,93868,1,8,2:0:0:0:
64,192,93868,1,0,0:0:0:0:
320,192,93971,1,4,3:0:0:0:
192,192,93971,1,0,0:0:0:0:
64,192,94178,1,8,2:0:0:0:
320,192,94178,1,4,3:0:0:0:
448,192,94178,1,2,2:0:0:0:
192,192,94178,1,0,0:0:0:0:
64,192,94282,1,0,0:0:0:0:
448,192,94385,1,0,0:0:0:0:
448,192,94489,1,0,0:0:0:0:
64,192,94592,1,8,2:0:0:0:
320,192,94592,1,0,0:0:0:0:
192,192,94695,1,0,0:0:0:0:
320,192,94799,1,4,3:0:0:0:
448,192,94799,1,0,0:0:0:0:
320,192,94902,1,0,0:0:0:0:
448,192,95006,1,4,3:0:0:0:
192,192,95006,1,2,2:0:0:0:
64,192,95006,1,0,0:0:0:0:
192,192,95109,1,0,0:0:0:0:
64,192,95213,1,4,3:0:0:0:
320,192,95213,1,2,2:0:0:0:
448,192,95213,1,0,0:0:0:0:
320,192,95316,1,0,0:0:0:0:
192,192,95420,1,4,3:0:0:0:
64,192,95420,1,2,2:0:0:0:
448,192,95420,1,0,0:0:0:0:
192,192,95523,1,0,0:0:0:0:
320,192,95626,1,8,2:0:0:0:
448,192,95626,1,0,0:0:0:0:
192,192,95833,1,8,2:0:0:0:
64,192,95833,1,0,0:0:0:0:
320,192,95937,1,0,0:0:0:0:
320,192,96040,1,8,2:0:0:0:
448,192,96040,1,0,0:0:0:0:
64,192,96144,1,0,0:0:0:0:
64,192,96247,1,8,2:0:0:0:
448,192,96247,1,0,0:0:0:0:
320,192,96351,5,0,0:0:0:0:
320,192,96454,1,8,2:0:0:0:
64,192,96454,1,0,0:0:0:0:
192,192,96557,1,0,0:0:0:0:
320,192,96661,1,8,2:0:0:0:
448,192,96661,1,0,0:0:0:0:
192,192,96713,1,0,0:0:0:0:
64,192,96764,1,0,0:0:0:0:
320,192,96816,1,0,0:0:0:0:
192,192,96868,1,0,0:0:0:0:
448,192,96868,1,0,0:0:0:0:
64,192,96920,1,0,0:0:0:0:
320,192,96971,1,0,0:0:0:0:
192,192,97023,1,0,0:0:0:0:
64,192,97075,1,0,0:0:0:0:
448,192,97075,1,0,0:0:0:0:
320,192,97126,1,0,0:0:0:0:
192,192,97178,1,0,0:0:0:0:
448,192,97230,1,0,0:0:0:0:
320,192,97282,1,0,0:0:0:0:
64,192,97282,1,0,0:0:0:0:
192,192,97333,1,0,0:0:0:0:
448,192,97385,1,0,0:0:0:0:
320,192,97437,1,0,0:0:0:0:
448,192,97489,1,4,3:0:0:0:
192,192,97489,1,2,2:0:0:0:
64,192,97489,1,0,0:0:0:0:
320,192,97592,1,0,0:0:0:0:
192,192,97695,1,8,2:0:0:0:
448,192,97695,1,0,0:0:0:0:
64,192,97799,1,8,2:0:0:0:
448,192,97799,1,0,0:0:0:0:
320,192,97902,1,4,3:0:0:0:
192,192,97902,1,2,2:0:0:0:
64,192,97902,1,0,0:0:0:0:
448,192,98006,1,0,0:0:0:0:
192,192,98109,1,8,2:0:0:0:
64,192,98109,1,0,0:0:0:0:
192,192,98213,1,8,2:0:0:0:
320,192,98213,1,0,0:0:0:0:
320,192,98316,1,4,3:0:0:0:
448,192,98316,1,2,2:0:0:0:
64,192,98316,1,0,0:0:0:0:
192,192,98420,1,8,2:0:0:0:
448,192,98420,1,0,0:0:0:0:
64,192,98523,1,0,0:0:0:0:
192,192,98626,1,8,2:0:0:0:
448,192,98626,1,0,0:0:0:0:
448,192,98730,1,4,3:0:0:0:
320,192,98730,1,2,2:0:0:0:
64,192,98730,1,0,0:0:0:0:
192,192,98833,1,8,2:0:0:0:
64,192,98833,1,0,0:0:0:0:
320,192,98937,1,8,2:0:0:0:
448,192,98937,1,0,0:0:0:0:
320,192,99040,1,8,2:0:0:0:
192,192,99040,1,0,0:0:0:0:
192,192,99144,1,4,3:0:0:0:
64,192,99144,1,2,2:0:0:0:
448,192,99144,1,0,0:0:0:0:
320,192,99247,1,8,2:0:0:0:
64,192,99247,1,0,0:0:0:0:
448,192,99351,1,0,0:0:0:0:
320,192,99454,1,8,2:0:0:0:
64,192,99454,1,0,0:0:0:0:
192,192,99557,1,4,3:0:0:0:
64,192,99557,1,2,2:0:0:0:
448,192,99557,1,0,0:0:0:0:
320,192,99661,1,0,0:0:0:0:
64,192,99764,1,8,2:0:0:0:
448,192,99764,1,0,0:0:0:0:
320,192,99868,1,8,2:0:0:0:
192,192,99868,1,0,0:0:0:0:
320,192,99971,1,4,3:0:0:0:
448,192,99971,1,2,2:0:0:0:
64,192,99971,128,0,100075:0:0:0:0:
192,192,100075,1,0,0:0:0:0:
64,192,100178,1,8,2:0:0:0:
448,192,100178,128,0,100282:0:0:0:0:
320,192,100282,1,0,0:0:0:0:
448,192,100385,1,4,3:0:0:0:
320,192,100385,1,2,2:0:0:0:
64,192,100385,1,0,0:0:0:0:
192,192,100489,1,0,0:0:0:0:
320,192,100592,1,8,2:0:0:0:
448,192,100592,1,0,0:0:0:0:
320,192,100695,1,8,2:0:0:0:
192,192,100695,1,0,0:0:0:0:
192,192,100799,1,4,3:0:0:0:
64,192,100799,1,2,2:0:0:0:
448,192,100799,1,0,0:0:0:0:
320,192,100902,1,8,2:0:0:0:
64,192,100902,1,0,0:0:0:0:
448,192,101006,1,0,0:0:0:0:
320,192,101109,1,8,2:0:0:0:
64,192,101109,1,0,0:0:0:0:
192,192,101213,1,4,3:0:0:0:
64,192,101213,1,2,2:0:0:0:
448,192,101213,1,0,0:0:0:0:
320,192,101316,1,0,0:0:0:0:
192,192,101420,1,8,2:0:0:0:
64,192,101420,1,0,0:0:0:0:
192,192,101523,1,8,2:0:0:0:
320,192,101523,1,0,0:0:0:0:
320,192,101626,1,4,3:0:0:0:
448,192,101626,1,2,2:0:0:0:
64,192,101626,1,0,0:0:0:0:
192,192,101730,1,8,2:0:0:0:
448,192,101730,1,0,0:0:0:0:
64,192,101833,1,0,0:0:0:0:
192,192,101937,1,8,2:0:0:0:
448,192,101937,1,0,0:0:0:0:
320,192,102040,1,4,3:0:0:0:
448,192,102040,1,2,2:0:0:0:
64,192,102040,1,0,0:0:0:0:
192,192,102144,1,8,2:0:0:0:
64,192,102144,1,0,0:0:0:0:
320,192,102247,1,8,2:0:0:0:
448,192,102247,1,0,0:0:0:0:
320,192,102351,1,8,2:0:0:0:
192,192,102351,1,0,0:0:0:0:
192,192,102454,1,4,3:0:0:0:
64,192,102454,1,2,2:0:0:0:
448,192,102454,1,0,0:0:0:0:
320,192,102557,1,8,2:0:0:0:
64,192,102557,1,0,0:0:0:0:
192,192,102661,1,0,0:0:0:0:
64,192,102764,1,8,2:0:0:0:
320,192,102764,1,0,0:0:0:0:
448,192,102868,1,4,3:0:0:0:
320,192,102868,1,2,2:0:0:0:
192,192,102868,1,0,0:0:0:0:
64,192,102971,1,0,0:0:0:0:
320,192,103075,1,8,2:0:0:0:
448,192,103075,1,0,0:0:0:0:
320,192,103178,1,8,2:0:0:0:
192,192,103178,1,0,0:0:0:0:
192,192,103282,1,4,3:0:0:0:
64,192,103282,1,2,2:0:0:0:
448,192,103282,1,0,0:0:0:0:
192,192,103385,1,8,2:0:0:0:
64,192,103385,1,0,0:0:0:0:
320,192,103489,1,8,2:0:0:0:
448,192,103489,1,0,0:0:0:0:
448,192,103592,1,8,2:0:0:0:
320,192,103592,1,0,0:0:0:0:
192,192,103695,1,4,3:0:0:0:
64,192,103695,1,2,2:0:0:0:
448,192,103695,1,0,0:0:0:0:
320,192,103799,1,8,2:0:0:0:
192,192,103799,1,0,0:0:0:0:
320,192,103902,1,8,2:0:0:0:
448,192,103902,1,0,0:0:0:0:
192,192,104006,1,8,2:0:0:0:
64,192,104006,1,0,0:0:0:0:
192,192,104109,1,4,3:0:0:0:
64,192,104109,1,2,2:0:0:0:
448,192,104109,1,0,0:0:0:0:
320,192,104213,1,8,2:0:0:0:
64,192,104213,1,0,0:0:0:0:
448,192,104316,1,0,0:0:0:0:
320,192,104420,1,8,2:0:0:0:
64,192,104420,1,0,0:0:0:0:
192,192,104523,1,4,3:0:0:0:
64,192,104523,1,2,2:0:0:0:
448,192,104523,1,0,0:0:0:0:
320,192,104626,1,0,0:0:0:0:
192,192,104730,1,8,2:0:0:0:
64,192,104730,1,0,0:0:0:0:
192,192,104833,1,8,2:0:0:0:
320,192,104833,1,0,0:0:0:0:
448,192,104937,1,4,3:0:0:0:
320,192,104937,1,2,2:0:0:0:
64,192,104937,1,0,0:0:0:0:
192,192,105040,1,8,2:0:0:0:
448,192,105040,1,0,0:0:0:0:
64,192,105144,1,0,0:0:0:0:
192,192,105247,1,8,2:0:0:0:
448,192,105247,1,0,0:0:0:0:
320,192,105351,1,4,3:0:0:0:
448,192,105351,1,2,2:0:0:0:
64,192,105351,1,0,0:0:0:0:
192,192,105454,1,8,2:0:0:0:
64,192,105454,1,0,0:0:0:0:
320,192,105557,1,8,2:0:0:0:
448,192,105557,1,0,0:0:0:0:
320,192,105661,1,8,2:0:0:0:
192,192,105661,1,0,0:0:0:0:
192,192,105764,1,4,3:0:0:0:
64,192,105764,1,2,2:0:0:0:
448,192,105764,1,0,0:0:0:0:
320,192,105868,1,8,2:0:0:0:
64,192,105868,1,0,0:0:0:0:
448,192,105971,1,0,0:0:0:0:
320,192,106075,1,8,2:0:0:0:
64,192,106075,1,0,0:0:0:0:
192,192,106178,1,4,3:0:0:0:
64,192,106178,1,2,2:0:0:0:
448,192,106178,1,0,0:0:0:0:
320,192,106282,1,0,0:0:0:0:
64,192,106385,1,8,2:0:0:0:
192,192,106385,1,0,0:0:0:0:
192,192,106489,1,8,2:0:0:0:
320,192,106489,1,0,0:0:0:0:
320,192,106592,1,4,3:0:0:0:
64,192,106592,1,2,2:0:0:0:
448,192,106592,128,0,106695:0:0:0:0:
192,192,106695,1,0,0:0:0:0:
64,192,106799,128,8,106902:2:0:0:0:
448,192,106799,1,0,0:0:0:0:
320,192,106902,1,0,0:0:0:0:
192,192,107006,1,4,3:0:0:0:
64,192,107006,1,2,2:0:0:0:
448,192,107006,1,0,0:0:0:0:
192,192,107213,1,8,2:0:0:0:
320,192,107213,1,0,0:0:0:0:
448,192,107420,1,4,3:0:0:0:
320,192,107420,1,2,2:0:0:0:
64,192,107420,1,0,0:0:0:0:
192,192,107523,1,8,2:0:0:0:
448,192,107523,1,0,0:0:0:0:
64,192,107626,1,0,0:0:0:0:
192,192,107730,1,8,2:0:0:0:
448,192,107730,1,0,0:0:0:0:
448,192,107833,1,4,3:0:0:0:
320,192,107833,1,2,2:0:0:0:
64,192,107833,1,0,0:0:0:0:
192,192,107937,1,0,0:0:0:0:
320,192,108040,1,8,2:0:0:0:
448,192,108040,1,0,0:0:0:0:
320,192,108144,1,8,2:0:0:0:
192,192,108144,1,0,0:0:0:0:
192,192,108247,128,4,108351:3:0:0:0:
64,192,108247,128,0,108351:0:0:0:0:
448,192,108351,128,0,108454:0:0:0:0:
192,192,108454,128,4,108557:3:0:0:0:
64,192,108454,128,0,108557:0:0:0:0:
448,192,108557,128,0,108661:0:0:0:0:
320,192,108661,1,4,3:0:0:0:
192,192,108661,1,2,2:0:0:0:
64,192,108661,1,0,0:0:0:0:
320,192,108764,1,8,2:0:0:0:
448,192,108764,1,0,0:0:0:0:
192,192,108868,1,8,2:0:0:0:
64,192,108868,1,0,0:0:0:0:
320,192,108971,1,8,2:0:0:0:
192,192,108971,1,0,0:0:0:0:
64,192,109075,1,4,3:0:0:0:
320,192,109075,1,2,2:0:0:0:
448,192,109075,1,0,0:0:0:0:
192,192,109178,1,8,2:0:0:0:
448,192,109178,1,0,0:0:0:0:
64,192,109282,1,0,0:0:0:0:
448,192,109385,1,8,2:0:0:0:
192,192,109385,1,0,0:0:0:0:
320,192,109489,128,4,109592:3:0:0:0:
448,192,109489,128,2,109592:2:0:0:0:
64,192,109489,128,0,109592:0:0:0:0:
64,192,109695,128,4,109799:3:0:0:0:
320,192,109695,128,2,109799:2:0:0:0:
448,192,109695,128,0,109799:0:0:0:0:
192,192,109902,1,8,2:0:0:0:
64,192,109902,1,0,0:0:0:0:
448,192,109902,1,2,2:0:0:0:
448,192,110006,1,8,2:0:0:0:
320,192,110006,1,0,0:0:0:0:
192,192,110109,1,8,2:0:0:0:
64,192,110109,1,0,0:0:0:0:
192,192,110213,1,8,2:0:0:0:
320,192,110213,1,0,0:0:0:0:
448,192,110316,1,4,3:0:0:0:
320,192,110316,1,2,2:0:0:0:
64,192,110316,1,0,0:0:0:0:
192,192,110420,1,0,0:0:0:0:
320,192,110523,1,8,2:0:0:0:
448,192,110523,1,0,0:0:0:0:
320,192,110626,1,8,2:0:0:0:
448,192,110626,1,0,0:0:0:0:
192,192,110730,1,4,3:0:0:0:
64,192,110730,1,2,2:0:0:0:
448,192,110730,1,0,0:0:0:0:
320,192,110833,1,8,2:0:0:0:
192,192,110833,1,0,0:0:0:0:
320,192,110937,1,8,2:0:0:0:
448,192,110937,1,0,0:0:0:0:
192,192,111040,1,8,2:0:0:0:
64,192,111040,1,0,0:0:0:0:
320,192,111144,1,4,3:0:0:0:
448,192,111144,1,2,2:0:0:0:
64,192,111144,1,0,0:0:0:0:
192,192,111247,1,0,0:0:0:0:
320,192,111351,1,8,2:0:0:0:
448,192,111351,1,0,0:0:0:0:
192,192,111454,1,8,2:0:0:0:
64,192,111454,1,0,0:0:0:0:
320,192,111557,1,4,3:0:0:0:
448,192,111557,1,2,2:0:0:0:
64,192,111557,1,0,0:0:0:0:
192,192,111661,1,8,2:0:0:0:
448,192,111661,1,0,0:0:0:0:
64,192,111764,1,0,0:0:0:0:
192,192,111868,1,8,2:0:0:0:
448,192,111868,1,0,0:0:0:0:
448,192,111971,1,4,3:0:0:0:
320,192,111971,1,2,2:0:0:0:
64,192,111971,1,0,0:0:0:0:
192,192,112075,1,8,2:0:0:0:
64,192,112075,1,0,0:0:0:0:
320,192,112178,1,8,2:0:0:0:
448,192,112178,1,0,0:0:0:0:
320,192,112282,1,8,2:0:0:0:
192,192,112282,1,0,0:0:0:0:
192,192,112385,1,4,3:0:0:0:
64,192,112385,1,2,2:0:0:0:
448,192,112385,1,0,0:0:0:0:
320,192,112489,1,8,2:0:0:0:
64,192,112489,1,0,0:0:0:0:
192,192,112592,1,0,0:0:0:0:
64,192,112695,1,8,2:0:0:0:
320,192,112695,1,0,0:0:0:0:
192,192,112799,1,4,3:0:0:0:
64,192,112799,1,2,2:0:0:0:
448,192,112799,1,0,0:0:0:0:
320,192,112902,1,0,0:0:0:0:
192,192,113006,1,8,2:0:0:0:
64,192,113006,1,0,0:0:0:0:
320,192,113109,1,8,2:0:0:0:
448,192,113109,1,0,0:0:0:0:
192,192,113213,1,4,3:0:0:0:
448,192,113213,1,2,2:0:0:0:
64,192,113213,128,0,113316:0:0:0:0:
320,192,113316,1,0,0:0:0:0:
448,192,113420,128,8,113523:2:0:0:0:
64,192,113420,1,0,0:0:0:0:
192,192,113523,1,0,0:0:0:0:
320,192,113626,1,4,3:0:0:0:
448,192,113626,1,2,2:0:0:0:
64,192,113626,1,0,0:0:0:0:
192,192,113833,1,8,2:0:0:0:
320,192,113833,1,0,0:0:0:0:
192,192,114040,1,4,3:0:0:0:
64,192,114040,1,2,2:0:0:0:
448,192,114040,1,0,0:0:0:0:
448,192,114144,1,8,2:0:0:0:
320,192,114144,1,0,0:0:0:0:
192,192,114247,1,8,2:0:0:0:
64,192,114247,1,0,0:0:0:0:
192,192,114351,1,8,2:0:0:0:
320,192,114351,1,0,0:0:0:0:
320,192,114454,1,4,3:0:0:0:
448,192,114454,1,2,2:0:0:0:
64,192,114454,1,0,0:0:0:0:
192,192,114557,1,0,0:0:0:0:
320,192,114661,1,8,2:0:0:0:
448,192,114661,1,0,0:0:0:0:
320,192,114764,1,8,2:0:0:0:
192,192,114764,1,0,0:0:0:0:
192,192,114868,1,4,3:0:0:0:
64,192,114868,1,2,2:0:0:0:
448,192,114868,1,0,0:0:0:0:
320,192,114971,1,8,2:0:0:0:
64,192,114971,1,0,0:0:0:0:
448,192,115075,1,0,0:0:0:0:
320,192,115178,1,8,2:0:0:0:
64,192,115178,1,0,0:0:0:0:
192,192,115282,1,4,3:0:0:0:
64,192,115282,1,2,2:0:0:0:
448,192,115282,1,0,0:0:0:0:
448,192,115385,1,8,2:0:0:0:
320,192,115385,1,0,0:0:0:0:
192,192,115489,1,8,2:0:0:0:
64,192,115489,1,0,0:0:0:0:
192,192,115592,1,8,2:0:0:0:
320,192,115592,1,0,0:0:0:0:
448,192,115695,1,4,3:0:0:0:
320,192,115695,1,2,2:0:0:0:
64,192,115695,1,0,0:0:0:0:
192,192,115799,1,8,2:0:0:0:
448,192,115799,1,0,0:0:0:0:
64,192,115902,1,0,0:0:0:0:
192,192,116006,1,8,2:0:0:0:
448,192,116006,1,0,0:0:0:0:
448,192,116109,1,4,3:0:0:0:
320,192,116109,1,2,2:0:0:0:
64,192,116109,1,0,0:0:0:0:
192,192,116213,1,0,0:0:0:0:
320,192,116316,1,8,2:0:0:0:
448,192,116316,1,0,0:0:0:0:
192,192,116420,1,8,2:0:0:0:
64,192,116420,1,0,0:0:0:0:
320,192,116523,1,4,3:0:0:0:
448,192,116523,1,2,2:0:0:0:
64,192,116523,1,0,0:0:0:0:
448,192,116626,1,0,0:0:0:0:
320,192,116730,1,4,3:0:0:0:
192,192,116730,1,2,2:0:0:0:
64,192,116730,1,0,0:0:0:0:
64,192,116833,1,0,0:0:0:0:
192,192,116937,1,4,3:0:0:0:
320,192,116937,1,2,2:0:0:0:
448,192,116937,1,0,0:0:0:0:
320,192,117040,1,8,2:0:0:0:
448,192,117040,1,0,0:0:0:0:
448,192,117144,1,4,3:0:0:0:
192,192,117144,1,2,2:0:0:0:
64,192,117144,1,0,0:0:0:0:
192,192,117247,1,8,2:0:0:0:
64,192,117247,1,0,0:0:0:0:
64,192,117351,1,4,3:0:0:0:
320,192,117351,1,2,2:0:0:0:
448,192,117351,1,0,0:0:0:0:
192,192,117454,1,8,2:0:0:0:
448,192,117454,1,0,0:0:0:0:
64,192,117557,1,0,0:0:0:0:
448,192,117661,1,8,2:0:0:0:
192,192,117661,1,0,0:0:0:0:
320,192,117764,1,4,3:0:0:0:
192,192,117764,1,2,2:0:0:0:
64,192,117764,1,0,0:0:0:0:
448,192,117868,1,0,0:0:0:0:
192,192,117971,1,8,2:0:0:0:
64,192,117971,1,0,0:0:0:0:
192,192,118075,1,8,2:0:0:0:
320,192,118075,1,0,0:0:0:0:
320,192,118178,1,4,3:0:0:0:
448,192,118178,1,2,2:0:0:0:
64,192,118178,1,0,0:0:0:0:
192,192,118282,1,8,2:0:0:0:
448,192,118282,1,0,0:0:0:0:
64,192,118385,1,0,0:0:0:0:
192,192,118489,1,8,2:0:0:0:
448,192,118489,1,0,0:0:0:0:
448,192,118592,1,4,3:0:0:0:
320,192,118592,1,2,2:0:0:0:
64,192,118592,1,0,0:0:0:0:
192,192,118695,1,8,2:0:0:0:
64,192,118695,1,0,0:0:0:0:
448,192,118799,1,8,2:0:0:0:
320,192,118799,1,0,0:0:0:0:
320,192,118902,1,8,2:0:0:0:
192,192,118902,1,0,0:0:0:0:
192,192,119006,1,4,3:0:0:0:
64,192,119006,1,2,2:0:0:0:
448,192,119006,1,0,0:0:0:0:
320,192,119109,1,4,3:0:0:0:
448,192,119109,1,2,2:0:0:0:
64,192,119109,1,0,0:0:0:0:
192,192,119213,1,0,0:0:0:0:
64,192,119316,1,8,2:0:0:0:
448,192,119316,1,0,0:0:0:0:
64,192,119420,1,4,3:0:0:0:
192,192,119420,1,2,2:0:0:0:
320,192,119420,1,0,0:0:0:0:
448,192,119523,1,0,0:0:0:0:
192,192,119626,1,8,2:0:0:0:
64,192,119626,1,0,0:0:0:0:
192,192,119730,1,8,2:0:0:0:
320,192,119730,1,0,0:0:0:0:
320,192,119833,1,4,3:0:0:0:
448,192,119833,1,2,2:0:0:0:
64,192,119833,128,0,119937:0:0:0:0:
192,192,119937,1,0,0:0:0:0:
320,192,120040,1,8,2:0:0:0:
448,192,120040,128,0,120144:0:0:0:0:
64,192,120144,1,0,0:0:0:0:
192,192,120247,1,4,3:0:0:0:
320,192,120247,1,2,2:0:0:0:
448,192,120247,1,0,0:0:0:0:
320,192,120351,1,8,2:0:0:0:
448,192,120351,1,0,0:0:0:0:
64,192,120454,1,8,2:0:0:0:
192,192,120454,1,0,0:0:0:0:
192,192,120557,1,8,2:0:0:0:
64,192,120557,1,0,0:0:0:0:
64,192,120661,1,4,3:0:0:0:
320,192,120661,1,2,2:0:0:0:
448,192,120661,1,0,0:0:0:0:
192,192,120764,1,8,2:0:0:0:
448,192,120764,1,0,0:0:0:0:
64,192,120868,1,0,0:0:0:0:
192,192,120971,1,8,2:0:0:0:
448,192,120971,1,0,0:0:0:0:
320,192,121075,1,4,3:0:0:0:
64,192,121075,128,0,121282:0:0:0:0:
192,192,121282,1,10,2:0:0:0:
320,192,121282,1,8,2:0:0:0:
448,192,121282,1,4,3:0:0:0:
192,192,121489,1,4,3:0:0:0:
64,192,121489,1,2,2:0:0:0:
448,192,121489,1,0,0:0:0:0:
320,192,121592,1,8,2:0:0:0:
64,192,121592,1,0,0:0:0:0:
448,192,121695,1,0,0:0:0:0:
320,192,121799,1,8,2:0:0:0:
64,192,121799,1,0,0:0:0:0:
192,192,121902,1,4,3:0:0:0:
64,192,121902,1,0,0:0:0:0:
320,192,122006,1,8,2:0:0:0:
448,192,122006,1,0,0:0:0:0:
192,192,122109,1,4,3:0:0:0:
64,192,122109,1,2,2:0:0:0:
448,192,122109,1,0,0:0:0:0:
320,192,122316,1,8,2:0:0:0:
448,192,122316,1,0,0:0:0:0:
192,192,122420,1,0,0:0:0:0:
64,192,122523,1,8,2:0:0:0:
448,192,122523,1,0,0:0:0:0:
448,192,122626,1,8,2:0:0:0:
64,192,122626,1,0,0:0:0:0:
192,192,122730,128,0,122833:0:0:0:0:
320,192,122833,1,0,0:0:0:0:
192,192,122937,1,0,0:0:0:0:
64,192,123040,1,0,0:0:0:0:
320,192,123144,128,4,123247:3:0:0:0:
448,192,123144,128,0,123557:0:0:0:0:
192,192,123247,128,0,123351:0:0:0:0:
320,192,123351,128,0,123454:0:0:0:0:
64,192,123454,128,0,123557:0:0:0:0:
192,192,123557,128,0,123661:0:0:0:0:
320,192,123661,128,0,123764:0:0:0:0:
64,192,123764,1,8,2:0:0:0:
448,192,123764,1,0,0:0:0:0:
64,192,123971,1,8,2:0:0:0:
192,192,123971,1,4,3:0:0:0:
320,192,123971,1,2,2:0:0:0:
448,192,123971,1,0,0:0:0:0:
64,192,124178,1,8,2:0:0:0:
192,192,124178,1,0,0:0:0:0:
320,192,124282,1,0,0:0:0:0:
448,192,124385,1,0,0:0:0:0:
192,192,124592,1,0,0:0:0:0:
320,192,124799,1,4,3:0:0:0:
448,192,124799,1,0,0:0:0:0:
64,192,124902,1,0,0:0:0:0:
192,192,125006,1,4,3:0:0:0:
320,192,125006,1,0,0:0:0:0:
448,192,125109,1,0,0:0:0:0:
192,192,125213,1,8,2:0:0:0:
64,192,125213,1,0,0:0:0:0:
320,192,125316,1,0,0:0:0:0:
448,192,125420,1,0,0:0:0:0:
192,192,125523,1,8,2:0:0:0:
64,192,125523,1,0,0:0:0:0:
320,192,125626,1,4,3:0:0:0:
448,192,125626,1,0,0:0:0:0:
64,192,125730,1,0,0:0:0:0:
192,192,125833,1,4,3:0:0:0:
320,192,125833,1,0,0:0:0:0:
448,192,125937,1,0,0:0:0:0:
64,192,126040,1,8,2:0:0:0:
192,192,126040,1,0,0:0:0:0:
320,192,126247,1,0,0:0:0:0:
192,192,126351,1,0,0:0:0:0:
320,192,126454,1,4,3:0:0:0:
448,192,126454,1,0,0:0:0:0:
64,192,126557,1,0,0:0:0:0:
192,192,126661,1,4,3:0:0:0:
320,192,126661,1,0,0:0:0:0:
448,192,126764,1,0,0:0:0:0:
192,192,126868,1,8,2:0:0:0:
64,192,126868,1,0,0:0:0:0:
192,192,127075,1,0,0:0:0:0:
320,192,127178,1,0,0:0:0:0:
64,192,127282,1,4,3:0:0:0:
192,192,127282,1,0,0:0:0:0:
448,192,127385,1,0,0:0:0:0:
320,192,127489,1,4,3:0:0:0:
192,192,127489,1,0,0:0:0:0:
64,192,127592,1,0,0:0:0:0:
320,192,127695,1,8,2:0:0:0:
448,192,127695,1,0,0:0:0:0:
64,192,127902,1,0,0:0:0:0:
192,192,128006,1,0,0:0:0:0:
320,192,128109,1,4,3:0:0:0:
448,192,128109,1,0,0:0:0:0:
64,192,128213,1,0,0:0:0:0:
192,192,128316,1,4,3:0:0:0:
320,192,128316,1,0,0:0:0:0:
448,192,128420,1,0,0:0:0:0:
192,192,128523,1,8,2:0:0:0:
64,192,128523,1,0,0:0:0:0:
320,192,128626,1,0,0:0:0:0:
448,192,128730,1,0,0:0:0:0:
64,192,128833,1,0,0:0:0:0:
320,192,128937,1,4,3:0:0:0:
448,192,128937,1,0,0:0:0:0:
64,192,129040,1,0,0:0:0:0:
192,192,129144,1,4,3:0:0:0:
320,192,129144,1,0,0:0:0:0:
448,192,129247,1,0,0:0:0:0:
192,192,129351,1,8,2:0:0:0:
64,192,129351,1,0,0:0:0:0:
320,192,129557,1,8,2:0:0:0:
448,192,129557,1,0,0:0:0:0:
64,192,129661,1,0,0:0:0:0:
192,192,129764,1,8,2:0:0:0:
320,192,129764,1,0,0:0:0:0:
448,192,129868,1,0,0:0:0:0:
192,192,129971,1,8,2:0:0:0:
64,192,129971,1,0,0:0:0:0:
320,192,130075,1,0,0:0:0:0:
64,192,130178,1,2,2:0:0:0:
448,192,130178,1,0,0:0:0:0:
64,192,130385,1,2,2:0:0:0:
448,192,130385,1,0,0:0:0:0:
448,192,130592,128,4,130695:3:0:0:0:
320,192,130592,128,2,130695:2:0:0:0:
64,192,130592,128,0,130695:0:0:0:0:
192,192,130695,1,0,0:0:0:0:
320,192,130799,1,8,2:0:0:0:
448,192,130799,1,0,0:0:0:0:
64,192,130902,1,0,0:0:0:0:
448,192,131006,1,0,0:0:0:0:
192,192,131213,1,0,0:0:0:0:
320,192,131316,1,0,0:0:0:0:
192,192,131420,1,4,3:0:0:0:
64,192,131420,1,0,0:0:0:0:
448,192,131523,1,0,0:0:0:0:
320,192,131626,1,4,3:0:0:0:
192,192,131626,1,0,0:0:0:0:
64,192,131730,128,0,131833:0:0:0:0:
320,192,131833,1,8,2:0:0:0:
448,192,131833,128,0,132040:0:0:0:0:
320,192,132040,1,8,2:0:0:0:
64,192,132144,1,0,0:0:0:0:
192,192,132195,1,0,0:0:0:0:
320,192,132247,1,4,3:0:0:0:
448,192,132247,1,0,0:0:0:0:
192,192,132351,1,0,0:0:0:0:
64,192,132454,1,8,2:0:0:0:
448,192,132454,1,0,0:0:0:0:
320,192,132557,1,8,2:0:0:0:
192,192,132557,1,0,0:0:0:0:
64,192,132661,1,8,2:0:0:0:
448,192,132764,1,0,0:0:0:0:
64,192,132868,1,0,0:0:0:0:
64,192,132971,1,0,0:0:0:0:
320,192,133075,1,4,3:0:0:0:
448,192,133075,1,0,0:0:0:0:
192,192,133178,1,0,0:0:0:0:
192,192,133282,1,4,3:0:0:0:
64,192,133282,1,0,0:0:0:0:
448,192,133385,1,0,0:0:0:0:
320,192,133489,1,8,2:0:0:0:
192,192,133489,1,0,0:0:0:0:
320,192,133592,1,0,0:0:0:0:
192,192,133695,1,8,2:0:0:0:
64,192,133695,1,0,0:0:0:0:
448,192,133799,1,0,0:0:0:0:
320,192,133902,1,4,3:0:0:0:
192,192,133902,1,0,0:0:0:0:
64,192,134006,1,0,0:0:0:0:
320,192,134109,1,4,3:0:0:0:
448,192,134109,1,0,0:0:0:0:
192,192,134213,1,0,0:0:0:0:
448,192,134316,1,0,0:0:0:0:
64,192,134420,1,0,0:0:0:0:
192,192,134471,1,0,0:0:0:0:
320,192,134523,1,0,0:0:0:0:
64,192,134626,1,0,0:0:0:0:
320,192,134730,1,4,3:0:0:0:
448,192,134730,1,0,0:0:0:0:
448,192,134833,1,8,2:0:0:0:
320,192,134833,1,0,0:0:0:0:
192,192,134937,1,8,2:0:0:0:
64,192,134937,1,0,0:0:0:0:
448,192,135040,1,0,0:0:0:0:
320,192,135144,1,8,2:0:0:0:
192,192,135144,1,0,0:0:0:0:
64,192,135247,1,0,0:0:0:0:
320,192,135351,1,0,0:0:0:0:
448,192,135454,1,0,0:0:0:0:
320,192,135557,1,4,3:0:0:0:
192,192,135557,1,2,2:0:0:0:
64,192,135557,1,0,0:0:0:0:
192,192,135764,1,8,2:0:0:0:
64,192,135764,1,0,0:0:0:0:
448,192,135868,1,0,0:0:0:0:
448,192,135971,1,4,3:0:0:0:
320,192,135971,1,2,2:0:0:0:
64,192,135971,1,0,0:0:0:0:
192,192,136075,1,0,0:0:0:0:
320,192,136178,1,8,2:0:0:0:
448,192,136178,1,0,0:0:0:0:
448,192,136282,1,0,0:0:0:0:
192,192,136385,1,8,2:0:0:0:
64,192,136385,1,0,0:0:0:0:
320,192,136489,1,0,0:0:0:0:
448,192,136592,1,8,2:0:0:0:
64,192,136592,1,0,0:0:0:0:
192,192,136695,1,0,0:0:0:0:
320,192,136799,1,0,0:0:0:0:
320,192,136902,1,0,0:0:0:0:
192,192,137006,1,8,2:0:0:0:
64,192,137006,1,0,0:0:0:0:
64,192,137109,1,0,0:0:0:0:
192,192,137213,1,4,3:0:0:0:
320,192,137213,1,2,2:0:0:0:
448,192,137213,1,0,0:0:0:0:
64,192,137534,1,0,0:0:0:0:
64,192,137855,1,0,0:0:0:0:
192,192,138070,1,4,3:0:0:0:
320,192,138070,1,2,2:0:0:0:
448,192,138070,1,0,0:0:0:0:
448,192,138391,1,0,0:0:0:0:
320,192,138498,1,0,0:0:0:0:
192,192,138605,1,0,0:0:0:0:
448,192,138713,1,0,0:0:0:0:
64,192,138820,1,0,0:0:0:0:
192,192,138927,1,4,3:0:0:0:
320,192,138927,1,2,2:0:0:0:
448,192,138927,1,0,0:0:0:0:
320,192,139034,1,0,0:0:0:0:
64,192,139141,1,0,0:0:0:0:
192,192,139248,1,0,0:0:0:0:
448,192,139355,1,0,0:0:0:0:
320,192,139463,1,0,0:0:0:0:
192,192,139570,1,2,2:0:0:0:
64,192,139570,1,0,0:0:0:0:
64,192,139677,1,0,0:0:0:0:
320,192,139784,1,2,2:0:0:0:
448,192,139784,1,0,0:0:0:0:
448,192,139891,1,2,2:0:0:0:
64,192,139891,1,0,0:0:0:0:
192,192,139998,1,0,0:0:0:0:
320,192,140105,1,2,2:0:0:0:
448,192,140105,1,0,0:0:0:0:
192,192,140213,1,2,2:0:0:0:
64,192,140213,1,0,0:0:0:0:
64,192,140320,1,0,0:0:0:0:
320,192,140427,1,2,2:0:0:0:
448,192,140427,1,0,0:0:0:0:
320,192,140534,1,0,0:0:0:0:
448,192,140641,1,4,3:0:0:0:
192,192,140641,1,2,2:0:0:0:
64,192,140641,1,0,0:0:0:0:
64,192,140748,1,8,2:0:0:0:
320,192,140748,1,0,0:0:0:0:
448,192,140855,1,0,0:0:0:0:
448,192,140963,1,0,0:0:0:0:
320,192,141070,1,8,2:0:0:0:
192,192,141070,1,0,0:0:0:0:
64,192,141177,1,0,0:0:0:0:
448,192,141284,1,0,0:0:0:0:
320,192,141391,1,0,0:0:0:0:
192,192,141498,1,4,3:0:0:0:
64,192,141498,1,0,0:0:0:0:
448,192,141605,1,0,0:0:0:0:
448,192,141713,1,0,0:0:0:0:
192,192,141820,1,8,2:0:0:0:
64,192,141820,1,0,0:0:0:0:
320,192,141927,1,0,0:0:0:0:
448,192,142034,1,0,0:0:0:0:
64,192,142141,1,0,0:0:0:0:
320,192,142248,1,0,0:0:0:0:
192,192,142355,1,4,3:0:0:0:
64,192,142355,1,2,2:0:0:0:
448,192,142355,1,0,0:0:0:0:
320,192,142463,1,8,2:0:0:0:
64,192,142463,1,0,0:0:0:0:
448,192,142570,1,0,0:0:0:0:
448,192,142677,1,0,0:0:0:0:
320,192,142730,1,0,0:0:0:0:
192,192,142784,1,8,2:0:0:0:
64,192,142784,1,0,0:0:0:0:
320,192,142891,1,0,0:0:0:0:
448,192,142998,1,2,2:0:0:0:
320,192,142998,1,0,0:0:0:0:
192,192,143105,1,2,2:0:0:0:
64,192,143105,1,0,0:0:0:0:
64,192,143213,1,4,3:0:0:0:
448,192,143213,1,0,0:0:0:0:
448,192,143320,1,2,2:0:0:0:
320,192,143320,1,0,0:0:0:0:
192,192,143427,1,0,0:0:0:0:
448,192,143534,1,2,2:0:0:0:
320,192,143534,1,0,0:0:0:0:
192,192,143641,1,2,2:0:0:0:
64,192,143641,1,0,0:0:0:0:
448,192,143748,1,0,0:0:0:0:
320,192,143802,1,0,0:0:0:0:
64,192,143855,1,0,0:0:0:0:
192,192,143909,1,0,0:0:0:0:
320,192,143963,1,0,0:0:0:0:
192,192,144070,1,4,3:0:0:0:
64,192,144070,1,2,2:0:0:0:
448,192,144070,1,0,0:0:0:0:
448,192,144177,1,8,2:0:0:0:
320,192,144177,1,0,0:0:0:0:
192,192,144284,1,0,0:0:0:0:
192,192,144391,1,0,0:0:0:0:
320,192,144498,1,4,3:0:0:0:
448,192,144498,1,2,2:0:0:0:
64,192,144498,1,0,0:0:0:0:
192,192,144605,1,0,0:0:0:0:
448,192,144713,1,0,0:0:0:0:
192,192,144820,1,8,2:0:0:0:
64,192,144820,1,0,0:0:0:0:
64,192,144927,1,4,3:0:0:0:
320,192,144927,128,2,145034:2:0:0:0:
448,192,144927,128,0,145034:0:0:0:0:
64,192,145141,1,4,3:0:0:0:
320,192,145141,128,2,145248:2:0:0:0:
448,192,145141,128,0,145248:0:0:0:0:
192,192,145355,1,4,3:0:0:0:
64,192,145355,1,2,2:0:0:0:
448,192,145355,1,0,0:0:0:0:
320,192,145463,1,0,0:0:0:0:
192,192,145570,1,8,2:0:0:0:
448,192,145570,1,0,0:0:0:0:
320,192,145677,1,8,2:0:0:0:
64,192,145677,1,0,0:0:0:0:
320,192,145784,1,4,3:0:0:0:
448,192,145784,1,2,2:0:0:0:
192,192,145784,1,0,0:0:0:0:
64,192,145891,1,0,0:0:0:0:
192,192,145945,1,0,0:0:0:0:
448,192,145998,1,0,0:0:0:0:
320,192,146052,1,0,0:0:0:0:
192,192,146105,1,8,2:0:0:0:
64,192,146105,1,0,0:0:0:0:
448,192,146213,128,0,146320:0:0:0:0:
320,192,146213,128,4,146320:3:0:0:0:
64,192,146213,1,2,2:0:0:0:
320,192,146427,128,4,146534:3:0:0:0:
448,192,146427,128,0,146534:0:0:0:0:
64,192,146427,1,2,2:0:0:0:
64,192,146641,1,4,3:0:0:0:
192,192,146641,1,2,2:0:0:0:
448,192,146641,1,0,0:0:0:0:
320,192,146748,1,0,0:0:0:0:
192,192,146855,1,8,2:0:0:0:
64,192,146855,1,0,0:0:0:0:
320,192,146963,1,8,2:0:0:0:
448,192,146963,1,0,0:0:0:0:
192,192,147070,1,4,3:0:0:0:
64,192,147070,1,2,2:0:0:0:
448,192,147070,1,0,0:0:0:0:
320,192,147123,1,0,0:0:0:0:
192,192,147177,1,0,0:0:0:0:
64,192,147230,1,0,0:0:0:0:
448,192,147284,1,0,0:0:0:0:
320,192,147355,1,0,0:0:0:0:
192,192,147427,1,0,0:0:0:0:
64,192,147498,1,4,3:0:0:0:
320,192,147498,1,2,2:0:0:0:
448,192,147498,1,0,0:0:0:0:
192,192,147552,1,0,0:0:0:0:
320,192,147605,1,0,0:0:0:0:
448,192,147659,1,0,0:0:0:0:
64,192,147713,1,8,2:0:0:0:
192,192,147713,1,0,0:0:0:0:
320,192,147784,1,0,0:0:0:0:
192,192,147855,1,0,0:0:0:0:
320,192,147927,1,4,3:0:0:0:
64,192,147927,1,2,2:0:0:0:
448,192,147927,1,0,0:0:0:0:
192,192,147980,1,0,0:0:0:0:
320,192,148034,1,0,0:0:0:0:
448,192,148088,1,0,0:0:0:0:
192,192,148141,1,8,2:0:0:0:
64,192,148141,1,0,0:0:0:0:
320,192,148213,1,0,0:0:0:0:
448,192,148284,1,0,0:0:0:0:
64,192,148355,1,4,3:0:0:0:
192,192,148355,1,2,2:0:0:0:
320,192,148355,1,0,0:0:0:0:
448,192,148409,1,0,0:0:0:0:
320,192,148463,1,0,0:0:0:0:
192,192,148516,1,0,0:0:0:0:
64,192,148570,1,8,2:0:0:0:
448,192,148570,1,0,0:0:0:0:
448,192,148677,1,0,0:0:0:0:
320,192,148784,1,4,3:0:0:0:
192,192,148784,1,2,2:0:0:0:
64,192,148784,1,0,0:0:0:0:
192,192,148891,1,0,0:0:0:0:
320,192,148998,1,8,2:0:0:0:
448,192,148998,1,0,0:0:0:0:
320,192,149105,1,0,0:0:0:0:
64,192,149212,1,2,2:0:0:0:
448,192,149212,1,0,0:0:0:0:
192,192,149212,1,0,0:0:0:0:
64,192,149329,1,0,0:0:0:0:
320,192,149446,1,8,2:0:0:0:
448,192,149446,1,0,0:0:0:0:
320,192,149563,1,0,0:0:0:0:
192,192,149680,1,8,2:0:0:0:
64,192,149680,1,0,0:0:0:0:
192,192,149797,1,8,2:0:0:0:
64,192,149797,1,0,0:0:0:0:
320,192,149915,1,8,2:0:0:0:
448,192,149915,1,0,0:0:0:0:
320,192,150032,1,8,2:0:0:0:
192,192,150032,1,0,0:0:0:0:
192,192,150149,1,4,3:0:0:0:
64,192,150149,1,2,2:0:0:0:
448,192,150149,1,0,0:0:0:0:
320,192,150266,1,0,0:0:0:0:
448,192,150383,1,8,2:0:0:0:
64,192,150383,1,0,0:0:0:0:
64,192,150501,1,0,0:0:0:0:
320,192,150618,1,8,2:0:0:0:
192,192,150618,1,0,0:0:0:0:
448,192,150735,1,0,0:0:0:0:
192,192,150852,1,8,2:0:0:0:
64,192,150852,1,0,0:0:0:0:
320,192,150969,1,0,0:0:0:0:
448,192,151087,1,4,3:0:0:0:
64,192,151087,128,2,151555:2:0:0:0:
192,192,151087,128,0,151555:0:0:0:0:
320,192,151555,128,8,151731:2:0:0:0:
448,192,151555,128,0,151731:0:0:0:0:
320,192,151790,128,8,151965:2:0:0:0:
448,192,151790,128,0,151965:0:0:0:0:
192,192,152024,1,4,3:0:0:0:
64,192,152024,1,0,0:0:0:0:
320,192,152141,128,8,152317:2:0:0:0:
448,192,152141,128,0,152317:0:0:0:0:
192,192,152376,1,0,0:0:0:0:
320,192,152493,1,4,3:0:0:0:
448,192,152493,128,2,152962:2:0:0:0:
64,192,152493,128,0,152962:0:0:0:0:
192,192,152962,128,4,153313:3:0:0:0:
320,192,152962,128,0,153430:0:0:0:0:
64,192,153313,128,0,153430:0:0:0:0:
192,192,153430,128,4,153665:3:0:0:0:
448,192,153430,128,0,153899:0:0:0:0:
320,192,153665,128,0,153899:0:0:0:0:
192,192,153899,1,8,2:0:0:0:
64,192,153899,1,0,0:0:0:0:
448,192,154016,128,0,154368:0:0:0:0:
320,192,154368,1,4,3:0:0:0:
192,192,154368,1,2,2:0:0:0:
64,192,154368,1,0,0:0:0:0:
192,192,154602,128,8,154837:2:0:0:0:
64,192,154602,128,0,154837:0:0:0:0:
320,192,154837,128,8,155305:2:0:0:0:
448,192,154837,1,0,0:0:0:0:
192,192,155305,1,4,3:0:0:0:
64,192,155305,1,0,0:0:0:0:
448,192,155540,128,0,155774:0:0:0:0:
320,192,155774,1,8,2:0:0:0:
192,192,155774,1,0,0:0:0:0:
64,192,155891,128,0,156126:0:0:0:0:
320,192,156243,1,4,3:0:0:0:
448,192,156243,128,0,156477:0:0:0:0:
192,192,156360,128,0,156477:0:0:0:0:
64,192,156477,128,0,156712:0:0:0:0:
320,192,156594,128,0,156712:0:0:0:0:
448,192,156712,128,0,157180:0:0:0:0:
320,192,157180,1,4,3:0:0:0:
64,192,157180,128,0,157297:0:0:0:0:
192,192,157297,128,0,157415:0:0:0:0:
320,192,157415,128,0,157532:0:0:0:0:
448,192,157532,128,0,157649:0:0:0:0:
192,192,157649,1,8,2:0:0:0:
64,192,157649,1,0,0:0:0:0:
320,192,157766,1,8,2:0:0:0:
448,192,157766,1,0,0:0:0:0:
192,192,157883,1,8,2:0:0:0:
64,192,157883,1,0,0:0:0:0:
320,192,158001,1,0,0:0:0:0:
320,192,158118,1,8,2:0:0:0:
448,192,158118,1,0,0:0:0:0:
192,192,158235,1,8,2:0:0:0:
64,192,158235,1,0,0:0:0:0:
64,192,158352,1,8,2:0:0:0:
448,192,158352,1,0,0:0:0:0:
320,192,158469,1,0,0:0:0:0:
448,192,158587,1,4,3:0:0:0:
192,192,158587,128,2,159055:2:0:0:0:
64,192,158587,128,0,159055:0:0:0:0:
320,192,159055,128,4,159231:3:0:0:0:
448,192,159055,128,0,159231:0:0:0:0:
320,192,159290,128,8,159465:2:0:0:0:
448,192,159290,128,0,159465:0:0:0:0:
192,192,159524,1,8,2:0:0:0:
64,192,159524,1,0,0:0:0:0:
320,192,159641,128,8,159817:2:0:0:0:
448,192,159641,128,0,159817:0:0:0:0:
192,192,159876,1,0,0:0:0:0:
64,192,159993,128,4,160462:3:0:0:0:
448,192,159993,128,0,160462:0:0:0:0:
320,192,159993,1,0,0:0:0:0:
320,192,160462,128,4,160930:3:0:0:0:
192,192,160462,128,0,160930:0:0:0:0:
64,192,160930,128,4,161106:3:0:0:0:
448,192,160930,128,0,161106:0:0:0:0:
448,192,161165,128,8,161340:2:0:0:0:
64,192,161165,128,0,161340:0:0:0:0:
192,192,161399,128,8,161575:2:0:0:0:
64,192,161399,128,0,161575:0:0:0:0:
192,192,161633,128,8,161809:2:0:0:0:
320,192,161633,128,0,161809:0:0:0:0:
320,192,161868,128,4,162044:3:0:0:0:
448,192,161868,128,2,162044:2:0:0:0:
64,192,161868,1,0,0:0:0:0:
192,192,162102,128,8,162278:2:0:0:0:
64,192,162102,128,0,162278:0:0:0:0:
64,192,162337,1,4,3:0:0:0:
320,192,162337,128,0,162805:0:0:0:0:
64,192,162805,1,4,3:0:0:0:
192,192,162805,128,2,163274:2:0:0:0:
448,192,162805,1,0,0:0:0:0:
64,192,163274,1,8,2:0:0:0:
320,192,163274,1,0,0:0:0:0:
448,192,163391,128,0,163626:0:0:0:0:
448,192,163743,128,4,163977:3:0:0:0:
320,192,163743,128,2,163860:2:0:0:0:
64,192,163743,1,0,0:0:0:0:
192,192,163860,128,0,163977:0:0:0:0:
64,192,163977,128,8,164212:2:0:0:0:
320,192,163977,128,0,164094:0:0:0:0:
192,192,164094,128,0,164212:0:0:0:0:
320,192,164212,1,4,3:0:0:0:
448,192,164212,128,0,164680:0:0:0:0:
64,192,164680,128,4,164915:3:0:0:0:
192,192,164680,1,2,2:0:0:0:
320,192,164680,1,0,0:0:0:0:
448,192,164915,128,8,165149:2:0:0:0:
320,192,164915,1,0,0:0:0:0:
192,192,165149,1,8,2:0:0:0:
64,192,165149,1,0,0:0:0:0:
192,192,165266,1,8,2:0:0:0:
64,192,165266,1,0,0:0:0:0:
320,192,165383,1,8,2:0:0:0:
448,192,165383,1,0,0:0:0:0:
320,192,165501,1,8,2:0:0:0:
448,192,165501,1,0,0:0:0:0:
448,192,165618,128,10,165735:2:0:0:0:
64,192,165618,128,8,165794:2:0:0:0:
192,192,165618,128,0,165794:0:0:0:0:
320,192,165735,128,0,165852:0:0:0:0:
448,192,165852,128,10,165969:2:0:0:0:
64,192,165852,128,8,166028:2:0:0:0:
192,192,165852,128,0,166028:0:0:0:0:
320,192,165969,128,0,166087:0:0:0:0:
192,192,166087,1,4,3:0:0:0:
64,192,166087,1,0,0:0:0:0:
448,192,166321,128,0,166379:0:0:0:0:
320,192,166555,128,4,166731:3:0:0:0:
192,192,166555,128,2,166731:2:0:0:0:
448,192,166555,1,0,0:0:0:0:
64,192,166790,128,0,166907:0:0:0:0:
448,192,166907,128,0,166965:0:0:0:0:
64,192,167024,128,8,167258:2:0:0:0:
192,192,167024,128,0,167141:0:0:0:0:
320,192,167141,128,0,167258:0:0:0:0:
448,192,167258,128,0,167317:0:0:0:0:
320,192,167493,128,4,167962:3:0:0:0:
192,192,167493,128,2,167962:2:0:0:0:
448,192,167493,1,0,0:0:0:0:
64,192,167962,1,8,2:0:0:0:
448,192,167962,128,0,168430:0:0:0:0:
64,192,168196,128,0,168254:0:0:0:0:
320,192,168430,128,4,168547:3:0:0:0:
192,192,168430,128,2,168665:2:0:0:0:
64,192,168430,1,0,0:0:0:0:
448,192,168665,128,0,168782:0:0:0:0:
64,192,168782,128,0,168840:0:0:0:0:
448,192,168899,1,8,2:0:0:0:
320,192,168899,1,0,0:0:0:0:
192,192,169016,1,0,0:0:0:0:
64,192,169133,128,0,169192:0:0:0:0:
320,192,169368,1,4,3:0:0:0:
448,192,169368,128,2,169837:2:0:0:0:
192,192,169368,1,0,0:0:0:0:
192,192,169602,128,0,169837:0:0:0:0:
64,192,169837,1,8,2:0:0:0:
320,192,169837,128,0,170305:0:0:0:0:
448,192,170071,128,0,170129:0:0:0:0:
192,192,170305,1,4,3:0:0:0:
64,192,170305,1,2,2:0:0:0:
448,192,170305,1,0,0:0:0:0:
320,192,170422,1,0,0:0:0:0:
64,192,170540,1,0,0:0:0:0:
448,192,170657,128,0,170715:0:0:0:0:
192,192,170774,1,8,2:0:0:0:
64,192,170774,1,0,0:0:0:0:
320,192,170891,1,0,0:0:0:0:
448,192,171008,128,0,171067:0:0:0:0:
64,192,171243,128,4,171477:3:0:0:0:
192,192,171243,128,2,171360:2:0:0:0:
448,192,171243,1,0,0:0:0:0:
320,192,171360,128,0,171477:0:0:0:0:
192,192,171477,128,8,171594:2:0:0:0:
448,192,171477,128,0,171712:0:0:0:0:
320,192,171594,128,0,171712:0:0:0:0:
192,192,171712,1,4,3:0:0:0:
64,192,171712,128,0,172180:0:0:0:0:
448,192,171946,128,0,172004:0:0:0:0:
320,192,172180,1,4,3:0:0:0:
448,192,172180,1,2,2:0:0:0:
192,192,172180,1,0,0:0:0:0:
192,192,172415,1,0,0:0:0:0:
448,192,172532,128,4,172590:3:0:0:0:
320,192,172532,1,2,2:0:0:0:
64,192,172532,1,0,0:0:0:0:
320,192,172766,1,0,0:0:0:0:
64,192,172883,1,4,3:0:0:0:
192,192,172883,1,2,2:0:0:0:
448,192,172883,1,0,0:0:0:0:
192,192,173118,1,4,3:0:0:0:
64,192,173118,1,2,2:0:0:0:
448,192,173118,1,0,0:0:0:0:
64,192,173352,1,4,3:0:0:0:
448,192,173352,1,2,2:0:0:0:
320,192,173352,128,0,173587:0:0:0:0:
448,192,173587,1,4,3:0:0:0:
64,192,173587,1,2,2:0:0:0:
192,192,173587,128,0,174055:0:0:0:0:
64,192,173821,128,0,173879:0:0:0:0:
448,192,174055,128,4,174172:3:0:0:0:
320,192,174055,128,2,174290:2:0:0:0:
64,192,174055,1,0,0:0:0:0:
448,192,174290,1,8,2:0:0:0:
192,192,174290,128,0,174524:0:0:0:0:
64,192,174407,128,0,174465:0:0:0:0:
320,192,174524,1,8,2:0:0:0:
448,192,174524,1,0,0:0:0:0:
192,192,174641,1,0,0:0:0:0:
64,192,174758,128,0,174817:0:0:0:0:
320,192,174993,128,4,175227:3:0:0:0:
192,192,174993,128,2,175110:2:0:0:0:
448,192,174993,1,0,0:0:0:0:
64,192,175110,128,0,175227:0:0:0:0:
192,192,175227,128,8,175462:2:0:0:0:
448,192,175227,128,0,175344:0:0:0:0:
320,192,175344,128,0,175462:0:0:0:0:
64,192,175462,128,4,175930:3:0:0:0:
320,192,175579,128,0,175637:0:0:0:0:
192,192,175696,128,0,175754:0:0:0:0:
448,192,175930,128,4,176165:3:0:0:0:
192,192,175930,1,2,2:0:0:0:
320,192,175930,1,0,0:0:0:0:
320,192,176165,1,8,2:0:0:0:
192,192,176165,1,0,0:0:0:0:
64,192,176282,128,4,176516:3:0:0:0:
192,192,176282,1,2,2:0:0:0:
448,192,176282,1,0,0:0:0:0:
320,192,176516,1,0,0:0:0:0:
192,192,176633,128,8,176868:2:0:0:0:
64,192,176633,1,0,0:0:0:0:
448,192,176868,128,4,177102:3:0:0:0:
64,192,176868,1,2,2:0:0:0:
320,192,176868,1,0,0:0:0:0:
64,192,177102,128,0,177805:0:0:0:0:
192,192,177337,128,8,177805:2:0:0:0:
448,192,177337,1,0,0:0:0:0:
320,192,177454,128,0,177512:0:0:0:0:
448,192,177571,128,0,177629:0:0:0:0:
448,192,177805,128,4,178274:3:0:0:0:
320,192,177805,1,0,0:0:0:0:
64,192,178157,128,0,178215:0:0:0:0:
320,192,178274,128,8,178508:2:0:0:0:
192,192,178274,1,0,0:0:0:0:
448,192,178391,128,0,178508:0:0:0:0:
64,192,178508,128,0,178567:0:0:0:0:
320,192,178743,128,4,178860:3:0:0:0:
192,192,178743,128,2,178977:2:0:0:0:
448,192,178743,1,0,0:0:0:0:
64,192,178860,128,0,178977:0:0:0:0:
448,192,178977,128,8,179094:2:0:0:0:
320,192,178977,128,0,179212:0:0:0:0:
192,192,179094,128,0,179212:0:0:0:0:
64,192,179212,1,8,2:0:0:0:
448,192,179212,1,0,0:0:0:0:
320,192,179329,1,0,0:0:0:0:
192,192,179446,1,8,2:0:0:0:
64,192,179446,1,0,0:0:0:0:
448,192,179563,1,8,2:0:0:0:
64,192,179563,1,0,0:0:0:0:
448,192,179680,1,4,3:0:0:0:
320,192,179680,1,2,2:0:0:0:
192,192,179680,1,0,0:0:0:0:
64,192,179797,1,0,0:0:0:0:
64,192,179915,5,8,2:0:0:0:
192,192,179915,1,0,0:0:0:0:
320,192,180032,1,0,0:0:0:0:
448,192,180149,1,8,2:0:0:0:
64,192,180149,1,0,0:0:0:0:
64,192,180266,1,0,0:0:0:0:
448,192,180383,1,8,2:0:0:0:
192,192,180383,1,0,0:0:0:0:
448,192,180501,1,0,0:0:0:0:
192,192,180618,1,0,0:0:0:0:
192,192,180735,1,0,0:0:0:0:
320,192,180852,1,0,0:0:0:0:
320,192,180969,1,0,0:0:0:0:
64,192,181083,5,4,3:0:0:0:
192,192,181083,1,0,0:0:0:0:
448,192,181083,1,0,0:0:0:0:
448,192,181289,1,0,0:0:0:0:
320,192,181393,1,0,0:0:0:0:
64,192,181600,1,0,0:0:0:0:
448,192,181807,1,0,0:0:0:0:
448,192,182117,1,0,0:0:0:0:
64,192,182324,1,0,0:0:0:0:
192,192,182427,1,0,0:0:0:0:
320,192,182531,1,0,0:0:0:0:
448,192,182634,1,0,0:0:0:0:
64,192,182738,1,0,0:0:0:0:
192,192,182789,1,0,0:0:0:0:
320,192,182841,1,0,0:0:0:0:
320,192,182945,1,0,0:0:0:0:
192,192,183048,1,0,0:0:0:0:
320,192,183151,1,0,0:0:0:0:
320,192,183358,1,0,0:0:0:0:
320,192,183462,1,0,0:0:0:0:
192,192,183565,1,0,0:0:0:0:
320,192,183669,1,0,0:0:0:0:
320,192,183772,1,0,0:0:0:0:
320,192,183876,1,0,0:0:0:0:
64,192,183979,1,0,0:0:0:0:
192,192,184031,1,0,0:0:0:0:
448,192,184083,1,0,0:0:0:0:
320,192,184186,1,0,0:0:0:0:
192,192,184289,1,0,0:0:0:0:
64,192,184393,1,8,2:0:0:0:
448,192,184393,1,0,0:0:0:0:
320,192,184496,1,0,0:0:0:0:
64,192,184600,1,0,0:0:0:0:
64,192,184703,1,0,0:0:0:0:
192,192,184807,1,8,2:0:0:0:
320,192,184807,1,0,0:0:0:0:
448,192,184910,1,0,0:0:0:0:
320,192,184962,1,0,0:0:0:0:
192,192,185014,1,0,0:0:0:0:
64,192,185117,1,0,0:0:0:0:
320,192,185220,1,8,2:0:0:0:
448,192,185220,1,0,0:0:0:0:
320,192,185324,1,0,0:0:0:0:
192,192,185427,1,8,2:0:0:0:
64,192,185427,1,0,0:0:0:0:
192,192,185531,1,0,0:0:0:0:
448,192,185634,1,0,0:0:0:0:
320,192,185738,1,0,0:0:0:0:
192,192,185841,1,0,0:0:0:0:
64,192,185945,1,0,0:0:0:0:
320,192,186048,1,0,0:0:0:0:
192,192,186151,1,0,0:0:0:0:
192,192,186255,1,2,2:0:0:0:
448,192,186255,1,0,0:0:0:0:
448,192,186358,1,0,0:0:0:0:
192,192,186462,1,2,2:0:0:0:
64,192,186462,1,0,0:0:0:0:
320,192,186565,1,0,0:0:0:0:
64,192,186669,1,0,0:0:0:0:
448,192,186772,1,0,0:0:0:0:
320,192,186824,1,0,0:0:0:0:
192,192,186876,1,0,0:0:0:0:
64,192,186979,1,0,0:0:0:0:
192,192,187031,1,0,0:0:0:0:
320,192,187083,1,2,2:0:0:0:
448,192,187083,1,0,0:0:0:0:
64,192,187134,1,0,0:0:0:0:
192,192,187186,1,0,0:0:0:0:
448,192,187289,1,0,0:0:0:0:
320,192,187393,1,0,0:0:0:0:
192,192,187496,1,0,0:0:0:0:
64,192,187600,1,0,0:0:0:0:
320,192,187703,1,8,2:0:0:0:
448,192,187703,1,0,0:0:0:0:
64,192,187807,1,0,0:0:0:0:
448,192,187910,1,0,0:0:0:0:
64,192,188117,1,2,2:0:0:0:
448,192,188117,1,0,0:0:0:0:
192,192,188220,1,0,0:0:0:0:
320,192,188324,1,0,0:0:0:0:
192,192,188427,1,2,2:0:0:0:
64,192,188427,1,0,0:0:0:0:
320,192,188531,1,8,2:0:0:0:
448,192,188531,1,0,0:0:0:0:
64,192,188634,1,0,0:0:0:0:
448,192,188634,1,0,0:0:0:0:
192,192,188738,1,2,2:0:0:0:
64,192,188738,1,0,0:0:0:0:
320,192,188841,1,0,0:0:0:0:
64,192,188945,1,0,0:0:0:0:
192,192,189048,1,0,0:0:0:0:
320,192,189151,1,0,0:0:0:0:
448,192,189255,1,0,0:0:0:0:
64,192,189358,1,0,0:0:0:0:
320,192,189462,1,0,0:0:0:0:
192,192,189565,1,2,2:0:0:0:
64,192,189565,1,0,0:0:0:0:
448,192,189669,1,0,0:0:0:0:
192,192,189772,1,2,2:0:0:0:
320,192,189772,1,0,0:0:0:0:
64,192,189876,1,2,2:0:0:0:
448,192,189876,1,0,0:0:0:0:
192,192,189979,1,2,2:0:0:0:
64,192,189979,1,0,0:0:0:0:
320,192,190083,1,0,0:0:0:0:
448,192,190186,1,2,2:0:0:0:
64,192,190186,1,0,0:0:0:0:
192,192,190289,1,2,2:0:0:0:
320,192,190289,1,0,0:0:0:0:
448,192,190393,1,2,2:0:0:0:
320,192,190393,1,0,0:0:0:0:
192,192,190496,1,2,2:0:0:0:
64,192,190496,1,0,0:0:0:0:
448,192,190600,1,0,0:0:0:0:
320,192,190703,1,0,0:0:0:0:
192,192,190807,1,2,2:0:0:0:
64,192,190807,1,0,0:0:0:0:
320,192,190910,1,2,2:0:0:0:
448,192,190910,1,0,0:0:0:0:
192,192,191014,1,8,2:0:0:0:
64,192,191014,1,0,0:0:0:0:
64,192,191117,1,0,0:0:0:0:
320,192,191220,1,2,2:0:0:0:
448,192,191220,1,0,0:0:0:0:
448,192,191324,1,0,0:0:0:0:
192,192,191427,1,2,2:0:0:0:
64,192,191427,1,0,0:0:0:0:
192,192,191531,1,0,0:0:0:0:
320,192,191634,1,2,2:0:0:0:
448,192,191634,1,0,0:0:0:0:
448,192,191738,1,0,0:0:0:0:
64,192,191738,1,0,0:0:0:0:
192,192,191841,1,8,2:0:0:0:
64,192,191841,1,0,0:0:0:0:
448,192,191945,1,0,0:0:0:0:
320,192,192048,1,8,2:0:0:0:
192,192,192048,1,0,0:0:0:0:
64,192,192151,1,0,0:0:0:0:
448,192,192255,1,0,0:0:0:0:
320,192,192358,1,0,0:0:0:0:
192,192,192462,1,0,0:0:0:0:
64,192,192565,1,0,0:0:0:0:
448,192,192669,1,0,0:0:0:0:
320,192,192720,1,0,0:0:0:0:
192,192,192772,1,0,0:0:0:0:
64,192,192824,1,0,0:0:0:0:
448,192,192876,1,0,0:0:0:0:
320,192,192927,1,0,0:0:0:0:
192,192,192979,1,0,0:0:0:0:
64,192,193031,1,0,0:0:0:0:
448,192,193083,1,0,0:0:0:0:
192,192,193186,1,0,0:0:0:0:
64,192,193289,1,8,2:0:0:0:
448,192,193289,1,0,0:0:0:0:
320,192,193393,1,0,0:0:0:0:
192,192,193496,1,8,2:0:0:0:
64,192,193496,1,0,0:0:0:0:
320,192,193600,1,8,2:0:0:0:
448,192,193600,1,0,0:0:0:0:
64,192,193651,1,0,0:0:0:0:
192,192,193703,1,0,0:0:0:0:
448,192,193807,1,8,2:0:0:0:
64,192,193807,1,0,0:0:0:0:
320,192,193858,1,0,0:0:0:0:
192,192,193910,1,0,0:0:0:0:
448,192,194014,1,8,2:0:0:0:
320,192,194014,1,0,0:0:0:0:
192,192,194065,1,0,0:0:0:0:
64,192,194117,1,0,0:0:0:0:
320,192,194220,1,8,2:0:0:0:
448,192,194220,1,0,0:0:0:0:
64,192,194272,1,0,0:0:0:0:
192,192,194324,1,4,3:0:0:0:
320,192,194324,1,2,2:0:0:0:
448,192,194324,1,0,0:0:0:0:
64,192,194427,1,0,0:0:0:0:
192,192,194531,1,8,2:0:0:0:
320,192,194531,1,0,0:0:0:0:
448,192,194634,1,0,0:0:0:0:
192,192,194738,1,2,2:0:0:0:
64,192,194738,1,0,0:0:0:0:
320,192,194841,1,0,0:0:0:0:
64,192,194945,1,0,0:0:0:0:
192,192,195048,1,0,0:0:0:0:
320,192,195100,1,0,0:0:0:0:
448,192,195151,1,8,2:0:0:0:
64,192,195151,1,0,0:0:0:0:
64,192,195255,1,0,0:0:0:0:
192,192,195358,1,8,2:0:0:0:
320,192,195358,1,0,0:0:0:0:
448,192,195462,1,0,0:0:0:0:
192,192,195565,1,2,2:0:0:0:
64,192,195565,1,0,0:0:0:0:
448,192,195669,1,0,0:0:0:0:
64,192,195772,1,0,0:0:0:0:
192,192,195876,1,0,0:0:0:0:
320,192,195979,1,8,2:0:0:0:
448,192,195979,1,0,0:0:0:0:
64,192,196083,1,0,0:0:0:0:
192,192,196186,1,8,2:0:0:0:
320,192,196186,1,0,0:0:0:0:
448,192,196289,1,0,0:0:0:0:
192,192,196393,1,2,2:0:0:0:
64,192,196393,1,0,0:0:0:0:
320,192,196496,1,0,0:0:0:0:
64,192,196600,1,0,0:0:0:0:
192,192,196703,1,0,0:0:0:0:
320,192,196755,1,0,0:0:0:0:
448,192,196807,1,0,0:0:0:0:
64,192,196910,1,0,0:0:0:0:
320,192,197014,1,8,2:0:0:0:
448,192,197014,1,0,0:0:0:0:
192,192,197117,1,0,0:0:0:0:
64,192,197220,1,2,2:0:0:0:
448,192,197220,1,0,0:0:0:0:
192,192,197324,1,0,0:0:0:0:
320,192,197427,1,0,0:0:0:0:
192,192,197531,1,0,0:0:0:0:
320,192,197634,1,8,2:0:0:0:
448,192,197634,1,0,0:0:0:0:
64,192,197738,1,0,0:0:0:0:
192,192,197841,1,8,2:0:0:0:
320,192,197841,1,0,0:0:0:0:
448,192,197945,1,0,0:0:0:0:
192,192,198048,1,2,2:0:0:0:
64,192,198048,1,0,0:0:0:0:
320,192,198151,1,0,0:0:0:0:
64,192,198255,1,0,0:0:0:0:
320,192,198358,1,0,0:0:0:0:
192,192,198410,1,0,0:0:0:0:
64,192,198462,1,8,2:0:0:0:
448,192,198462,1,0,0:0:0:0:
320,192,198565,1,0,0:0:0:0:
192,192,198669,1,8,2:0:0:0:
64,192,198669,1,0,0:0:0:0:
448,192,198772,1,0,0:0:0:0:
192,192,198876,1,2,2:0:0:0:
320,192,198876,1,0,0:0:0:0:
64,192,198979,1,0,0:0:0:0:
448,192,199083,1,0,0:0:0:0:
192,192,199186,1,0,0:0:0:0:
320,192,199289,1,8,2:0:0:0:
448,192,199289,1,0,0:0:0:0:
64,192,199393,1,0,0:0:0:0:
192,192,199496,1,8,2:0:0:0:
320,192,199496,1,0,0:0:0:0:
448,192,199600,1,0,0:0:0:0:
192,192,199703,1,8,2:0:0:0:
64,192,199703,1,0,0:0:0:0:
320,192,199807,1,0,0:0:0:0:
448,192,199910,1,8,2:0:0:0:
64,192,199910,1,0,0:0:0:0:
192,192,200014,1,0,0:0:0:0:
448,192,200117,1,0,0:0:0:0:
320,192,200220,1,0,0:0:0:0:
192,192,200324,1,8,2:0:0:0:
64,192,200324,1,0,0:0:0:0:
320,192,200427,1,0,0:0:0:0:
448,192,200531,1,2,2:0:0:0:
64,192,200531,1,0,0:0:0:0:
192,192,200634,1,0,0:0:0:0:
320,192,200738,1,2,2:0:0:0:
448,192,200738,1,0,0:0:0:0:
64,192,200841,1,2,2:0:0:0:
448,192,200841,1,0,0:0:0:0:
320,192,200945,1,4,3:0:0:0:
192,192,200945,1,2,2:0:0:0:
64,192,200945,1,0,0:0:0:0:
448,192,201048,1,0,0:0:0:0:
320,192,201151,1,8,2:0:0:0:
192,192,201151,1,0,0:0:0:0:
64,192,201255,1,0,0:0:0:0:
320,192,201358,1,2,2:0:0:0:
448,192,201358,1,0,0:0:0:0:
192,192,201462,1,0,0:0:0:0:
448,192,201565,1,0,0:0:0:0:
320,192,201669,1,0,0:0:0:0:
192,192,201720,1,0,0:0:0:0:
64,192,201772,1,8,2:0:0:0:
448,192,201772,1,0,0:0:0:0:
320,192,201876,1,0,0:0:0:0:
192,192,201979,1,8,2:0:0:0:
64,192,201979,1,0,0:0:0:0:
448,192,202083,1,0,0:0:0:0:
320,192,202186,1,0,0:0:0:0:
64,192,202289,1,0,0:0:0:0:
192,192,202393,1,0,0:0:0:0:
448,192,202393,1,0,0:0:0:0:
320,192,202496,1,0,0:0:0:0:
192,192,202600,1,8,2:0:0:0:
64,192,202600,1,0,0:0:0:0:
320,192,202807,1,8,2:0:0:0:
448,192,202807,1,0,0:0:0:0:
192,192,202910,1,0,0:0:0:0:
64,192,203014,1,2,2:0:0:0:
448,192,203014,1,0,0:0:0:0:
320,192,203220,1,0,0:0:0:0:
192,192,203324,1,0,0:0:0:0:
448,192,203427,1,0,0:0:0:0:
64,192,203531,1,0,0:0:0:0:
192,192,203634,1,8,2:0:0:0:
320,192,203634,1,0,0:0:0:0:
448,192,203738,1,0,0:0:0:0:
64,192,203841,1,0,0:0:0:0:
192,192,203945,1,0,0:0:0:0:
320,192,204048,1,0,0:0:0:0:
448,192,204151,1,0,0:0:0:0:
192,192,204255,1,8,2:0:0:0:
64,192,204255,1,0,0:0:0:0:
320,192,204307,1,0,0:0:0:0:
448,192,204358,1,0,0:0:0:0:
192,192,204462,1,8,2:0:0:0:
320,192,204462,1,0,0:0:0:0:
448,192,204514,1,0,0:0:0:0:
64,192,204565,1,0,0:0:0:0:
192,192,204617,1,0,0:0:0:0:
320,192,204669,1,2,2:0:0:0:
448,192,204669,1,0,0:0:0:0:
64,192,204772,1,0,0:0:0:0:
192,192,204824,1,0,0:0:0:0:
320,192,204876,1,0,0:0:0:0:
448,192,204927,1,0,0:0:0:0:
192,192,204979,1,0,0:0:0:0:
320,192,205031,1,0,0:0:0:0:
448,192,205083,1,8,2:0:0:0:
64,192,205083,1,0,0:0:0:0:
192,192,205186,1,0,0:0:0:0:
320,192,205289,1,8,2:0:0:0:
448,192,205289,1,0,0:0:0:0:
64,192,205393,1,0,0:0:0:0:
448,192,205496,1,0,0:0:0:0:
320,192,205600,1,0,0:0:0:0:
192,192,205703,1,2,2:0:0:0:
64,192,205703,1,0,0:0:0:0:
320,192,205807,1,0,0:0:0:0:
192,192,205910,1,8,2:0:0:0:
64,192,205910,1,0,0:0:0:0:
320,192,206117,1,8,2:0:0:0:
448,192,206117,1,0,0:0:0:0:
192,192,206220,1,0,0:0:0:0:
64,192,206324,1,8,2:0:0:0:
448,192,206324,1,0,0:0:0:0:
192,192,206531,1,8,2:0:0:0:
320,192,206531,1,0,0:0:0:0:
448,192,206634,1,0,0:0:0:0:
64,192,206738,128,0,207151:0:0:0:0:
192,192,206841,128,0,206945:0:0:0:0:
448,192,206945,128,0,207048:0:0:0:0:
320,192,207048,128,0,207151:0:0:0:0:
192,192,207151,128,0,207358:0:0:0:0:
448,192,207255,128,0,207462:0:0:0:0:
320,192,207358,128,0,207462:0:0:0:0:
64,192,207462,128,0,207565:0:0:0:0:
192,192,207565,1,4,3:0:0:0:
320,192,207565,1,2,2:0:0:0:
448,192,207565,1,0,0:0:0:0:
448,192,207669,1,0,0:0:0:0:
64,192,207772,1,0,0:0:0:0:
192,192,207876,1,0,0:0:0:0:
320,192,207979,1,4,3:0:0:0:
448,192,207979,1,0,0:0:0:0:
192,192,208083,1,0,0:0:0:0:
64,192,208186,1,0,0:0:0:0:
448,192,208289,1,0,0:0:0:0:
320,192,208393,1,4,3:0:0:0:
192,192,208393,1,0,0:0:0:0:
64,192,208496,1,0,0:0:0:0:
448,192,208600,1,0,0:0:0:0:
320,192,208703,1,0,0:0:0:0:
192,192,208807,1,4,3:0:0:0:
64,192,208807,1,0,0:0:0:0:
448,192,208910,1,0,0:0:0:0:
192,192,209014,1,0,0:0:0:0:
64,192,209117,1,0,0:0:0:0:
320,192,209220,1,4,3:0:0:0:
448,192,209220,1,0,0:0:0:0:
192,192,209324,1,0,0:0:0:0:
448,192,209427,1,0,0:0:0:0:
192,192,209531,1,0,0:0:0:0:
64,192,209634,1,4,3:0:0:0:
320,192,209634,1,0,0:0:0:0:
448,192,209738,1,0,0:0:0:0:
320,192,209841,1,0,0:0:0:0:
192,192,209945,1,0,0:0:0:0:
64,192,210048,1,4,3:0:0:0:
448,192,210048,1,0,0:0:0:0:
320,192,210151,1,0,0:0:0:0:
192,192,210255,1,0,0:0:0:0:
320,192,210358,1,0,0:0:0:0:
448,192,210462,1,4,3:0:0:0:
64,192,210462,128,0,210876:0:0:0:0:
192,192,210876,1,4,3:0:0:0:
320,192,210876,1,2,2:0:0:0:
448,192,210876,1,0,0:0:0:0:
448,192,210979,1,0,0:0:0:0:
64,192,211083,1,0,0:0:0:0:
192,192,211186,1,0,0:0:0:0:
320,192,211289,1,4,3:0:0:0:
448,192,211289,1,0,0:0:0:0:
64,192,211393,1,0,0:0:0:0:
448,192,211496,1,0,0:0:0:0:
64,192,211600,1,0,0:0:0:0:
192,192,211703,1,4,3:0:0:0:
320,192,211703,1,0,0:0:0:0:
448,192,211807,1,0,0:0:0:0:
320,192,211910,1,0,0:0:0:0:
64,192,212014,1,0,0:0:0:0:
192,192,212117,1,4,3:0:0:0:
320,192,212117,1,0,0:0:0:0:
448,192,212220,1,0,0:0:0:0:
192,192,212324,1,0,0:0:0:0:
448,192,212427,1,0,0:0:0:0:
64,192,212531,1,4,3:0:0:0:
320,192,212531,1,0,0:0:0:0:
192,192,212634,1,0,0:0:0:0:
448,192,212738,1,0,0:0:0:0:
320,192,212841,1,0,0:0:0:0:
64,192,212945,1,4,3:0:0:0:
192,192,212945,1,0,0:0:0:0:
448,192,213048,1,0,0:0:0:0:
64,192,213151,1,0,0:0:0:0:
192,192,213255,1,0,0:0:0:0:
320,192,213358,1,4,3:0:0:0:
448,192,213358,1,0,0:0:0:0:
64,192,213462,1,0,0:0:0:0:
192,192,213565,1,0,0:0:0:0:
320,192,213669,1,0,0:0:0:0:
64,192,213772,1,4,3:0:0:0:
448,192,213772,128,0,214186:0:0:0:0:
320,192,214186,1,4,3:0:0:0:
192,192,214186,1,2,2:0:0:0:
64,192,214186,1,0,0:0:0:0:
64,192,214289,1,0,0:0:0:0:
448,192,214393,1,0,0:0:0:0:
320,192,214496,1,0,0:0:0:0:
320,192,214600,1,4,3:0:0:0:
64,192,214600,1,0,0:0:0:0:
192,192,214703,1,0,0:0:0:0:
64,192,214807,1,0,0:0:0:0:
448,192,214910,1,0,0:0:0:0:
320,192,215014,1,4,3:0:0:0:
192,192,215014,1,0,0:0:0:0:
64,192,215117,1,0,0:0:0:0:
448,192,215220,1,0,0:0:0:0:
64,192,215324,1,0,0:0:0:0:
320,192,215427,1,4,3:0:0:0:
64,192,215427,1,0,0:0:0:0:
192,192,215531,1,0,0:0:0:0:
448,192,215634,1,0,0:0:0:0:
64,192,215738,1,0,0:0:0:0:
320,192,215841,1,4,3:0:0:0:
448,192,215841,1,0,0:0:0:0:
192,192,215945,1,0,0:0:0:0:
320,192,216048,1,0,0:0:0:0:
448,192,216151,1,0,0:0:0:0:
192,192,216255,1,4,3:0:0:0:
448,192,216255,1,0,0:0:0:0:
320,192,216358,1,0,0:0:0:0:
64,192,216462,1,0,0:0:0:0:
320,192,216565,1,0,0:0:0:0:
64,192,216669,1,4,3:0:0:0:
192,192,216669,1,0,0:0:0:0:
448,192,216772,1,0,0:0:0:0:
192,192,216876,1,0,0:0:0:0:
320,192,216979,1,0,0:0:0:0:
64,192,217083,1,4,3:0:0:0:
448,192,217083,128,0,217496:0:0:0:0:
320,192,217496,1,4,3:0:0:0:
192,192,217496,1,2,2:0:0:0:
64,192,217496,1,0,0:0:0:0:
64,192,217600,1,0,0:0:0:0:
192,192,217703,1,0,0:0:0:0:
448,192,217807,1,0,0:0:0:0:
448,192,217910,1,4,3:0:0:0:
320,192,217910,1,0,0:0:0:0:
64,192,218014,1,0,0:0:0:0:
448,192,218117,1,0,0:0:0:0:
64,192,218220,1,0,0:0:0:0:
320,192,218324,1,4,3:0:0:0:
448,192,218324,1,0,0:0:0:0:
192,192,218427,1,0,0:0:0:0:
320,192,218531,1,0,0:0:0:0:
64,192,218634,1,0,0:0:0:0:
192,192,218738,1,4,3:0:0:0:
64,192,218738,1,0,0:0:0:0:
320,192,218841,1,0,0:0:0:0:
64,192,218945,1,0,0:0:0:0:
320,192,219048,1,0,0:0:0:0:
192,192,219151,1,4,3:0:0:0:
448,192,219151,1,0,0:0:0:0:
64,192,219255,1,0,0:0:0:0:
448,192,219358,1,0,0:0:0:0:
192,192,219462,1,0,0:0:0:0:
192,192,219565,1,4,3:0:0:0:
64,192,219565,1,0,0:0:0:0:
448,192,219669,1,0,0:0:0:0:
192,192,219772,1,0,0:0:0:0:
448,192,219876,1,0,0:0:0:0:
320,192,219979,1,4,3:0:0:0:
64,192,219979,1,0,0:0:0:0:
192,192,220083,1,0,0:0:0:0:
320,192,220186,1,0,0:0:0:0:
448,192,220289,1,0,0:0:0:0:
320,192,220393,1,4,3:0:0:0:
64,192,220393,128,0,220807:0:0:0:0:
192,192,220807,1,4,3:0:0:0:
320,192,220807,1,2,2:0:0:0:
448,192,220807,1,0,0:0:0:0:
448,192,220910,1,0,0:0:0:0:
192,192,221014,1,8,2:0:0:0:
64,192,221014,1,0,0:0:0:0:
64,192,221117,1,0,0:0:0:0:
192,192,221220,1,4,3:0:0:0:
320,192,221220,1,2,2:0:0:0:
448,192,221220,1,0,0:0:0:0:
448,192,221324,1,8,2:0:0:0:
64,192,221324,1,0,0:0:0:0:
64,192,221427,1,8,2:0:0:0:
192,192,221427,1,0,0:0:0:0:
320,192,221479,1,0,0:0:0:0:
448,192,221531,1,0,0:0:0:0:
64,192,221583,1,0,0:0:0:0:
192,192,221634,1,4,3:0:0:0:
320,192,221634,1,0,0:0:0:0:
320,192,221738,1,0,0:0:0:0:
192,192,221841,1,8,2:0:0:0:
64,192,221841,1,0,0:0:0:0:
192,192,221945,1,8,2:0:0:0:
320,192,221945,1,0,0:0:0:0:
448,192,222048,1,4,3:0:0:0:
320,192,222048,1,2,2:0:0:0:
64,192,222048,1,0,0:0:0:0:
448,192,222151,1,0,0:0:0:0:
192,192,222255,1,8,2:0:0:0:
64,192,222255,1,0,0:0:0:0:
320,192,222307,1,0,0:0:0:0:
448,192,222358,1,8,2:0:0:0:
64,192,222358,1,0,0:0:0:0:
192,192,222410,1,0,0:0:0:0:
320,192,222462,1,4,3:0:0:0:
448,192,222462,1,0,0:0:0:0:
192,192,222565,1,8,2:0:0:0:
64,192,222565,1,0,0:0:0:0:
320,192,222669,1,8,2:0:0:0:
192,192,222669,1,0,0:0:0:0:
320,192,222772,1,0,0:0:0:0:
192,192,222876,1,4,3:0:0:0:
64,192,222876,1,2,2:0:0:0:
448,192,222876,1,0,0:0:0:0:
320,192,222979,1,8,2:0:0:0:
192,192,223083,1,8,2:0:0:0:
64,192,223083,1,0,0:0:0:0:
320,192,223134,1,0,0:0:0:0:
448,192,223186,1,0,0:0:0:0:
64,192,223238,1,0,0:0:0:0:
192,192,223289,1,4,3:0:0:0:
320,192,223289,1,0,0:0:0:0:
320,192,223393,1,8,2:0:0:0:
448,192,223393,1,0,0:0:0:0:
192,192,223496,1,8,2:0:0:0:
64,192,223496,1,0,0:0:0:0:
64,192,223600,1,0,0:0:0:0:
192,192,223703,1,4,3:0:0:0:
320,192,223703,1,2,2:0:0:0:
448,192,223703,1,0,0:0:0:0:
448,192,223807,1,8,2:0:0:0:
64,192,223910,1,8,2:0:0:0:
192,192,223910,1,0,0:0:0:0:
320,192,223962,1,0,0:0:0:0:
448,192,224014,1,8,2:0:0:0:
64,192,224014,1,0,0:0:0:0:
192,192,224065,1,0,0:0:0:0:
320,192,224117,1,4,3:0:0:0:
448,192,224117,1,0,0:0:0:0:
320,192,224220,1,0,0:0:0:0:
192,192,224324,1,8,2:0:0:0:
64,192,224324,1,0,0:0:0:0:
320,192,224427,1,8,2:0:0:0:
192,192,224427,1,0,0:0:0:0:
64,192,224531,1,4,3:0:0:0:
320,192,224531,1,2,2:0:0:0:
448,192,224531,1,0,0:0:0:0:
192,192,224634,1,8,2:0:0:0:
64,192,224634,1,0,0:0:0:0:
320,192,224738,1,8,2:0:0:0:
448,192,224738,1,0,0:0:0:0:
192,192,224789,1,0,0:0:0:0:
64,192,224841,1,0,0:0:0:0:
448,192,224893,1,0,0:0:0:0:
320,192,224945,1,4,3:0:0:0:
192,192,224945,1,0,0:0:0:0:
448,192,225048,1,8,2:0:0:0:
64,192,225048,1,0,0:0:0:0:
320,192,225151,1,8,2:0:0:0:
64,192,225151,1,0,0:0:0:0:
320,192,225255,1,0,0:0:0:0:
192,192,225358,1,4,3:0:0:0:
64,192,225358,1,2,2:0:0:0:
448,192,225358,1,0,0:0:0:0:
320,192,225462,1,8,2:0:0:0:
448,192,225462,1,0,0:0:0:0:
192,192,225565,1,8,2:0:0:0:
64,192,225565,1,0,0:0:0:0:
320,192,225617,1,0,0:0:0:0:
64,192,225669,1,8,2:0:0:0:
448,192,225669,1,0,0:0:0:0:
192,192,225720,1,0,0:0:0:0:
320,192,225772,1,4,3:0:0:0:
448,192,225772,1,0,0:0:0:0:
320,192,225876,1,8,2:0:0:0:
192,192,225876,1,0,0:0:0:0:
192,192,225979,1,8,2:0:0:0:
64,192,225979,1,0,0:0:0:0:
64,192,226083,1,0,0:0:0:0:
192,192,226186,1,4,3:0:0:0:
320,192,226186,1,2,2:0:0:0:
448,192,226186,1,0,0:0:0:0:
448,192,226289,1,0,0:0:0:0:
192,192,226393,1,8,2:0:0:0:
64,192,226393,1,0,0:0:0:0:
320,192,226445,1,0,0:0:0:0:
448,192,226496,1,0,0:0:0:0:
64,192,226496,1,0,0:0:0:0:
192,192,226548,1,0,0:0:0:0:
320,192,226600,1,4,3:0:0:0:
448,192,226600,1,0,0:0:0:0:
64,192,226703,1,8,2:0:0:0:
192,192,226703,1,0,0:0:0:0:
448,192,226807,1,8,2:0:0:0:
64,192,226807,1,0,0:0:0:0:
192,192,226910,1,8,2:0:0:0:
320,192,226910,1,0,0:0:0:0:
448,192,227014,1,4,3:0:0:0:
192,192,227014,1,2,2:0:0:0:
64,192,227014,1,0,0:0:0:0:
320,192,227117,1,8,2:0:0:0:
448,192,227117,1,0,0:0:0:0:
192,192,227220,1,8,2:0:0:0:
64,192,227220,1,0,0:0:0:0:
320,192,227272,1,0,0:0:0:0:
448,192,227324,1,0,0:0:0:0:
64,192,227376,1,0,0:0:0:0:
192,192,227427,1,4,3:0:0:0:
320,192,227427,1,2,2:0:0:0:
448,192,227427,1,0,0:0:0:0:
320,192,227531,1,8,2:0:0:0:
64,192,227531,1,0,0:0:0:0:
192,192,227634,1,8,2:0:0:0:
64,192,227634,1,0,0:0:0:0:
320,192,227738,1,8,2:0:0:0:
448,192,227738,1,0,0:0:0:0:
320,192,227841,1,4,3:0:0:0:
192,192,227841,1,2,2:0:0:0:
64,192,227841,1,0,0:0:0:0:
448,192,227945,1,8,2:0:0:0:
64,192,227945,1,0,0:0:0:0:
192,192,228048,1,8,2:0:0:0:
320,192,228048,1,0,0:0:0:0:
320,192,228151,1,8,2:0:0:0:
448,192,228151,1,0,0:0:0:0:
448,192,228255,1,4,3:0:0:0:
192,192,228255,1,2,2:0:0:0:
64,192,228255,1,0,0:0:0:0:
192,192,228358,1,8,2:0:0:0:
320,192,228358,1,0,0:0:0:0:
320,192,228462,1,8,2:0:0:0:
448,192,228462,1,0,0:0:0:0:
64,192,228565,1,8,2:0:0:0:
192,192,228565,1,0,0:0:0:0:
64,192,228669,1,4,3:0:0:0:
320,192,228669,1,2,2:0:0:0:
448,192,228669,1,0,0:0:0:0:
320,192,228772,1,8,2:0:0:0:
192,192,228772,1,0,0:0:0:0:
64,192,228876,1,8,2:0:0:0:
448,192,228876,1,0,0:0:0:0:
448,192,228979,1,8,2:0:0:0:
320,192,228979,1,0,0:0:0:0:
320,192,229083,1,4,3:0:0:0:
192,192,229083,1,2,2:0:0:0:
64,192,229083,1,0,0:0:0:0:
64,192,229186,1,8,2:0:0:0:
448,192,229186,1,0,0:0:0:0:
320,192,229289,1,8,2:0:0:0:
192,192,229289,1,0,0:0:0:0:
64,192,229393,1,8,2:0:0:0:
448,192,229393,1,0,0:0:0:0:
448,192,229496,1,4,3:0:0:0:
320,192,229496,1,2,2:0:0:0:
192,192,229496,1,0,0:0:0:0:
192,192,229600,1,8,2:0:0:0:
64,192,229600,1,0,0:0:0:0:
64,192,229703,1,8,2:0:0:0:
448,192,229703,1,0,0:0:0:0:
448,192,229807,1,8,2:0:0:0:
320,192,229807,1,0,0:0:0:0:
320,192,229910,1,4,3:0:0:0:
192,192,229910,1,2,2:0:0:0:
64,192,229910,1,0,0:0:0:0:
64,192,230014,1,8,2:0:0:0:
448,192,230014,1,0,0:0:0:0:
320,192,230117,1,8,2:0:0:0:
192,192,230117,1,0,0:0:0:0:
192,192,230220,1,8,2:0:0:0:
64,192,230220,1,0,0:0:0:0:
64,192,230324,1,4,3:0:0:0:
320,192,230324,1,2,2:0:0:0:
448,192,230324,1,0,0:0:0:0:
192,192,230427,1,8,2:0:0:0:
448,192,230427,1,0,0:0:0:0:
192,192,230531,1,8,2:0:0:0:
64,192,230531,1,0,0:0:0:0:
320,192,230634,1,8,2:0:0:0:
448,192,230634,1,0,0:0:0:0:
448,192,230738,1,4,3:0:0:0:
192,192,230738,1,2,2:0:0:0:
64,192,230738,1,0,0:0:0:0:
192,192,230841,1,8,2:0:0:0:
64,192,230841,1,0,0:0:0:0:
320,192,230945,1,8,2:0:0:0:
448,192,230945,1,0,0:0:0:0:
192,192,231048,1,8,2:0:0:0:
64,192,231048,1,0,0:0:0:0:
64,192,231151,1,4,3:0:0:0:
320,192,231151,1,2,2:0:0:0:
448,192,231151,1,0,0:0:0:0:
320,192,231255,1,8,2:0:0:0:
448,192,231255,1,0,0:0:0:0:
192,192,231358,1,8,2:0:0:0:
64,192,231358,1,0,0:0:0:0:
64,192,231462,1,8,2:0:0:0:
448,192,231462,1,0,0:0:0:0:
448,192,231565,1,4,3:0:0:0:
320,192,231565,1,2,2:0:0:0:
192,192,231565,1,0,0:0:0:0:
192,192,231669,1,8,2:0:0:0:
64,192,231669,1,0,0:0:0:0:
64,192,231772,1,8,2:0:0:0:
448,192,231772,1,0,0:0:0:0:
448,192,231876,1,8,2:0:0:0:
320,192,231876,1,0,0:0:0:0:
320,192,231979,1,4,3:0:0:0:
192,192,231979,1,2,2:0:0:0:
64,192,231979,1,0,0:0:0:0:
192,192,232083,1,8,2:0:0:0:
64,192,232083,1,0,0:0:0:0:
320,192,232186,1,8,2:0:0:0:
448,192,232186,1,0,0:0:0:0:
192,192,232289,1,8,2:0:0:0:
64,192,232289,1,0,0:0:0:0:
320,192,232393,1,4,3:0:0:0:
448,192,232393,1,2,2:0:0:0:
64,192,232393,1,0,0:0:0:0:
320,192,232496,1,8,2:0:0:0:
192,192,232496,1,0,0:0:0:0:
448,192,232600,1,8,2:0:0:0:
64,192,232600,1,0,0:0:0:0:
192,192,232703,1,8,2:0:0:0:
64,192,232703,1,0,0:0:0:0:
192,192,232807,1,4,3:0:0:0:
320,192,232807,1,2,2:0:0:0:
448,192,232807,1,0,0:0:0:0:
64,192,232910,1,8,2:0:0:0:
448,192,232910,1,0,0:0:0:0:
192,192,233014,1,8,2:0:0:0:
320,192,233014,1,0,0:0:0:0:
320,192,233117,1,8,2:0:0:0:
64,192,233117,1,0,0:0:0:0:
192,192,233220,1,4,3:0:0:0:
64,192,233220,1,2,2:0:0:0:
448,192,233220,1,0,0:0:0:0:
448,192,233324,1,8,2:0:0:0:
320,192,233324,1,0,0:0:0:0:
192,192,233427,1,8,2:0:0:0:
64,192,233427,1,0,0:0:0:0:
192,192,233531,1,8,2:0:0:0:
320,192,233531,1,0,0:0:0:0:
64,192,233634,1,4,3:0:0:0:
448,192,233634,1,2,2:0:0:0:
320,192,233634,1,0,0:0:0:0:
192,192,233738,1,8,2:0:0:0:
64,192,233738,1,0,0:0:0:0:
320,192,233841,1,8,2:0:0:0:
448,192,233841,1,0,0:0:0:0:
320,192,233945,1,8,2:0:0:0:
192,192,233945,1,0,0:0:0:0:
64,192,234048,1,4,3:0:0:0:
448,192,234048,1,2,2:0:0:0:
192,192,234048,1,0,0:0:0:0:
320,192,234117,1,0,0:0:0:0:
192,192,234186,1,8,2:0:0:0:
64,192,234186,1,0,0:0:0:0:
448,192,234255,1,0,0:0:0:0:
320,192,234324,1,8,2:0:0:0:
192,192,234324,1,0,0:0:0:0:
64,192,234393,1,0,0:0:0:0:
320,192,234462,1,4,3:0:0:0:
448,192,234462,1,0,0:0:0:0:
192,192,234531,1,0,0:0:0:0:
64,192,234600,1,8,2:0:0:0:
448,192,234600,1,0,0:0:0:0:
320,192,234669,1,0,0:0:0:0:
192,192,234738,1,8,2:0:0:0:
64,192,234738,1,0,0:0:0:0:
320,192,234807,1,0,0:0:0:0:
448,192,234876,1,4,3:0:0:0:
64,192,234876,1,0,0:0:0:0:
192,192,234945,1,0,0:0:0:0:
320,192,235014,1,8,2:0:0:0:
448,192,235014,1,0,0:0:0:0:
64,192,235083,1,0,0:0:0:0:
192,192,235151,1,8,2:0:0:0:
320,192,235151,1,0,0:0:0:0:
448,192,235220,1,0,0:0:0:0:
64,192,235289,1,4,3:0:0:0:
192,192,235289,1,0,0:0:0:0:
320,192,235358,1,0,0:0:0:0:
448,192,235427,1,8,2:0:0:0:
64,192,235427,1,0,0:0:0:0:
192,192,235496,1,0,0:0:0:0:
320,192,235565,1,8,2:0:0:0:
448,192,235565,1,0,0:0:0:0:
64,192,235634,1,0,0:0:0:0:
192,192,235703,1,4,3:0:0:0:
448,192,235703,1,0,0:0:0:0:
320,192,235772,1,0,0:0:0:0:
192,192,235841,1,8,2:0:0:0:
64,192,235841,1,0,0:0:0:0:
448,192,235910,1,0,0:0:0:0:
320,192,235979,1,8,2:0:0:0:
64,192,235979,1,0,0:0:0:0:
192,192,236048,1,0,0:0:0:0:
320,192,236117,1,4,3:0:0:0:
448,192,236117,1,0,0:0:0:0:
64,192,236186,1,0,0:0:0:0:
192,192,236255,1,8,2:0:0:0:
448,192,236255,1,0,0:0:0:0:
320,192,236324,1,0,0:0:0:0:
192,192,236393,1,8,2:0:0:0:
64,192,236393,1,0,0:0:0:0:
448,192,236462,1,0,0:0:0:0:
320,192,236531,1,4,3:0:0:0:
192,192,236531,1,0,0:0:0:0:
64,192,236600,1,0,0:0:0:0:
448,192,236669,1,8,2:0:0:0:
320,192,236669,1,0,0:0:0:0:
192,192,236738,1,0,0:0:0:0:
64,192,236807,1,8,2:0:0:0:
448,192,236807,1,0,0:0:0:0:
320,192,236876,1,0,0:0:0:0:
192,192,236945,1,4,3:0:0:0:
64,192,236945,1,0,0:0:0:0:
448,192,237014,1,0,0:0:0:0:
320,192,237083,1,8,2:0:0:0:
64,192,237083,1,0,0:0:0:0:
192,192,237151,1,0,0:0:0:0:
320,192,237220,1,8,2:0:0:0:
448,192,237220,1,0,0:0:0:0:
64,192,237289,1,0,0:0:0:0:
320,192,237358,1,8,2:0:0:0:
448,192,237358,1,0,0:0:0:0:
192,192,237427,1,8,2:0:0:0:
64,192,237427,1,0,0:0:0:0:
320,192,237496,1,8,2:0:0:0:
448,192,237496,1,0,0:0:0:0:
64,192,237565,1,8,2:0:0:0:
192,192,237565,1,0,0:0:0:0:
320,192,237634,1,8,2:0:0:0:
448,192,237634,1,0,0:0:0:0:
192,192,237703,1,8,2:0:0:0:
64,192,237703,1,0,0:0:0:0:
320,192,237772,1,8,2:0:0:0:
448,192,237772,1,0,0:0:0:0:
192,192,237841,1,8,2:0:0:0:
64,192,237841,1,0,0:0:0:0:
320,192,237910,1,8,2:0:0:0:
448,192,237910,1,0,0:0:0:0:
192,192,237979,1,8,2:0:0:0:
64,192,237979,1,0,0:0:0:0:
320,192,238048,1,8,2:0:0:0:
448,192,238048,1,0,0:0:0:0:
192,192,238117,1,8,2:0:0:0:
64,192,238117,1,0,0:0:0:0:
320,192,238186,1,8,2:0:0:0:
448,192,238186,1,0,0:0:0:0:
192,192,238255,1,8,2:0:0:0:
64,192,238255,1,0,0:0:0:0:
320,192,238324,1,8,2:0:0:0:
448,192,238324,1,0,0:0:0:0:
192,192,238393,1,8,2:0:0:0:
64,192,238393,1,0,0:0:0:0:
320,192,238462,1,8,2:0:0:0:
448,192,238462,1,0,0:0:0:0:
192,192,238531,1,8,2:0:0:0:
64,192,238531,1,0,0:0:0:0:
320,192,238600,1,8,2:0:0:0:
448,192,238600,1,0,0:0:0:0:
192,192,238669,1,8,2:0:0:0:
64,192,238669,1,0,0:0:0:0:
320,192,238738,1,8,2:0:0:0:
448,192,238738,1,0,0:0:0:0:
192,192,238807,1,8,2:0:0:0:
64,192,238807,1,0,0:0:0:0:
320,192,238876,1,8,2:0:0:0:
448,192,238876,1,0,0:0:0:0:
192,192,238945,1,8,2:0:0:0:
64,192,238945,1,0,0:0:0:0:
320,192,239014,1,8,2:0:0:0:
448,192,239014,1,0,0:0:0:0:
192,192,239083,1,8,2:0:0:0:
64,192,239083,1,0,0:0:0:0:
320,192,239151,1,8,2:0:0:0:
448,192,239151,1,0,0:0:0:0:
192,192,239220,1,8,2:0:0:0:
64,192,239220,1,0,0:0:0:0:
320,192,239289,1,8,2:0:0:0:
448,192,239289,1,0,0:0:0:0:
192,192,239358,1,8,2:0:0:0:
64,192,239358,1,0,0:0:0:0:
320,192,239427,1,8,2:0:0:0:
448,192,239427,1,0,0:0:0:0:
64,192,239496,1,8,2:0:0:0:
192,192,239496,1,0,0:0:0:0:
320,192,239565,1,8,2:0:0:0:
448,192,239565,1,0,0:0:0:0:
192,192,239634,1,8,2:0:0:0:
64,192,239634,1,0,0:0:0:0:
320,192,239703,1,8,2:0:0:0:
448,192,239703,1,0,0:0:0:0:
192,192,239772,1,8,2:0:0:0:
64,192,239772,1,0,0:0:0:0:
320,192,239841,1,8,2:0:0:0:
448,192,239841,1,0,0:0:0:0:
192,192,239910,1,8,2:0:0:0:
64,192,239910,1,0,0:0:0:0:
320,192,239979,1,8,2:0:0:0:
448,192,239979,1,0,0:0:0:0:
192,192,240048,1,8,2:0:0:0:
64,192,240048,1,0,0:0:0:0:
320,192,240117,1,8,2:0:0:0:
448,192,240117,1,0,0:0:0:0:
192,192,240186,1,8,2:0:0:0:
64,192,240186,1,0,0:0:0:0:
320,192,240255,1,8,2:0:0:0:
448,192,240255,1,0,0:0:0:0:
192,192,240324,1,8,2:0:0:0:
64,192,240324,1,0,0:0:0:0:
320,192,240393,1,8,2:0:0:0:
448,192,240393,1,0,0:0:0:0:
192,192,240462,1,8,2:0:0:0:
64,192,240462,1,0,0:0:0:0:
320,192,240531,1,8,2:0:0:0:
448,192,240531,1,0,0:0:0:0:
64,192,240600,1,8,2:0:0:0:
192,192,240600,1,0,0:0:0:0:
320,192,240669,128,4,243876:3:0:0:0:
448,192,240669,1,0,0:0:0:0:
448,192,242324,128,0,243979:0:0:0:0:
192,192,243151,128,0,243876:0:0:0:0:
64,192,243565,128,0,243876:0:0:0:0:
320,192,243979,1,8,2:0:0:0:
192,192,243979,1,0,0:0:0:0:
192,192,244186,1,8,2:0:0:0:
64,192,244186,1,0,0:0:0:0:
448,192,244289,1,0,0:0:0:0:
320,192,244341,1,0,0:0:0:0:
64,192,244393,1,0,0:0:0:0:
192,192,244445,1,0,0:0:0:0:
448,192,244496,1,0,0:0:0:0:
320,192,244548,1,0,0:0:0:0:
64,192,244600,1,0,0:0:0:0:
192,192,244651,1,0,0:0:0:0:
320,192,244703,1,0,0:0:0:0:
448,192,244755,1,0,0:0:0:0:
64,192,244807,1,8,2:0:0:0:
192,192,244807,1,0,0:0:0:0:
448,192,244910,1,0,0:0:0:0:
320,192,244962,1,0,0:0:0:0:
192,192,245014,1,8,2:0:0:0:
64,192,245014,1,0,0:0:0:0:
320,192,245117,1,0,0:0:0:0:
192,192,245169,1,0,0:0:0:0:
64,192,245220,1,8,2:0:0:0:
448,192,245220,1,0,0:0:0:0:
192,192,245324,1,0,0:0:0:0:
320,192,245376,1,0,0:0:0:0:
448,192,245427,1,8,2:0:0:0:
64,192,245427,1,0,0:0:0:0:
64,192,245531,1,0,0:0:0:0:
192,192,245583,1,0,0:0:0:0:
320,192,245634,1,8,2:0:0:0:
448,192,245634,1,0,0:0:0:0:
192,192,245686,1,0,0:0:0:0:
64,192,245738,1,0,0:0:0:0:
448,192,245738,1,0,0:0:0:0:
320,192,245789,1,0,0:0:0:0:
64,192,245841,1,0,0:0:0:0:
192,192,245893,1,0,0:0:0:0:
320,192,245945,1,0,0:0:0:0:
448,192,245996,1,0,0:0:0:0:
64,192,246048,1,0,0:0:0:0:
192,192,246100,1,0,0:0:0:0:
320,192,246151,1,0,0:0:0:0:
448,192,246203,1,0,0:0:0:0:
64,192,246255,1,0,0:0:0:0:
192,192,246307,1,0,0:0:0:0:
320,192,246358,1,0,0:0:0:0:
448,192,246410,1,0,0:0:0:0:
192,192,246462,1,8,2:0:0:0:
64,192,246462,1,0,0:0:0:0:
64,192,246669,128,0,247186:0:0:0:0:
192,192,246876,128,0,247186:0:0:0:0:
448,192,247083,128,0,247186:0:0:0:0:
320,192,247289,1,2,2:0:0:0:
192,192,247289,128,4,247496:3:0:0:0:
64,192,247289,128,2,247600:3:0:0:0:
448,192,247289,128,8,247393:2:0:0:0:
320,192,247496,128,0,247600:0:0:0:0:
192,192,247600,128,0,247703:0:0:0:0:
64,192,247703,128,4,247807:3:0:0:0:
448,192,247703,128,0,247910:0:0:0:0:
320,192,247807,128,0,247910:0:0:0:0:
64,192,247910,128,0,248014:0:0:0:0:
192,192,248014,128,0,248117:0:0:0:0:
320,192,248117,128,4,248220:3:0:0:0:
448,192,248117,128,0,248324:0:0:0:0:
64,192,248220,128,0,248324:0:0:0:0:
192,192,248324,1,0,0:0:0:0:
320,192,248427,1,0,0:0:0:0:
64,192,248531,128,4,248945:3:0:0:0:
448,192,248531,128,0,248634:0:0:0:0:
320,192,248634,128,0,248738:0:0:0:0:
192,192,248738,128,0,248945:0:0:0:0:
320,192,248945,128,4,249151:3:0:0:0:
448,192,248945,128,0,249358:0:0:0:0:
64,192,249151,128,0,249358:0:0:0:0:
192,192,249358,128,4,249462:3:0:0:0:
320,192,249358,128,0,249462:0:0:0:0:
64,192,249462,128,0,249565:0:0:0:0:
448,192,249462,128,0,249772:0:0:0:0:
192,192,249565,128,0,249669:0:0:0:0:
320,192,249669,128,0,249979:0:0:0:0:
192,192,249772,1,4,3:0:0:0:
64,192,249772,1,0,0:0:0:0:
448,192,249876,128,0,250083:0:0:0:0:
64,192,249979,128,0,250083:0:0:0:0:
192,192,250083,128,0,250393:0:0:0:0:
448,192,250186,1,4,3:0:0:0:
320,192,250186,128,0,250393:0:0:0:0:
64,192,250393,1,0,0:0:0:0:
448,192,250496,128,0,250807:0:0:0:0:
192,192,250600,1,4,3:0:0:0:
320,192,250600,128,0,250807:0:0:0:0:
64,192,250703,128,0,250807:0:0:0:0:
192,192,250807,128,0,250910:0:0:0:0:
320,192,250910,128,0,251117:0:0:0:0:
64,192,250910,128,0,251117:0:0:0:0:
192,192,251117,128,0,251324:0:0:0:0:
448,192,251117,128,0,251324:0:0:0:0:
320,192,251324,128,0,251427:0:0:0:0:
192,192,251427,128,4,251531:3:0:0:0:
448,192,251427,128,0,251634:0:0:0:0:
64,192,251531,128,0,251738:0:0:0:0:
320,192,251634,128,0,251738:0:0:0:0:
192,192,251738,128,0,251841:0:0:0:0:
64,192,251841,128,4,251945:3:0:0:0:
448,192,251841,128,0,252255:0:0:0:0:
320,192,251945,128,0,252048:0:0:0:0:
192,192,252048,128,0,252255:0:0:0:0:
320,192,252255,128,4,252358:3:0:0:0:
64,192,252255,1,0,0:0:0:0:
192,192,252358,128,0,252462:0:0:0:0:
64,192,252462,128,0,252565:0:0:0:0:
448,192,252462,128,0,252772:0:0:0:0:
320,192,252565,128,0,252669:0:0:0:0:
192,192,252669,128,4,252772:3:0:0:0:
64,192,252669,1,0,0:0:0:0:
320,192,252772,128,0,252876:0:0:0:0:
448,192,252876,128,0,252979:0:0:0:0:
64,192,252876,128,0,253186:0:0:0:0:
192,192,252979,128,0,253083:0:0:0:0:
320,192,253083,128,4,253186:3:0:0:0:
448,192,253083,1,0,0:0:0:0:
192,192,253186,128,0,253289:0:0:0:0:
64,192,253289,128,0,253393:0:0:0:0:
448,192,253289,128,0,253393:0:0:0:0:
320,192,253393,128,0,253496:0:0:0:0:
448,192,253496,128,4,253703:3:0:0:0:
192,192,253496,128,0,253703:0:0:0:0:
320,192,253703,128,0,253807:0:0:0:0:
64,192,253703,1,0,0:0:0:0:
448,192,253807,128,0,253910:0:0:0:0:
320,192,253910,1,4,3:0:0:0:
192,192,253910,128,0,254014:0:0:0:0:
64,192,253910,128,2,254117:2:0:0:0:
448,192,254014,128,0,254117:0:0:0:0:
320,192,254117,128,0,254324:0:0:0:0:
192,192,254220,128,0,254324:0:0:0:0:
64,192,254324,128,4,254427:3:0:0:0:
448,192,254324,128,0,254427:0:0:0:0:
320,192,254427,128,0,254634:0:0:0:0:
448,192,254531,128,0,254634:0:0:0:0:
64,192,254531,128,0,254738:0:0:0:0:
192,192,254634,128,0,254738:0:0:0:0:
320,192,254738,128,4,254841:3:0:0:0:
448,192,254738,128,0,254945:0:0:0:0:
64,192,254841,128,0,254945:0:0:0:0:
192,192,254945,128,0,255048:0:0:0:0:
320,192,255048,128,0,255151:0:0:0:0:
64,192,255151,128,4,255358:3:0:0:0:
448,192,255151,128,0,255565:0:0:0:0:
192,192,255255,128,0,255358:0:0:0:0:
320,192,255358,128,0,255565:0:0:0:0:
192,192,255565,128,4,255669:3:0:0:0:
64,192,255565,128,0,255772:0:0:0:0:
192,192,255772,128,0,255979:0:0:0:0:
320,192,255772,128,0,255876:0:0:0:0:
448,192,255979,128,4,256083:3:0:0:0:
320,192,255979,128,0,256186:0:0:0:0:
64,192,256083,128,0,256289:0:0:0:0:
192,192,256186,128,0,256289:0:0:0:0:
448,192,256186,128,0,256496:0:0:0:0:
320,192,256289,128,0,256496:0:0:0:0:
64,192,256393,128,4,256496:3:0:0:0:
192,192,256496,128,0,256600:0:0:0:0:
448,192,256600,128,0,256703:0:0:0:0:
320,192,256703,128,0,256807:0:0:0:0:
64,192,256703,128,0,257014:0:0:0:0:
192,192,256807,128,4,256910:3:0:0:0:
448,192,256807,128,0,257014:0:0:0:0:
320,192,256910,128,0,257014:0:0:0:0:
192,192,257014,128,0,257117:0:0:0:0:
64,192,257117,128,0,257220:0:0:0:0:
320,192,257220,128,4,257427:3:0:0:0:
448,192,257220,128,0,257531:0:0:0:0:
192,192,257427,128,0,257531:0:0:0:0:
320,192,257531,128,0,257738:0:0:0:0:
64,192,257531,128,0,257738:0:0:0:0:
192,192,257738,128,0,257945:0:0:0:0:
448,192,257738,128,0,257945:0:0:0:0:
320,192,257945,128,0,258151:0:0:0:0:
64,192,258048,128,4,258151:3:0:0:0:
448,192,258048,128,0,258255:0:0:0:0:
192,192,258151,128,0,258255:0:0:0:0:
320,192,258255,128,0,258358:0:0:0:0:
64,192,258255,128,0,258462:0:0:0:0:
448,192,258358,128,0,258462:0:0:0:0:
192,192,258462,128,4,258565:3:0:0:0:
320,192,258462,128,0,258669:0:0:0:0:
64,192,258565,128,0,258669:0:0:0:0:
192,192,258669,128,0,258876:0:0:0:0:
64,192,258876,128,4,259083:3:0:0:0:
448,192,258876,128,0,259083:0:0:0:0:
320,192,258876,1,0,0:0:0:0:
320,192,259083,128,0,259289:0:0:0:0:
192,192,259186,128,0,259289:0:0:0:0:
64,192,259289,1,4,3:0:0:0:
448,192,259289,1,0,0:0:0:0:
448,192,259393,1,0,0:0:0:0:
448,192,259496,1,0,0:0:0:0:
448,192,259600,1,0,0:0:0:0:
192,192,259703,1,4,3:0:0:0:
64,192,259703,1,0,0:0:0:0:
320,192,259807,1,0,0:0:0:0:
192,192,259858,1,0,0:0:0:0:
64,192,259910,1,8,2:0:0:0:
448,192,259910,1,0,0:0:0:0:
320,192,260014,1,0,0:0:0:0:
192,192,260117,1,8,2:0:0:0:
64,192,260117,1,0,0:0:0:0:
320,192,260169,1,8,2:0:0:0:
448,192,260169,1,0,0:0:0:0:
192,192,260220,1,8,2:0:0:0:
64,192,260220,1,0,0:0:0:0:
320,192,260324,1,8,2:0:0:0:
448,192,260324,1,0,0:0:0:0:
64,192,260427,1,0,0:0:0:0:
64,192,260531,1,8,2:0:0:0:
192,192,260531,1,4,3:0:0:0:
320,192,260531,1,2,2:0:0:0:
448,192,260531,1,2,3:0:0:0:
320,192,260634,1,0,0:0:0:0:
192,192,260738,1,8,2:0:0:0:
64,192,260738,1,0,0:0:0:0:
448,192,260841,1,8,2:0:0:0:
320,192,260841,1,0,0:0:0:0:
192,192,260945,1,4,3:0:0:0:
64,192,260945,1,2,2:0:0:0:
448,192,260945,1,0,0:0:0:0:
320,192,261048,1,0,0:0:0:0:
448,192,261151,1,8,2:0:0:0:
192,192,261151,1,0,0:0:0:0:
64,192,261255,1,8,2:0:0:0:
320,192,261255,1,0,0:0:0:0:
192,192,261358,1,4,3:0:0:0:
320,192,261358,1,2,2:0:0:0:
448,192,261358,1,0,0:0:0:0:
64,192,261462,1,8,2:0:0:0:
448,192,261462,1,0,0:0:0:0:
192,192,261565,1,0,0:0:0:0:
320,192,261669,1,0,0:0:0:0:
192,192,261772,1,4,3:0:0:0:
448,192,261772,1,2,2:0:0:0:
64,192,261772,1,0,0:0:0:0:
320,192,261876,1,8,2:0:0:0:
448,192,261876,1,0,0:0:0:0:
192,192,261979,1,8,2:0:0:0:
64,192,261979,1,0,0:0:0:0:
320,192,262083,1,0,0:0:0:0:
192,192,262186,1,4,3:0:0:0:
64,192,262186,1,2,2:0:0:0:
448,192,262186,1,0,0:0:0:0:
320,192,262289,1,0,0:0:0:0:
448,192,262393,1,8,2:0:0:0:
64,192,262393,1,0,0:0:0:0:
192,192,262496,1,0,0:0:0:0:
64,192,262600,1,4,3:0:0:0:
448,192,262600,1,2,2:0:0:0:
192,192,262600,1,0,0:0:0:0:
320,192,262703,1,8,2:0:0:0:
448,192,262703,1,0,0:0:0:0:
192,192,262807,1,8,2:0:0:0:
64,192,262807,1,0,0:0:0:0:
64,192,262910,1,8,2:0:0:0:
448,192,262910,1,0,0:0:0:0:
448,192,263014,1,4,3:0:0:0:
192,192,263014,1,2,2:0:0:0:
320,192,263014,1,0,0:0:0:0:
64,192,263117,1,8,2:0:0:0:
320,192,263117,1,0,0:0:0:0:
192,192,263220,1,0,0:0:0:0:
320,192,263324,1,8,2:0:0:0:
448,192,263324,1,0,0:0:0:0:
64,192,263427,1,4,3:0:0:0:
192,192,263427,1,2,2:0:0:0:
320,192,263427,1,0,0:0:0:0:
64,192,263531,1,0,0:0:0:0:
192,192,263634,1,8,2:0:0:0:
448,192,263634,1,0,0:0:0:0:
192,192,263738,1,8,2:0:0:0:
64,192,263738,1,0,0:0:0:0:
320,192,263841,1,4,3:0:0:0:
448,192,263841,1,2,2:0:0:0:
64,192,263841,1,0,0:0:0:0:
192,192,263945,1,0,0:0:0:0:
448,192,264048,1,8,2:0:0:0:
64,192,264048,1,0,0:0:0:0:
320,192,264151,1,8,2:0:0:0:
192,192,264151,1,0,0:0:0:0:
64,192,264255,1,4,3:0:0:0:
192,192,264255,1,2,2:0:0:0:
448,192,264255,1,0,0:0:0:0:
448,192,264358,1,8,2:0:0:0:
64,192,264358,1,0,0:0:0:0:
192,192,264462,1,0,0:0:0:0:
320,192,264565,1,8,2:0:0:0:
448,192,264565,1,0,0:0:0:0:
64,192,264669,1,4,3:0:0:0:
192,192,264669,1,2,2:0:0:0:
448,192,264669,1,0,0:0:0:0:
320,192,264772,1,8,2:0:0:0:
192,192,264772,1,0,0:0:0:0:
448,192,264876,1,8,2:0:0:0:
64,192,264876,1,0,0:0:0:0:
192,192,264979,1,8,2:0:0:0:
320,192,264979,1,0,0:0:0:0:
448,192,265083,1,4,3:0:0:0:
320,192,265083,1,2,2:0:0:0:
64,192,265083,1,0,0:0:0:0:
64,192,265186,1,8,2:0:0:0:
448,192,265186,1,0,0:0:0:0:
320,192,265289,1,8,2:0:0:0:
192,192,265289,1,0,0:0:0:0:
448,192,265393,1,0,0:0:0:0:
320,192,265496,1,4,3:0:0:0:
192,192,265496,1,2,2:0:0:0:
64,192,265496,1,0,0:0:0:0:
192,192,265600,1,8,2:0:0:0:
448,192,265600,1,0,0:0:0:0:
320,192,265703,1,8,2:0:0:0:
64,192,265703,1,0,0:0:0:0:
192,192,265807,1,8,2:0:0:0:
448,192,265807,1,0,0:0:0:0:
448,192,265910,1,4,3:0:0:0:
320,192,265910,1,2,2:0:0:0:
64,192,265910,1,0,0:0:0:0:
192,192,266014,1,8,2:0:0:0:
320,192,266014,1,0,0:0:0:0:
448,192,266117,1,8,2:0:0:0:
64,192,266117,1,0,0:0:0:0:
192,192,266220,1,8,2:0:0:0:
320,192,266220,1,0,0:0:0:0:
64,192,266324,1,4,3:0:0:0:
192,192,266324,1,2,2:0:0:0:
448,192,266324,1,0,0:0:0:0:
320,192,266427,1,8,2:0:0:0:
64,192,266427,1,0,0:0:0:0:
192,192,266531,1,8,2:0:0:0:
448,192,266531,1,0,0:0:0:0:
320,192,266634,1,8,2:0:0:0:
64,192,266634,1,0,0:0:0:0:
192,192,266738,1,4,3:0:0:0:
448,192,266738,1,2,2:0:0:0:
320,192,266738,1,0,0:0:0:0:
448,192,266841,1,0,0:0:0:0:
320,192,266945,1,2,2:0:0:0:
192,192,266945,1,8,2:0:0:0:
64,192,266945,1,0,0:0:0:0:
448,192,267048,1,8,2:0:0:0:
320,192,267048,1,0,0:0:0:0:
448,192,267151,1,4,3:0:0:0:
192,192,267151,1,2,2:0:0:0:
64,192,267151,1,0,0:0:0:0:
192,192,267255,1,0,0:0:0:0:
64,192,267358,1,8,2:0:0:0:
448,192,267358,1,0,0:0:0:0:
320,192,267462,1,8,2:0:0:0:
192,192,267462,1,0,0:0:0:0:
192,192,267565,1,4,3:0:0:0:
64,192,267565,1,2,2:0:0:0:
448,192,267565,1,0,0:0:0:0:
64,192,267669,1,8,2:0:0:0:
320,192,267669,1,0,0:0:0:0:
320,192,267772,1,8,2:0:0:0:
448,192,267772,1,0,0:0:0:0:
192,192,267876,1,8,2:0:0:0:
64,192,267876,1,0,0:0:0:0:
64,192,267979,1,4,3:0:0:0:
320,192,267979,1,2,2:0:0:0:
448,192,267979,1,0,0:0:0:0:
192,192,268083,1,8,2:0:0:0:
448,192,268083,1,0,0:0:0:0:
320,192,268186,1,0,0:0:0:0:
64,192,268289,1,0,0:0:0:0:
320,192,268393,1,4,3:0:0:0:
448,192,268393,1,2,2:0:0:0:
192,192,268393,1,0,0:0:0:0:
320,192,268496,1,8,2:0:0:0:
448,192,268496,1,0,0:0:0:0:
192,192,268600,1,8,2:0:0:0:
64,192,268600,1,0,0:0:0:0:
320,192,268703,1,0,0:0:0:0:
448,192,268807,1,4,3:0:0:0:
192,192,268807,1,2,2:0:0:0:
64,192,268807,1,0,0:0:0:0:
320,192,268910,1,0,0:0:0:0:
64,192,269014,1,8,2:0:0:0:
448,192,269014,1,0,0:0:0:0:
192,192,269117,1,0,0:0:0:0:
320,192,269220,1,4,3:0:0:0:
448,192,269220,1,2,2:0:0:0:
64,192,269220,1,0,0:0:0:0:
320,192,269324,1,8,2:0:0:0:
448,192,269324,1,0,0:0:0:0:
192,192,269427,1,8,2:0:0:0:
64,192,269427,1,0,0:0:0:0:
64,192,269531,1,8,2:0:0:0:
448,192,269531,1,0,0:0:0:0:
320,192,269634,1,4,3:0:0:0:
192,192,269634,1,2,2:0:0:0:
448,192,269634,1,0,0:0:0:0:
64,192,269738,1,8,2:0:0:0:
320,192,269738,1,0,0:0:0:0:
192,192,269841,1,0,0:0:0:0:
320,192,269945,1,8,2:0:0:0:
448,192,269945,1,0,0:0:0:0:
192,192,270048,1,4,3:0:0:0:
64,192,270048,1,2,2:0:0:0:
448,192,270048,1,0,0:0:0:0:
64,192,270151,1,0,0:0:0:0:
192,192,270255,1,8,2:0:0:0:
320,192,270255,1,0,0:0:0:0:
448,192,270358,1,8,2:0:0:0:
64,192,270358,1,0,0:0:0:0:
192,192,270462,1,4,3:0:0:0:
64,192,270462,1,2,2:0:0:0:
320,192,270462,1,0,0:0:0:0:
448,192,270565,1,0,0:0:0:0:
320,192,270669,1,8,2:0:0:0:
192,192,270669,1,0,0:0:0:0:
64,192,270772,1,8,2:0:0:0:
192,192,270772,1,0,0:0:0:0:
448,192,270876,1,4,3:0:0:0:
320,192,270876,1,2,2:0:0:0:
64,192,270876,1,0,0:0:0:0:
192,192,270979,1,8,2:0:0:0:
448,192,270979,1,0,0:0:0:0:
320,192,271083,1,0,0:0:0:0:
448,192,271186,1,8,2:0:0:0:
64,192,271186,1,0,0:0:0:0:
192,192,271289,1,4,3:0:0:0:
64,192,271289,1,2,2:0:0:0:
320,192,271289,1,0,0:0:0:0:
448,192,271393,1,8,2:0:0:0:
192,192,271393,1,0,0:0:0:0:
320,192,271496,1,8,2:0:0:0:
448,192,271496,1,0,0:0:0:0:
192,192,271600,1,8,2:0:0:0:
64,192,271600,1,0,0:0:0:0:
64,192,271703,1,4,3:0:0:0:
448,192,271703,1,2,2:0:0:0:
320,192,271703,1,0,0:0:0:0:
448,192,271807,1,8,2:0:0:0:
192,192,271807,1,0,0:0:0:0:
64,192,271910,1,8,2:0:0:0:
320,192,271910,1,0,0:0:0:0:
192,192,272014,1,0,0:0:0:0:
448,192,272117,1,4,3:0:0:0:
64,192,272117,1,2,2:0:0:0:
320,192,272117,1,0,0:0:0:0:
320,192,272324,1,8,2:0:0:0:
448,192,272324,1,0,0:0:0:0:
192,192,272427,1,8,2:0:0:0:
64,192,272427,1,0,0:0:0:0:
320,192,272531,1,4,3:0:0:0:
64,192,272531,1,2,2:0:0:0:
448,192,272531,1,0,0:0:0:0:
192,192,272634,1,8,2:0:0:0:
448,192,272634,1,0,0:0:0:0:
320,192,272738,1,8,2:0:0:0:
64,192,272738,1,0,0:0:0:0:
64,192,272841,1,8,2:0:0:0:
192,192,272841,1,0,0:0:0:0:
320,192,272945,1,4,3:0:0:0:
448,192,272945,1,2,2:0:0:0:
192,192,272945,1,0,0:0:0:0:
64,192,273048,1,8,2:0:0:0:
320,192,273048,1,0,0:0:0:0:
192,192,273151,1,8,2:0:0:0:
64,192,273151,1,0,0:0:0:0:
320,192,273255,1,8,2:0:0:0:
448,192,273255,1,0,0:0:0:0:
64,192,273358,1,4,3:0:0:0:
192,192,273358,1,2,2:0:0:0:
448,192,273358,1,0,0:0:0:0:
192,192,273462,1,8,2:0:0:0:
64,192,273462,1,0,0:0:0:0:
64,192,273565,1,4,3:0:0:0:
320,192,273565,1,0,0:0:0:0:
448,192,273565,1,0,0:0:0:0:
320,192,273669,1,8,2:0:0:0:
448,192,273669,1,0,0:0:0:0:
64,192,273772,1,4,3:0:0:0:
192,192,273772,1,2,2:0:0:0:
448,192,273772,1,0,0:0:0:0:
320,192,273876,1,0,0:0:0:0:
64,192,273979,1,8,2:0:0:0:
192,192,273979,1,0,0:0:0:0:
64,192,274083,1,0,0:0:0:0:
448,192,274083,1,0,0:0:0:0:
448,192,274186,1,4,3:0:0:0:
320,192,274186,1,2,2:0:0:0:
192,192,274186,1,0,0:0:0:0:
192,192,274289,1,0,0:0:0:0:
64,192,274393,128,8,274496:2:0:0:0:
448,192,274393,128,0,274600:0:0:0:0:
320,192,274496,128,0,274703:0:0:0:0:
192,192,274600,128,4,274807:3:0:0:0:
64,192,274600,128,0,274703:0:0:0:0:
448,192,274703,128,0,274910:0:0:0:0:
320,192,274807,128,0,275014:0:0:0:0:
64,192,274807,128,0,274910:0:0:0:0:
192,192,274910,128,0,275117:0:0:0:0:
64,192,275014,128,4,275220:3:0:0:0:
448,192,275014,128,0,275117:0:0:0:0:
320,192,275117,128,0,275220:0:0:0:0:
192,192,275220,128,0,275324:0:0:0:0:
64,192,275324,128,0,275427:0:0:0:0:
192,192,275427,1,4,3:0:0:0:
320,192,275427,1,2,2:0:0:0:
448,192,275427,1,0,0:0:0:0:
64,192,275531,1,8,2:0:0:0:
192,192,275531,1,0,0:0:0:0:
448,192,275634,1,8,2:0:0:0:
320,192,275634,1,0,0:0:0:0:
448,192,275738,1,8,2:0:0:0:
64,192,275738,1,0,0:0:0:0:
64,192,275841,1,4,3:0:0:0:
192,192,275841,1,2,2:0:0:0:
320,192,275841,1,0,0:0:0:0:
320,192,275945,1,0,0:0:0:0:
64,192,276048,128,8,276151:2:0:0:0:
448,192,276048,128,0,276255:0:0:0:0:
192,192,276151,128,0,276358:0:0:0:0:
320,192,276255,128,4,276358:3:0:0:0:
64,192,276255,128,0,276462:0:0:0:0:
448,192,276358,128,0,276565:0:0:0:0:
192,192,276462,128,0,276565:0:0:0:0:
320,192,276462,128,0,276669:0:0:0:0:
64,192,276565,128,0,276772:0:0:0:0:
448,192,276669,128,4,276772:3:0:0:0:
192,192,276669,128,0,276876:0:0:0:0:
320,192,276772,128,0,276979:0:0:0:0:
448,192,276876,128,0,276979:0:0:0:0:
64,192,276876,128,0,276979:0:0:0:0:
192,192,276979,128,0,277083:0:0:0:0:
64,192,277083,1,4,3:0:0:0:
320,192,277083,128,2,277289:2:0:0:0:
448,192,277083,128,0,277289:0:0:0:0:
192,192,277289,128,8,277393:2:0:0:0:
64,192,277289,128,0,277393:0:0:0:0:
320,192,277393,128,8,277600:2:0:0:0:
448,192,277393,128,0,277600:0:0:0:0:
192,192,277600,128,8,277807:2:0:0:0:
64,192,277600,128,0,277807:0:0:0:0:
320,192,277807,128,8,277910:2:0:0:0:
448,192,277807,128,0,278014:0:0:0:0:
64,192,277910,128,4,278014:3:0:0:0:
192,192,277910,128,0,278117:0:0:0:0:
320,192,278014,128,0,278220:0:0:0:0:
448,192,278117,128,8,278324:2:0:0:0:
64,192,278117,1,0,0:0:0:0:
192,192,278220,1,0,0:0:0:0:
320,192,278324,1,4,3:0:0:0:
64,192,278324,128,0,278531:0:0:0:0:
192,192,278427,128,0,278634:0:0:0:0:
320,192,278531,128,0,278738:0:0:0:0:
64,192,278738,128,4,278841:3:0:0:0:
448,192,278738,128,0,279048:0:0:0:0:
192,192,278841,128,0,278945:0:0:0:0:
320,192,278945,128,8,279048:2:0:0:0:
64,192,278945,128,0,279255:0:0:0:0:
448,192,279151,128,4,279462:3:0:0:0:
192,192,279151,128,0,279255:0:0:0:0:
192,192,279358,128,8,279669:2:0:0:0:
320,192,279358,128,0,279462:0:0:0:0:
64,192,279565,128,4,279669:3:0:0:0:
448,192,279565,128,0,279876:0:0:0:0:
320,192,279772,128,8,279876:2:0:0:0:
64,192,279772,128,0,280083:0:0:0:0:
448,192,279979,128,4,280289:3:0:0:0:
192,192,279979,128,0,280083:0:0:0:0:
64,192,280186,128,8,280289:2:0:0:0:
320,192,280186,128,2,280289:2:0:0:0:
192,192,280186,128,0,280289:0:0:0:0:
448,192,280393,1,8,2:0:0:0:
192,192,280393,1,8,2:0:0:0:
64,192,280393,1,4,3:0:0:0:
320,192,280393,1,2,3:0:0:0:
192,192,280496,1,0,0:0:0:0:
320,192,280600,1,0,0:0:0:0:
448,192,280703,1,0,0:0:0:0:
320,192,280807,1,4,3:0:0:0:
448,192,280807,1,2,2:0:0:0:
64,192,280807,1,0,0:0:0:0:
192,192,280910,1,0,0:0:0:0:
320,192,281014,1,0,0:0:0:0:
64,192,281117,1,0,0:0:0:0:
320,192,281220,1,8,2:0:0:0:
448,192,281220,1,0,0:0:0:0:
192,192,281324,1,8,2:0:0:0:
64,192,281324,1,0,0:0:0:0:
320,192,281427,1,8,2:0:0:0:
448,192,281427,1,0,0:0:0:0:
192,192,281531,1,8,2:0:0:0:
64,192,281531,1,0,0:0:0:0:
320,192,281634,1,4,3:0:0:0:
448,192,281634,1,0,0:0:0:0:
192,192,281738,1,0,0:0:0:0:
320,192,281841,1,0,0:0:0:0:
448,192,281945,1,0,0:0:0:0:
320,192,282048,1,4,3:0:0:0:
192,192,282048,1,2,2:0:0:0:
64,192,282048,1,0,0:0:0:0:
448,192,282151,1,0,0:0:0:0:
320,192,282255,1,0,0:0:0:0:
192,192,282358,1,0,0:0:0:0:
64,192,282462,1,8,2:0:0:0:
448,192,282462,1,0,0:0:0:0:
320,192,282565,5,0,0:0:0:0:
192,192,282669,1,4,3:0:0:0:
64,192,282669,1,2,2:0:0:0:
448,192,282669,1,0,0:0:0:0:
320,192,283289,128,4,283393:3:0:0:0:
64,192,283289,128,2,283496:2:0:0:0:
448,192,283289,128,0,283703:0:0:0:0:
192,192,283393,128,8,283496:2:0:0:0:
320,192,283496,128,2,283703:2:0:0:0:
192,192,283703,1,4,3:0:0:0:
64,192,283703,1,2,2:0:0:0:
320,192,283807,1,0,0:0:0:0:
64,192,283910,1,0,0:0:0:0:
64,192,284014,1,0,0:0:0:0:
192,192,284117,1,4,3:0:0:0:
320,192,284117,1,2,2:0:0:0:
448,192,284117,1,0,0:0:0:0:
64,192,284220,1,0,0:0:0:0:
192,192,284324,128,0,284427:0:0:0:0:
320,192,284427,128,0,284531:0:0:0:0:
192,192,284531,1,4,3:0:0:0:
64,192,284531,1,2,2:0:0:0:
448,192,284531,1,0,0:0:0:0:
320,192,284634,1,0,0:0:0:0:
64,192,284738,128,0,284841:0:0:0:0:
192,192,284841,128,0,284945:0:0:0:0:
448,192,284945,1,4,3:0:0:0:
320,192,284945,1,2,2:0:0:0:
64,192,284945,1,0,0:0:0:0:
192,192,285048,1,0,0:0:0:0:
320,192,285151,128,0,285255:0:0:0:0:
64,192,285255,128,0,285358:0:0:0:0:
448,192,285358,1,4,3:0:0:0:
192,192,285358,1,2,2:0:0:0:
320,192,285358,1,0,0:0:0:0:
64,192,285462,1,0,0:0:0:0:
192,192,285565,128,0,285669:0:0:0:0:
448,192,285669,128,0,285772:0:0:0:0:
320,192,285772,1,4,3:0:0:0:
192,192,285772,1,2,2:0:0:0:
64,192,285772,1,0,0:0:0:0:
448,192,285876,1,0,0:0:0:0:
320,192,285979,128,0,286083:0:0:0:0:
192,192,286083,128,0,286186:0:0:0:0:
320,192,286186,1,4,3:0:0:0:
448,192,286186,1,2,2:0:0:0:
64,192,286186,1,0,0:0:0:0:
192,192,286289,1,0,0:0:0:0:
448,192,286393,1,8,2:0:0:0:
320,192,286393,1,0,0:0:0:0:
192,192,286496,1,8,2:0:0:0:
64,192,286496,1,0,0:0:0:0:
320,192,286600,1,8,2:0:0:0:
448,192,286600,1,0,0:0:0:0:
64,192,286703,1,0,0:0:0:0:
192,192,286807,1,8,2:0:0:0:
320,192,286807,1,0,0:0:0:0:
64,192,286910,1,8,2:0:0:0:
448,192,286910,1,0,0:0:0:0:
320,192,287014,1,4,3:0:0:0:
192,192,287014,1,2,2:0:0:0:
64,192,287014,1,0,0:0:0:0:
448,192,287117,1,0,0:0:0:0:
320,192,287220,128,0,287324:0:0:0:0:
64,192,287324,128,0,287427:0:0:0:0:
192,192,287427,1,4,3:0:0:0:
320,192,287427,1,2,2:0:0:0:
448,192,287427,1,0,0:0:0:0:
64,192,287531,1,0,0:0:0:0:
192,192,287634,128,0,287738:0:0:0:0:
448,192,287738,128,0,287841:0:0:0:0:
64,192,287841,1,4,3:0:0:0:
320,192,287841,1,2,2:0:0:0:
192,192,287841,1,0,0:0:0:0:
448,192,287945,1,0,0:0:0:0:
320,192,288048,128,0,288151:0:0:0:0:
192,192,288151,128,0,288255:0:0:0:0:
320,192,288255,1,4,3:0:0:0:
448,192,288255,1,2,2:0:0:0:
64,192,288255,1,0,0:0:0:0:
192,192,288358,1,0,0:0:0:0:
64,192,288462,128,0,288565:0:0:0:0:
320,192,288565,128,0,288669:0:0:0:0:
64,192,288669,1,4,3:0:0:0:
448,192,288669,1,2,2:0:0:0:
192,192,288669,128,0,288720:0:0:0:0:
320,192,288720,128,0,288772:0:0:0:0:
448,192,288772,128,0,288876:0:0:0:0:
64,192,288876,128,0,288979:0:0:0:0:
192,192,288979,128,0,289083:0:0:0:0:
64,192,289083,1,4,3:0:0:0:
448,192,289083,1,2,2:0:0:0:
320,192,289186,1,8,2:0:0:0:
192,192,289186,1,0,0:0:0:0:
64,192,289289,1,8,2:0:0:0:
448,192,289289,1,0,0:0:0:0:
320,192,289393,1,0,0:0:0:0:
64,192,289496,1,4,3:0:0:0:
192,192,289496,1,2,2:0:0:0:
448,192,289496,1,0,0:0:0:0:
320,192,289600,1,0,0:0:0:0:
64,192,289703,1,0,0:0:0:0:
448,192,289807,1,0,0:0:0:0:
320,192,289910,1,4,3:0:0:0:
192,192,289910,1,2,2:0:0:0:
64,192,289910,128,0,290014:0:0:0:0:
448,192,290014,128,0,290117:0:0:0:0:
320,192,290117,1,0,0:0:0:0:
192,192,290220,1,0,0:0:0:0:
448,192,290324,1,4,3:0:0:0:
320,192,290324,1,2,2:0:0:0:
64,192,290324,1,0,0:0:0:0:
192,192,290427,1,0,0:0:0:0:
320,192,290531,1,0,0:0:0:0:
320,192,290634,1,0,0:0:0:0:
448,192,290738,1,4,3:0:0:0:
192,192,290738,1,2,2:0:0:0:
64,192,290738,1,0,0:0:0:0:
320,192,290841,1,0,0:0:0:0:
192,192,290945,128,0,291048:0:0:0:0:
448,192,291048,128,0,291151:0:0:0:0:
192,192,291151,1,4,3:0:0:0:
64,192,291151,1,2,2:0:0:0:
320,192,291151,1,0,0:0:0:0:
448,192,291255,1,0,0:0:0:0:
320,192,291358,128,0,291462:0:0:0:0:
192,192,291462,128,0,291565:0:0:0:0:
320,192,291565,1,4,3:0:0:0:
64,192,291565,1,2,2:0:0:0:
448,192,291565,1,0,0:0:0:0:
192,192,291669,1,0,0:0:0:0:
320,192,291772,128,0,291876:0:0:0:0:
192,192,291979,128,4,292083:3:0:0:0:
64,192,291979,128,0,292083:0:0:0:0:
64,192,292134,128,8,292238:2:0:0:0:
192,192,292134,128,0,292238:0:0:0:0:
192,192,292289,128,8,292393:2:0:0:0:
64,192,292289,128,0,292393:0:0:0:0:
320,192,292393,128,4,292496:3:0:0:0:
448,192,292393,128,0,292496:0:0:0:0:
448,192,292548,128,8,292651:2:0:0:0:
320,192,292548,128,0,292651:0:0:0:0:
320,192,292703,128,8,292807:2:0:0:0:
448,192,292703,128,0,292807:0:0:0:0:
64,192,292807,128,4,292910:3:0:0:0:
192,192,292807,1,0,0:0:0:0:
448,192,292910,128,8,293014:2:0:0:0:
64,192,293014,128,8,293117:2:0:0:0:
448,192,293117,128,8,293220:2:0:0:0:
320,192,293220,128,4,293289:3:0:0:0:
192,192,293220,128,0,293289:0:0:0:0:
320,192,293358,128,8,293427:2:0:0:0:
192,192,293358,128,0,293427:0:0:0:0:
320,192,293496,128,8,293565:2:0:0:0:
192,192,293496,128,0,293565:0:0:0:0:
64,192,293634,1,4,3:0:0:0:
448,192,293634,1,2,2:0:0:0:
192,192,293634,1,0,0:0:0:0:
320,192,293738,1,0,0:0:0:0:
64,192,293841,128,0,293945:0:0:0:0:
192,192,293945,128,0,294048:0:0:0:0:
320,192,294048,1,4,3:0:0:0:
64,192,294048,1,2,2:0:0:0:
448,192,294048,1,0,0:0:0:0:
192,192,294151,1,0,0:0:0:0:
448,192,294255,128,0,294358:0:0:0:0:
64,192,294358,128,0,294462:0:0:0:0:
192,192,294462,1,4,3:0:0:0:
448,192,294462,1,2,2:0:0:0:
320,192,294462,1,0,0:0:0:0:
64,192,294565,1,0,0:0:0:0:
320,192,294669,128,0,294772:0:0:0:0:
192,192,294772,128,0,294876:0:0:0:0:
320,192,294876,1,4,3:0:0:0:
448,192,294876,1,2,2:0:0:0:
64,192,294876,1,0,0:0:0:0:
192,192,294979,1,0,0:0:0:0:
64,192,295083,128,0,295186:0:0:0:0:
320,192,295186,128,0,295289:0:0:0:0:
448,192,295289,1,4,3:0:0:0:
64,192,295289,1,2,2:0:0:0:
192,192,295289,1,0,0:0:0:0:
192,192,295496,1,8,2:0:0:0:
320,192,295496,1,0,0:0:0:0:
192,192,295600,1,4,3:0:0:0:
64,192,295600,1,2,2:0:0:0:
448,192,295600,1,0,0:0:0:0:
448,192,295807,1,4,3:0:0:0:
320,192,295807,1,2,2:0:0:0:
64,192,295807,1,0,0:0:0:0:
64,192,296117,1,4,3:0:0:0:
192,192,296117,1,2,2:0:0:0:
320,192,296117,1,0,0:0:0:0:
192,192,296324,1,8,2:0:0:0:
64,192,296324,1,0,0:0:0:0:
320,192,296427,1,0,0:0:0:0:
448,192,296531,1,8,2:0:0:0:
64,192,296531,1,0,0:0:0:0:
448,192,296634,1,0,0:0:0:0:
192,192,296738,1,8,2:0:0:0:
320,192,296738,1,0,0:0:0:0:
192,192,296841,1,0,0:0:0:0:
64,192,296945,1,4,3:0:0:0:
320,192,296945,1,2,2:0:0:0:
448,192,296945,1,0,0:0:0:0:
192,192,297048,1,0,0:0:0:0:
448,192,297151,128,0,297255:0:0:0:0:
320,192,297255,128,0,297358:0:0:0:0:
64,192,297358,1,4,3:0:0:0:
448,192,297358,1,2,2:0:0:0:
192,192,297358,1,0,0:0:0:0:
320,192,297462,1,0,0:0:0:0:
192,192,297565,128,0,297669:0:0:0:0:
448,192,297669,128,0,297772:0:0:0:0:
64,192,297772,1,4,3:0:0:0:
192,192,297772,1,2,2:0:0:0:
320,192,297772,1,0,0:0:0:0:
448,192,297876,1,0,0:0:0:0:
64,192,297979,128,0,298031:0:0:0:0:
192,192,298031,128,0,298083:0:0:0:0:
320,192,298083,128,0,298134:0:0:0:0:
448,192,298134,128,0,298186:0:0:0:0:
192,192,298186,1,4,3:0:0:0:
64,192,298186,1,2,2:0:0:0:
320,192,298186,1,0,0:0:0:0:
448,192,298289,1,0,0:0:0:0:
192,192,298393,128,0,298496:0:0:0:0:
64,192,298496,128,0,298600:0:0:0:0:
320,192,298600,1,4,3:0:0:0:
448,192,298600,1,2,2:0:0:0:
192,192,298600,1,0,0:0:0:0:
64,192,298703,1,0,0:0:0:0:
448,192,298807,128,0,298910:0:0:0:0:
64,192,298910,128,0,299014:0:0:0:0:
192,192,299014,1,4,3:0:0:0:
320,192,299014,1,2,2:0:0:0:
448,192,299014,1,0,0:0:0:0:
64,192,299117,1,0,0:0:0:0:
448,192,299220,128,0,299324:0:0:0:0:
192,192,299324,128,0,299427:0:0:0:0:
64,192,299427,1,4,3:0:0:0:
320,192,299427,1,2,2:0:0:0:
448,192,299427,1,0,0:0:0:0:
192,192,299531,1,0,0:0:0:0:
320,192,299634,1,0,0:0:0:0:
320,192,299738,1,0,0:0:0:0:
192,192,299841,1,4,3:0:0:0:
64,192,299841,1,2,2:0:0:0:
448,192,299841,1,0,0:0:0:0:
320,192,299945,1,0,0:0:0:0:
192,192,300048,1,0,0:0:0:0:
192,192,300151,1,0,0:0:0:0:
448,192,300255,1,4,3:0:0:0:
320,192,300255,1,2,2:0:0:0:
64,192,300255,1,0,0:0:0:0:
64,192,300462,128,0,300669:0:0:0:0:
448,192,300565,1,0,0:0:0:0:
320,192,300669,1,4,3:0:0:0:
192,192,300669,1,0,0:0:0:0:
192,192,300876,128,0,301083:0:0:0:0:
448,192,300979,1,0,0:0:0:0:
320,192,301083,1,4,3:0:0:0:
64,192,301083,1,0,0:0:0:0:
448,192,301289,128,0,301341:0:0:0:0:
320,192,301341,128,0,301393:0:0:0:0:
192,192,301393,128,0,301445:0:0:0:0:
64,192,301445,128,0,301496:0:0:0:0:
320,192,301496,1,4,3:0:0:0:
448,192,301496,1,0,0:0:0:0:
448,192,301703,128,0,301910:0:0:0:0:
64,192,301807,1,0,0:0:0:0:
192,192,301910,1,4,3:0:0:0:
320,192,301910,1,0,0:0:0:0:
448,192,302117,1,0,0:0:0:0:
320,192,302220,1,0,0:0:0:0:
192,192,302324,1,4,3:0:0:0:
64,192,302324,1,0,0:0:0:0:
320,192,302427,1,0,0:0:0:0:
448,192,302531,1,0,0:0:0:0:
192,192,302634,1,0,0:0:0:0:
64,192,302738,1,4,3:0:0:0:
320,192,302738,1,0,0:0:0:0:
448,192,302945,1,0,0:0:0:0:
320,192,303048,1,0,0:0:0:0:
192,192,303151,1,4,3:0:0:0:
64,192,303151,1,0,0:0:0:0:
320,192,303255,1,0,0:0:0:0:
448,192,303358,1,0,0:0:0:0:
320,192,303462,1,0,0:0:0:0:
192,192,303565,1,4,3:0:0:0:
64,192,303565,1,2,2:0:0:0:
448,192,303565,1,0,0:0:0:0:
320,192,303772,1,8,2:0:0:0:
448,192,303772,1,0,0:0:0:0:
192,192,303876,1,0,0:0:0:0:
64,192,303979,1,8,2:0:0:0:
448,192,303979,1,0,0:0:0:0:
64,192,304186,1,8,2:0:0:0:
192,192,304186,1,0,0:0:0:0:
320,192,304289,1,0,0:0:0:0:
192,192,304393,1,8,2:0:0:0:
448,192,304393,1,0,0:0:0:0:
320,192,304600,128,8,304703:2:0:0:0:
64,192,304600,128,0,304703:0:0:0:0:
192,192,304807,128,8,304910:2:0:0:0:
320,192,304807,128,0,304910:0:0:0:0:
448,192,305014,1,8,2:0:0:0:
64,192,305014,1,0,0:0:0:0:
192,192,305220,1,8,2:0:0:0:
448,192,305220,128,0,305324:0:0:0:0:
320,192,305376,128,0,305479:0:0:0:0:
64,192,305531,128,0,305634:0:0:0:0:
320,192,305634,128,8,305738:2:0:0:0:
192,192,305634,128,0,305738:0:0:0:0:
64,192,305789,128,0,305893:0:0:0:0:
448,192,305841,1,0,0:0:0:0:
192,192,305945,128,0,306048:0:0:0:0:
64,192,306048,1,8,2:0:0:0:
320,192,306048,1,0,0:0:0:0:
320,192,306255,1,8,2:0:0:0:
448,192,306255,128,0,306358:0:0:0:0:
192,192,306462,1,8,2:0:0:0:
320,192,306462,1,0,0:0:0:0:
64,192,306669,128,8,306772:2:0:0:0:
192,192,306669,1,0,0:0:0:0:
192,192,306876,1,0,0:0:0:0:
192,192,306979,1,0,0:0:0:0:
320,192,307083,1,0,0:0:0:0:
320,192,307186,1,0,0:0:0:0:
448,192,307289,128,0,307341:0:0:0:0:
320,192,307341,128,0,307393:0:0:0:0:
64,192,307393,128,0,307445:0:0:0:0:
192,192,307445,128,0,307496:0:0:0:0:
320,192,307496,1,0,0:0:0:0:
320,192,307600,1,0,0:0:0:0:
64,192,307651,128,0,307703:0:0:0:0:
448,192,307703,1,0,0:0:0:0:
448,192,307807,1,0,0:0:0:0:
192,192,307910,1,0,0:0:0:0:
448,192,307962,128,0,308014:0:0:0:0:
192,192,308014,1,0,0:0:0:0:
320,192,308117,1,0,0:0:0:0:
320,192,308220,1,0,0:0:0:0:
448,192,308324,1,0,0:0:0:0:
448,192,308427,1,0,0:0:0:0:
64,192,308531,1,0,0:0:0:0:
64,192,308634,1,0,0:0:0:0:
320,192,308738,1,0,0:0:0:0:
320,192,308841,1,0,0:0:0:0:
64,192,308945,1,0,0:0:0:0:
64,192,309048,1,0,0:0:0:0:
448,192,309151,1,0,0:0:0:0:
448,192,309255,1,0,0:0:0:0:
192,192,309358,128,0,309462:0:0:0:0:
64,192,309358,128,0,310186:0:0:0:0:
448,192,309462,128,0,309565:0:0:0:0:
320,192,309565,128,0,309669:0:0:0:0:
192,192,309669,128,0,309772:0:0:0:0:
448,192,309772,1,0,0:0:0:0:
320,192,309876,1,0,0:0:0:0:
192,192,309979,1,0,0:0:0:0:
448,192,310083,1,0,0:0:0:0:
