osu file format v14

[General]
AudioFilename: audio.mp3
AudioLeadIn: 0
PreviewTime: 151139
Countdown: 0
SampleSet: Soft
StackLeniency: 0.4
Mode: 0
LetterboxInBreaks: 0
WidescreenStoryboard: 1

[Editor]
DistanceSpacing: 0.5
BeatDivisor: 4
GridSize: 16
TimelineZoom: 2.7

[Metadata]
Title:Day by day (PSYQUI Remix)
TitleUnicode:Day by day (PSYQUI Remix)
Artist:lapix
ArtistUnicode:lapix
Creator:JeZag
Version:MarcoBrolo's Insane
Source:
Tags:uk happy hardcore edm dubstep techcore evangelix 01 megarex marcobrolo electronic instrumental cubby axaptice
BeatmapID:3186407
BeatmapSetID:1318545

[Difficulty]
HPDrainRate:5
CircleSize:3.5
OverallDifficulty:8
ApproachRate:9.2
SliderMultiplier:2
SliderTickRate:1

[Events]
//Background and Video events
0,0,"67364521_p0.jpg",0,0
//Break Periods
2,118869,129393
//Storyboard Layer 0 (Background)
//Storyboard Layer 1 (Fail)
//Storyboard Layer 2 (Pass)
//Storyboard Layer 3 (Foreground)
//Storyboard Layer 4 (Overlay)
//Storyboard Sound Samples

[TimingPoints]
81,352.941176470588,4,2,1,50,1,0
81,-144.927536231884,4,2,1,50,0,0
4316,-71.4285714285714,4,2,1,50,0,0
4360,-71.4285714285714,4,2,1,5,0,0
4404,-71.4285714285714,4,2,1,10,0,0
4448,-71.4285714285714,4,2,1,15,0,0
4492,-71.4285714285714,4,2,1,20,0,0
4536,-71.4285714285714,4,2,1,25,0,0
4580,-71.4285714285714,4,2,1,30,0,0
4625,-71.4285714285714,4,2,1,35,0,0
4669,-71.4285714285714,4,2,1,40,0,0
4713,-71.4285714285714,4,2,1,45,0,0
4757,-71.4285714285714,4,2,1,50,0,0
4801,-71.4285714285714,4,2,1,55,0,0
4845,-71.4285714285714,4,2,1,60,0,0
4889,-71.4285714285714,4,2,1,65,0,0
4933,-71.4285714285714,4,2,1,70,0,0
4978,-71.4285714285714,4,2,1,75,0,0
5022,-71.4285714285714,4,2,1,80,0,0
5375,-100,4,2,1,50,0,0
8375,-125,4,2,1,50,0,0
11375,-125,4,2,1,70,0,0
21962,-125,4,2,1,70,0,0
22845,-83.3333333333333,4,2,1,70,0,0
22933,-83.3333333333333,4,2,1,5,0,0
23022,-83.3333333333333,4,2,1,70,0,0
23110,-83.3333333333333,4,2,1,5,0,0
23198,-83.3333333333334,4,2,1,70,0,0
23551,-83.3333333333333,4,2,1,70,0,0
23639,-83.3333333333333,4,2,1,5,0,0
23728,-83.3333333333333,4,2,1,70,0,0
23816,-83.3333333333333,4,2,1,5,0,0
23904,-83.3333333333333,4,2,1,70,0,0
23992,-83.3333333333333,4,2,1,5,0,0
24080,-83.3333333333333,4,2,1,70,0,0
24345,-83.3333333333333,4,2,1,5,0,0
24434,-83.3333333333333,4,2,1,70,0,0
24522,-83.3333333333333,4,2,1,5,0,0
24610,-83.3333333333334,4,2,1,70,0,0
24963,-83.3333333333333,4,2,1,70,0,0
25051,-83.3333333333333,4,2,1,5,0,0
25139,-83.3333333333333,4,2,1,70,0,0
25227,-83.3333333333333,4,2,1,5,0,0
25316,-83.3333333333333,4,2,1,70,0,0
25404,-83.3333333333333,4,2,1,5,0,0
25492,-83.3333333333333,4,2,1,70,0,0
25757,-83.3333333333333,4,2,1,5,0,0
25846,-83.3333333333333,4,2,1,70,0,0
25934,-83.3333333333333,4,2,1,5,0,0
26022,-83.3333333333334,4,2,1,70,0,0
26375,-83.3333333333333,4,2,1,70,0,0
26463,-83.3333333333333,4,2,1,5,0,0
26551,-83.3333333333333,4,2,1,70,0,0
26639,-83.3333333333333,4,2,1,5,0,0
26728,-83.3333333333333,4,2,1,70,0,0
26816,-83.3333333333333,4,2,1,5,0,0
26904,-83.3333333333333,4,2,1,70,0,0
27168,-83.3333333333333,4,2,1,5,0,0
27257,-83.3333333333333,4,2,1,70,0,0
27345,-83.3333333333333,4,2,1,5,0,0
27433,-83.3333333333334,4,2,1,70,0,0
27786,-83.3333333333333,4,2,1,70,0,0
27874,-83.3333333333333,4,2,1,5,0,0
27963,-83.3333333333333,4,2,1,70,0,0
28051,-83.3333333333333,4,2,1,5,0,0
28139,-83.3333333333333,4,2,1,70,0,0
28227,-83.3333333333333,4,2,1,5,0,0
28316,-83.3333333333333,4,2,1,70,0,0
28580,-83.3333333333333,4,2,1,5,0,0
28669,-83.3333333333333,4,2,1,70,0,0
28757,-83.3333333333333,4,2,1,5,0,0
28845,-83.3333333333334,4,2,1,70,0,0
29198,-83.3333333333333,4,2,1,70,0,0
29286,-83.3333333333333,4,2,1,5,0,0
29374,-83.3333333333333,4,2,1,70,0,0
29462,-83.3333333333333,4,2,1,5,0,0
29551,-83.3333333333333,4,2,1,70,0,0
29639,-83.3333333333333,4,2,1,5,0,0
29728,-83.3333333333333,4,2,1,70,0,0
29992,-83.3333333333333,4,2,1,5,0,0
30081,-83.3333333333333,4,2,1,70,0,0
30169,-83.3333333333333,4,2,1,5,0,0
30257,-83.3333333333334,4,2,1,70,0,0
30610,-83.3333333333333,4,2,1,70,0,0
30698,-83.3333333333333,4,2,1,5,0,0
30786,-83.3333333333333,4,2,1,70,0,0
30874,-83.3333333333333,4,2,1,5,0,0
30963,-83.3333333333333,4,2,1,70,0,0
31051,-83.3333333333333,4,2,1,5,0,0
31139,-83.3333333333333,4,2,1,70,0,0
31404,-83.3333333333333,4,2,1,5,0,0
31493,-83.3333333333333,4,2,1,70,0,0
31581,-83.3333333333333,4,2,1,5,0,0
31669,-83.3333333333334,4,2,1,70,0,0
32022,-83.3333333333333,4,2,1,70,0,0
32110,-83.3333333333333,4,2,1,5,0,0
32198,-83.3333333333333,4,2,1,70,0,0
32286,-83.3333333333333,4,2,1,5,0,0
32375,-83.3333333333333,4,2,1,70,0,0
32463,-83.3333333333333,4,2,1,5,0,0
32551,-83.3333333333333,4,2,1,70,0,0
32728,-83.3333333333333,4,2,1,60,0,0
33786,-83.3333333333333,4,2,1,70,0,0
34227,-83.3333333333333,4,2,1,80,0,0
34316,-83.3333333333333,4,2,1,70,0,0
34404,-83.3333333333333,4,2,1,80,0,0
34492,-83.3333333333333,4,2,1,70,0,0
34580,-83.3333333333333,4,2,1,80,0,0
34669,-83.3333333333333,4,2,1,70,0,0
34933,-83.3333333333333,4,2,1,80,0,0
35022,-83.3333333333333,4,2,1,70,0,0
35110,-83.3333333333333,4,2,1,80,0,0
35198,-83.3333333333333,4,2,1,70,0,0
35286,-83.3333333333333,4,2,1,80,0,0
35374,-83.3333333333333,4,2,1,70,0,0
35639,-83.3333333333333,4,2,1,80,0,0
35728,-83.3333333333333,4,2,1,70,0,0
35816,-83.3333333333333,4,2,1,80,0,0
35904,-83.3333333333333,4,2,1,70,0,0
35992,-83.3333333333333,4,2,1,80,0,0
36080,-83.3333333333333,4,2,1,70,0,0
36345,-83.3333333333333,4,2,1,80,0,0
36433,-83.3333333333333,4,2,1,70,0,0
36521,-83.3333333333333,4,2,1,5,0,0
36610,-83.3333333333333,4,2,1,70,0,0
36698,-83.3333333333333,4,2,1,5,0,0
36786,-83.3333333333333,4,2,1,70,0,0
37051,-83.3333333333333,4,2,1,80,0,0
37140,-83.3333333333333,4,2,1,70,0,0
37228,-83.3333333333333,4,2,1,80,0,0
37316,-83.3333333333333,4,2,1,70,0,0
37404,-83.3333333333333,4,2,1,80,0,0
37492,-83.3333333333333,4,2,1,70,0,0
37757,-83.3333333333333,4,2,1,80,0,0
37845,-83.3333333333333,4,2,1,70,0,0
37933,-83.3333333333333,4,2,1,80,0,0
38022,-83.3333333333333,4,2,1,70,0,0
38110,-83.3333333333333,4,2,1,80,0,0
38198,-83.3333333333333,4,2,1,70,0,0
38462,-83.3333333333333,4,2,1,80,0,0
38551,-83.3333333333333,4,2,1,70,0,0
38639,-83.3333333333333,4,2,1,80,0,0
38727,-83.3333333333333,4,2,1,70,0,0
38815,-83.3333333333333,4,2,1,80,0,0
38904,-83.3333333333333,4,2,1,70,0,0
39168,-83.3333333333333,4,2,1,80,0,0
39257,-83.3333333333333,4,2,1,70,0,0
39345,-83.3333333333333,4,2,1,5,0,0
39433,-83.3333333333333,4,2,1,70,0,0
39521,-83.3333333333333,4,2,1,5,0,0
39610,-83.3333333333333,4,2,1,70,0,0
39874,-83.3333333333333,4,2,1,80,0,0
39963,-83.3333333333333,4,2,1,70,0,0
40051,-83.3333333333333,4,2,1,80,0,0
40139,-83.3333333333333,4,2,1,70,0,0
40227,-83.3333333333333,4,2,1,80,0,0
40316,-83.3333333333333,4,2,1,70,0,0
40580,-83.3333333333333,4,2,1,80,0,0
40668,-83.3333333333333,4,2,1,70,0,0
40756,-83.3333333333333,4,2,1,80,0,0
40845,-83.3333333333333,4,2,1,70,0,0
40933,-83.3333333333333,4,2,1,80,0,0
41022,-83.3333333333333,4,2,1,70,0,0
41286,-83.3333333333333,4,2,1,80,0,0
41375,-83.3333333333333,4,2,1,70,0,0
41463,-83.3333333333333,4,2,1,80,0,0
41551,-83.3333333333333,4,2,1,70,0,0
41639,-83.3333333333333,4,2,1,80,0,0
41727,-83.3333333333333,4,2,1,70,0,0
41992,-83.3333333333333,4,2,1,80,0,0
42080,-83.3333333333333,4,2,1,70,0,0
42168,-83.3333333333333,4,2,1,5,0,0
42257,-83.3333333333333,4,2,1,70,0,0
42345,-83.3333333333333,4,2,1,5,0,0
42433,-83.3333333333333,4,2,1,60,0,0
44198,-83.3333333333333,4,2,1,40,0,0
44286,-83.3333333333333,4,2,1,5,0,0
44375,-83.3333333333333,4,2,1,50,0,0
44463,-83.3333333333333,4,2,1,5,0,0
44551,-83.3333333333333,4,2,1,60,0,0
44595,-83.3333333333333,4,2,1,80,0,0
44639,-83.3333333333333,4,2,1,60,0,0
44683,-83.3333333333333,4,2,1,80,0,0
44727,-83.3333333333333,4,2,1,60,0,0
45256,-83.3333333333333,4,2,1,50,0,0
45433,-83.3333333333333,4,2,1,80,0,0
45786,-83.3333333333333,4,2,1,50,0,0
45963,-83.3333333333333,4,2,1,80,0,0
46316,-83.3333333333333,4,2,1,50,0,0
48787,-83.3333333333333,4,2,1,80,0,0
49139,-83.3333333333333,4,2,1,50,0,0
50728,-83.3333333333333,4,2,1,80,0,0
50904,-83.3333333333333,4,2,1,50,0,0
51609,-83.3333333333333,4,2,1,80,0,0
51963,-83.3333333333333,4,2,1,50,0,0
54433,-83.3333333333333,4,2,1,80,0,0
54786,-83.3333333333333,4,2,1,50,0,0
55669,-166.666666666667,4,2,1,50,0,0
56110,-166.666666666667,4,2,1,30,0,0
56198,-166.666666666667,4,2,1,80,0,0
56462,-166.666666666667,4,2,1,5,0,0
56551,-100,4,2,1,60,0,0
56727,-100,4,2,1,80,0,0
56904,-100,4,2,1,60,0,0
57080,-100,4,2,1,80,0,0
57257,-100,4,2,1,60,0,0
57433,-100,4,2,1,80,0,0
57610,-100,4,2,1,60,0,0
57786,-100,4,2,1,80,0,0
57963,-100,4,2,1,60,0,0
58139,-100,4,2,1,80,0,0
58316,-100,4,2,1,60,0,0
58492,-100,4,2,1,80,0,0
58669,-100,4,2,1,60,0,0
58845,-100,4,2,1,80,0,0
59022,-100,4,2,1,60,0,0
59375,-125,4,2,1,60,0,0
59551,-125,4,2,1,80,0,0
59728,-125,4,2,1,60,0,0
59904,-125,4,2,1,80,0,0
60080,-142.857142857143,4,2,1,60,0,0
60256,-142.857142857143,4,2,1,80,0,0
60433,-142.857142857143,4,2,1,60,0,0
60609,-142.857142857143,4,2,1,80,0,0
60786,-166.666666666667,4,2,1,60,0,0
60962,-166.666666666667,4,2,1,80,0,0
61139,-166.666666666667,4,2,1,60,0,0
61315,-166.666666666667,4,2,1,80,0,0
61492,-166.666666666667,4,2,1,60,0,0
62198,-166.666666666667,4,2,1,70,0,0
66433,-166.666666666667,4,2,1,60,0,0
66786,-100,4,2,1,70,0,0
66874,-100,4,2,1,5,0,0
66963,-100,4,2,1,70,0,0
67051,-100,4,2,1,5,0,0
67139,-100,4,2,1,60,0,0
67316,-125,4,2,1,80,0,0
67492,-166.666666666667,4,2,1,60,0,0
67550,-166.666666666667,4,2,1,80,0,0
67845,-83.3333333333334,4,2,1,80,0,0
68022,-83.3333333333334,4,2,1,50,0,0
68728,-83.3333333333334,4,2,1,70,0,0
68772,-83.3333333333334,4,2,1,5,0,0
68904,-125,4,2,1,80,0,0
69168,-125,4,2,1,40,0,0
69433,-125,4,2,1,80,0,0
69609,-125,4,2,1,5,0,0
69875,-125,4,2,1,40,0,0
69919,-125,4,2,1,5,0,0
70139,-100,4,2,1,60,0,0
70315,-100,4,2,1,90,0,0
70404,-100,4,2,1,80,0,0
70492,-100,4,2,1,70,0,0
70580,-100,4,2,1,60,0,0
70669,-100,4,3,1,70,0,0
70757,-83.3333333333333,4,3,1,70,0,0
70933,-83.3333333333333,4,2,1,80,0,0
71022,-83.3333333333333,4,3,1,70,0,0
71110,-125,4,3,1,70,0,0
71463,-250,4,3,1,70,0,0
71728,-83.3333333333333,4,3,1,70,0,0
72257,-166.666666666667,4,3,1,70,0,0
72345,-166.666666666667,4,2,1,80,0,0
72433,-166.666666666667,4,3,1,70,0,0
72610,-83.3333333333333,4,3,1,70,0,0
73492,-125,4,3,1,70,0,0
74286,-250,4,3,1,70,0,0
74551,-83.3333333333333,4,3,1,70,0,0
75080,-166.666666666667,4,3,1,70,0,0
75168,-166.666666666667,4,2,1,80,0,0
75257,-83.3333333333334,4,3,1,70,0,0
76227,-83.3333333333334,4,3,1,5,0,0
76316,-83.3333333333334,4,3,1,70,0,0
76404,-55.5555555555556,4,3,1,70,0,0
76580,-55.5555555555556,4,2,1,80,0,0
76669,-55.5555555555556,4,3,1,70,0,0
76757,-125,4,3,1,70,0,0
77110,-250,4,3,1,70,0,0
77375,-83.3333333333333,4,3,1,70,0,0
77904,-166.666666666667,4,3,1,70,0,0
77992,-166.666666666667,4,2,1,80,0,0
78080,-166.666666666667,4,3,1,70,0,0
78257,-83.3333333333334,4,3,1,70,0,0
78875,-166.666666666667,4,3,1,70,0,0
79139,-125,4,3,1,70,0,0
79933,-250,4,3,1,70,0,0
80198,-83.3333333333333,4,3,1,70,0,0
80728,-166.666666666667,4,3,1,70,0,0
80816,-166.666666666667,4,2,1,80,0,0
80904,-166.666666666667,4,3,1,70,0,0
81610,-166.666666666667,4,2,1,90,0,0
82316,-166.666666666667,4,3,1,80,0,0
82404,-83.3333333333333,4,3,1,80,0,0
82757,-125,4,3,1,80,0,0
83198,-166.666666666667,4,3,1,80,0,0
83904,-83.3333333333334,4,3,1,80,0,0
84433,-125,4,3,1,80,0,0
84786,-71.4285714285714,4,3,1,80,0,0
85228,-100,4,3,1,80,0,0
85580,-125,4,3,1,80,0,0
86022,-166.666666666667,4,3,1,80,0,0
86551,-125,4,3,1,80,0,0
87080,-166.666666666667,4,3,1,80,0,0
87257,-71.4285714285714,4,3,1,80,0,0
87521,-71.4285714285714,4,3,1,5,0,0
87610,-71.4285714285714,4,3,1,80,0,0
87698,-55.5555555555556,4,3,1,80,0,0
88051,-71.4285714285714,4,3,1,80,0,0
88404,-100,4,3,1,80,0,0
88845,-166.666666666667,4,3,1,80,0,0
89551,-83.3333333333334,4,3,1,80,0,0
90169,-125,4,3,1,80,0,0
90433,-166.666666666667,4,3,1,80,0,0
90875,-100,4,3,1,80,0,0
91228,-125,4,3,1,80,0,0
91492,-100,4,3,1,80,0,0
92022,-166.666666666667,4,3,1,80,0,0
92375,-83.3333333333334,4,3,1,80,0,0
92551,-125,4,3,1,80,0,0
93786,-250,4,2,1,80,0,0
93875,-250,4,2,1,5,0,0
93963,-250,4,3,1,80,0,0
103845,-166.666666666667,4,2,1,80,0,0
104551,-50,4,3,1,80,0,0
104904,-250,4,3,1,80,0,0
105963,-200,4,3,1,80,0,0
107375,-166.666666666667,4,3,1,80,0,0
108786,-142.857142857143,4,3,1,80,0,0
110198,-50,4,3,1,80,0,0
110551,-125,4,3,1,80,0,0
111610,-111.111111111111,4,3,1,80,0,0
112845,-99.9999999999999,4,3,1,80,0,0
113021,-99.9999999999999,4,3,1,70,0,0
113374,-99.9999999999999,4,3,1,80,0,0
113551,-99.9999999999999,4,3,1,70,0,0
114080,-99.9999999999999,4,3,1,80,0,0
114257,-99.9999999999999,4,3,1,70,0,0
114433,-99.9999999999999,4,3,1,50,0,0
115845,-99.9999999999999,4,2,1,80,0,0
117257,-99.9999999999999,4,2,1,10,0,0
117433,-99.9999999999999,4,2,1,20,0,0
117786,-99.9999999999999,4,2,1,30,0,0
118139,-99.9999999999999,4,2,1,40,0,0
118316,-99.9999999999999,4,2,1,50,0,0
118404,-99.9999999999999,4,2,1,60,0,0
118492,-99.9999999999999,4,2,1,70,0,0
118536,-99.9999999999999,4,2,1,80,0,0
118580,-99.9999999999999,4,2,1,90,0,0
118625,-99.9999999999999,4,2,1,100,0,0
118669,-99.9999999999999,4,2,1,50,0,0
129963,-166.666666666667,4,2,1,60,0,0
140728,-166.666666666667,4,2,1,80,0,0
140904,-166.666666666667,4,2,1,60,0,0
141257,-125,4,2,1,70,0,0
141433,-125,4,2,1,80,0,0
141610,-125,4,2,1,70,0,0
141786,-125,4,2,1,80,0,0
141963,-125,4,2,1,70,0,0
142139,-125,4,2,1,80,0,0
142316,-125,4,2,1,70,0,0
142492,-125,4,2,1,80,0,0
142669,-125,4,2,1,70,0,0
142845,-125,4,2,1,80,0,0
143022,-125,4,2,1,70,0,0
143198,-125,4,2,1,80,0,0
143375,-125,4,2,1,70,0,0
143551,-125,4,2,1,80,0,0
143728,-125,4,2,1,70,0,0
144256,-125,4,2,1,80,0,0
144433,-125,4,2,1,70,0,0
144609,-125,4,2,1,80,0,0
144786,-125,4,2,1,70,0,0
144962,-125,4,2,1,80,0,0
145139,-125,4,2,1,70,0,0
145315,-125,4,2,1,80,0,0
145492,-125,4,2,1,70,0,0
145668,-125,4,2,1,80,0,0
145845,-125,4,2,1,70,0,0
146021,-125,4,2,1,80,0,0
146198,-125,4,2,1,70,0,0
148316,-125,4,2,1,80,0,0
152198,-250,4,2,1,60,0,0
152506,-250,4,2,1,80,0,0
152551,-166.666666666667,4,2,1,80,0,0
157845,-62.5,4,2,1,80,0,0
158198,-50,4,2,1,80,0,0
158728,-166.666666666667,4,2,1,80,0,0
161375,-62.5,4,2,1,80,0,0
161507,-62.5,4,2,1,5,0,0
161551,-62.5,4,2,1,80,0,0
161683,-62.5,4,2,1,5,0,0
161728,-62.5,4,2,1,80,0,0
161860,-62.5,4,2,1,5,0,0
161904,-62.5,4,2,1,80,0,0
162433,-83.3333333333333,4,2,1,80,0,0
163139,-125,4,2,1,80,0,0
164022,-166.666666666667,4,2,1,80,0,0
169139,-62.5,4,2,1,80,0,0
169492,-50,4,2,1,80,0,0
169845,-55.5555555555556,4,2,1,80,0,0
170375,-166.666666666667,4,2,1,80,0,0
172669,-62.5,4,2,1,80,0,0
172801,-62.5,4,2,1,5,0,0
172845,-62.5,4,2,1,80,0,0
172977,-62.5,4,2,1,5,0,0
173022,-62.5,4,2,1,80,0,0
173154,-62.5,4,2,1,5,0,0
173198,-62.5,4,2,1,80,0,0
173728,-100,4,2,1,70,0,0
174786,-100,4,2,1,40,0,0
175139,-125,4,2,1,50,0,0
175403,-125,4,2,1,5,0,0
175492,-125,4,2,1,50,0,0
175756,-125,4,2,1,5,0,0
175845,-125,4,2,1,50,0,0
176109,-125,4,2,1,5,0,0
176198,-125,4,2,1,50,0,0
176286,-125,4,2,1,80,0,0
176551,-125,4,2,1,60,0,0
177963,-100,4,2,1,70,0,0
179375,-83.3333333333333,4,2,1,80,0,0
180786,-71.4285714285714,4,2,1,90,0,0
180963,-83.3333333333333,4,2,1,90,0,0
181139,-71.4285714285714,4,2,1,90,0,0
181316,-83.3333333333333,4,2,1,90,0,0
181492,-71.4285714285714,4,2,1,90,0,0
181669,-83.3333333333333,4,2,1,90,0,0
181845,-71.4285714285714,4,2,1,90,0,0
182022,-83.3333333333333,4,2,1,90,0,0
182198,-71.4285714285714,4,2,1,90,0,0
182375,-83.3333333333333,4,2,1,90,0,0
182551,-71.4285714285714,4,2,1,90,0,0
182728,-83.3333333333333,4,2,1,90,0,0
182904,-71.4285714285714,4,2,1,90,0,0
183081,-83.3333333333333,4,2,1,90,0,0
183257,-71.4285714285714,4,2,1,90,0,0
183433,-83.3333333333333,4,2,1,90,0,0
185080,-83.3333333333333,4,2,1,80,0,0
185257,-83.3333333333333,4,2,1,40,0,0
185374,-83.3333333333333,4,2,1,50,0,0
185492,-83.3333333333333,4,2,1,60,0,0
185610,-83.3333333333333,4,2,1,70,0,0
185727,-83.3333333333333,4,2,1,80,0,0
185845,-83.3333333333333,4,2,1,90,0,0
186433,-62.5,4,2,1,95,0,1
188286,-62.5,4,2,1,80,0,1
188463,-62.5,4,2,1,95,0,1
191198,-62.5,4,2,1,80,0,1
191286,-62.5,4,2,1,95,0,1
201345,-62.5,4,2,1,80,0,1
201433,-62.5,4,2,1,95,0,1
203639,-62.5,4,2,1,80,0,1
203728,-62.5,4,2,1,95,0,1
206992,-62.5,4,2,1,80,0,1
207080,-62.5,4,2,1,95,0,1
207610,-62.5,4,2,1,90,0,0
207698,-62.5,4,2,1,80,0,0
207786,-62.5,4,2,1,90,0,0
207963,-62.5,4,2,1,80,0,0
208139,-62.5,4,2,1,90,0,0
208316,-62.5,4,2,1,80,0,0
208492,-62.5,4,2,1,90,0,0
208669,-125,4,2,1,70,0,0
209022,-62.5,4,2,1,85,0,1
209198,-83.3333333333333,4,2,1,85,0,1
209375,-50,4,2,1,85,0,1
209728,-55.5555555555556,4,2,1,85,0,1
210345,-55.5555555555556,4,2,1,80,0,1
210433,-55.5555555555556,4,2,1,85,0,1
211228,-55.5555555555556,4,2,1,80,0,1
211404,-55.5555555555556,4,2,1,85,0,1
215110,-55.5555555555556,4,2,1,80,0,1
215198,-55.5555555555556,4,2,1,85,0,1
223845,-41.6666666666667,4,2,1,85,0,1
225786,-55.5555555555556,4,2,1,85,0,1
226228,-55.5555555555556,4,2,1,80,0,1
226316,-55.5555555555556,4,2,1,85,0,1
227551,-45.4545454545455,4,2,1,85,0,1
227904,-55.5555555555556,4,2,1,85,0,1
229316,-83.3333333333333,4,2,1,85,0,1
229492,-55.5555555555556,4,2,1,85,0,1
229580,-55.5555555555556,4,2,1,80,0,1
229669,-55.5555555555556,4,2,1,85,0,1
230286,-55.5555555555556,4,2,1,80,0,1
230375,-55.5555555555556,4,2,1,85,0,1
230639,-55.5555555555556,4,2,1,80,0,1
230728,-55.5555555555556,4,2,1,85,0,1
230904,-55.5555555555556,4,2,1,80,0,1
230992,-55.5555555555556,4,2,1,85,0,1
231080,-55.5555555555556,4,2,1,80,0,1
231257,-55.5555555555556,4,2,1,70,0,1
231610,-137.931034482759,4,2,1,70,0,0

[Colours]
Combo1 : 192,198,244
Combo2 : 244,195,226
Combo3 : 251,160,163
Combo4 : 242,149,247
Combo5 : 233,233,233
Combo6 : 255,227,196

[HitObjects]
88,155,81,6,0,B|101:94|53:107|62:27|62:27|-9:126|72:198|72:198|150:175|262:244|262:357|262:357|241:238|121:305|196:200|185:139|185:139|261:170|300:233|300:233|304:194,1,1035.00000157928
413,96,4316,6,0,L|447:92,16,34.9999989318848
313,106,5198,5,0,0:0:0:0:
413,96,5375,2,0,L|294:109,1,100
313,106,6963,6,0,L|307:137,1,25
308,130,8375,6,0,L|300:170,1,40
256,192,8904,12,0,11022,0:0:0:0:
320,327,11375,6,0,P|399:329|432:239,1,160,4|0,0:3|0:0,0:0:0:0:
346,182,12080,2,0,P|354:221|359:260,2,80,8|4|4,0:0|0:3|0:3,0:0:0:0:
322,101,13492,6,0,P|274:230|412:235,1,320,8|4,0:0|0:3,0:0:0:0:
322,101,14904,6,0,P|317:61|308:22,2,80,8|4|4,0:0|0:3|0:3,0:0:0:0:
322,101,15786,5,4,0:3:0:0:
326,105,15874,1,4,0:3:0:0:
330,109,15962,1,4,0:3:0:0:
407,139,16316,6,0,P|328:150|285:226,1,160,8|4,0:0|0:3,0:0:0:0:
302,296,16845,1,4,0:3:0:0:
152,248,17022,1,4,0:3:0:0:
73,304,17728,6,0,P|68:344|59:383,2,80,8|4|4,0:0|0:3|0:3,0:0:0:0:
29,233,19139,6,0,P|153:270|125:121,1,320,8|4,0:0|0:3,0:0:0:0:
143,127,20551,6,0,P|138:87|129:48,2,80,8|4|4,0:0|0:3|0:3,0:0:0:0:
207,176,21433,5,4,0:3:0:0:
211,180,21521,1,4,0:3:0:0:
215,184,21610,2,0,P|155:179|131:264,1,160,4|8,0:3|0:0,0:0:0:0:
240,306,22669,5,4,0:3:0:0:
146,335,22845,6,0,P|117:343|94:326,1,59.9999981689454,2|0,0:0|0:0,0:0:0:0:
163,245,23022,2,0,P|132:228|117:197,1,59.9999981689454,2|0,0:0|0:0,0:0:0:0:
248,214,23198,2,0,P|243:181|243:143,2,59.9999981689454,2|0|8,0:1|0:0|0:0,0:0:0:0:
242,154,23551,6,0,P|243:184|248:214,1,59.9999981689454,2|0,0:0|0:0,0:0:0:0:
119,207,23728,2,0,P|136:232|163:245,1,59.9999981689454,2|0,0:0|0:0,0:0:0:0:
94,326,23904,2,0,P|117:343|146:335,1,59.9999981689454,2|0,0:0|0:0,0:0:0:0:
240,306,24080,5,4,0:3:0:0:
248,214,24257,6,0,P|248:183|270:166,1,59.9999981689454,2|0,0:0|0:0,0:0:0:0:
329,255,24434,2,0,P|353:229|387:224,1,59.9999981689454,2|0,0:0|0:0,0:0:0:0:
336,345,24610,2,0,P|369:349|405:359,2,59.9999981689454,2|0|8,0:1|0:0|0:0,0:0:0:0:
395,356,24963,6,0,P|366:349|337:346,1,59.9999981689454,2|0,0:0|0:0,0:0:0:0:
270,266,25139,2,0,P|299:258|328:255,1,59.9999981689454,2|0,0:0|0:0,0:0:0:0:
390,176,25316,2,0,P|360:168|331:165,1,59.9999981689454,2|0,0:0|0:0,0:0:0:0:
323,74,25492,5,4,3:0:0:0:
331,165,25669,6,0,P|331:195|308:212,1,59.9999981689454,2|0,0:0|0:0,0:0:0:0:
248,125,25846,2,0,P|223:150|189:157,1,59.9999981689454,2|0,0:0|0:0,0:0:0:0:
240,35,26022,2,0,P|206:31|170:21,2,59.9999981689454,2|0|8,0:1|0:0|0:0,0:0:0:0:
181,26,26375,6,0,P|211:32|241:36,1,59.9999981689454,2|0,0:0|0:0,0:0:0:0:
200,157,26551,2,0,P|228:147|248:125,1,59.9999981689454,2|0,0:0|0:0,0:0:0:0:
309,212,26728,2,0,P|331:194|331:165,1,59.9999981689454,2|0,0:0|0:0,0:0:0:0:
323,74,26904,5,4,3:0:0:0:
330,164,27080,6,0,P|330:194|353:211,1,59.9999981689454,2|0,0:0|0:0,0:0:0:0:
413,124,27257,2,0,P|438:149|472:156,1,59.9999981689454,2|0,0:0|0:0,0:0:0:0:
421,34,27433,2,0,P|455:30|491:20,2,59.9999981689454,2|0|8,0:1|0:0|0:0,0:0:0:0:
421,34,27786,6,0,P|455:30|491:20,1,59.9999981689454,2|0,0:0|0:0,0:0:0:0:
323,74,27963,2,0,P|289:70|253:60,1,59.9999981689454,2|0,0:0|0:0,0:0:0:0:
413,124,28139,2,0,P|447:120|483:110,1,59.9999981689454,2|0,0:0|0:0,0:0:0:0:
315,164,28316,5,4,3:0:0:0:
413,124,28492,6,0,P|439:109|465:121,1,59.9999981689454,2|0,0:0|0:0,0:0:0:0:
418,215,28669,2,0,P|451:224|474:251,1,59.9999981689454,2|0,0:0|0:0,0:0:0:0:
343,266,28845,2,0,P|355:297|364:334,2,59.9999981689454,2|0|8,0:1|0:0|0:0,0:0:0:0:
362,323,29198,6,0,P|354:294|344:267,1,59.9999981689454,2|0,0:0|0:0,0:0:0:0:
469,242,29374,2,0,P|447:222|419:216,1,59.9999981689454,2|0,0:0|0:0,0:0:0:0:
465,121,29551,2,0,P|438:110|414:125,1,59.9999981689454,2|0,0:0|0:0,0:0:0:0:
315,164,29728,5,4,3:0:0:0:
343,265,29904,6,0,P|353:293|336:316,1,59.9999981689454,2|0,0:0|0:0,0:0:0:0:
251,253,30081,2,0,P|236:283|205:301,1,59.9999981689454,2|0,0:0|0:0,0:0:0:0:
214,170,30257,2,0,P|181:176|143:178,2,59.9999981689454,2|0|8,0:1|0:0|0:0,0:0:0:0:
154,178,30610,6,0,P|184:175|214:170,1,59.9999981689454,2|0,0:0|0:0,0:0:0:0:
98,246,30786,2,0,P|68:249|38:254,1,59.9999981689454,2|0,0:0|0:0,0:0:0:0:
166,306,30963,2,0,P|196:303|226:298,1,59.9999981689454,2|0,0:0|0:0,0:0:0:0:
110,374,31139,5,4,3:0:0:0:
96,266,31316,6,0,P|88:237|107:215,1,59.9999981689454,2|0,0:0|0:0,0:0:0:0:
186,282,31493,2,0,P|203:253|236:238,1,59.9999981689454,2|0,0:0|0:0,0:0:0:0:
216,366,31669,2,0,P|249:362|287:364,2,59.9999981689454,2|0|8,0:1|0:0|0:0,0:0:0:0:
275,362,32022,6,0,P|245:362|216:366,1,59.9999981689454,2|0,0:0|0:0,0:0:0:0:
225,240,32198,2,0,P|200:256|186:282,1,59.9999981689454,2|0,0:0|0:0,0:0:0:0:
106,216,32375,2,0,P|88:238|96:266,1,59.9999981689454,2|0,0:0|0:0,0:0:0:0:
40,124,32551,5,4,3:0:0:0:
130,50,32728,5,2,0:0:0:0:
129,72,32904,5,2,0:0:0:0:
151,50,33080,5,2,0:0:0:0:
129,27,33257,5,2,0:0:0:0:
106,50,33433,5,2,0:0:0:0:
40,124,33610,5,8,0:0:0:0:
171,180,33786,1,4,0:3:0:0:
272,78,33963,5,4,3:2:0:0:
366,49,34139,6,0,P|395:41|418:58,1,59.9999981689454,0|0,3:0|0:0,0:0:0:0:
349,139,34316,2,0,P|380:156|395:187,1,59.9999981689454,0|0,3:0|0:0,0:0:0:0:
264,170,34492,2,0,P|269:203|269:241,1,59.9999981689454,2|0,3:1|0:0,0:0:0:0:
206,299,34669,5,8,0:0:0:0:
270,230,34845,6,0,P|269:200|264:170,1,59.9999981689454,0|0,3:0|0:0,0:0:0:0:
393,177,35022,2,0,P|376:152|349:139,1,59.9999981689454,0|0,3:0|0:0,0:0:0:0:
418,58,35198,2,0,P|395:41|366:49,1,59.9999981689454,0|0,3:0|0:0,0:0:0:0:
272,78,35374,5,4,3:0:0:0:
264,170,35551,6,0,P|264:201|242:218,1,59.9999981689454,0|0,3:0|0:0,0:0:0:0:
183,129,35728,2,0,P|159:155|125:160,1,59.9999981689454,0|0,3:0|0:0,0:0:0:0:
176,39,35904,2,0,P|143:35|107:25,1,59.9999981689454,2|0,3:1|0:0,0:0:0:0:
39,82,36080,5,8,0:0:0:0:
117,28,36257,6,0,P|146:35|175:38,1,59.9999981689454,2|0,3:2|0:0,0:0:0:0:
242,118,36433,2,0,P|213:126|184:129,1,59.9999981689454,2|0,0:0|0:0,0:0:0:0:
122,208,36610,2,0,P|152:216|181:219,1,59.9999981689454,2|0,0:0|0:0,0:0:0:0:
189,310,36786,5,4,3:0:0:0:
181,219,36963,6,0,P|181:189|204:172,1,59.9999981689454,0|0,3:0|0:0,0:0:0:0:
264,259,37140,2,0,P|289:234|323:227,1,59.9999981689454,0|0,3:0|0:0,0:0:0:0:
272,349,37316,2,0,P|306:353|342:363,1,59.9999981689454,2|0,3:1|0:0,0:0:0:0:
409,280,37492,5,8,0:0:0:0:
331,358,37669,6,0,P|301:352|271:348,1,59.9999981689454,0|0,3:0|0:0,0:0:0:0:
312,227,37845,2,0,P|284:237|264:259,1,59.9999981689454,0|0,3:0|0:0,0:0:0:0:
203,172,38022,2,0,P|181:190|181:219,1,59.9999981689454,0|0,3:0|0:0,0:0:0:0:
189,310,38198,5,4,3:0:0:0:
182,220,38374,6,0,P|182:190|159:173,1,59.9999981689454,0|0,3:0|0:0,0:0:0:0:
99,260,38551,2,0,P|74:235|40:228,1,59.9999981689454,0|0,3:0|0:0,0:0:0:0:
91,350,38727,2,0,P|57:354|21:364,1,59.9999981689454,2|0,3:1|0:0,0:0:0:0:
189,310,38904,5,8,0:0:0:0:
91,350,39080,6,0,P|57:354|21:364,1,59.9999981689454,2|0,3:2|0:0,0:0:0:0:
189,310,39257,2,0,P|223:314|259:324,1,59.9999981689454,2|0,0:0|0:0,0:0:0:0:
99,260,39433,2,0,P|65:264|29:274,1,59.9999981689454,2|0,0:0|0:0,0:0:0:0:
197,220,39610,5,4,3:0:0:0:
99,260,39786,6,0,P|73:275|47:263,1,59.9999981689454,0|0,3:0|0:0,0:0:0:0:
94,169,39963,2,0,P|61:160|38:133,1,59.9999981689454,0|0,3:0|0:0,0:0:0:0:
169,118,40139,2,0,P|157:87|148:50,1,59.9999981689454,2|0,3:1|0:0,0:0:0:0:
217,0,40316,5,8,0:0:0:0:
150,61,40492,6,0,P|158:90|168:117,1,59.9999981689454,0|0,3:0|0:0,0:0:0:0:
43,142,40668,2,0,P|65:162|93:168,1,59.9999981689454,0|0,3:0|0:0,0:0:0:0:
47,263,40845,2,0,P|74:274|98:259,1,59.9999981689454,0|0,3:0|0:0,0:0:0:0:
197,220,41022,5,4,3:0:0:0:
169,119,41198,6,0,P|159:91|176:68,1,59.9999981689454,0|0,3:0|0:0,0:0:0:0:
261,131,41375,2,0,P|276:101|307:83,1,59.9999981689454,0|0,3:0|0:0,0:0:0:0:
298,214,41551,2,0,P|331:208|369:206,1,59.9999981689454,2|0,3:1|0:0,0:0:0:0:
426,266,41727,5,8,0:0:0:0:
358,206,41904,6,0,P|328:209|298:214,1,59.9999981689454,2|0,3:2|0:0,0:0:0:0:
414,138,42080,2,0,P|444:135|474:130,1,59.9999981689454,2|0,0:0|0:0,0:0:0:0:
346,78,42257,2,0,P|316:81|286:86,1,59.9999981689454,2|0,0:0|0:0,0:0:0:0:
402,10,42433,5,4,3:2:0:0:
346,78,42610,5,0,3:0:0:0:
316,81,42698,1,0,3:0:0:0:
286,85,42786,1,8,0:0:0:0:
414,138,42963,5,4,3:0:0:0:
358,206,43140,5,0,3:0:0:0:
328,209,43228,1,0,3:0:0:0:
298,213,43316,1,8,0:0:0:0:
426,266,43492,5,4,3:0:0:0:
370,334,43669,1,8,0:0:0:0:
414,138,43845,5,4,3:2:0:0:
328,209,44198,6,0,L|322:272,1,59.9999981689454,2|0,0:0|0:0,0:0:0:0:
303,153,44375,2,0,L|298:213,1,59.9999981689454,2|0,0:0|0:0,0:0:0:0:
245,276,44551,2,0,L|242:307,4,29.9999990844727,2|0|0|0|0,3:1|0:0|3:0|0:0|3:0,3:0:0:0:
358,205,44904,5,0,0:0:0:0:
245,276,45080,5,0,3:0:0:0:
215,279,45168,1,0,3:0:0:0:
185,283,45256,1,4,0:0:0:0:
72,354,45433,1,0,3:0:0:0:
126,251,45786,5,4,3:0:0:0:
130,385,45963,1,0,3:0:0:0:
69,287,46316,5,4,3:0:0:0:
187,349,46493,1,0,3:0:0:0:
195,343,47198,5,4,3:0:0:0:
203,339,47728,5,4,3:0:0:0:
130,276,47904,5,0,3:0:0:0:
122,281,47992,1,0,3:0:0:0:
114,286,48080,1,4,3:0:0:0:
7,261,48257,1,0,3:0:0:0:
154,208,48610,5,4,3:0:0:0:
47,183,48787,1,0,3:0:0:0:
195,133,49139,5,4,3:0:0:0:
88,108,49316,1,0,3:0:0:0:
324,112,50022,5,4,3:0:0:0:
217,87,50551,5,4,3:0:0:0:
130,125,50728,1,0,3:0:0:0:
127,134,50816,1,0,3:0:0:0:
125,143,50904,1,4,3:0:0:0:
100,25,51080,1,0,3:0:0:0:
67,124,51433,5,4,3:0:0:0:
157,43,51609,1,0,3:0:0:0:
55,65,51963,5,4,3:0:0:0:
169,102,52139,1,0,3:0:0:0:
177,98,52845,5,4,3:0:0:0:
185,94,53375,5,4,3:0:0:0:
261,41,53551,5,0,3:0:0:0:
269,45,53639,1,0,3:0:0:0:
277,49,53728,1,4,3:0:0:0:
355,0,53904,1,0,3:0:0:0:
326,110,54257,5,4,3:0:0:0:
404,61,54433,1,0,3:0:0:0:
373,172,54786,5,4,3:0:0:0:
451,123,54963,1,0,3:0:0:0:
373,172,55669,6,0,P|323:223|253:206,1,149.999995422363,4|0,3:0|0:0,0:0:0:0:
239,198,56198,2,0,P|196:186|153:196,1,89.9999972534181,0|0,3:0|0:0,0:0:0:0:
56,175,56551,6,0,P|57:224|82:266,1,100,0|0,3:0|0:0,0:0:0:0:
130,111,56904,2,0,P|87:136|63:179,1,100,0|0,3:0|0:0,0:0:0:0:
222,143,57257,2,0,P|178:118|129:118,1,100,0|0,3:0|0:0,0:0:0:0:
240,238,57610,2,0,P|239:188|214:145,1,100,0|0,3:0|0:0,0:0:0:0:
166,301,57963,2,0,P|208:275|233:231,1,100,0|0,3:0|0:0,0:0:0:0:
74,268,58316,2,0,P|117:291|168:291,1,100,0|0,3:0|0:0,0:0:0:0:
104,154,58669,2,0,P|153:153|197:177,1,100,0|0,3:0|0:0,0:0:0:0:
82,264,59022,5,0,3:0:0:0:
96,158,59198,1,0,3:0:0:0:
90,260,59375,6,0,P|112:307|105:365,1,80,0|0,3:0|0:0,0:0:0:0:
88,162,59728,2,0,P|66:115|73:57,1,80,0|0,3:0|0:0,0:0:0:0:
98,256,60080,6,0,P|114:296|111:341,1,69.9999978637696,0|0,3:0|0:0,0:0:0:0:
79,165,60433,2,0,P|62:124|65:79,1,69.9999978637696,0|0,3:0|0:0,0:0:0:0:
105,252,60786,6,0,P|108:290|95:328,1,59.9999981689454,0|0,3:0|0:0,0:0:0:0:
71,169,61139,2,0,P|67:128|80:90,1,59.9999981689454,0|0,3:0|0:0,0:0:0:0:
114,248,61492,6,0,P|120:286|110:325,1,59.9999981689454,0|0,3:0|3:0,0:0:0:0:
111,324,61757,1,0,3:0:0:0:
108,337,61845,1,0,3:0:0:0:
4,287,62022,1,0,3:0:0:0:
122,244,62198,5,0,3:0:0:0:
63,173,62375,1,0,3:0:0:0:
130,240,62551,5,0,3:0:0:0:
55,177,62728,1,0,3:0:0:0:
138,236,62904,5,0,3:0:0:0:
47,181,63081,1,0,3:0:0:0:
146,232,63257,5,0,3:0:0:0:
39,185,63433,1,0,3:0:0:0:
154,228,63610,5,0,3:0:0:0:
31,189,63786,1,0,3:0:0:0:
162,224,63963,5,0,3:0:0:0:
23,193,64139,1,0,3:0:0:0:
170,220,64316,5,0,3:0:0:0:
15,197,64492,1,0,3:0:0:0:
178,216,64669,5,0,3:0:0:0:
7,201,64845,1,0,3:0:0:0:
178,216,65022,5,0,3:0:0:0:
170,220,65110,1,0,3:0:0:0:
162,224,65198,1,0,3:0:0:0:
154,228,65286,1,0,3:0:0:0:
146,232,65375,1,0,3:0:0:0:
138,236,65463,1,0,3:0:0:0:
130,240,65551,1,0,3:0:0:0:
122,244,65639,1,0,3:0:0:0:
107,258,65728,5,0,3:0:0:0:
130,253,65816,1,0,3:0:0:0:
153,257,65904,1,0,3:0:0:0:
174,271,65992,1,0,3:0:0:0:
188,292,66080,1,0,3:0:0:0:
201,312,66169,1,0,3:0:0:0:
222,325,66257,1,0,3:0:0:0:
245,331,66345,1,0,3:0:0:0:
276,313,66433,5,4,3:0:0:0:
358,275,66786,6,0,P|382:276|407:282,1,50,2|0,0:0|0:0,0:0:0:0:
351,265,66963,2,0,P|375:266|400:272,1,50,2|0,0:0|0:0,0:0:0:0:
482,231,67139,5,8,0:0:0:0:
413,291,67316,6,0,L|418:354,1,40
427,342,67492,2,0,L|428:371,3,29.9999990844727
486,290,67845,6,0,B|505:271|505:271|497:178,1,119.999996337891,2|0,0:1|0:0,0:0:0:0:
487,186,68728,6,0,L|489:217,1,29.9999990844727,0|0,3:0|0:0,0:0:0:0:
497,178,68904,2,0,B|489:85|489:85|508:67,1,120
508,55,69433,6,0,B|461:96|461:96|446:88,1,80
368,124,69875,6,0,L|350:114,1,20
278,59,70139,6,0,B|265:78|265:78|190:85,1,100,0|0,0:0|3:0,0:0:0:0:
175,70,70404,2,0,L|143:72,4,25,0|0|0|0|0,3:0|0:0|0:0|0:0|0:0,0:0:0:0:
241,20,70669,5,4,0:0:0:0:
278,59,70757,2,0,B|265:78|265:78|188:85|188:85|174:69,1,119.999996337891,0|0,3:0|0:0,0:0:0:0:
162,180,71022,5,4,3:0:0:0:
162,180,71110,2,0,B|175:161|175:161|250:154,1,80,0|0,3:0|0:0,0:0:0:0:
304,192,71375,5,4,3:0:0:0:
259,230,71463,2,0,B|202:235,1,40,0|0,3:0|0:0,0:0:0:0:
155,189,71728,2,0,B|140:201|140:201|147:278|147:278|169:290,2,119.999996337891,4|0|4,3:0|3:0|3:0,0:0:0:0:
70,238,72257,6,0,L|74:277,1,29.9999990844727,0|0,3:0|0:0,0:0:0:0:
179,303,72433,5,4,3:0:0:0:
190,299,72522,1,0,3:0:0:0:
201,295,72610,2,0,L|270:301,1,59.9999981689454,0|0,3:0|0:0,0:0:0:0:
340,353,72786,5,4,3:0:0:0:
392,272,72963,1,0,3:0:0:0:
306,230,73139,1,4,0:3:0:0:
306,230,73492,6,0,L|296:185,1,40,4|0,3:0|2:0,0:0:0:0:
261,117,73669,1,0,0:0:0:0:
272,115,73758,1,0,0:0:0:0:
283,113,73845,1,4,3:0:0:0:
303,75,73933,2,0,B|337:55|337:55|357:89,1,80
487,143,74198,5,4,3:0:0:0:
508,186,74286,2,0,B|499:203|499:203|481:193,1,40
405,149,74551,2,0,B|390:161|390:161|397:238|397:238|417:250,2,119.999996337891,4|0|4,3:0|0:0|3:0,0:0:0:0:
490,79,75080,6,0,L|487:108,1,29.9999990844727
485,125,75257,5,4,3:0:0:0:
474,121,75346,1,0,0:0:0:0:
463,117,75434,2,0,B|437:132|437:132|405:114,1,59.9999981689454
356,34,75610,5,4,3:0:0:0:
432,0,75786,1,0,0:0:0:0:
463,117,75963,2,2,B|437:132|437:132|336:71|336:71|307:85,1,179.999994506836,2|0,0:2|0:0,0:0:0:0:
319,162,76316,5,4,3:2:0:0:
300,111,76404,2,0,B|279:121|279:121|261:195|261:195|267:215|267:215|256:258|256:258|242:263,1,179.999994506836,0|0,3:0|0:0,0:0:0:0:
161,200,76669,5,4,3:0:0:0:
161,200,76757,2,0,B|181:189|181:189|198:116,1,80
176,55,77022,5,4,3:0:0:0:
126,83,77110,2,0,B|113:137,1,40
30,183,77375,2,0,B|51:188|51:188|66:269|66:269|81:272,2,119.999996337891,4|0|4,3:0|0:0|3:0,0:0:0:0:
82,273,77904,6,0,L|76:303,1,29.9999990844727
168,216,78080,5,4,3:0:0:0:
179,212,78169,1,0,0:0:0:0:
190,208,78257,2,0,L|176:275,1,59.9999981689454,0|0,3:0|0:0,0:0:0:0:
232,330,78433,5,4,3:0:0:0:
306,290,78610,1,0,0:0:0:0:
379,342,78786,5,4,3:0:0:0:
379,342,78875,2,0,B|392:369|392:369|366:358,1,59.9999981689454
306,290,79139,6,0,L|316:245,1,40,4|0,3:0|2:0,0:0:0:0:
387,205,79316,1,0,0:0:0:0:
398,203,79405,1,0,0:0:0:0:
409,201,79492,1,4,3:0:0:0:
395,155,79580,2,0,B|375:121|375:121|341:141,1,80
220,138,79845,5,4,3:0:0:0:
220,138,79933,2,0,B|203:148|203:148|193:130,1,40
138,201,80198,2,0,B|154:188|154:188|228:206|228:206|236:227,2,119.999996337891,4|0|4,3:0|0:0|3:0,0:0:0:0:
167,300,80728,6,0,L|172:270,1,29.9999990844727
138,201,80904,5,4,3:0:0:0:
126,202,80993,1,0,0:0:0:0:
114,203,81080,1,0,3:0:0:0:
102,204,81169,1,0,0:0:0:0:
90,205,81257,5,4,3:0:0:0:
97,182,81345,1,0,0:0:0:0:
104,159,81433,1,0,0:0:0:0:
56,77,81610,5,4,3:0:0:0:
56,77,81963,5,4,3:0:0:0:
163,89,82316,5,4,3:0:0:0:
144,42,82404,2,0,P|107:81|112:152,1,119.999996337891
68,216,82669,5,4,3:0:0:0:
89,170,82757,2,0,P|113:201|113:240,1,80
121,249,83022,5,4,3:0:0:0:
282,171,83198,2,0,L|279:200,1,29.9999990844727
114,260,83375,5,4,3:0:0:0:
200,225,83551,2,0,L|203:196,1,29.9999990844727
186,114,83728,5,4,3:0:0:0:
171,107,83816,1,0,0:0:0:0:
156,100,83904,2,0,L|222:94,1,59.9999981689454
267,98,84080,5,4,3:0:0:0:
289,59,84169,1,0,0:0:0:0:
312,20,84257,1,0,0:0:0:0:
454,95,84433,6,0,B|418:114|418:114|382:97,1,80,4|0,3:0|0:0,0:0:0:0:
383,98,84786,6,0,L|388:167,1,69.9999978637696,4|0,3:0|0:0,0:0:0:0:
468,249,84963,1,0,0:0:0:0:
448,235,85051,1,0,0:0:0:0:
430,251,85139,1,4,3:0:0:0:
407,299,85228,2,0,B|361:320|361:320|339:276,1,100
247,250,85492,5,4,3:0:0:0:
267,255,85581,2,0,B|305:238|305:238|322:273,1,80
270,332,85845,5,4,3:0:0:0:
394,271,86022,2,0,L|406:298,1,29.9999990844727
270,332,86198,5,4,3:0:0:0:
202,226,86375,2,0,L|169:242,1,29.9999990844727
239,239,86551,5,4,3:0:0:0:
275,221,86639,1,0,0:0:0:0:
311,204,86727,1,0,0:0:0:0:
329,238,86815,1,0,0:0:0:0:
347,274,86903,5,4,3:0:0:0:
446,233,87080,2,0,L|454:204,1,29.9999990844727
337,316,87257,6,2,B|328:350|328:350|360:382|360:382|401:369|401:369|412:328|412:328|381:298,1,209.999993591309,2|0,0:0|0:0,0:1:0:0:
305,246,87610,5,4,3:2:0:0:
267,288,87698,2,0,B|260:310|260:310|129:327|129:327|116:305,1,179.999994506836
81,231,87963,5,4,3:0:0:0:
93,287,88051,2,0,B|103:256|103:256|209:242,1,139.999995727539
269,194,88316,5,4,3:0:0:0:
226,222,88404,2,0,B|248:177|248:177|221:134,1,100
194,125,88669,5,4,3:0:0:0:
83,138,88845,2,0,L|51:142,1,29.9999990844727
171,97,89022,5,4,3:0:0:0:
266,60,89198,2,0,L|297:55,1,29.9999990844727
69,30,89375,5,4,3:0:0:0:
76,15,89463,1,0,0:0:0:0:
83,0,89551,2,0,L|89:66,1,59.9999981689454
74,89,89728,1,4,3:0:0:0:
76,120,89816,1,0,0:0:0:0:
79,152,89904,1,0,0:0:0:0:
77,260,90080,5,4,3:0:0:0:
117,233,90169,2,0,L|123:315,1,80
203,289,90433,6,0,L|206:333,1,29.9999990844727,4|0,3:0|0:0,0:0:0:0:
284,350,90610,1,0,0:0:0:0:
304,364,90698,1,0,0:0:0:0:
322,348,90786,1,4,3:0:0:0:
368,322,90875,2,0,B|376:272|376:272|323:263,1,100
271,194,91139,5,4,3:0:0:0:
258,202,91228,2,0,L|218:195,1,40
164,137,91404,5,0,0:0:0:0:
150,143,91493,2,0,B|100:133|100:133|90:81,2,100,4|0|4,3:0|0:0|3:0,0:0:0:0:
39,199,92022,6,0,L|9:205,1,29.9999990844727
145,236,92198,5,4,3:0:0:0:
148,251,92287,1,0,0:0:0:0:
152,267,92375,2,0,L|166:329,1,59.9999981689454
245,355,92551,6,0,B|273:352|289:385|289:385|248:388|238:357,1,120,4|0,3:0|3:0,0:0:0:0:
165,325,92904,5,8,0:0:0:0:
248,189,93080,1,4,3:0:0:0:
179,44,93257,1,4,3:0:0:0:
179,44,93786,6,0,L|177:63,1,20,4|0,0:3|0:0,0:0:0:0:
84,112,93963,1,4,0:0:0:0:
95,116,94051,2,0,L|99:155,1,40
169,186,94316,2,0,L|167:205,1,20,8|0,0:2|0:0,0:0:0:0:
248,191,94492,2,0,L|242:230,1,40,4|0,0:3|0:0,0:0:0:0:
400,269,94845,6,0,L|403:288,1,20,4|0,0:0|0:0,0:0:0:0:
325,283,95021,2,0,L|328:302,1,20,8|0,0:2|0:0,0:0:0:0:
268,353,95198,1,4,0:0:0:0:
404,243,95374,5,0,0:0:0:0:
406,226,95463,2,0,L|409:206,1,20,4|0,0:0|0:0,0:0:0:0:
341,87,95639,5,0,0:0:0:0:
338,104,95728,2,0,L|335:123,1,20,8|0,0:2|0:0,0:0:0:0:
258,144,95904,2,0,L|252:183,1,40,4|0,0:3|0:0,0:0:0:0:
400,269,96257,6,0,L|403:288,1,20,4|0,0:0|0:0,0:0:0:0:
325,283,96433,2,0,L|328:302,1,20,8|0,0:2|0:0,0:0:0:0:
268,353,96610,1,4,0:0:0:0:
140,366,96786,5,4,0:0:0:0:
134,374,96874,2,0,L|140:335,1,40
191,275,97139,2,0,L|188:256,1,20,8|0,0:2|0:0,0:0:0:0:
113,266,97316,2,0,L|110:247,1,20,4|0,0:0|0:0,0:0:0:0:
159,183,97492,1,4,0:0:0:0:
167,177,97580,2,0,L|173:138,1,40
97,135,97845,2,0,L|103:96,1,40,8|0,0:2|0:0,0:0:0:0:
147,4,98198,5,2,0:0:0:0:
128,11,98286,1,2,0:0:0:0:
118,28,98375,1,2,0:0:0:0:
117,47,98463,1,2,0:0:0:0:
126,64,98551,1,2,0:0:0:0:
19,125,98728,6,0,L|0:126,1,20,2|0,0:1|0:0,0:0:0:0:
82,175,98904,5,4,0:0:0:0:
96,168,98992,2,0,L|135:174,1,40
199,208,99257,2,0,L|218:205,1,20,8|0,0:2|0:0,0:0:0:0:
221,279,99433,2,0,L|240:276,1,20,4|0,0:0|0:0,0:0:0:0:
309,240,99610,2,0,L|348:246,1,40,4|0,0:0|0:0,0:0:0:0:
449,275,99875,5,4,0:0:0:0:
438,276,99963,2,0,L|419:279,1,20,8|0,0:2|0:0,0:0:0:0:
355,326,100139,2,0,L|316:320,1,40,4|4,0:0|0:0,0:0:0:0:
267,259,100404,1,4,0:0:0:0:
256,261,100492,2,0,L|237:264,1,20
172,226,100669,2,0,L|153:229,1,20,8|0,0:2|0:0,0:0:0:0:
83,262,100845,6,0,L|74:301,1,40,2|4,0:0|0:0,0:0:0:0:
0,272,101198,2,0,L|8:232,1,40,2|8,0:0|0:2,0:0:0:0:
139,87,101551,6,0,L|147:126,1,40,2|4,0:0|0:0,0:0:0:0:
222,97,101904,2,0,L|213:57,1,40,2|8,0:0|0:2,0:0:0:0:
293,268,102257,6,0,L|284:307,1,40,2|4,0:0|0:0,0:0:0:0:
359,336,102610,2,0,L|367:296,1,40,2|8,0:0|0:2,0:0:0:0:
350,54,102963,6,0,L|358:93,1,40,2|4,0:0|0:0,0:0:0:0:
433,64,103316,2,0,L|424:24,2,40,2|8|2,0:0|0:2|0:0,0:0:0:0:
416,151,103845,6,0,L|291:140,1,119.999996337891,2|0,0:1|0:0,0:0:0:0:
219,78,104375,5,0,3:0:0:0:
234,77,104463,1,0,3:0:0:0:
256,66,104551,2,0,P|228:154|127:147,1,200,4|0,0:0|0:0,0:0:0:0:
53,135,104904,6,0,L|45:96,1,40,8|0,0:2|0:0,0:0:0:0:
78,213,105257,5,4,0:0:0:0:
74,225,105345,2,0,L|66:266,1,40
16,339,105610,6,0,L|20:369,1,20,8|0,0:2|0:0,0:0:0:0:
94,364,105786,2,0,L|92:345,1,20,4|0,0:0|0:0,0:0:0:0:
157,288,105963,5,4,0:0:0:0:
168,272,106051,2,0,L|177:216,1,50
219,150,106316,6,0,L|216:118,1,25,8|0,0:2|0:0,0:0:0:0:
134,125,106492,2,0,L|137:150,1,25,4|0,0:0|0:0,0:0:0:0:
257,58,106669,5,4,0:0:0:0:
271,52,106757,2,0,L|280:-4,1,50
307,134,107022,2,0,L|309:158,1,25,8|0,0:2|0:0,0:0:0:0:
353,59,107198,2,0,L|362:3,1,50,4|0,0:0|0:0,0:0:0:0:
394,165,107551,6,0,L|392:136,1,29.9999990844727,4|0,0:0|0:0,0:0:0:0:
474,139,107727,2,0,L|477:171,1,29.9999990844727,8|0,0:2|0:0,0:0:0:0:
330,229,107904,1,4,0:0:0:0:
466,169,108080,5,4,0:0:0:0:
450,188,108168,2,0,L|444:252,1,59.9999981689454
400,329,108433,6,0,L|403:361,1,29.9999990844727,8|0,0:2|0:0,0:0:0:0:
486,371,108609,2,0,L|484:342,1,29.9999990844727,4|0,0:0|0:0,0:0:0:0:
339,241,108786,5,4,0:0:0:0:
320,219,108875,2,0,L|313:289,1,69.9999978637696
238,248,109139,2,0,L|231:318,1,69.9999978637696,8|0,0:2|0:0,0:0:0:0:
147,348,109492,5,2,0:0:0:0:
142,327,109580,1,2,0:0:0:0:
137,306,109669,1,2,0:0:0:0:
132,285,109756,1,2,0:0:0:0:
127,264,109845,1,2,0:0:0:0:
0,306,110022,6,0,L|35:302,1,34.9999989318848,2|0,0:1|0:0,0:0:0:0:
95,227,110198,5,4,0:0:0:0:
118,248,110286,2,0,L|340:227,1,200
413,192,110551,6,0,L|452:198,1,40,8|0,0:2|0:0,0:0:0:0:
441,282,110728,2,0,L|402:276,1,40,4|0,0:0|0:0,0:0:0:0:
367,95,110904,5,4,0:0:0:0:
349,119,110992,2,0,L|269:125,1,80
236,106,111257,6,0,L|173:95,1,40,8|0,0:2|0:0,0:0:0:0:
213,20,111433,2,0,L|253:27,1,40,4|0,0:0|0:0,0:0:0:0:
110,3,111610,5,4,0:0:0:0:
91,39,111698,2,0,L|3:53,1,89.9999972534181
84,133,111963,6,0,L|40:126,1,44.999998626709,8|0,0:2|0:0,0:0:0:0:
28,201,112139,2,0,L|91:212,1,44.999998626709,4|0,0:0|0:0,0:0:0:0:
128,329,112316,5,4,0:0:0:0:
147,284,112404,2,0,L|235:269,1,89.9999972534181
312,219,112669,2,0,L|375:230,1,44.999998626709,8|0,0:2|0:0,0:0:0:0:
491,65,112845,6,0,L|392:82,1,100,2|4,0:0|0:3,0:0:0:0:
412,161,113198,2,0,L|510:143,1,100,2|0,0:0|0:2,0:0:0:0:
259,82,113551,6,0,L|186:154,1,100,2|4,0:0|0:0,0:0:0:0:
250,206,113904,2,0,L|320:135,1,100,2|0,0:0|0:2,0:0:0:0:
30,83,114257,6,0,L|14:184,1,100,2|4,0:0|0:0,0:0:0:0:
94,191,114610,2,0,L|110:92,2,100,2|0|0,0:0|0:0|0:0,0:0:0:0:
85,202,115139,5,0,0:0:0:0:
87,211,115316,5,0,0:0:0:0:
89,220,115492,5,0,0:0:0:0:
91,229,115669,5,0,0:0:0:0:
256,192,115845,12,4,118669,0:3:0:0:
379,347,129963,6,0,P|461:339|465:257,1,179.999994506836,4|0,0:3|3:0,0:0:0:0:
396,187,130669,1,8,0:0:0:0:
317,201,130845,1,0,3:0:0:0:
238,215,131022,1,4,0:3:0:0:
151,171,131551,5,0,3:0:0:0:
139,173,131639,1,0,3:0:0:0:
127,175,131728,1,4,0:3:0:0:
52,140,132080,6,0,P|85:232|79:273,1,119.999996337891,8|0,0:0|3:0,0:0:0:0:
46,326,132610,1,0,3:0:0:0:
164,276,132786,2,0,P|253:264|343:259,1,179.999994506836,4|0,0:3|3:0,0:0:0:0:
423,314,133492,5,8,0:0:0:0:
437,235,133668,1,0,3:0:0:0:
451,156,133845,1,4,0:3:0:0:
483,51,134375,5,0,3:0:0:0:
481,63,134464,1,0,3:0:0:0:
479,75,134552,1,4,0:3:0:0:
512,146,134904,6,0,P|462:113|403:119,1,119.999996337891,8|0,0:0|3:0,0:0:0:0:
357,183,135433,1,0,3:0:0:0:
296,264,135610,2,0,P|321:179|314:81,1,179.999994506836,4|0,0:3|3:0,0:0:0:0:
252,24,136316,5,8,0:0:0:0:
231,115,136492,1,0,3:0:0:0:
316,89,136669,1,4,0:3:0:0:
146,141,137198,5,0,3:0:0:0:
144,153,137287,1,0,3:0:0:0:
142,165,137375,1,4,0:3:0:0:
60,186,137728,6,0,P|81:242|81:301,1,119.999996337891,8|0,0:0|3:0,0:0:0:0:
125,384,138257,1,0,3:0:0:0:
191,146,138433,2,0,P|178:235|193:324,1,179.999994506836,4|0,0:3|3:0,0:0:0:0:
257,382,139139,5,8,0:0:0:0:
334,358,139316,1,0,3:0:0:0:
274,303,139492,1,4,0:3:0:0:
409,296,140022,5,0,3:0:0:0:
407,308,140111,1,0,3:0:0:0:
405,320,140199,1,4,0:3:0:0:
480,375,140551,5,8,0:0:0:0:
333,222,140728,1,0,0:0:0:0:
320,298,140904,1,0,3:0:0:0:
307,375,141080,1,0,3:0:0:0:
253,247,141257,6,0,P|210:239|171:259,1,80,0|0,3:0|0:0,0:0:0:0:
122,200,141610,2,0,P|79:208|40:188,1,80,0|0,3:0|0:0,0:0:0:0:
55,112,141963,2,0,P|98:104|137:124,1,80,0|0,3:0|0:0,0:0:0:0:
186,65,142316,2,0,P|229:73|268:53,1,80,0|0,3:0|0:0,0:0:0:0:
342,47,142669,6,0,P|313:80|311:124,1,80,0|0,3:0|0:0,0:0:0:0:
357,186,143022,2,0,P|342:144|305:120,1,80,0|0,3:0|0:0,0:0:0:0:
229,129,143375,2,0,P|271:136|311:117,1,80,0|0,3:0|0:0,0:0:0:0:
342,47,143728,5,0,3:0:0:0:
450,116,143904,1,0,3:0:0:0:
277,219,144080,6,0,P|260:258|269:296,1,80,0|0,3:0|0:0,0:0:0:0:
359,230,144433,2,0,P|365:268|348:303,1,80,0|0,3:0|0:0,0:0:0:0:
186,305,144786,6,0,P|201:344|234:365,1,80,0|0,3:0|0:0,0:0:0:0:
415,335,145139,2,0,P|392:366|355:378,1,80,0|0,3:0|0:0,0:0:0:0:
289,144,145492,6,0,P|271:180|277:219,1,80,0|0,3:0|0:0,3:0:0:0:
368,155,145845,2,0,P|375:194|359:230,1,80,0|0,3:0|0:0,3:0:0:0:
245,72,146198,5,0,3:0:0:0:
167,150,146375,5,0,3:2:0:0:
155,152,146464,1,0,3:2:0:0:
143,154,146552,1,0,3:2:0:0:
245,72,146728,1,0,3:2:0:0:
124,0,146904,5,0,3:0:0:0:
245,72,147080,1,0,3:0:0:0:
124,0,147257,5,0,3:0:0:0:
243,80,147433,1,0,3:0:0:0:
124,0,147610,5,0,3:0:0:0:
241,88,147786,1,0,3:0:0:0:
124,0,147963,5,0,3:0:0:0:
239,96,148139,1,0,3:0:0:0:
120,18,148316,5,0,3:0:0:0:
239,96,148492,1,0,3:0:0:0:
118,26,148669,5,0,3:0:0:0:
237,104,148845,1,0,3:0:0:0:
116,34,149022,5,0,3:0:0:0:
235,112,149198,1,0,3:0:0:0:
114,42,149375,5,0,3:0:0:0:
233,120,149551,1,0,3:0:0:0:
149,211,149727,5,0,3:0:0:0:
151,203,149816,1,0,3:0:0:0:
153,196,149904,1,0,3:0:0:0:
155,189,149992,1,0,3:0:0:0:
152,175,150080,5,0,3:0:0:0:
168,171,150169,1,0,3:0:0:0:
184,168,150257,1,0,3:0:0:0:
200,165,150345,1,0,3:0:0:0:
212,146,150433,5,0,3:0:0:0:
234,167,150522,1,0,3:0:0:0:
257,187,150610,1,0,3:0:0:0:
280,207,150698,1,0,3:0:0:0:
289,244,150786,5,0,3:0:0:0:
313,215,150874,1,0,3:0:0:0:
340,187,150962,1,0,3:0:0:0:
365,159,151050,1,0,3:0:0:0:
390,131,151139,1,4,0:3:0:0:
289,72,151316,5,2,0:0:0:0:
288,94,151492,5,2,0:0:0:0:
310,72,151668,5,2,0:0:0:0:
288,49,151845,5,2,0:0:0:0:
265,72,152021,5,2,0:0:0:0:
43,22,152198,6,0,P|47:57|51:91,1,70,4|0,3:0|0:0,0:0:0:0:
53,109,152551,5,4,3:0:0:0:
44,205,152728,5,2,0:0:0:0:
38,218,152816,1,2,0:0:0:0:
52,234,152904,1,4,3:0:0:0:
137,278,153080,6,0,L|130:308,1,29.9999990844727,2|0,0:0|0:0,0:0:0:0:
53,335,153257,1,4,3:0:0:0:
213,324,153433,6,0,L|220:354,1,29.9999990844727,2|0,0:0|0:0,0:0:0:0:
297,381,153610,1,4,3:0:0:0:
406,321,153786,5,2,0:0:0:0:
393,327,153874,1,2,0:0:0:0:
383,303,153962,1,4,3:0:0:0:
465,238,154139,5,2,0:0:0:0:
452,244,154227,1,2,0:0:0:0:
442,220,154315,1,4,3:0:0:0:
372,134,154492,6,0,L|379:104,1,29.9999990844727,2|0,0:0|0:0,0:0:0:0:
456,77,154669,1,4,3:0:0:0:
311,7,154845,6,0,L|304:37,1,29.9999990844727,2|0,0:0|0:0,0:0:0:0:
227,64,155022,2,0,L|240:122,1,59.9999981689454,4|2,3:0|0:0,0:0:0:0:
267,158,155286,5,2,0:0:0:0:
262,174,155374,1,4,3:0:0:0:
169,270,155551,5,2,0:0:0:0:
159,320,155639,1,2,0:0:0:0:
176,323,155728,1,4,3:0:0:0:
58,302,155904,6,0,L|29:311,1,29.9999990844727,2|0,0:0|0:0,0:0:0:0:
0,384,156080,1,4,3:0:0:0:
131,192,156257,5,2,0:0:0:0:
121,242,156345,1,2,0:0:0:0:
138,245,156434,1,4,3:0:0:0:
180,123,156610,6,0,L|209:114,1,29.9999990844727,2|0,0:0|0:0,0:0:0:0:
238,41,156786,1,4,3:0:0:0:
262,206,156963,5,2,0:0:0:0:
252,256,157051,1,2,0:0:0:0:
269,259,157140,1,4,3:0:0:0:
374,278,157316,5,2,0:0:0:0:
364,328,157404,1,2,0:0:0:0:
381,331,157493,1,4,3:0:0:0:
467,252,157669,6,0,L|503:261,1,29.9999990844727,2|0,0:0|0:0,0:0:0:0:
281,292,157845,6,2,B|267:267|267:267|333:208|333:208|391:279|391:279|372:303,1,240,4|0,3:0|3:0,0:0:0:0:
318,359,158198,6,2,B|322:354|322:354|318:350|318:350|323:346|323:346|319:342|319:342|323:338|323:338|320:334|320:334|324:330|324:330|320:326|320:326|325:322|325:322|321:318|321:318|325:314|325:314|322:310|322:310|326:306|326:306|322:302|322:302|327:298|327:298|323:294|323:294|327:290|327:290|324:286|324:286|328:282|328:282|324:278|324:278|329:274|329:274|325:270|325:270|329:266|329:266|326:262|326:262|330:258|330:258|327:254|327:254|331:250|331:250|327:246|327:246|332:242|332:242|328:238|328:238|332:235|332:235|329:230|329:230|333:227|333:227|329:222|329:222|334:219|334:219|330:214|330:214|334:211|334:211|331:206|331:206|335:203|335:203|331:198|331:198|336:195|336:195|332:190|332:190|336:187|336:187|333:182|333:182|337:179|337:179|334:174|334:174|338:171|338:171|334:166|334:166|339:163|339:163|335:158|335:158|339:155|339:155|336:150|336:150|340:147|340:147|336:143|336:143|341:139|341:139|337:135|337:135|341:131|341:131|338:127|338:127|342:123|342:123|338:119|338:119|343:115|343:115|339:111|339:111|344:106,1,333.333333333333,4|0,3:0|0:0,0:1:0:0:
344,90,158551,5,4,3:0:0:0:
442,33,158728,6,0,L|439:68,1,29.9999990844727,2|0,0:0|0:0,0:0:0:0:
504,107,158904,1,4,3:0:0:0:
344,90,159080,6,0,L|347:55,1,29.9999990844727,2|0,0:0|0:0,0:0:0:0:
282,16,159256,1,4,3:0:0:0:
189,52,159433,5,2,0:0:0:0:
179,49,159521,1,2,0:0:0:0:
158,33,159610,5,4,3:0:0:0:
140,31,159698,1,2,0:0:0:0:
123,30,159786,1,2,0:0:0:0:
117,45,159875,1,2,0:0:0:0:
109,61,159963,1,4,3:0:0:0:
8,106,160139,5,2,0:0:0:0:
25,111,160227,1,2,0:0:0:0:
21,146,160316,2,0,L|7:215,1,59.9999981689454,4|2,3:0|0:0,0:0:0:0:
53,226,160580,5,2,0:0:0:0:
19,217,160669,2,0,L|5:286,1,59.9999981689454,4|2,3:0|0:0,0:0:0:0:
96,320,160933,1,0,0:0:0:0:
102,297,161022,5,4,3:0:0:0:
120,295,161110,1,2,0:0:0:0:
137,293,161198,1,2,0:0:0:0:
154,292,161286,1,2,0:0:0:0:
172,255,161375,6,2,B|195:273|195:273|285:254,1,120,4|0,3:0|0:0,0:1:0:0:
293,246,161551,2,2,B|383:227|383:227|406:245,1,120,2|0,0:0|0:0,0:1:0:0:
420,261,161728,2,2,B|402:301|402:301|327:317,1,120,4|0,3:0|0:0,0:1:0:0:
312,327,161904,2,2,B|242:342,1,40,0|0,0:0|0:0,0:0:0:0:
374,384,162080,1,4,3:0:0:0:
433,280,162257,5,2,0:0:0:0:
426,270,162346,1,2,0:0:0:0:
420,261,162433,2,2,L|454:182,1,59.9999981689454,4|0,0:3|0:0,0:1:0:0:
475,190,162610,2,2,L|441:111,1,59.9999981689454,2|0,0:0|0:0,0:1:0:0:
478,48,162786,1,4,3:0:0:0:
281,42,162963,5,2,0:0:0:0:
266,47,163051,1,2,0:0:0:0:
247,52,163139,6,0,B|228:30|246:-2|246:-2|272:30|253:56,1,120,4|0,0:3|3:0,0:0:0:0:
252,73,163492,5,8,3:2:0:0:
130,149,163669,1,4,3:0:0:0:
218,258,163845,1,4,3:2:0:0:
99,288,164022,5,2,0:0:0:0:
68,317,164110,1,2,0:0:0:0:
97,348,164198,1,8,0:0:0:0:
29,246,164375,6,0,L|-3:248,1,29.9999990844727,2|0,0:0|0:0,0:0:0:0:
166,242,164551,1,4,3:0:0:0:
87,181,164728,5,2,0:0:0:0:
118,152,164816,1,2,0:0:0:0:
89,121,164904,1,8,0:0:0:0:
210,49,165080,5,2,0:0:0:0:
179,78,165168,1,2,0:0:0:0:
208,109,165256,1,4,3:0:0:0:
304,203,165433,5,2,0:0:0:0:
275,172,165521,1,2,0:0:0:0:
244,201,165609,1,8,0:0:0:0:
352,136,165786,6,0,L|354:104,1,29.9999990844727,2|0,0:0|0:0,0:0:0:0:
347,281,165963,1,4,3:0:0:0:
409,205,166139,5,2,0:0:0:0:
438,236,166227,1,2,0:0:0:0:
469,207,166315,1,8,0:0:0:0:
512,106,166492,5,2,0:0:0:0:
483,75,166580,1,2,0:0:0:0:
452,104,166668,1,4,3:0:0:0:
318,63,166845,6,0,L|314:15,1,29.9999990844727,2|0,0:0|0:0,0:0:0:0:
243,3,167022,1,8,0:0:0:0:
114,27,167198,6,0,L|110:75,1,29.9999990844727,2|0,0:0|0:0,0:0:0:0:
22,106,167375,5,4,0:3:0:0:
0,111,167463,1,2,0:0:0:0:
30,137,167551,5,2,0:0:0:0:
66,143,167639,1,2,0:0:0:0:
102,150,167728,1,8,0:0:0:0:
165,203,167904,6,0,L|173:231,1,29.9999990844727,2|0,0:0|0:0,0:0:0:0:
248,247,168080,1,4,0:3:0:0:
256,135,168257,5,2,0:0:0:0:
220,129,168345,1,2,0:0:0:0:
184,122,168434,1,8,0:0:0:0:
330,189,168610,6,0,L|333:218,1,29.9999990844727,2|0,0:0|0:0,0:0:0:0:
316,80,168786,5,4,3:0:0:0:
352,86,168874,1,2,0:0:0:0:
388,93,168963,1,0,3:0:0:0:
477,91,169139,6,2,B|496:115|496:115|438:186|438:186|372:127|372:127|386:102,1,240,8|0,0:0|3:0,0:0:0:0:
423,23,169492,2,2,B|427:28|427:28|423:32|423:32|428:36|428:36|424:40|424:40|428:44|428:44|425:48|425:48|429:52|429:52|425:56|425:56|430:60|430:60|426:64|426:64|430:68|430:68|427:72|427:72|431:76|431:76|427:80|427:80|432:84|432:84|428:88|428:88|432:92|432:92|429:96|429:96|433:100|433:100|429:104|429:104|434:108|434:108|430:112|430:112|434:116|434:116|431:120|431:120|435:124|435:124|432:128|432:128|436:132|436:132|432:136|432:136|437:140|437:140|433:144|433:144|437:147|437:147|434:152|434:152|438:155|438:155|434:160|434:160|439:163|439:163|435:168|435:168|439:171|439:171|436:176|436:176|440:179|440:179|436:184|436:184|441:187|441:187|437:192|437:192|441:195|441:195|438:200|438:200|442:203|442:203|439:208|439:208|443:211|443:211|439:216|439:216|444:219|444:219|440:224|440:224|444:227|444:227|441:232|441:232|445:235|445:235|441:239|441:239|446:243|446:243|442:247|442:247|446:251|446:251|443:255|443:255|447:259|447:259|443:263|443:263|448:267|448:267|444:271|444:271|449:276,1,333.333333333333,4|0,3:0|0:0,0:1:0:0:
480,294,169845,6,0,B|487:310|487:310|454:374|454:374|410:318|410:318|416:299,1,179.999994506836,8|2,0:0|0:0,0:0:0:0:
440,224,170198,5,4,3:0:0:0:
465,135,170375,5,2,0:0:0:0:
434,107,170463,1,2,0:0:0:0:
405,138,170551,1,8,0:0:0:0:
338,215,170728,5,2,0:0:0:0:
316,195,170816,1,2,0:0:0:0:
294,175,170904,5,4,3:0:0:0:
271,202,170992,1,2,0:0:0:0:
248,229,171080,1,2,0:0:0:0:
220,206,171169,1,2,0:0:0:0:
192,184,171257,1,8,0:0:0:0:
209,98,171433,5,2,0:0:0:0:
237,121,171521,1,2,0:0:0:0:
260,94,171610,1,4,3:0:0:0:
240,10,171786,5,2,0:0:0:0:
229,23,171875,1,2,0:0:0:0:
215,12,171963,1,8,0:0:0:0:
140,49,172139,5,2,0:0:0:0:
130,42,172228,1,2,0:0:0:0:
108,19,172316,5,4,3:0:0:0:
100,47,172404,1,2,0:0:0:0:
91,75,172492,1,2,0:0:0:0:
82,103,172580,1,2,0:0:0:0:
53,135,172669,6,2,B|34:152|34:152|52:257,1,120,8|0,0:0|0:0,0:1:0:0:
66,239,172845,2,2,B|85:256|85:256|67:361,1,120,2|0,0:0|0:0,0:1:0:0:
140,369,173022,2,2,B|156:275|156:275|186:265,1,120,4|0,3:0|0:0,0:1:0:0:
185,259,173198,2,2,L|244:275,1,40,2|0,0:0|0:0,0:1:0:0:
143,184,173375,1,8,0:0:0:0:
302,217,173551,5,2,0:0:0:0:
284,223,173639,1,2,0:0:0:0:
256,192,173728,6,2,P|253:127|267:83,1,100,4|0,3:0|0:0,0:1:0:0:
267,84,173992,1,4,3:0:0:0:
273,75,174080,1,2,3:0:0:0:
396,9,174257,6,2,P|399:74|385:118,1,100,4|0,3:0|0:0,0:1:0:0:
385,117,174521,1,4,3:0:0:0:
379,126,174609,1,2,3:0:0:0:
256,192,174786,5,4,3:0:0:0:
376,196,175139,6,2,P|427:172|426:116,1,120,0|0,3:0|0:0,0:1:0:0:
433,98,175492,2,2,P|386:65|338:94,1,120,0|0,3:0|0:0,0:1:0:0:
319,97,175845,2,2,P|313:154|363:181,1,120,0|0,3:0|0:0,0:1:0:0:
376,196,176198,1,2,3:2:0:0:
390,191,176286,2,0,L|453:186,1,40
317,241,176551,6,2,L|234:247,1,80,2|0,3:2|0:0,0:1:0:0:
224,269,176816,2,2,L|182:272,1,40,2|0,0:0|3:0,0:1:0:0:
134,329,176992,5,2,0:0:0:0:
132,343,177080,1,0,0:0:0:0:
42,280,177257,6,2,B|63:275|63:275|77:206,1,80,2|0,3:2|0:0,0:1:0:0:
95,199,177522,2,2,B|102:159,1,40,2|0,0:2|3:0,0:1:0:0:
84,84,177698,5,2,0:0:0:0:
86,70,177786,1,0,0:0:0:0:
198,53,177963,6,2,B|170:96|170:96|188:154,1,100,2|0,3:2|0:0,0:1:0:0:
269,82,178228,2,2,B|276:107|276:107|264:127,1,50,2|0,0:0|3:0,0:1:0:0:
237,204,178404,5,2,0:0:0:0:
239,218,178492,1,0,0:0:0:0:
340,239,178669,6,2,B|324:189|324:189|357:139,1,100,2|0,3:2|0:0,0:1:0:0:
419,236,178934,2,2,B|432:213|432:213|426:190,1,50,2|0,0:0|3:0,0:1:0:0:
423,107,179110,5,2,0:0:0:0:
425,93,179198,1,0,0:0:0:0:
476,19,179375,6,2,P|417:51|369:34,1,119.999996337891,2|0,3:2|0:0,0:1:0:0:
295,62,179639,2,2,P|264:63|228:76,1,59.9999981689454,2|0,0:0|3:0,0:1:0:0:
163,103,179816,5,2,0:0:0:0:
161,117,179904,1,2,0:0:0:0:
91,157,180080,6,2,P|155:176|177:222,1,119.999996337891,2|0,3:2|0:0,0:1:0:0:
247,255,180345,2,2,P|232:281|227:310,1,59.9999981689454,2|0,0:0|3:0,0:1:0:0:
287,364,180522,5,2,0:0:0:0:
289,378,180610,1,2,0:0:0:0:
486,319,180786,6,0,L|404:308,1,69.9999978637696,2|0,3:2|0:0,0:0:0:0:
397,296,180963,2,0,L|375:358,1,59.9999981689454,2|0,3:2|0:0,0:0:0:0:
482,307,181139,6,0,L|400:296,1,69.9999978637696,2|0,3:2|0:0,0:0:0:0:
393,284,181316,2,0,L|371:346,1,59.9999981689454,2|0,3:2|0:0,0:0:0:0:
479,294,181492,6,0,L|397:283,1,69.9999978637696,2|0,3:2|0:0,0:0:0:0:
390,271,181669,2,0,L|368:333,1,59.9999981689454,2|0,3:2|0:0,0:0:0:0:
475,283,181845,6,0,L|393:272,1,69.9999978637696,2|0,3:2|0:0,0:0:0:0:
386,260,182022,2,0,L|364:322,1,59.9999981689454,2|0,3:2|0:0,0:0:0:0:
471,273,182198,6,0,L|389:262,1,69.9999978637696,2|0,3:2|0:0,0:0:0:0:
382,250,182375,2,0,L|360:312,1,59.9999981689454,2|0,3:2|0:0,0:0:0:0:
467,265,182551,6,0,L|385:254,1,69.9999978637696,2|0,3:2|0:0,0:0:0:0:
378,242,182728,2,0,L|356:304,1,59.9999981689454,2|0,3:2|0:0,0:0:0:0:
463,255,182904,6,0,L|381:244,1,69.9999978637696,2|0,3:2|0:0,0:0:0:0:
374,232,183081,2,0,L|352:294,1,59.9999981689454,2|0,3:2|0:0,0:0:0:0:
458,247,183257,6,0,L|376:236,1,69.9999978637696,2|0,3:2|0:0,0:0:0:0:
369,224,183434,2,0,L|347:286,1,59.9999981689454,2|0,3:2|0:0,0:0:0:0:
251,248,183610,5,2,3:2:0:0:
264,259,183698,1,0,3:2:0:0:
267,276,183786,1,2,3:2:0:0:
258,292,183875,1,0,3:2:0:0:
241,299,183963,1,2,3:2:0:0:
223,295,184051,1,0,3:2:0:0:
212,280,184139,1,2,3:2:0:0:
212,261,184228,1,0,3:2:0:0:
202,232,184316,5,2,3:2:0:0:
247,235,184404,1,0,3:2:0:0:
284,208,184492,1,2,3:2:0:0:
297,164,184581,1,0,3:2:0:0:
277,124,184669,1,2,3:2:0:0:
235,104,184757,1,0,3:2:0:0:
192,116,184845,1,2,3:2:0:0:
164,153,184934,1,0,3:2:0:0:
167,200,185022,6,0,P|171:222|171:246,18,39.9999987792969,2|0|0|0|2|2|2|2|2|2|2|2|2|2|2|2|2|2|8,3:2|0:0|0:0|0:0|0:0|0:0|0:0|0:0|0:0|0:0|0:0|0:0|0:0|0:0|0:0|0:0|0:0|0:0|0:0,0:0:0:0:
229,146,186433,6,0,P|245:112|232:52,1,80,4|0,3:2|0:0,0:0:0:0:
248,232,186610,2,0,P|269:262|327:281,1,80,2|0,0:0|0:0,0:0:0:0:
167,200,186786,2,0,P|129:203|84:244,1,80,8|0,3:2|0:0,0:0:0:0:
37,331,186963,5,0,3:0:0:0:
35,313,187051,1,0,3:0:0:0:
34,296,187139,2,0,P|66:318|105:322,1,80,4|0,3:0|0:0,0:0:0:0:
202,370,187316,1,0,3:0:0:0:
186,362,187404,2,0,P|221:345|244:313,1,80,2|8,0:0|3:2,0:0:0:0:
357,272,187580,1,0,3:0:0:0:
342,281,187668,2,0,P|345:242|329:206,1,80,2|0,0:0|0:0,0:0:0:0:
254,134,187845,5,4,3:0:0:0:
248,119,187933,1,0,3:0:0:0:
249,102,188022,1,0,3:0:0:0:
259,90,188110,1,0,3:0:0:0:
273,86,188198,2,0,P|264:124|263:171,1,80,8|0,3:2|0:0,0:0:0:0:
202,217,188375,2,0,P|218:253|215:292,1,80,2|0,0:0|0:0,0:0:0:0:
148,342,188551,5,4,3:0:0:0:
141,356,188639,2,0,P|213:341|311:338,1,160,2|0,0:0|0:0,0:0:0:0:
388,299,188904,2,0,P|376:340|385:380,1,80,8|0,3:2|0:0,0:0:0:0:
445,241,189080,2,0,P|457:200|448:160,1,80,2|0,0:0|0:0,0:0:0:0:
392,106,189257,2,0,P|346:113|292:126,1,80,4|0,3:0|0:0,0:0:0:0:
234,117,189433,6,0,P|274:122|314:121,1,80,2|0,0:0|0:0,0:0:0:0:
472,112,189610,2,0,P|432:107|392:107,1,80,8|0,3:2|0:0,0:0:0:0:
309,200,189786,6,0,P|314:160|313:120,1,80,2|0,0:0|0:0,0:0:0:0:
397,27,189963,2,0,P|392:67|392:107,1,80,4|0,3:0|0:0,0:0:0:0:
229,196,190139,6,0,P|234:156|233:116,1,80,2|0,0:0|0:0,0:0:0:0:
315,25,190316,2,0,P|310:65|310:105,1,80,8|0,3:2|0:0,0:0:0:0:
309,200,190492,6,0,P|314:160|313:120,1,80,2|0,0:0|0:0,0:0:0:0:
152,114,190669,2,0,P|147:154|147:194,1,80,4|0,3:0|0:0,0:0:0:0:
60,189,190845,6,0,P|65:149|66:110,1,80,2|0,0:0|0:0,0:0:0:0:
234,117,191022,2,0,P|229:157|229:197,1,80,8|0,3:2|0:0,0:0:0:0:
267,311,191198,5,0,3:0:0:0:
277,301,191286,1,0,3:0:0:0:
287,292,191375,2,0,L|366:284,1,80,4|0,3:0|0:0,0:0:0:0:
406,197,191551,5,2,0:0:0:0:
428,231,191639,2,0,L|507:223,1,80,2|8,0:0|3:2,0:0:0:0:
363,106,191816,5,2,0:0:0:0:
349,121,191904,2,0,L|253:112,1,80,2|0,0:0|0:0,0:0:0:0:
216,35,192080,6,0,P|171:9|124:34,1,80,4|0,3:0|0:0,0:0:0:0:
64,23,192257,2,0,P|63:74|109:102,1,80,2|0,0:0|0:0,0:0:0:0:
126,158,192433,2,0,P|170:132|171:79,1,80,8|0,3:2|0:0,0:0:0:0:
40,166,192610,5,0,3:0:0:0:
22,164,192698,1,0,3:0:0:0:
5,163,192786,2,0,P|27:195|31:234,1,80,4|0,3:0|0:0,0:0:0:0:
122,285,192963,1,0,3:0:0:0:
114,269,193051,2,0,P|97:304|65:327,1,80,2|8,0:0|3:2,0:0:0:0:
178,204,193228,1,0,3:0:0:0:
186,188,193316,2,0,P|189:226|211:259,1,80,2|0,0:0|0:0,0:0:0:0:
301,286,193492,6,0,L|396:294,1,80,4|0,3:0|0:0,0:0:0:0:
443,336,193669,2,0,B|464:302|464:302|450:264,1,80,2|0,0:0|0:0,0:0:0:0:
236,243,193845,2,0,B|215:277|215:277|228:314,1,80,8|0,3:2|0:0,0:0:0:0:
342,220,194022,5,0,3:0:0:0:
348,210,194110,1,0,3:0:0:0:
353,201,194198,2,0,L|334:363,2,160,4|2|8,3:0|0:0|3:2,0:0:0:0:
412,101,194728,6,0,P|354:158|292:115,1,160,2|4,0:0|3:0,0:0:0:0:
245,48,194992,1,0,3:0:0:0:
245,35,195080,2,0,P|210:53|194:89,1,80,2|0,0:0|0:0,0:0:0:0:
116,110,195257,2,0,P|114:149|137:181,1,80,8|0,3:2|0:0,0:0:0:0:
226,235,195433,6,0,B|313:218|287:292|382:273,1,160,2|4,0:0|3:0,0:0:0:0:
495,231,195698,1,0,3:0:0:0:
503,223,195786,2,0,P|471:206|425:224,1,80,2|0,0:0|0:0,0:0:0:0:
497,340,195963,2,0,P|459:352|424:334,1,80,8|0,3:2|0:0,0:0:0:0:
354,201,196139,2,0,P|363:163|396:142,1,80,2|0,0:0|0:0,0:0:0:0:
512,119,196316,5,4,3:0:0:0:
497,132,196404,1,0,3:0:0:0:
484,140,196492,2,0,P|480:100|458:67,1,80,2|0,0:0|0:0,0:0:0:0:
441,65,196669,2,0,P|405:48|365:52,1,80,8|0,3:2|0:0,0:0:0:0:
354,66,196845,2,0,P|321:88|305:125,1,80,2|0,0:0|0:0,0:0:0:0:
260,211,197022,6,0,P|244:175|212:152,1,80,4|0,3:0|0:0,0:0:0:0:
144,112,197198,2,0,P|108:128|85:160,1,80,2|0,0:0|0:0,0:0:0:0:
268,213,197375,6,0,P|255:175|225:150,1,80,8|0,3:2|0:0,0:0:0:0:
131,106,197551,2,0,P|96:125|76:158,1,80,2|0,0:0|0:0,0:0:0:0:
148,349,197728,6,0,P|168:315|166:277,1,80,4|0,3:3|0:0,0:0:0:0:
80,257,197904,2,0,P|58:289|64:327,1,80,2|0,0:0|0:0,0:0:0:0:
148,349,198080,2,0,P|153:265|169:191,1,160,8|0,3:2|0:0,0:0:0:0:
120,124,198345,5,0,3:0:0:0:
111,135,198433,2,0,P|168:159|218:65,1,160,4|0,3:0|0:0,0:0:0:0:
277,21,198698,1,0,3:0:0:0:
283,7,198786,2,0,P|310:35|314:75,1,80,8|0,3:2|0:0,0:0:0:0:
380,139,198963,2,0,P|352:167|349:206,1,80,2|0,0:0|0:0,0:0:0:0:
413,308,199139,5,4,3:0:0:0:
415,290,199227,1,0,3:0:0:0:
416,273,199315,2,0,P|384:295|345:299,1,80,2|0,0:0|0:0,0:0:0:0:
244,361,199492,5,8,3:2:0:0:
262,363,199580,1,0,3:0:0:0:
279,364,199668,2,0,P|257:332|253:293,1,80,2|0,0:0|0:0,0:0:0:0:
186,193,199845,5,4,3:0:0:0:
184,211,199934,1,0,3:0:0:0:
183,228,200022,2,0,P|215:206|254:202,1,80,2|0,0:0|0:0,0:0:0:0:
357,137,200199,5,8,3:2:0:0:
339,135,200287,1,0,3:0:0:0:
322,134,200375,2,0,P|344:166|348:205,1,80,2|0,0:0|0:0,0:0:0:0:
334,269,200551,5,4,3:0:0:0:
334,254,200639,2,0,P|340:175|351:93,1,160,2|0,0:0|0:0,0:0:0:0:
405,34,200904,5,8,3:2:0:0:
420,28,200992,1,0,3:0:0:0:
437,29,201081,1,0,3:0:0:0:
449,39,201169,1,0,3:0:0:0:
453,53,201257,2,0,P|415:44|368:43,1,80,4|0,3:0|0:0,0:0:0:0:
306,4,201433,2,0,P|270:20|231:17,1,80,2|0,0:0|0:0,0:0:0:0:
66,35,201610,6,0,P|49:72|67:126,1,80,8|0,3:2|0:0,0:0:0:0:
147,48,201786,2,0,P|153:86|137:122,1,80,2|0,0:0|0:0,0:0:0:0:
71,223,201963,5,4,3:0:0:0:
69,205,202051,1,0,3:0:0:0:
68,188,202139,2,0,P|100:210|139:214,1,80,2|0,0:0|0:0,0:0:0:0:
216,202,202316,5,8,3:2:0:0:
234,200,202404,1,0,3:0:0:0:
251,199,202492,2,0,P|229:231|225:270,1,80,2|0,0:0|0:0,0:0:0:0:
237,347,202669,5,4,3:0:0:0:
239,365,202757,1,0,3:0:0:0:
240,382,202845,2,0,P|208:360|169:356,1,80,2|0,0:0|0:0,0:0:0:0:
92,368,203022,5,8,3:2:0:0:
74,370,203110,1,0,3:0:0:0:
57,371,203198,2,0,P|79:339|83:300,1,80,2|0,0:0|0:0,0:0:0:0:
168,278,203375,2,0,P|153:241|123:215,1,80,4|0,3:0|0:0,0:0:0:0:
160,141,203551,2,0,P|123:131|85:140,1,80,2|0,0:0|0:0,0:0:0:0:
245,41,203728,6,0,P|270:99|294:41,1,160,8|0,3:2|0:0,0:0:0:0:
403,104,203992,5,0,3:0:0:0:
384,119,204080,2,0,P|387:192|460:203,1,160,4|0,3:0|0:0,0:0:0:0:
356,333,204345,5,0,3:0:0:0:
360,322,204433,2,0,P|351:284|313:267,1,80,10|0,3:2|0:0,0:0:0:0:
267,209,204610,2,0,P|229:197|195:222,1,80,2|0,0:0|0:0,0:0:0:0:
355,168,204786,5,4,3:0:0:0:
367,158,204875,1,0,3:0:0:0:
376,151,204963,2,0,P|367:113|338:87,1,80,2|0,0:0|0:0,0:0:0:0:
432,238,205139,5,8,3:2:0:0:
446,243,205228,1,0,3:0:0:0:
457,247,205316,2,0,P|485:220|506:173,1,80,2|0,0:0|0:0,0:0:0:0:
417,329,205492,5,4,3:0:0:0:
420,344,205581,1,0,3:0:0:0:
422,355,205669,2,0,P|459:366|510:367,1,80,2|0,0:0|0:0,0:0:0:0:
288,320,205845,5,8,3:2:0:0:
286,306,205933,1,0,3:0:0:0:
282,293,206022,2,0,P|244:281|194:281,1,80,2|0,0:0|0:0,0:0:0:0:
47,219,206198,6,0,P|85:208|107:176,1,80,4|0,3:0|0:0,0:0:0:0:
189,195,206375,2,0,P|161:168|122:166,1,80,2|0,0:0|0:0,0:0:0:0:
97,85,206551,2,0,P|87:124|105:159,1,80,8|0,3:2|0:0,0:0:0:0:
119,269,206728,5,0,3:0:0:0:
117,287,206816,1,0,3:0:0:0:
116,304,206904,2,0,P|148:282|187:278,1,80,4|0,3:0|0:0,0:0:0:0:
269,233,207080,5,0,3:0:0:0:
287,231,207168,1,0,3:0:0:0:
304,230,207257,2,0,P|279:267|281:310,1,80,8|0,3:2|0:0,0:0:0:0:
408,346,207433,2,0,P|433:309|431:266,1,80,2|0,0:0|0:0,0:0:0:0:
357,289,207610,5,4,3:2:0:0:
357,297,207698,1,0,3:0:0:0:
357,306,207786,1,2,0:0:0:0:
299,215,207963,5,0,3:0:0:0:
284,224,208051,1,0,3:0:0:0:
269,233,208139,1,2,0:0:0:0:
294,118,208316,5,0,3:0:0:0:
265,112,208404,1,0,3:0:0:0:
237,108,208492,1,2,0:0:0:0:
462,86,208669,6,2,B|480:88|485:65|506:61|506:61|459:48|450:85,1,120,8|0,0:0|3:0,0:1:0:0:
447,174,209022,5,4,3:0:0:0:
433,169,209110,1,0,3:0:0:0:
417,169,209198,2,0,P|390:190|386:214,1,59.9999981689454,2|0,0:0|0:0,0:0:0:0:
399,294,209375,2,0,P|398:199|361:87,1,200,8|0,3:2|0:0,0:0:0:0:
296,33,209728,6,0,B|287:53|287:53|151:73|151:73|143:91,1,179.999994506836,4|0,3:0|0:0,0:0:0:0:
152,106,209992,2,0,B|143:126|143:126|7:146|7:146|0:164,1,179.999994506836,2|0,0:0|0:0,0:0:0:0:
6,134,210257,2,0,B|25:154|25:154|87:145,1,89.9999972534181,2|0,0:0|0:0,0:0:0:0:
143,195,210433,5,4,3:0:0:0:
149,200,210522,1,0,3:0:0:0:
156,206,210610,2,0,B|192:230|192:230|166:267,1,89.9999972534181,2|0,0:0|0:0,0:0:0:0:
77,293,210786,2,0,B|42:265|42:265|68:228,1,89.9999972534181,8|0,3:2|0:0,0:0:0:0:
143,195,210963,2,0,L|151:105,1,89.9999972534181,2|0,0:0|0:0,0:0:0:0:
227,132,211139,5,4,3:0:0:0:
227,132,211228,2,0,B|292:143|292:143|331:117|331:117|397:130,1,179.999994506836,2|0,0:0|0:0,0:0:0:0:
450,77,211492,2,0,B|476:112|476:112|468:156,1,89.9999972534181,8|0,3:2|0:0,0:0:0:0:
464,203,211669,2,0,B|441:173|441:173|469:2,1,179.999994506836,2|4,0:0|3:0,0:0:0:0:
393,232,212022,6,0,B|350:237|350:237|316:208,1,89.9999972534181,2|0,0:0|0:0,0:0:0:0:
292,118,212198,2,0,B|334:102|334:102|351:61,1,89.9999972534181,8|0,3:2|0:0,0:0:0:0:
190,16,212375,2,0,B|216:51|216:51|208:95,1,89.9999972534181,2|0,0:0|0:0,0:0:0:0:
231,181,212551,6,0,B|225:198|225:198|123:213,1,89.9999972534181,4|0,3:0|0:0,0:0:0:0:
77,262,212728,2,0,B|71:245|71:245|0:234,1,89.9999972534181,2|0,0:0|0:0,0:0:0:0:
231,181,212904,6,0,B|214:187|214:187|199:289,1,89.9999972534181,8|0,3:2|0:0,0:0:0:0:
77,262,213080,2,0,B|94:256|94:256|109:154,1,89.9999972534181,2|0,0:0|0:0,0:0:0:0:
66,105,213257,5,4,3:0:0:0:
54,89,213345,1,0,3:0:0:0:
49,71,213433,1,0,3:0:0:0:
56,53,213522,1,0,3:0:0:0:
101,47,213610,5,8,3:2:0:0:
112,60,213699,1,0,3:0:0:0:
117,79,213787,1,0,3:0:0:0:
114,96,213875,1,0,3:0:0:0:
147,108,213963,6,0,B|185:130|185:130|230:105,1,89.9999972534181,4|0,3:0|0:0,0:0:0:0:
266,189,214139,5,0,3:0:0:0:
278,178,214228,2,0,B|318:155|318:155|356:177,1,89.9999972534181,2|8,0:0|3:2,0:0:0:0:
468,158,214404,5,0,3:0:0:0:
457,166,214493,2,0,B|417:189|417:189|379:167,1,89.9999972534181,2|0,0:0|0:0,0:0:0:0:
366,87,214669,1,4,3:0:0:0:
476,25,214845,6,0,B|461:31|461:31|452:104,1,89.9999972534181,2|0,0:0|0:0,0:0:0:0:
379,167,215022,2,0,B|394:173|394:173|403:246,1,89.9999972534181,8|0,3:2|0:0,0:0:0:0:
340,291,215198,5,0,3:0:0:0:
336,299,215286,1,0,3:0:0:0:
332,307,215375,2,0,B|322:224|322:224|305:212|305:212|297:134,1,179.999994506836,4|0,3:0|0:0,0:0:0:0:
338,63,215639,5,2,0:0:0:0:
321,56,215728,2,0,B|285:29|285:29|258:65,1,89.9999972534181,8|0,3:2|0:0,0:0:0:0:
210,134,215904,2,0,B|160:142|160:142|159:150|159:150|107:145|107:145|105:153|105:153|37:163,1,179.999994506836,2|4,0:0|3:0,0:0:0:0:
120,191,216257,6,0,B|128:145|128:145|102:110,1,89.9999972534181,2|0,0:0|0:0,0:0:0:0:
177,19,216433,2,0,B|168:64|168:64|194:99,1,89.9999972534181,8|0,3:2|0:0,0:0:0:0:
230,172,216610,2,0,B|204:179|204:179|191:246,1,89.9999972534181,2|0,0:0|0:0,0:0:0:0:
236,307,216786,5,4,3:0:0:0:
240,315,216874,1,0,3:0:0:0:
244,323,216963,2,0,B|270:316|270:316|282:248,1,89.9999972534181,2|0,0:0|0:0,0:0:0:0:
389,280,217139,5,10,3:2:0:0:
385,272,217227,1,0,3:0:0:0:
381,264,217316,2,0,B|355:271|355:271|343:339,1,89.9999972534181,2|0,0:0|0:0,0:0:0:0:
324,182,217492,5,4,3:0:0:0:
328,190,217580,1,0,3:0:0:0:
332,198,217669,2,0,B|358:191|358:191|370:123,1,89.9999972534181,2|0,0:0|0:0,0:0:0:0:
327,63,217845,2,0,B|301:70|301:70|288:137,1,89.9999972534181,8|0,3:2|0:0,0:0:0:0:
241,197,218022,2,0,L|432:180,1,179.999994506836,2|4,0:0|3:0,0:0:0:0:
426,87,218375,6,0,B|456:124|456:124|431:157,1,89.9999972534181,2|0,0:0|0:0,0:0:0:0:
332,198,218552,2,0,B|302:159|302:159|327:127,1,89.9999972534181,8|0,3:2|0:0,0:0:0:0:
426,87,218728,2,0,L|416:279,1,179.999994506836,2|4,0:0|3:0,0:0:0:0:
323,332,219080,6,0,B|300:292|243:323,1,89.9999972534181,2|0,0:0|0:0,0:0:0:0:
220,233,219257,2,0,B|166:236|160:294,1,89.9999972534181,8|0,3:2|0:0,0:0:0:0:
82,272,219433,2,0,P|55:290|88:336,1,89.9999972534181,2|0,0:0|0:0,0:0:0:0:
161,379,219610,5,4,3:0:0:0:
120,187,219786,1,0,0:0:0:0:
1,294,219963,6,0,P|56:293|95:245,1,89.9999972534181,8|0,3:2|0:0,0:0:0:0:
179,295,220139,2,0,P|216:271|260:274,1,89.9999972534181,2|0,0:0|0:0,0:0:0:0:
239,353,220316,5,4,3:3:0:0:
246,336,220404,1,0,3:0:0:0:
254,319,220492,1,0,3:0:0:0:
261,302,220580,1,0,3:0:0:0:
296,285,220669,5,8,3:2:0:0:
289,267,220757,1,0,3:0:0:0:
283,249,220845,1,0,3:0:0:0:
277,232,220933,1,0,3:0:0:0:
270,199,221022,6,0,B|251:184|251:184|284:95|284:95|349:147|349:147|324:215,1,269.999991760254,4|0,3:0|0:0,0:0:0:0:
280,278,221375,1,8,3:2:0:0:
128,128,221551,6,0,B|107:112|107:112|142:24|142:24|207:75|207:75|168:179|168:179|177:231,1,359.999989013672,2|2,0:0|0:0,0:0:0:0:
259,229,221992,1,0,3:0:0:0:
256,247,222080,2,0,L|240:342,1,89.9999972534181,8|0,3:2|0:0,0:0:0:0:
155,364,222257,6,0,L|333:338,1,179.999994506836,2|4,0:0|3:0,0:0:0:0:
352,240,222522,1,0,3:0:0:0:
317,258,222610,2,0,B|327:200|327:200|303:146|303:146|311:83,1,179.999994506836,2|8,0:0|0:2,0:0:0:0:
456,120,222963,6,0,B|468:35|468:35|399:-8|399:-8|380:137|380:137|404:190|404:190|388:283,1,449.99998626709,2|0,0:0|0:0,0:0:0:0:
292,330,223492,5,8,3:2:0:0:
274,332,223580,1,0,3:0:0:0:
255,336,223669,1,0,3:0:0:0:
237,338,223757,1,0,3:0:0:0:
194,351,223845,6,0,B|215:234|215:234|302:149|302:149|320:17,1,359.999989013672,4|0,3:0|0:0,0:0:0:0:
406,13,224198,1,10,3:2:0:0:
252,74,224375,6,0,B|244:155|244:155|276:228|276:228|263:306,1,239.999992675781,2|4,0:0|3:0,0:0:0:0:
191,256,224728,6,0,B|201:202|201:202|318:179|318:179|326:111,1,239.999992675781,2|8,0:0|3:2,0:0:0:0:
182,132,225080,6,0,B|175:170|175:170|335:209|335:209|330:246,1,239.999992675781,2|4,0:0|3:0,0:0:0:0:
151,248,225433,6,0,L|379:165,1,239.999992675781,2|8,0:0|3:2,0:0:0:0:
468,128,225786,6,0,B|504:98|504:98|486:55|486:55|442:58|442:58|433:99,1,179.999994506836,2|4,0:0|3:0,0:0:0:0:
471,145,226051,1,0,3:0:0:0:
474,162,226139,1,0,3:0:0:0:
477,179,226228,1,0,3:0:0:0:
480,196,226316,1,8,3:2:0:0:
483,213,226404,1,0,3:0:0:0:
486,230,226492,1,0,3:0:0:0:
398,170,226669,6,0,L|219:188,1,179.999994506836,4|0,3:0|0:0,0:0:0:0:
160,119,226933,1,0,3:0:0:0:
153,129,227022,2,0,B|127:166|127:166|134:216,1,89.9999972534181,8|0,3:2|0:0,0:0:0:0:
190,268,227198,2,0,B|214:239|214:239|202:154|202:154|159:118,1,179.999994506836,2|4,0:0|3:0,0:0:0:0:
248,372,227551,6,0,B|243:327|243:327|140:264|140:264|133:210,1,220.000006713867,2|8,0:0|3:2,0:0:0:0:
96,369,227904,2,0,B|90:333|90:333|158:261|158:261|152:217,1,179.999994506836,2|4,0:0|3:0,0:0:0:0:
58,164,228257,6,0,B|67:137|67:137|187:116|187:116|206:138,1,179.999994506836,2|8,0:0|3:2,0:0:0:0:
316,37,228610,6,0,B|321:83|321:83|278:102|278:102|249:67|249:67|272:30|272:30|316:37,1,179.999994506836,2|4,0:0|3:0,0:0:0:0:
388,0,228875,1,0,3:0:0:0:
390,17,228963,1,0,3:0:0:0:
392,34,229051,1,0,3:0:0:0:
394,51,229139,1,8,3:2:0:0:
397,68,229228,1,0,3:0:0:0:
400,85,229316,2,0,L|389:171,1,59.9999981689454,2|0,0:0|0:0,0:0:0:0:
491,172,229492,6,0,B|468:183|468:183|459:279,1,89.9999972534181,4|0,3:0|0:0,0:0:0:0:
376,225,229669,1,0,3:0:0:0:
367,228,229757,1,0,3:0:0:0:
358,232,229845,2,0,B|380:243|380:243|389:339,1,89.9999972534181,8|0,3:2|0:0,0:0:0:0:
319,348,230022,2,0,B|297:337|297:337|288:241,1,89.9999972534181,2|0,0:0|0:0,0:0:0:0:
243,190,230198,5,4,3:0:0:0:
235,186,230286,1,0,3:0:0:0:
225,182,230375,2,0,B|202:193|202:193|193:289,1,89.9999972534181,2|0,0:0|0:0,0:0:0:0:
85,136,230551,5,8,3:2:0:0:
94,133,230639,1,0,3:0:0:0:
104,131,230728,2,0,B|124:145|124:145|116:241,1,89.9999972534181,2|0,0:0|0:0,0:0:0:0:
145,291,230904,5,0,3:0:0:0:
155,293,230992,1,0,3:0:0:0:
165,294,231080,1,2,3:2:0:0:
176,295,231169,1,0,3:0:0:0:
198,317,231257,5,0,3:0:0:0:
207,279,231345,1,0,3:0:0:0:
217,241,231433,1,0,3:0:0:0:
226,202,231522,1,0,3:0:0:0:
256,192,231610,5,4,0:0:0:0:
