osu file format v14

[General]
AudioFilename: audio.mp3
AudioLeadIn: 0
PreviewTime: 154432
Countdown: 0
SampleSet: Soft
StackLeniency: 0.7
Mode: 0
LetterboxInBreaks: 0
WidescreenStoryboard: 1

[Editor]
Bookmarks: 13832,15232,16832,20032,26632,39432,52232,87432,101032,116232,141832,143432,145032,146632,148232,149832,151432,152732,154632,167432,196232,221832,223232,225032,226432,228232,233832
DistanceSpacing: 1
BeatDivisor: 4
GridSize: 4
TimelineZoom: 2.799999

[Metadata]
Title:Day by Day feat. Nicole Curry
TitleUnicode:Day by Day feat. Nicole Curry
Artist:lapix
ArtistUnicode:lapix
Creator:IOException
Version:Expert
Source:
Tags:deadcode ceo_of_osu ceo of osu 5wc 2022 qf hd3 electronic english megarex spd gar speed garage 001 5 Digit World Cup Quarterfinals
BeatmapID:4036420
BeatmapSetID:1760668

[Difficulty]
HPDrainRate:6
CircleSize:3.8
OverallDifficulty:8.5
ApproachRate:9.5
SliderMultiplier:3.19999990463257
SliderTickRate:1

[Events]
//Background and Video events
0,0,"bg12.jpeg",0,0
//Break Periods
//Storyboard Layer 0 (Background)
//Storyboard Layer 1 (Fail)
//Storyboard Layer 2 (Pass)
//Storyboard Layer 3 (Foreground)
//Storyboard Layer 4 (Overlay)
//Storyboard Sound Samples

[TimingPoints]
1032,400,4,2,1,60,1,0
1032,-66.6666666666667,4,2,1,60,0,0
1632,-133.333333333333,4,2,1,60,0,0
2632,-66.6666666666667,4,2,1,60,0,0
3332,-100,4,2,1,60,0,0
4032,-66.6666666666667,4,2,1,60,0,0
4432,-133.333333333333,4,2,1,60,0,0
7232,-66.6666666666667,4,2,1,60,0,0
8032,-133.333333333333,4,2,1,60,0,0
10432,-66.6666666666667,4,2,1,60,0,0
10832,-133.333333333333,4,2,1,60,0,0
12032,-66.6666666666667,4,2,1,60,0,0
12432,-100,4,2,1,60,0,0
13832,-66.6666666666667,4,2,1,60,0,0
14632,-200,4,2,1,60,0,0
15232,-100,4,2,1,60,0,0
18632,-66.6666666666667,4,2,1,60,0,0
19032,-100,4,2,1,60,0,0
20232,-100,4,2,1,70,0,0
23432,-100,4,2,1,80,0,0
25165,-100,4,2,1,65,0,0
25932,-100,4,2,1,85,0,0
26032,-66.6666666666667,4,2,1,85,0,0
26832,-66.6666666666667,4,2,1,70,0,0
27832,-100,4,2,1,70,0,0
29032,-66.6666666666667,4,2,1,70,0,0
31032,-100,4,2,1,70,0,0
31632,-200,4,2,1,70,0,0
32232,-80,4,2,1,70,0,0
33032,-100,4,2,1,75,0,0
33832,-66.6666666666667,4,2,1,75,0,0
34132,-133.333333333333,4,2,1,75,0,0
34432,-100,4,2,1,75,0,0
36032,-50,4,2,1,85,0,0
37232,-100,4,2,1,85,0,0
37832,-200,4,2,1,75,0,0
38832,-100,4,2,1,75,0,0
39032,-58.8235294117647,4,2,1,75,0,0
39432,-100,4,2,1,75,0,0
52232,-100,4,2,1,65,0,0
52432,-133.333333333333,4,2,1,65,0,0
53832,-66.6666666666667,4,2,1,65,0,0
54432,-133.333333333333,4,2,1,65,0,0
55432,-100,4,2,1,65,0,0
56232,-83.3333333333333,4,2,1,65,0,0
57832,-100,4,2,1,65,0,0
58232,-125,4,2,1,65,0,0
58632,-100,4,2,1,65,0,0
59432,-133.333333333333,4,2,1,65,0,0
60032,-83.3333333333333,4,2,1,65,0,0
60632,-133.333333333333,4,2,1,65,0,0
61832,-83.3333333333333,4,2,1,75,0,0
63232,-100,4,2,1,75,0,0
63832,-66.6666666666667,4,2,1,75,0,0
64532,-100,4,2,1,75,0,0
65232,-100,4,2,1,65,0,0
65632,-133.333333333333,4,2,1,65,0,0
68032,-83.3333333333333,4,2,1,65,0,0
68632,-133.333333333333,4,2,1,65,0,0
69032,-100,4,2,1,65,0,0
69432,-83.3333333333333,4,2,1,65,0,0
70232,-100,4,2,1,65,0,0
71832,-66.6666666666667,4,2,1,65,0,0
72232,-100,4,2,1,65,0,0
73032,-100,4,2,1,70,0,0
73832,-100,4,2,1,75,0,0
74032,-83.3333333333333,4,2,1,75,0,0
74432,-125,4,2,1,75,0,0
74632,-125,4,2,1,50,0,0
75032,-125,4,2,1,90,0,0
75232,-100,4,2,1,90,0,0
77432,-133.333333333333,4,2,1,75,0,0
77632,-100,4,2,1,75,0,0
77832,-83.3333333333333,4,2,1,75,0,0
78232,-100,4,2,1,75,0,0
81032,-100,4,2,1,80,0,0
84232,-100,4,2,1,85,0,0
85032,-133.333333333333,4,2,1,85,0,0
85832,-133.333333333333,4,2,1,65,0,0
87032,-125,4,2,1,65,0,0
87432,-55.5555555555556,4,2,1,100,0,0
87832,-100,4,2,1,100,0,0
88832,-83.3333333333333,4,2,1,100,0,0
90132,-100,4,2,1,100,0,0
90832,-133.333333333333,4,2,1,100,0,0
93032,-100,4,2,1,100,0,0
93832,-83.3333333333333,4,2,1,100,0,0
94332,-100,4,2,1,100,0,0
95232,-66.6666666666667,4,2,1,100,0,0
95832,-100,4,2,1,100,0,0
96832,-83.3333333333333,4,2,1,100,0,0
97432,-200,4,2,1,100,0,0
97632,-166.666666666667,4,2,1,100,0,0
97832,-142.857142857143,4,2,1,100,0,0
98032,-125,4,2,1,100,0,0
98232,-111.111111111111,4,2,1,100,0,0
98432,-100,4,2,1,100,0,0
100432,-133.333333333333,4,2,1,85,0,0
103832,-100,4,2,1,85,0,0
104832,-83.3333333333333,4,2,1,85,0,0
106832,-133.333333333333,4,2,1,85,0,0
107032,-66.6666666666667,4,2,1,100,0,0
107432,-100,4,2,1,100,0,0
108032,-66.6666666666667,4,2,1,100,0,0
108632,-100,4,2,1,100,0,0
109632,-50,4,2,1,100,0,0
110032,-133.333333333333,4,2,1,100,0,0
110432,-50,4,2,1,100,0,0
110832,-133.333333333333,4,2,1,100,0,0
111232,-50,4,2,1,100,0,0
112432,-133.333333333333,4,2,1,100,0,0
112832,-83.3333333333333,4,2,1,100,0,0
113232,-100,4,2,1,100,0,0
114232,-83.3333333333333,4,2,1,100,0,0
115032,-133.333333333333,4,2,1,100,0,0
115832,-100,4,2,1,100,0,0
116432,-133.333333333333,4,2,1,75,0,0
118032,-100,4,2,1,75,0,0
118432,-133.333333333333,4,2,1,75,0,0
118732,-100,4,2,1,75,0,0
119032,-133.333333333333,4,2,1,75,0,0
122832,-66.6666666666667,4,2,1,75,0,0
123132,-133.333333333333,4,2,1,75,0,0
125632,-83.3333333333333,4,2,1,75,0,0
126032,-133.333333333333,4,2,1,75,0,0
127432,-100,4,2,1,75,0,0
129232,-100,4,2,1,65,0,0
133032,-100,4,2,1,75,0,0
133832,-66.6666666666667,4,2,1,75,0,0
135032,-83.3333333333333,4,2,1,75,0,0
135332,-200,4,2,1,75,0,0
135632,-66.6666666666667,4,2,1,65,0,0
142232,-66.6666666666667,4,2,1,50,0,0
142432,-133.333333333333,4,2,1,50,0,0
148232,-250,4,2,1,60,0,0
150832,-125,4,2,1,60,0,0
152032,-166.666666666667,4,2,1,60,0,0
152832,-250.000000000001,4,2,1,60,0,0
153932,-250.000000000001,4,2,1,75,0,0
154032,-133.333333333333,4,2,1,75,0,0
154232,-66.6666666666667,4,2,1,75,0,0
155832,-58.8235294117647,4,2,1,75,0,0
156032,-133.333333333333,4,2,1,75,0,0
157032,-58.8235294117647,4,2,1,75,0,0
159232,-117.647058823529,4,2,1,75,0,0
159832,-100,4,2,1,75,0,0
160032,-80,4,2,1,75,0,0
161032,-80,4,2,1,85,0,0
161232,-100,4,2,1,85,0,0
162432,-76.9230769230769,4,2,1,85,0,0
162832,-83.3333333333333,4,2,1,85,0,0
164432,-83.3333333333333,4,2,1,75,0,0
165032,-100,4,2,1,75,0,0
165432,-125,4,2,1,75,0,0
165632,-66.6666666666667,4,2,1,75,0,0
166032,-133.333333333333,4,2,1,75,0,0
166232,-100,4,2,1,75,0,0
167832,-83.3333333333333,4,2,1,75,0,0
168232,-100,4,2,1,75,0,0
168832,-83.3333333333333,4,2,1,75,0,0
169232,-100,4,2,1,75,0,0
170432,-76.9230769230769,4,2,1,75,0,0
170832,-133.333333333333,4,2,1,75,0,0
171032,-100,4,2,1,75,0,0
172232,-100,4,2,1,80,0,0
173332,-40,4,2,1,80,0,0
173632,-100,4,2,1,80,0,0
174232,-37.5000093750023,4,2,1,90,0,0
174632,-100,4,2,1,90,0,0
175232,-50,4,2,1,90,0,0
175632,-100,4,2,1,90,0,0
176832,-66.6666666666667,4,2,1,90,0,0
178432,-200,4,2,1,90,0,0
180232,-133.333333333333,4,2,1,90,0,0
180632,-117.647058823529,4,2,1,90,0,0
181032,-105.263157894737,4,2,1,90,0,0
181432,-95.2380952380954,4,2,1,90,0,0
182432,-200,4,2,1,90,0,0
182832,-100,4,2,1,90,0,0
183032,-66.6666666666667,4,2,1,90,0,0
183632,-111.111111111111,4,2,1,80,0,0
185932,-90.9090909090909,4,2,1,80,0,0
186232,-111.111111111111,4,2,1,80,0,0
190032,-62.5,4,2,1,80,0,0
190732,-100,4,2,1,80,0,0
192332,-83.3333333333333,4,2,1,80,0,0
193032,-100,4,2,1,80,0,0
193932,-83.3333333333333,4,2,1,80,0,0
194232,-100,4,2,1,80,0,0
195832,-133.333333333333,4,2,1,80,0,0
196232,-66.6666666666667,4,2,1,80,0,0
196432,-66.6666666666667,4,2,1,75,0,0
197032,-111.111111111111,4,2,1,75,0,0
201432,-58.8235294117647,4,2,1,90,0,0
202832,-111.111111111111,4,2,1,75,0,0
205632,-66.6666666666667,4,2,1,75,0,0
206032,-100,4,2,1,75,0,0
207632,-100,4,2,1,85,0,0
209032,-66.6666666666667,4,2,1,85,0,0
209232,-66.6666666666667,4,2,1,75,0,0
209832,-111.111111111111,4,2,1,75,0,0
213632,-90.9090909090908,4,2,1,75,0,0
214832,-133.333333333333,4,2,1,75,0,0
215032,-83.3333333333333,4,2,1,75,0,0
215632,-66.6666666666667,4,2,1,75,0,0
217132,-111.111111111111,4,2,1,75,0,0
218832,-66.6666666666667,4,2,1,75,0,0
220432,-111.111111111111,4,2,1,75,0,0
221832,-333.333333333333,4,2,1,75,0,0
223232,-133.333333333333,4,2,1,45,0,0
225032,-333.333333333333,4,2,1,45,0,0
226432,-150.0000000015,4,2,1,45,0,0

[Colours]
Combo1 : 128,128,255
Combo2 : 255,136,136
Combo3 : 79,125,185
Combo4 : 200,200,200
Combo5 : 220,189,47
Combo6 : 216,61,61

[HitObjects]
455,101,1032,6,0,P|255:122|70:164,1,359.999989271164,4|0,1:1|0:0,0:0:0:0:
260,40,1432,5,10,2:2:0:0:
260,40,1532,1,2,2:2:0:0:
260,40,1632,2,0,P|273:75|276:112,2,59.9999982118608,2|2|0,2:2|3:2|0:0,0:0:0:0:
320,195,1932,1,2,3:2:0:0:
320,195,2032,2,0,P|315:235|311:271,1,59.9999982118608,2|0,1:2|0:0,0:0:0:0:
407,129,2232,1,10,2:2:0:0:
407,129,2332,1,2,2:2:0:0:
407,129,2432,2,0,P|427:102|453:82,1,59.9999982118608,2|2,1:2|3:2,0:0:0:0:
231,180,2632,6,0,B|195:175|172:193|172:193|185:168|223:168,1,119.999996423721,0|2,0:0|3:2,0:0:0:0:
324,82,2832,1,2,1:2:0:0:
336,109,2932,1,2,2:2:0:0:
407,129,3032,2,0,B|442:135|459:159|459:159|454:131|418:120,1,119.999996423721,10|0,2:2|0:0,0:0:0:0:
234,23,3232,1,2,2:2:0:0:
248,5,3332,2,0,P|236:60|234:117,1,79.9999976158142,2|0,3:2|0:0,0:0:0:0:
156,252,3532,1,2,3:2:0:0:
156,252,3632,2,0,P|151:212|141:173,1,79.9999976158142,2|0,2:2|1:1,0:0:0:0:
30,99,3832,1,10,2:2:0:0:
30,99,3932,1,2,3:2:0:0:
0,197,4032,6,0,P|82:171|242:143,1,239.999992847443,6|0,1:2|0:0,0:0:0:0:
233,143,4432,6,0,P|226:109|214:75,1,59.9999982118608,2|0,3:2|0:0,0:0:0:0:
355,26,4632,1,10,2:2:0:0:
355,26,4732,1,2,2:2:0:0:
355,26,4832,2,0,P|319:19|289:4,1,59.9999982118608,2|2,2:2|3:2,0:0:0:0:
332,128,5032,1,0,0:0:0:0:
310,164,5132,1,2,3:2:0:0:
315,202,5232,1,2,1:2:0:0:
338,234,5332,1,0,0:0:0:0:
371,250,5432,2,0,P|362:282|358:316,1,59.9999982118608,10|2,2:2|1:2,0:0:0:0:
426,377,5632,1,2,1:2:0:0:
426,377,5732,6,0,P|434:327|432:303,1,59.9999982118608,2|0,3:2|0:0,0:0:0:0:
285,352,5932,1,2,3:2:0:0:
285,352,6032,1,2,1:2:0:0:
512,325,6232,5,10,2:2:0:0:
272,247,6432,2,0,L|279:290,2,29.9999991059304,2|0|2,1:2|0:0|3:2,0:0:0:0:
161,265,6632,5,2,1:2:0:0:
219,254,6732,1,2,3:2:0:0:
251,213,6832,1,6,2:2:0:0:
244,163,6932,1,0,1:1:0:0:
194,141,7032,2,0,P|185:100|187:71,1,59.9999982118608,14|0,2:2|0:0,0:0:0:0:
261,1,7232,2,0,B|277:37|271:66|271:66|268:37|249:9,1,119.999996423721,2|2,1:2|2:2,0:0:0:0:
60,67,7432,6,0,P|212:49|512:23,1,359.999989271164,4|0,1:1|0:0,0:0:0:0:
447,164,7832,5,10,2:2:0:0:
447,164,7932,1,2,2:2:0:0:
447,164,8032,2,0,P|399:143|376:140,2,59.9999982118608,2|2|0,2:2|3:2|0:0,0:0:0:0:
448,13,8332,1,2,3:2:0:0:
448,13,8432,2,0,L|435:108,1,59.9999982118608,2|0,1:2|0:0,0:0:0:0:
399,289,8632,2,0,L|386:194,1,59.9999982118608,10|2,2:2|2:2,0:0:0:0:
308,110,8832,1,2,1:2:0:0:
308,110,8932,6,0,P|305:151|319:193,1,59.9999982118608,2|0,3:2|0:0,0:0:0:0:
255,258,9132,1,2,3:2:0:0:
255,258,9232,1,2,1:2:0:0:
339,21,9432,2,0,P|367:46|399:64,1,59.9999982118608,10|0,2:2|0:0,0:0:0:0:
255,258,9632,2,0,P|227:233|195:215,1,59.9999982118608,2|2,2:2|3:2,0:0:0:0:
398,147,9832,1,0,0:0:0:0:
398,147,9932,2,0,P|439:137|472:135,1,59.9999982118608,2|2,3:2|2:2,0:0:0:0:
214,93,10132,1,0,1:1:0:0:
196,74,10232,1,10,2:2:0:0:
176,57,10332,1,2,3:2:0:0:
257,19,10432,6,0,P|224:148|204:258,1,239.999992847443,6|0,1:2|0:0,0:0:0:0:
204,253,10832,6,0,P|238:244|278:243,1,59.9999982118608,2|0,3:2|0:0,0:0:0:0:
159,170,11032,1,10,2:2:0:0:
126,208,11132,1,2,2:2:0:0:
76,206,11232,1,2,2:2:0:0:
32,173,11332,1,2,3:2:0:0:
53,94,11432,1,0,0:0:0:0:
69,79,11532,1,2,3:2:0:0:
86,67,11632,2,0,P|91:36|98:9,2,39.9999988079072,2|0|0,1:2|0:0|0:0,0:0:0:0:
135,139,11832,2,0,P|140:170|147:197,2,39.9999988079072,10|0|0,2:2|0:0|0:0,0:0:0:0:
0,88,12032,6,0,P|116:103|248:133,1,239.999992847443,2|0,1:2|0:0,0:0:0:0:
384,52,12332,1,2,3:2:0:0:
383,39,12432,2,0,P|348:66|310:79,1,79.9999976158142,2|0,1:2|0:0,0:0:0:0:
231,286,12632,2,0,P|221:202|245:107,1,159.999995231628,10|2,2:2|1:2,0:0:0:0:
419,178,12932,1,2,3:2:0:0:
353,254,13032,6,0,P|351:230|341:211,4,39.9999988079071,2|0|2|0|6,1:2|0:0|3:2|0:0|2:2,0:0:0:0:
309,325,13332,1,0,1:1:0:0:
303,344,13432,2,0,P|351:353|398:379,1,79.9999976158142,14|0,2:2|0:0,0:0:0:0:
162,239,13632,2,0,P|199:223|236:191,1,79.9999976158142,2|2,1:2|2:2,0:0:0:0:
1,325,13832,6,0,P|170:282|371:253,1,359.999989271164,6|0,1:1|0:0,0:0:0:0:
353,254,14232,1,10,2:2:0:0:
149,109,14432,1,2,3:2:0:0:
149,109,14532,1,0,0:0:0:0:
149,109,14632,2,0,L|142:168,1,39.9999988079071,2|0,2:2|3:3,0:0:0:0:
66,95,14832,1,2,1:2:0:0:
66,95,14932,2,0,L|59:154,1,39.9999988079071,2|8,2:2|2:2,0:0:0:0:
246,188,15232,6,0,P|136:180|119:59,1,239.999992847443,2|0,1:2|3:3,0:0:0:0:
186,13,15632,1,2,1:2:0:0:
198,26,15732,1,2,3:2:0:0:
211,36,15832,2,0,P|201:75|195:125,1,79.9999976158142,10|0,3:2|0:0,0:0:0:0:
91,341,16032,1,2,3:2:0:0:
91,341,16132,1,2,3:2:0:0:
10,294,16232,6,0,P|110:313|254:355,1,239.999992847443,2|2,2:2|1:2,0:0:0:0:
242,351,16632,1,8,2:2:0:0:
446,190,16832,2,0,P|371:289|357:165,1,319.999990463257,6|2,1:2|1:2,0:0:0:0:
420,112,17332,1,0,3:3:0:0:
420,112,17432,6,0,P|416:70|396:34,1,79.9999976158142,10|0,3:2|0:0,0:0:0:0:
477,0,17632,2,0,P|377:13|279:24,1,159.999995231628,2|2,3:2|3:2,0:0:0:0:
53,243,18032,1,2,1:2:0:0:
53,243,18132,1,0,3:3:0:0:
53,243,18232,2,0,P|40:199|37:157,1,79.9999976158142,10|0,3:2|0:0,0:0:0:0:
130,200,18432,2,0,P|124:181|121:153,2,39.9999988079071,2|0|0,1:2|0:0|0:0,0:0:0:0:
3,297,18632,6,0,P|93:259|245:219,1,239.999992847443,2|2,3:2|1:2,0:0:0:0:
316,253,18932,1,0,0:0:0:0:
316,253,19032,2,0,P|320:209|330:166,1,79.9999976158142,10|0,2:2|0:0,0:0:0:0:
180,89,19232,2,0,P|216:114|248:144,1,79.9999976158142,2|0,1:2|3:3,0:0:0:0:
471,107,19432,6,0,P|373:92|305:85,1,159.999995231628,2|2,1:2|3:2,0:0:0:0:
507,187,19732,1,2,1:2:0:0:
486,195,19832,2,0,P|388:180|320:173,1,159.999995231628,8|6,2:2|1:2,0:0:0:0:
56,384,20232,5,4,1:1:0:0:
73,129,20432,2,0,P|50:163|10:180,1,79.9999976158142,10|0,3:2|0:0,0:0:0:0:
110,317,20632,1,2,1:2:0:0:
110,317,20732,2,0,P|78:301|30:301,2,79.9999976158142,0|8|0,3:3|2:2|0:0,0:0:0:0:
253,300,21032,6,0,P|160:323|153:409,1,159.999995231628,6|10,1:2|2:2,0:0:0:0:
272,210,21332,1,2,3:2:0:0:
272,210,21432,2,0,B|310:224|310:224|359:205,1,79.9999976158142,0|0,1:1|0:0,0:0:0:0:
225,119,21632,2,0,P|138:132|90:46,1,159.999995231628,10|4,3:2|1:2,0:0:0:0:
33,16,21932,1,0,0:0:0:0:
33,16,22032,2,0,P|12:49|6:103,1,79.9999976158142,2|0,3:2|0:0,0:0:0:0:
152,155,22232,2,0,P|173:122|179:68,1,79.9999976158142,2|0,3:2|0:0,0:0:0:0:
68,175,22432,2,0,P|86:209|129:241,1,79.9999976158142,2|0,3:2|0:0,0:0:0:0:
263,60,22632,2,0,P|244:25|201:-7,1,79.9999976158142,4|0,3:2|0:0,0:0:0:0:
156,309,22832,2,0,P|195:310|244:288,1,79.9999976158142,0|0,3:3|0:0,0:0:0:0:
324,146,23032,2,0,P|284:144|235:166,1,79.9999976158142,0|0,3:3|0:0,0:0:0:0:
311,346,23232,2,0,P|331:313|337:259,1,79.9999976158142,0|0,3:3|0:0,0:0:0:0:
450,192,23432,5,12,3:2:0:0:
355,168,23565,5,0,3:3:0:0:
355,168,23632,1,8,1:2:0:0:
266,220,23765,5,0,3:3:0:0:
266,220,23832,1,12,1:2:0:0:
179,178,23965,5,0,3:3:0:0:
179,178,24032,1,8,1:2:0:0:
92,201,24165,5,0,3:3:0:0:
92,201,24232,2,0,P|66:196|34:192,2,53.3333317438762,12|0|0,1:2|0:0|3:3,0:0:0:0:
205,134,24432,2,0,P|179:139|147:143,2,53.3333317438762,8|0|0,1:2|0:0|3:3,0:0:0:0:
294,248,24632,2,0,P|268:243|236:239,2,53.3333317438762,12|0|0,1:2|0:0|3:3,0:0:0:0:
374,110,24832,2,0,P|348:115|316:119,2,53.3333317438762,8|0|0,1:2|0:0|3:3,0:0:0:0:
504,192,25032,6,0,L|451:192,16,39.9999988079071,14|0|0|0|2|0|0|0|2|0|0|0|2|0|0|0|2,1:2|0:0|0:0|0:0|2:2|0:0|0:0|0:0|2:2|0:0|0:0|0:0|2:2|0:0|0:0|0:0|2:2,0:0:0:0:
393,128,25932,1,0,3:3:0:0:
393,128,26032,2,0,P|367:181|378:239,1,119.999996423721,8|0,3:2|0:0,0:0:0:0:
502,313,26232,5,8,1:3:0:0:
430,323,26332,1,8,1:3:0:0:
358,333,26432,1,4,1:3:0:0:
286,344,26532,1,4,1:3:0:0:
214,354,26632,1,4,1:1:0:0:
214,354,27832,6,0,P|262:370|303:394,1,79.9999976158142,0|0,1:1|0:0,0:0:0:0:
200,271,28032,2,0,P|285:292|383:342,1,159.999995231628,6|0,1:2|0:0,0:0:0:0:
350,321,29032,6,0,B|286:270|209:300|209:300|223:247|285:245,1,239.999992847443,6|2,1:2|2:2,0:0:0:0:
373,104,29332,2,0,B|360:184|425:236|425:236|372:250|339:198,1,239.999992847443,6|2,1:2|2:2,0:0:0:0:
174,193,29632,2,0,B|250:163|262:81|262:81|301:120|272:174,1,239.999992847443,6|0,1:2|0:0,0:0:0:0:
276,163,30832,1,2,1:2:0:0:
230,101,30932,1,0,3:3:0:0:
168,149,31032,2,0,P|136:154|85:153,1,79.9999976158142,10|0,2:2|0:0,0:0:0:0:
208,219,31232,2,0,P|110:233|42:227,1,159.999995231628,6|2,1:2|2:2,0:0:0:0:
49,228,31632,6,0,L|56:283,1,39.9999988079071,2|0,1:2|0:0,0:0:0:0:
133,326,31832,1,2,1:2:0:0:
157,312,31932,1,0,0:0:0:0:
206,330,32032,1,2,1:2:0:0:
230,316,32132,1,0,0:0:0:0:
275,350,32232,6,0,B|251:273|251:273|280:139|280:139|252:61,2,299.999991059303,14|6|0,1:2|1:2|0:0,0:0:0:0:
275,350,33032,6,0,P|295:313|334:283,1,79.9999976158142,4|0,1:1|0:0,0:0:0:0:
346,156,33232,1,10,3:2:0:0:
278,117,33332,1,0,3:3:0:0:
217,168,33432,1,2,1:2:0:0:
217,168,33532,2,0,P|239:203|245:252,1,79.9999976158142,0|8,3:3|2:2,0:0:0:0:
406,257,33732,1,0,3:3:0:0:
406,257,33832,6,0,P|260:264|147:290,1,239.999992847443,2|10,1:2|2:2,0:0:0:0:
326,113,34132,2,0,P|317:145|311:194,1,59.9999982118608,2|0,3:2|1:1,0:0:0:0:
312,171,34432,6,0,P|259:93|174:83,1,159.999995231628,10|0,3:2|1:1,0:0:0:0:
67,228,34732,1,0,0:0:0:0:
64,247,34832,2,0,P|93:202|124:190,1,79.9999976158142,10|0,3:2|3:3,0:0:0:0:
277,347,35032,2,0,P|248:302|217:290,1,79.9999976158142,2|0,1:2|3:3,0:0:0:0:
142,368,35232,1,10,2:2:0:0:
142,368,35432,5,0,1:1:0:0:
132,288,35532,1,0,3:3:0:0:
123,214,35632,1,10,2:2:0:0:
112,141,35732,1,0,3:3:0:0:
106,62,35832,2,0,P|144:50|183:42,1,79.9999976158142,6|0,1:2|0:0,0:0:0:0:
263,0,36032,6,0,P|257:79|248:183,1,159.999995231628,14|0,1:2|0:0,0:0:0:0:
250,159,36432,6,0,P|329:165|433:174,1,159.999995231628,14|0,1:2|0:0,0:0:0:0:
409,171,36832,6,0,P|403:250|394:354,1,159.999995231628,14|0,1:2|0:0,0:0:0:0:
396,330,37232,6,0,P|351:346|315:372,1,79.9999976158142,14|0,1:2|0:0,0:0:0:0:
190,233,37432,2,0,P|235:249|271:275,1,79.9999976158142,2|0,1:2|0:0,0:0:0:0:
345,80,37632,1,6,1:2:0:0:
345,80,37832,6,0,L|336:136,1,39.9999988079071,8|0,2:2|0:0,0:0:0:0:
424,95,38032,2,0,L|415:151,1,39.9999988079071,10|0,2:2|3:3,0:0:0:0:
448,207,38232,1,2,1:2:0:0:
403,228,38332,1,0,0:0:0:0:
389,274,38432,1,6,1:2:0:0:
408,318,38532,1,0,0:0:0:0:
486,381,38632,1,2,3:2:0:0:
493,368,38732,1,2,2:2:0:0:
498,357,38832,2,0,P|500:322|514:275,1,79.9999976158142,2|0,1:2|0:0,0:0:0:0:
268,92,39032,2,0,P|388:157|333:286,1,271.999991893768,10|2,2:2|3:2,0:0:0:0:
408,355,39332,1,0,3:3:0:0:
408,355,39432,2,0,P|354:362|314:378,1,79.9999976158142,4|0,1:1|3:3,0:0:0:0:
176,272,39632,5,8,3:2:0:0:
126,211,39732,1,0,3:3:0:0:
52,207,39832,1,0,1:1:0:0:
52,207,39932,2,0,P|47:167|36:121,2,79.9999976158142,0|10|0,3:3|3:2|3:3,0:0:0:0:
207,195,40232,1,2,1:2:0:0:
237,170,40332,1,0,3:3:0:0:
274,164,40432,1,8,3:2:0:0:
316,178,40532,1,0,3:3:0:0:
343,202,40632,2,0,P|337:239|332:289,1,79.9999976158142,2|0,1:2|3:3,0:0:0:0:
363,112,40832,1,10,3:2:0:0:
363,112,40932,6,0,P|404:104|452:94,1,79.9999976158142,0|0,3:3|1:1,0:0:0:0:
256,248,41132,1,0,3:3:0:0:
256,248,41232,2,0,P|215:256|167:266,2,79.9999976158142,10|0|0,3:2|3:3|1:1,0:0:0:0:
421,250,41532,1,0,3:3:0:0:
416,272,41632,1,10,3:2:0:0:
411,293,41732,1,0,3:3:0:0:
407,313,41832,5,0,1:1:0:0:
486,291,41932,1,0,3:3:0:0:
507,216,42032,2,0,P|488:185|452:158,1,79.9999976158142,10|0,3:2|3:3,0:0:0:0:
362,384,42232,2,0,P|421:318|414:231,1,159.999995231628,2|10,1:2|3:2,0:0:0:0:
330,248,42532,1,0,3:3:0:0:
330,248,42632,2,0,P|341:205|391:160,1,79.9999976158142,4|0,1:2|3:3,0:0:0:0:
317,36,42832,5,8,3:2:0:0:
378,86,42932,1,0,3:3:0:0:
451,57,43032,1,0,1:1:0:0:
451,57,43132,2,0,P|476:27|509:-2,2,79.9999976158142,0|10|0,3:3|3:2|3:3,0:0:0:0:
286,127,43432,1,2,1:2:0:0:
243,111,43532,1,0,3:3:0:0:
211,78,43632,1,8,3:2:0:0:
181,119,43732,1,0,3:3:0:0:
138,136,43832,2,0,P|116:177|85:212,1,79.9999976158142,2|0,1:2|3:3,0:0:0:0:
46,36,44032,1,2,3:2:0:0:
46,36,44132,6,0,P|58:77|59:132,1,79.9999976158142,2|2,2:2|1:2,0:0:0:0:
273,211,44332,1,2,2:2:0:0:
273,211,44432,2,0,P|222:213|181:227,2,79.9999976158142,10|0|0,3:2|0:0|1:1,0:0:0:0:
147,336,44732,2,0,P|113:319|81:284,1,79.9999976158142,0|8,3:3|3:2,0:0:0:0:
27,181,44932,1,0,1:1:0:0:
0,272,45032,2,0,P|101:251|161:245,1,159.999995231628,0|8,1:1|3:2,0:0:0:0:
27,181,45332,6,0,P|66:172|120:167,1,79.9999976158142,0|0,1:1|1:1,0:0:0:0:
191,158,45532,1,0,3:3:0:0:
176,121,45632,1,0,3:3:0:0:
175,82,45732,1,0,3:3:0:0:
183,38,45832,2,0,P|222:29|276:24,1,79.9999976158142,4|0,1:2|3:3,0:0:0:0:
356,167,46032,5,8,3:2:0:0:
303,230,46132,1,0,3:3:0:0:
338,305,46232,1,0,1:1:0:0:
338,305,46332,2,0,P|329:358|329:396,2,79.9999976158142,0|10|0,3:3|3:2|3:3,0:0:0:0:
278,148,46632,1,2,1:2:0:0:
230,127,46732,1,0,3:3:0:0:
182,138,46832,1,8,3:2:0:0:
192,176,46932,1,0,3:3:0:0:
207,212,47032,2,0,P|200:240|192:294,1,79.9999976158142,2|0,1:2|3:3,0:0:0:0:
99,104,47232,1,10,3:2:0:0:
99,104,47332,6,0,P|45:92|12:86,1,79.9999976158142,0|0,3:3|1:1,0:0:0:0:
192,290,47532,1,0,3:3:0:0:
196,310,47632,2,0,P|142:322|109:328,2,79.9999976158142,10|0|0,3:2|3:3|1:1,0:0:0:0:
303,118,47932,1,0,3:3:0:0:
306,138,48032,2,0,P|252:126|219:120,1,79.9999976158142,10|0,3:2|3:3,0:0:0:0:
396,58,48232,2,0,B|385:96|385:96|419:245,1,159.999995231628,0|10,1:1|3:2,0:0:0:0:
485,265,48532,1,0,3:3:0:0:
485,265,48632,2,0,B|476:304|476:304|436:328,1,79.9999976158142,2|0,1:2|3:3,0:0:0:0:
372,384,48832,2,0,B|333:374|333:374|309:334,1,79.9999976158142,10|0,3:2|3:3,0:0:0:0:
298,213,49032,5,4,1:2:0:0:
269,163,49132,1,0,3:3:0:0:
213,142,49232,1,8,3:2:0:0:
149,165,49332,1,0,3:3:0:0:
107,231,49432,2,0,L|113:278,2,39.9999988079071,0|0|0,1:1|0:0|3:3,0:0:0:0:
149,165,49632,5,10,3:2:0:0:
158,89,49732,1,0,3:3:0:0:
103,35,49832,1,2,1:2:0:0:
30,59,49932,1,0,3:3:0:0:
12,131,50032,1,8,3:2:0:0:
66,192,50132,1,0,3:3:0:0:
66,192,50232,2,0,P|112:201|152:215,1,79.9999976158142,2|0,1:2|3:3,0:0:0:0:
164,292,50432,2,0,P|210:283|250:269,1,79.9999976158142,2|2,3:2|2:2,0:0:0:0:
310,223,50632,1,2,3:2:0:0:
388,226,50732,1,2,2:2:0:0:
461,265,50832,1,10,3:2:0:0:
476,188,50932,1,0,0:0:0:0:
512,117,51032,1,0,1:1:0:0:
408,33,51232,6,0,P|392:132|370:357,2,319.999990463257,4|0|0,1:1|0:0|0:0,0:0:0:0:
408,33,52132,1,0,0:0:0:0:
408,33,52232,1,4,1:2:0:0:
274,205,52432,6,0,P|286:236|291:271,1,59.9999982118608,0|0,3:3|0:0,0:0:0:0:
134,301,52632,1,10,1:2:0:0:
374,268,52832,2,0,P|363:303|341:337,1,59.9999982118608,2|0,3:2|0:0,0:0:0:0:
210,268,53032,1,2,1:2:0:0:
222,182,53232,1,2,2:2:0:0:
222,182,53332,2,0,P|204:146|167:120,1,59.9999982118608,2|8,3:2|1:2,0:0:0:0:
112,170,53532,1,0,0:0:0:0:
112,170,53632,2,0,P|82:156|50:154,1,59.9999982118608,2|0,3:2|0:0,0:0:0:0:
122,62,53832,6,0,P|137:166|133:303,1,239.999992847443,0|0,1:1|3:3,0:0:0:0:
283,212,54232,5,10,1:2:0:0:
434,336,54432,2,0,P|398:330|364:328,1,59.9999982118608,2|0,3:2|0:0,0:0:0:0:
287,327,54632,1,2,1:2:0:0:
430,221,54832,2,0,P|394:215|360:213,1,59.9999982118608,2|2,2:2|3:2,0:0:0:0:
84,296,55032,2,0,P|150:279|217:276,1,119.999996423722,8|2,1:2|3:2,0:0:0:0:
201,275,55332,1,0,0:0:0:0:
201,275,55432,6,0,P|183:151|185:73,1,159.999995231628,4|2,1:2|3:2,0:0:0:0:
0,139,55832,2,0,P|18:263|16:341,1,159.999995231628,10|2,1:2|3:2,0:0:0:0:
121,350,56132,1,0,0:0:0:0:
121,350,56232,6,0,P|105:194|90:42,2,287.999991416931,2|2|2,1:2|3:2|3:2,0:0:0:0:
459,197,57032,1,0,1:1:0:0:
289,210,57232,1,0,3:3:0:0:
289,210,57332,1,0,3:3:0:0:
289,210,57432,6,0,P|297:154|310:103,1,95.9999971389771,14|0,1:2|0:0,0:0:0:0:
371,220,57632,2,0,P|379:164|392:113,1,95.9999971389771,0|0,3:3|3:3,0:0:0:0:
108,239,57832,6,0,P|121:285|126:320,1,79.9999976158142,14|0,1:2|0:0,0:0:0:0:
326,384,58032,1,0,3:3:0:0:
326,384,58132,1,0,3:3:0:0:
326,384,58232,2,0,P|331:349|342:303,1,63.9999980926514,14|0,1:2|0:0,0:0:0:0:
199,255,58432,2,0,P|209:296|213:312,2,31.9999990463257,0|0|0,1:1|0:0|0:0,0:0:0:0:
457,287,58632,6,0,P|382:290|351:137,1,239.999992847443,4|0,1:2|0:0,0:0:0:0:
313,63,59032,6,0,B|355:59|390:77|390:77|400:39|448:15,1,159.999995231628,10|2,1:2|3:2,0:0:0:0:
495,165,59332,1,0,0:0:0:0:
495,165,59432,2,0,P|481:135|476:92,1,59.9999982118608,2|0,1:2|3:3,0:0:0:0:
391,267,59632,2,0,P|405:237|410:194,1,59.9999982118608,2|0,2:2|3:3,0:0:0:0:
501,367,59832,2,0,P|487:337|482:294,1,59.9999982118608,10|0,1:2|0:0,0:0:0:0:
219,310,60032,2,0,P|338:335|413:378,1,191.999994277954,2|0,3:2|1:1,0:0:0:0:
399,368,60432,1,0,3:3:0:0:
312,80,60632,6,0,L|306:154,1,59.9999982118608,10|0,1:2|0:0,0:0:0:0:
232,75,60832,1,2,3:2:0:0:
232,75,60932,1,0,0:0:0:0:
232,75,61032,2,0,L|226:149,2,59.9999982118608,2|0|2,1:2|3:3|2:2,0:0:0:0:
395,117,61332,1,2,3:2:0:0:
395,117,61432,1,8,1:2:0:0:
137,95,61632,2,0,L|95:92,2,29.9999991059304,2|0|0,3:2|0:0|0:0,0:0:0:0:
207,12,61832,6,0,P|221:160|227:273,1,191.999994277954,4|2,1:2|3:2,0:0:0:0:
192,295,62132,1,0,0:0:0:0:
192,295,62232,2,0,P|246:286|314:286,1,95.9999971389771,10|0,1:2|0:0,0:0:0:0:
404,182,62432,2,0,P|350:191|282:191,1,95.9999971389771,2|0,3:2|0:0,0:0:0:0:
11,316,62632,2,0,P|65:307|133:307,1,95.9999971389771,2|0,1:2|0:0,0:0:0:0:
223,203,62832,2,0,P|169:212|101:212,1,95.9999971389771,2|0,3:2|3:3,0:0:0:0:
184,384,63032,1,10,1:2:0:0:
184,384,63132,1,0,0:0:0:0:
184,384,63232,6,0,P|194:240|220:27,1,319.999990463257,10|2,3:2|3:2,0:0:0:0:
122,104,63732,1,0,3:3:0:0:
122,104,63832,2,0,P|104:253|93:403,1,239.999992847443,14|2,1:2|2:2,0:0:0:0:
308,192,64232,1,6,1:2:0:0:
34,66,64432,5,2,3:2:0:0:
34,66,64532,2,0,P|62:36|115:15,1,79.9999976158142,2|12,3:2|1:2,0:0:0:0:
211,147,64832,1,8,1:2:0:0:
432,66,65032,6,0,P|259:115|81:92,1,319.999990463257,4|10,1:1|1:2,0:0:0:0:
432,66,65632,2,0,P|394:61|373:49,1,59.9999982118608,2|0,3:2|0:0,0:0:0:0:
425,159,65832,1,2,1:2:0:0:
283,198,66032,1,2,2:2:0:0:
283,198,66132,2,0,P|317:177|347:168,1,59.9999982118608,2|8,3:2|1:2,0:0:0:0:
335,170,66432,2,0,P|255:152|186:153,1,119.999996423722,2|0,3:2|1:1,0:0:0:0:
405,58,66832,1,0,3:3:0:0:
262,0,67032,6,0,P|282:78|286:142,1,119.999996423722,10|2,1:2|3:2,0:0:0:0:
373,148,67332,1,0,0:0:0:0:
373,148,67432,2,0,P|348:227|343:289,1,119.999996423722,2|2,1:2|2:2,0:0:0:0:
271,317,67732,2,0,P|258:280|258:246,1,59.9999982118608,2|8,3:2|1:2,0:0:0:0:
480,223,68032,6,0,P|250:268|87:266,1,383.999988555908,14|2,3:1|3:2,0:0:0:0:
101,267,68632,6,0,P|137:284|165:317,1,59.9999982118608,10|0,1:2|0:0,0:0:0:0:
240,216,68832,2,0,P|236:255|226:282,1,59.9999982118608,2|0,3:2|0:0,0:0:0:0:
256,354,69032,6,0,P|290:331|320:284,1,79.9999976158142,2|0,1:2|3:3,0:0:0:0:
151,297,69232,2,0,P|141:257|119:224,1,79.9999976158142,2|0,2:2|3:3,0:0:0:0:
98,122,69432,6,0,P|148:137|195:178,1,95.9999971389771,10|0,1:2|0:0,0:0:0:0:
307,187,69632,2,0,P|154:213|84:240,1,191.999994277954,6|2,3:2|2:2,0:0:0:0:
186,1,70032,1,0,3:3:0:0:
387,296,70232,6,0,P|397:206|415:127,1,159.999995231628,8|0,1:2|3:3,0:0:0:0:
420,49,70532,1,0,1:1:0:0:
420,49,70632,1,0,1:1:0:0:
283,254,70832,1,0,3:3:0:0:
283,254,70932,2,0,P|239:232|201:222,1,79.9999976158142,0|8,1:1|1:2,0:0:0:0:
411,138,71232,2,0,P|449:126|484:107,1,79.9999976158142,2|0,1:2|0:0,0:0:0:0:
512,200,71432,1,2,2:2:0:0:
239,80,71632,6,0,P|260:121|290:148,1,79.9999976158142,2|0,3:2|0:0,0:0:0:0:
357,0,71832,2,0,P|317:117|304:249,1,239.999992847443,12|2,1:1|3:2,0:0:0:0:
148,278,72132,1,0,0:0:0:0:
148,278,72232,2,0,P|190:256|221:219,1,79.9999976158142,2|0,1:2|3:3,0:0:0:0:
337,342,72432,2,0,P|296:316|249:308,1,79.9999976158142,2|0,1:2|3:3,0:0:0:0:
296,153,72632,2,0,P|294:200|310:245,1,79.9999976158142,8|0,1:2|0:0,0:0:0:0:
112,375,72832,5,2,1:2:0:0:
73,307,72932,1,0,1:3:0:0:
0,280,73032,1,2,1:2:0:0:
179,107,73232,2,0,P|133:121|96:121,1,79.9999976158142,2|0,3:2|0:0,0:0:0:0:
184,293,73432,6,0,P|193:272|210:255,1,39.9999988079071,8|0,1:2|0:0,0:0:0:0:
234,265,73532,2,0,P|256:256|278:254,1,39.9999988079071,0|0,1:1|0:0,0:0:0:0:
290,282,73632,2,0,P|312:287|337:302,1,39.9999988079071,0|0,3:3|1:1,0:0:0:0:
312,323,73732,2,0,P|325:341|329:366,1,39.9999988079071,0|0,1:1|1:1,0:0:0:0:
253,381,73832,1,0,1:1:0:0:
244,365,73932,1,0,3:3:0:0:
237,348,74032,6,0,P|254:258|258:121,1,191.999994277954,0|8,3:3|3:2,0:0:0:0:
259,157,74432,6,0,B|237:135|237:135|257:109|257:109|279:129|279:129|252:173,1,127.999996185303,0|4,3:3|1:3,0:0:0:0:
198,227,75032,5,6,1:2:0:0:
198,227,75232,2,0,P|342:193|564:173,1,319.999990463257,6|0,1:2|0:0,0:0:0:0:
97,107,75832,5,6,1:2:0:0:
97,107,76032,2,0,P|241:141|463:161,1,319.999990463257,6|0,1:2|0:0,0:0:0:0:
0,226,76632,5,6,1:2:0:0:
0,226,76832,2,0,P|144:192|366:172,1,319.999990463257,6|2,1:2|1:2,0:0:0:0:
260,96,77332,1,0,0:0:0:0:
260,96,77432,2,0,L|267:17,1,59.9999982118608,4|0,3:3|0:0,0:0:0:0:
176,80,77632,2,0,L|182:10,2,39.9999988079071,0|0|0,3:3|0:0|3:3,0:0:0:0:
358,83,77832,6,0,P|262:127|191:202,1,191.999994277954,4|0,1:1|3:3,0:0:0:0:
165,276,78132,1,0,0:0:0:0:
165,276,78232,2,0,P|115:265|71:263,1,79.9999976158142,10|0,2:2|0:0,0:0:0:0:
124,99,78432,2,0,P|113:149|111:193,1,79.9999976158142,2|0,3:2|3:3,0:0:0:0:
28,379,78632,1,0,0:0:0:0:
19,347,78732,1,0,3:3:0:0:
13,312,78832,2,0,P|2:262|0:218,1,79.9999976158142,0|0,1:1|0:0,0:0:0:0:
70,103,79032,2,0,P|79:209|89:288,1,159.999995231628,10|2,1:2|3:2,0:0:0:0:
106,346,79332,1,0,0:0:0:0:
114,363,79432,5,0,1:1:0:0:
173,372,79532,1,0,3:3:0:0:
216,335,79632,1,0,1:1:0:0:
221,277,79732,1,0,3:3:0:0:
256,224,79832,5,10,2:2:0:0:
323,191,79932,1,0,3:3:0:0:
383,229,80032,1,2,3:2:0:0:
394,303,80132,1,0,3:3:0:0:
347,351,80232,6,0,P|326:348|301:347,1,39.9999988079071,0|0,3:3|3:3,0:0:0:0:
334,337,80332,2,0,P|313:334|288:333,1,39.9999988079071,0|0,3:3|3:3,0:0:0:0:
321,323,80432,1,2,1:2:0:0:
510,60,80632,6,0,P|477:189|470:262,1,159.999995231628,8|2,2:2|1:2,0:0:0:0:
489,306,80932,1,0,0:0:0:0:
489,306,81032,2,0,P|449:297|410:292,1,79.9999976158142,4|0,1:1|0:0,0:0:0:0:
406,79,81232,1,0,3:3:0:0:
338,343,81432,6,0,P|325:304|310:268,1,79.9999976158142,2|0,1:2|0:0,0:0:0:0:
406,79,81632,2,0,P|418:117|433:153,1,79.9999976158142,2|0,3:2|0:0,0:0:0:0:
233,256,81832,1,0,1:1:0:0:
512,191,82032,6,0,P|485:220|461:252,1,79.9999976158142,0|0,3:3|0:0,0:0:0:0:
233,256,82232,2,0,P|259:226|283:194,1,79.9999976158142,2|0,1:2|0:0,0:0:0:0:
460,336,82432,1,2,3:2:0:0:
247,109,82632,6,0,P|286:117|325:122,1,79.9999976158142,4|0,1:2|3:3,0:0:0:0:
460,336,82832,2,0,P|420:327|381:322,1,79.9999976158142,0|0,3:3|0:0,0:0:0:0:
158,183,83032,6,0,P|197:191|236:196,1,79.9999976158142,2|0,1:2|0:0,0:0:0:0:
512,109,83232,2,0,P|472:100|433:95,1,79.9999976158142,2|0,3:2|0:0,0:0:0:0:
235,273,83432,6,0,P|274:281|313:286,1,79.9999976158142,0|0,1:1|3:3,0:0:0:0:
457,20,83632,2,0,P|417:11|378:7,1,79.9999976158142,2|0,3:2|0:0,0:0:0:0:
274,10,83832,5,2,1:2:0:0:
263,73,83932,1,0,0:0:0:0:
314,111,84032,1,2,3:2:0:0:
365,149,84132,1,0,0:0:0:0:
354,212,84232,1,4,1:1:0:0:
236,289,84365,5,0,3:3:0:0:
236,289,84432,1,2,2:2:0:0:
158,172,84565,5,0,3:3:0:0:
158,172,84632,1,0,3:3:0:0:
275,94,84765,5,0,3:3:0:0:
275,94,84832,1,2,3:2:0:0:
353,211,84965,5,0,3:3:0:0:
353,211,85032,2,0,P|380:217|401:230,2,39.9999988079072,2|2|2,3:2|2:2|3:2,0:0:0:0:
275,94,85232,2,0,P|281:67|294:46,2,39.9999988079072,2|2|2,3:2|2:2|3:2,0:0:0:0:
158,172,85432,2,0,P|131:166|110:153,2,39.9999988079072,2|2|2,3:2|2:2|3:2,0:0:0:0:
236,289,85632,2,0,P|230:316|217:337,2,39.9999988079072,2|2|2,3:2|2:2|2:2,0:0:0:0:
247,93,85832,5,0,1:1:0:0:
175,247,85965,1,0,1:1:0:0:
344,233,86098,1,0,1:1:0:0:
169,150,86232,5,0,1:1:0:0:
263,286,86365,1,0,1:1:0:0:
334,136,86498,1,0,1:1:0:0:
256,192,86632,5,0,1:1:0:0:
256,192,86732,1,2,3:3:0:0:
256,192,86832,1,0,3:3:0:0:
256,192,86932,1,0,3:3:0:0:
256,192,87032,6,0,P|124:174|31:167,1,191.999994277954,12|0,1:2|0:0,0:0:0:0:
256,192,87432,6,0,B|296:119|171:60|106:217|227:281,1,287.999991416931,4|2,1:1|3:2,0:0:0:0:
248,361,87732,1,0,0:0:0:0:
248,361,87832,2,0,P|296:368|340:378,1,79.9999976158142,10|0,1:2|0:0,0:0:0:0:
512,186,88032,1,2,3:2:0:0:
512,186,88132,1,0,3:3:0:0:
512,186,88232,6,0,P|470:189|427:209,1,79.9999976158142,2|0,1:2|3:3,0:0:0:0:
404,291,88432,1,0,0:0:0:0:
380,140,88532,6,0,P|355:193|360:231,1,79.9999976158142,2|8,3:2|1:2,0:0:0:0:
408,319,88732,1,0,0:0:0:0:
276,241,88832,6,0,B|319:336|375:271|432:375,1,191.999994277954,2|0,3:2|1:1,0:0:0:0:
292,157,89232,5,2,3:2:0:0:
292,157,89332,1,2,2:2:0:0:
213,178,89432,2,0,B|152:263|236:278|174:380,1,191.999994277954,10|2,1:2|3:2,0:0:0:0:
319,141,89732,5,2,3:2:0:0:
235,93,89832,2,0,B|130:83|159:163|40:161,1,191.999994277954,2|2,1:2|2:2,0:0:0:0:
18,18,90132,2,0,P|58:46|77:95,1,79.9999976158142,2|8,3:2|1:2,0:0:0:0:
166,130,90332,1,2,3:2:0:0:
166,130,90432,2,0,P|136:208|128:313,1,159.999995231628,2|4,3:2|1:2,0:0:0:0:
126,283,90832,6,0,P|163:267|193:265,1,59.9999982118608,2|0,3:2|0:0,0:0:0:0:
346,75,91032,2,0,P|325:109|301:127,1,59.9999982118608,10|0,1:2|0:0,0:0:0:0:
290,372,91232,2,0,P|286:331|295:302,1,59.9999982118608,2|0,3:2|3:3,0:0:0:0:
161,97,91432,2,0,P|187:126|197:154,1,59.9999982118608,2|0,1:2|3:3,0:0:0:0:
425,243,91632,2,0,P|385:233|360:216,1,59.9999982118608,2|0,3:2|0:0,0:0:0:0:
267,216,91832,1,10,1:2:0:0:
267,216,91932,1,0,0:0:0:0:
181,264,92032,6,0,P|152:268|125:282,1,59.9999982118608,2|0,3:2|0:0,0:0:0:0:
290,313,92232,2,0,P|285:342|289:372,1,59.9999982118608,2|0,1:2|3:3,0:0:0:0:
311,122,92432,2,0,P|332:100|346:75,1,59.9999982118608,2|0,3:2|0:0,0:0:0:0:
195,144,92632,2,0,P|181:117|160:97,1,59.9999982118608,10|0,1:2|0:0,0:0:0:0:
370,224,92832,2,0,P|396:237|425:243,1,59.9999982118608,2|0,3:2|3:3,0:0:0:0:
323,0,93032,6,0,P|312:119|280:186,1,159.999995231628,2|2,1:2|2:2,0:0:0:0:
188,221,93332,1,2,3:2:0:0:
188,221,93432,2,0,P|184:174|209:125,1,79.9999976158142,8|0,1:2|3:3,0:0:0:0:
415,130,93632,2,0,L|460:122,2,39.9999988079071,2|0|0,3:2|0:0|0:0,0:0:0:0:
276,154,93832,6,0,P|357:158|470:236,1,191.999994277954,4|2,1:1|3:2,0:0:0:0:
510,286,94132,1,0,0:0:0:0:
412,373,94232,1,10,1:2:0:0:
412,373,94332,2,0,P|416:333|428:295,1,79.9999976158142,0|0,3:3|0:0,0:0:0:0:
223,96,94532,1,0,3:3:0:0:
359,146,94632,2,0,P|316:158|276:162,1,79.9999976158142,2|0,1:2|3:3,0:0:0:0:
193,170,94832,1,2,3:2:0:0:
309,72,94932,2,0,P|289:42|274:-8,1,79.9999976158142,2|8,2:2|1:2,0:0:0:0:
275,0,95232,6,0,P|258:191|244:364,1,359.999989271164,2|0,3:2|0:0,0:0:0:0:
168,291,95632,1,2,3:2:0:0:
168,291,95732,1,0,0:0:0:0:
336,265,95832,2,0,P|380:256|421:249,1,79.9999976158142,10|0,1:2|3:3,0:0:0:0:
178,202,96032,2,0,P|134:211|93:218,1,79.9999976158142,2|0,3:2|0:0,0:0:0:0:
250,360,96232,5,0,1:1:0:0:
250,360,96332,1,2,3:2:0:0:
250,360,96432,2,0,P|206:369|165:376,1,79.9999976158142,2|0,3:2|3:3,0:0:0:0:
336,182,96632,2,0,P|380:173|421:166,1,79.9999976158142,10|0,1:2|3:3,0:0:0:0:
387,384,96832,6,0,P|242:303|18:316,1,383.999988555908,6|2,1:2|1:2,0:0:0:0:
78,213,97332,1,0,3:3:0:0:
78,213,97432,6,0,L|71:141,1,39.9999988079071,8|0,1:2|0:0,0:0:0:0:
161,204,97632,2,0,L|154:132,1,47.9999985694884,6|0,3:2|0:0,0:0:0:0:
245,227,97832,6,0,L|236:317,1,55.9999983310699,0|0,1:1|3:3,0:0:0:0:
327,232,98032,2,0,L|316:339,1,63.9999980926514,2|0,3:2|0:0,0:0:0:0:
404,191,98232,6,0,L|394:96,1,71.9999978542329,8|0,1:2|0:0,0:0:0:0:
490,186,98432,2,0,L|480:91,1,79.9999976158142,6|0,3:2|3:3,0:0:0:0:
263,0,98632,5,0,1:1:0:0:
245,24,98732,1,0,3:3:0:0:
229,50,98832,2,0,L|237:95,2,39.9999988079071,2|0|0,3:2|0:0|0:0,0:0:0:0:
164,148,99032,6,0,P|157:104|144:59,1,79.9999976158142,10|0,1:2|0:0,0:0:0:0:
289,236,99232,2,0,P|296:192|309:147,1,79.9999976158142,2|0,3:2|3:3,0:0:0:0:
57,252,99432,6,0,B|47:166|47:166|64:109|64:109|51:-9,1,239.999992847443,2|0,1:2|1:1,0:0:0:0:
276,77,99832,1,10,3:3:0:0:
211,123,99932,1,8,3:3:0:0:
146,76,100032,1,6,3:3:0:0:
171,1,100132,1,4,3:3:0:0:
252,0,100232,1,4,1:1:0:0:
399,356,100432,6,0,P|406:292|416:230,1,119.999996423722,2|10,3:2|2:2,0:0:0:0:
481,330,100732,1,0,3:3:0:0:
481,330,100832,2,0,P|485:297|490:266,1,59.9999982118608,2|0,3:2|3:3,0:0:0:0:
296,56,101032,6,0,P|303:120|313:182,1,119.999996423722,2|2,2:2|1:2,0:0:0:0:
378,82,101332,1,2,3:2:0:0:
378,82,101432,2,0,P|382:115|387:146,1,59.9999982118608,8|0,2:2|0:0,0:0:0:0:
487,199,101632,6,0,P|353:225|221:252,1,239.999992847443,2|2,1:2|1:2,0:0:0:0:
190,91,102232,6,0,P|194:124|199:155,1,59.9999982118608,10|0,2:2|3:3,0:0:0:0:
108,65,102432,1,2,3:2:0:0:
108,65,102532,2,0,P|115:129|125:191,1,119.999996423722,0|0,3:3|3:3,0:0:0:0:
82,325,102832,5,2,2:2:0:0:
82,325,102932,2,0,P|86:292|91:261,1,59.9999982118608,2|8,1:2|2:2,0:0:0:0:
0,351,103232,2,0,P|7:287|17:225,1,119.999996423722,2|0,1:2|3:3,0:0:0:0:
15,232,103632,1,2,1:2:0:0:
340,282,103832,6,0,P|221:294|176:301,1,159.999995231628,10|2,2:2|3:2,0:0:0:0:
247,128,104132,1,0,3:3:0:0:
247,128,104232,2,0,P|251:171|255:217,2,79.9999976158142,2|0|2,2:2|3:3|1:2,0:0:0:0:
333,167,104532,1,0,3:3:0:0:
333,167,104632,1,10,3:2:0:0:
70,242,104832,6,0,P|256:223|458:245,2,383.999976837159,6|2|2,1:2|1:2|1:2,0:0:0:0:
0,146,105732,1,0,3:3:0:0:
0,146,105832,6,0,P|115:157|263:180,1,191.999994277954,4|2,1:2|3:2,0:0:0:0:
255,318,106132,2,0,P|256:269|255:222,1,95.9999971389771,0|10,1:1|3:2,0:0:0:0:
321,167,106332,1,0,3:3:0:0:
321,167,106432,2,0,P|416:154|512:146,1,191.999994277954,2|0,1:2|3:3,0:0:0:0:
511,146,106832,6,0,L|504:214,1,59.9999982118608,2|0,1:2|1:1,0:0:0:0:
448,38,107032,2,0,P|428:217|424:335,1,239.999992847443,14|2,1:1|3:2,0:0:0:0:
476,356,107332,1,0,3:3:0:0:
476,356,107432,2,0,P|413:365|378:373,1,79.9999976158142,2|0,1:2|3:3,0:0:0:0:
275,279,107632,1,2,2:2:0:0:
249,194,107732,1,2,3:2:0:0:
249,194,107832,2,0,P|288:201|327:206,1,79.9999976158142,8|0,1:2|3:3,0:0:0:0:
495,284,108032,6,0,P|334:302|0:351,1,479.999985694885,2|2,3:2|3:2,0:0:0:0:
53,181,108532,1,0,0:0:0:0:
53,181,108632,6,0,P|89:223|102:262,1,79.9999976158142,10|0,1:2|3:3,0:0:0:0:
262,224,108832,2,0,P|207:234|167:225,1,79.9999976158142,2|0,2:2|3:3,0:0:0:0:
120,383,109032,2,0,P|138:330|165:300,1,79.9999976158142,2|0,1:2|3:3,0:0:0:0:
102,4,109232,1,2,3:2:0:0:
102,4,109332,2,0,P|112:42|111:81,1,79.9999976158142,2|8,1:2|3:2,0:0:0:0:
10,83,109632,6,0,P|78:114|159:159,1,159.999995231628,2|0,1:2|0:0,0:0:0:0:
209,88,110032,6,0,P|236:127|244:145,1,59.9999982118608,2|0,1:2|0:0,0:0:0:0:
330,129,110232,2,0,P|321:173|302:208,1,59.9999982118608,10|0,2:2|0:0,0:0:0:0:
71,284,110432,6,0,P|139:253|220:208,1,159.999995231628,2|0,1:2|0:0,0:0:0:0:
213,211,110832,6,0,P|242:238|271:255,1,59.9999982118608,2|0,1:2|0:0,0:0:0:0:
245,327,111032,2,0,P|282:328|316:320,1,59.9999982118608,10|0,2:2|0:0,0:0:0:0:
482,179,111232,6,0,P|414:210|333:255,1,159.999995231628,2|0,1:2|0:0,0:0:0:0:
339,251,111632,6,0,P|409:212|482:179,1,159.999995231628,2|0,1:2|0:0,0:0:0:0:
482,179,112032,6,0,P|414:210|333:255,1,159.999995231628,2|0,1:2|0:0,0:0:0:0:
328,66,112432,2,0,L|333:114,2,29.9999991059304,2|0|0,3:2|3:3|3:3,0:0:0:0:
376,187,112632,5,10,1:2:0:0:
405,128,112732,1,0,1:1:0:0:
434,66,112832,2,0,P|445:145|469:292,1,191.999994277954,6|0,3:1|1:1,0:0:0:0:
512,335,113132,1,0,0:0:0:0:
512,335,113232,6,0,P|462:350|436:363,1,79.9999976158142,2|0,3:2|0:0,0:0:0:0:
462,255,113432,2,0,P|426:237|389:202,1,79.9999976158142,10|0,1:2|3:3,0:0:0:0:
358,313,113632,6,0,P|317:319|275:338,1,79.9999976158142,2|0,3:2|0:0,0:0:0:0:
300,167,113832,1,0,1:1:0:0:
300,167,113932,2,0,P|287:133|281:74,1,79.9999976158142,0|2,0:0|3:2,0:0:0:0:
169,292,114132,5,0,0:0:0:0:
169,292,114232,2,0,P|119:294|58:310,1,95.9999971389771,8|0,1:2|3:3,0:0:0:0:
198,91,114432,2,0,P|175:53|153:-9,1,95.9999971389771,2|0,3:2|0:0,0:0:0:0:
1,225,114632,5,0,1:1:0:0:
0,119,114832,1,2,3:2:0:0:
0,119,114932,1,0,3:3:0:0:
0,119,115032,2,0,P|40:136|62:156,1,59.9999982118608,8|0,1:2|0:0,0:0:0:0:
153,295,115232,2,0,L|164:338,1,29.9999991059304,2|0,3:2|3:3,0:0:0:0:
166,306,115332,2,0,L|177:349,1,29.9999991059304,0|0,3:3|3:3,0:0:0:0:
187,324,115432,5,0,1:1:0:0:
260,319,115532,1,0,1:1:0:0:
292,249,115632,2,0,P|284:208|284:175,1,59.9999982118608,2|0,1:2|0:0,0:0:0:0:
352,112,115832,2,0,P|361:189|382:283,1,159.999995231628,10|2,2:2|1:2,0:0:0:0:
378,269,116132,1,0,1:1:0:0:
378,269,116232,1,4,1:1:0:0:
172,158,116432,6,0,P|196:140|218:108,1,59.9999982118608,0|0,3:3|0:0,0:0:0:0:
254,203,116632,1,2,1:1:0:0:
254,203,116732,1,0,3:3:0:0:
470,47,116932,2,0,P|429:43|405:28,1,59.9999982118608,0|2,3:3|1:2,0:0:0:0:
412,34,117132,2,0,P|447:103|444:161,1,119.999996423722,0|0,3:3|3:3,0:0:0:0:
508,210,117432,2,0,P|486:240|479:269,1,59.9999982118608,10|0,1:2|0:0,0:0:0:0:
360,183,117632,2,0,P|387:197|411:219,1,59.9999982118608,0|0,3:3|0:0,0:0:0:0:
484,346,117832,1,2,1:2:0:0:
484,346,118032,6,0,B|390:338|433:281|318:281,1,159.999995231628,0|8,3:3|1:2,0:0:0:0:
279,225,118332,1,0,3:3:0:0:
279,225,118432,2,0,P|262:256|258:286,1,59.9999982118608,2|0,3:2|3:3,0:0:0:0:
198,359,118632,5,2,1:2:0:0:
198,359,118732,2,0,P|277:364|355:382,1,159.999995231628,0|0,3:3|3:3,0:0:0:0:
436,352,119032,2,0,P|453:328|460:299,1,59.9999982118608,10|0,1:2|0:0,0:0:0:0:
381,273,119232,2,0,P|379:243|369:215,1,59.9999982118608,0|0,3:3|0:0,0:0:0:0:
355,382,119432,1,2,1:2:0:0:
355,106,119632,6,0,P|310:113|277:128,1,59.9999982118608,0|0,3:3|0:0,0:0:0:0:
262,195,119832,1,2,1:1:0:0:
262,195,119932,1,0,3:3:0:0:
12,47,120132,2,0,P|38:67|70:70,1,59.9999982118608,0|2,3:3|1:2,0:0:0:0:
64,70,120332,2,0,P|46:130|55:220,1,119.999996423722,0|0,3:3|3:3,0:0:0:0:
22,267,120632,1,10,1:2:0:0:
22,267,120732,1,0,3:3:0:0:
22,267,120832,2,0,P|56:273|86:294,1,59.9999982118608,0|0,3:3|0:0,0:0:0:0:
150,328,121032,6,0,P|162:300|169:271,1,59.9999982118608,2|0,1:2|0:0,0:0:0:0:
296,227,121232,2,0,P|283:254|276:283,1,59.9999982118608,0|0,3:3|0:0,0:0:0:0:
166,185,121432,6,0,P|195:182|224:174,1,59.9999982118608,10|0,1:2|3:3,0:0:0:0:
270,374,121632,1,0,3:3:0:0:
270,374,121732,2,0,P|240:376|211:384,1,59.9999982118608,0|2,1:1|1:2,0:0:0:0:
211,384,121932,2,0,P|192:313|165:266,1,119.999996423722,0|0,3:3|3:3,0:0:0:0:
96,262,122232,2,0,P|112:198|148:141,1,119.999996423722,8|0,1:2|1:1,0:0:0:0:
139,151,122532,1,0,3:3:0:0:
139,151,122632,1,0,3:3:0:0:
349,133,122832,6,0,P|397:63|338:111,1,239.999992847443,0|6,1:3|1:1,0:0:0:0:
339,150,123132,2,0,P|356:175|359:214,1,59.9999982118608,0|2,3:3|3:2,0:0:0:0:
280,333,123332,1,0,0:0:0:0:
272,256,123432,5,2,1:2:0:0:
272,256,123532,2,0,P|338:262|377:307,1,119.999996423722,0|0,3:3|3:3,0:0:0:0:
373,376,123832,2,0,P|420:379|462:387,1,59.9999982118608,10|0,1:2|0:0,0:0:0:0:
499,248,124032,2,0,P|452:245|410:237,1,59.9999982118608,0|0,3:3|0:0,0:0:0:0:
373,298,124232,5,2,1:2:0:0:
373,298,124332,2,0,P|356:227|368:141,1,119.999996423722
428,105,124632,2,0,P|439:147|427:178,1,59.9999982118608,8|0,1:2|3:3,0:0:0:0:
294,117,124832,2,0,P|283:75|295:44,1,59.9999982118608,2|0,3:2|0:0,0:0:0:0:
470,27,125032,1,2,1:2:0:0:
470,27,125132,2,0,P|430:2|392:-1,1,59.9999982118608,0|0,3:3|0:0,0:0:0:0:
277,205,125332,1,0,3:3:0:0:
277,205,125432,2,0,P|319:201|347:176,1,59.9999982118608,10|0,1:2|3:3,0:0:0:0:
333,191,125632,6,0,P|211:158|165:112,1,191.999994277954,0|2,3:3|1:2,0:0:0:0:
36,384,126032,2,0,P|44:355|66:311,1,59.9999982118608,0|0,3:3|0:0,0:0:0:0:
0,272,126232,1,2,1:1:0:0:
0,272,126332,1,0,3:3:0:0:
67,53,126532,2,0,P|79:86|81:118,1,59.9999982118608,0|2,0:0|1:2,0:0:0:0:
81,110,126732,2,0,P|144:98|213:96,1,119.999996423722,0|0,3:3|3:3,0:0:0:0:
258,0,127032,2,0,P|195:12|126:14,1,119.999996423722,10|0,1:2|3:3,0:0:0:0:
139,15,127332,1,0,0:0:0:0:
139,15,127432,6,0,L|128:119,3,79.9999976158142,2|0|0|0,1:2|0:0|3:3|0:0,0:0:0:0:
221,22,127832,2,0,L|213:101,3,79.9999976158142,10|0|0|0,1:2|3:3|3:3|3:3,0:0:0:0:
207,287,128232,5,2,1:2:0:0:
191,211,128332,1,0,3:3:0:0:
122,173,128432,1,0,0:0:0:0:
49,208,128532,1,0,3:3:0:0:
44,288,128632,2,0,P|99:279|130:275,1,79.9999976158142,8|0,1:2|0:0,0:0:0:0:
208,264,128832,2,0,P|263:255|294:251,1,79.9999976158142,8|0,1:2|3:3,0:0:0:0:
386,86,129032,6,0,P|373:200|370:262,1,159.999995231628,4|0,1:1|3:3,0:0:0:0:
0,351,129432,1,2,1:1:0:0:
7,332,129532,1,0,3:3:0:0:
14,313,129632,1,0,3:3:0:0:
21,294,129732,1,0,3:3:0:0:
43,212,129932,1,0,3:3:0:0:
82,349,130132,1,0,3:3:0:0:
89,330,130232,1,8,1:2:0:0:
113,254,130432,1,0,3:3:0:0:
120,235,130532,1,0,0:0:0:0:
127,216,130632,1,0,1:1:0:0:
165,357,130832,1,0,3:3:0:0:
189,283,131032,1,8,1:2:0:0:
196,264,131132,1,0,3:3:0:0:
203,245,131232,1,0,3:3:0:0:
210,226,131332,1,0,3:3:0:0:
246,363,131532,1,0,3:3:0:0:
271,286,131732,1,0,3:3:0:0:
278,267,131832,1,8,1:2:0:0:
285,248,131932,1,0,0:0:0:0:
292,229,132032,2,0,P|288:206|286:180,2,39.9999988079071,4|0|0,3:2|0:0|0:0,0:0:0:0:
337,349,132232,1,0,1:1:0:0:
363,277,132432,1,0,3:3:0:0:
440,296,132632,1,2,1:1:0:0:
447,277,132732,1,0,3:3:0:0:
454,258,132832,1,0,3:3:0:0:
461,239,132932,1,0,3:3:0:0:
512,168,133032,5,2,1:2:0:0:
512,168,133132,2,0,P|443:128|420:29,1,159.999995231628,0|0,3:3|3:3,0:0:0:0:
416,55,133432,2,0,P|384:70|322:68,1,79.9999976158142,10|0,1:2|0:0,0:0:0:0:
221,172,133632,1,0,3:3:0:0:
221,172,133832,6,0,P|188:108|286:145,1,239.999992847443,2|0,1:2|3:3,0:0:0:0:
326,279,134132,1,0,0:0:0:0:
395,238,134232,5,10,1:2:0:0:
395,238,134332,2,0,P|428:174|330:211,1,239.999992847443,0|0,3:3|3:3,0:0:0:0:
326,359,134632,5,2,1:2:0:0:
257,318,134732,2,0,P|224:254|322:291,1,239.999992847443,0|0,3:3|3:3,0:0:0:0:
326,359,135032,6,0,P|211:336|107:337,1,191.999994277954,8|0,1:2|3:3,0:0:0:0:
136,334,135332,2,0,L|142:367,2,19.9999994039536,0|0|0,3:3|0:0|3:3,0:0:0:0:
0,328,135632,6,0,P|123:310|135:178,1,239.999992847443,0|6,1:1|1:1,0:0:0:0:
15,28,136032,1,0,3:3:0:0:
22,47,136132,1,0,3:3:0:0:
29,66,136232,1,0,1:1:0:0:
36,85,136332,1,0,3:3:0:0:
65,160,136532,1,0,3:3:0:0:
72,179,136632,1,8,1:2:0:0:
91,0,136832,1,0,3:3:0:0:
98,19,136932,1,0,3:3:0:0:
105,38,137032,1,0,1:1:0:0:
130,112,137232,1,0,3:3:0:0:
155,187,137432,1,8,1:2:0:0:
162,206,137532,1,0,3:3:0:0:
185,11,137732,1,0,3:3:0:0:
192,30,137832,1,0,1:1:0:0:
199,49,137932,1,0,3:3:0:0:
222,130,138132,1,0,3:3:0:0:
229,149,138232,1,8,1:2:0:0:
236,168,138332,1,0,3:3:0:0:
243,187,138432,1,0,3:3:0:0:
268,4,138632,1,0,1:1:0:0:
294,79,138832,1,0,3:3:0:0:
320,151,139032,1,8,1:2:0:0:
327,170,139132,1,0,3:3:0:0:
353,11,139332,1,0,3:3:0:0:
360,30,139432,1,0,1:1:0:0:
367,49,139532,1,0,3:3:0:0:
395,122,139732,1,0,3:3:0:0:
402,141,139832,1,8,1:2:0:0:
451,36,140032,1,0,3:3:0:0:
466,77,140132,1,0,3:3:0:0:
481,118,140232,1,0,1:1:0:0:
256,192,140332,12,4,141832,3:2:0:0:
181,165,142232,5,2,2:2:0:0:
359,73,142432,2,0,B|446:103|454:213|377:264|320:198|259:280|266:332,1,359.999989271165,2|2,2:2|2:2,0:0:0:0:
267,333,143232,2,0,B|255:276|201:243|132:287|53:228|58:128|135:86,1,359.999989271165,2|2,2:2|2:2,0:0:0:0:
131,87,144032,2,0,B|194:68|241:99|241:99|283:47|355:70,2,239.999992847443,2|2|2,2:2|2:2|2:2,0:0:0:0:
135,89,145032,1,0,3:3:0:0:
337,256,145432,5,2,2:2:0:0:
100,220,145632,2,0,B|148:210|187:177|187:177|257:203|257:203|322:155|322:155|371:179|444:170,1,359.999989271165,2|2,2:2|2:2,0:0:0:0:
454,340,146432,2,0,B|469:385|392:473|300:275|317:83|443:143|427:188,1,359.999989271165,2|2,2:2|2:2,0:0:0:0:
506,218,147232,2,0,B|434:298|373:208|290:317,2,239.999992847443,2|2|2,2:2|2:2|2:2,0:0:0:0:
495,137,148132,1,0,0:0:0:0:
495,137,148232,6,0,P|488:113|488:97,3,31.9999990463257,0|0|0|0,3:3|3:3|3:3|3:3,0:0:0:0:
418,125,148632,2,0,P|411:101|411:85,1,31.9999990463257,2|0,3:2|3:3,0:0:0:0:
341,113,148832,2,0,P|334:89|334:73,5,31.9999990463257,2|0|0|0|0|0,3:2|3:3|3:3|3:3|3:3|3:3,0:0:0:0:
264,101,149432,2,0,P|257:77|257:61,1,31.9999990463257,2|0,3:2|3:3,0:0:0:0:
187,89,149632,2,0,P|180:65|180:49,5,31.9999990463257,2|0|0|0|0|0,3:2|3:3|3:3|3:3|3:3|3:3,0:0:0:0:
110,77,150232,2,0,P|103:53|103:37,1,31.9999990463257,2|0,3:2|3:3,0:0:0:0:
33,65,150432,2,0,P|26:41|26:25,3,31.9999990463257,2|0|0|0,3:2|3:3|3:3|3:3,0:0:0:0:
14,144,150832,6,0,P|51:144|87:127,1,63.9999980926514,2|0,3:2|3:3,0:0:0:0:
177,81,151032,2,0,P|157:112|154:152,1,63.9999980926514,2|0,3:2|3:3,0:0:0:0:
149,253,151232,6,0,P|130:219|97:197,3,63.9999980926514,2|0|0|0,3:2|3:3|3:3|3:3,0:0:0:0:
363,253,151632,2,0,P|381:219|414:197,3,63.9999980926514,2|0|0|0,3:2|3:3|3:3|3:3,0:0:0:0:
176,347,152032,6,0,P|150:336|110:333,3,47.9999985694884,2|0|0|0,3:2|3:3|3:3|3:3,0:0:0:0:
336,347,152432,2,0,P|362:336|402:333,3,47.9999985694884,2|0|0|0,3:2|3:3|3:3|3:3,0:0:0:0:
256,368,152832,6,0,L|256:324,1,31.9999990463256,2|0,3:2|3:3,0:0:0:0:
256,192,153032,1,0,3:3:0:0:
256,192,153132,12,0,153832,3:3:0:0:
105,101,153932,5,0,1:1:0:0:
105,101,154032,2,0,P|92:130|86:169,1,59.9999982118608,8|0,1:2|0:0,0:0:0:0:
13,203,154232,2,0,P|163:171|519:165,1,479.999985694885,12|4,2:2|1:1,0:0:0:0:
488,161,155832,6,0,P|483:242|483:314,1,135.999995946884,4|0,1:1|0:0,0:0:0:0:
482,296,156032,2,0,L|230:266,1,239.999992847443,6|2,1:2|2:2,0:0:0:0:
239,0,157032,6,0,B|254:121|254:121|266:218|182:165|195:260|195:260|211:393,2,407.999987840653,6|6|6,1:2|1:2|1:2,0:0:0:0:
239,0,158832,6,0,P|265:57|258:163,1,135.999995946884,2|0,1:2|0:0,0:0:0:0:
476,136,159032,2,0,P|413:130|325:70,1,135.999995946884,2|0,1:2|0:0,0:0:0:0:
246,274,159232,2,0,P|282:222|377:176,1,135.999995946885,2|2,1:2|2:2,0:0:0:0:
467,315,159632,6,0,P|424:308|390:300,1,67.9999979734423,2|0,1:2|0:0,0:0:0:0:
486,239,159832,2,0,P|432:231|394:223,1,79.9999976158142,10|0,1:2|3:3,0:0:0:0:
512,161,160032,2,0,P|449:155|386:141,1,99.9999970197678,2|0,3:2|3:3,0:0:0:0:
424,372,160232,6,0,P|449:223|469:74,1,299.999991059303,2|2,3:2|2:2,0:0:0:0:
344,36,160632,1,8,1:3:0:0:
288,95,160732,1,8,1:3:0:0:
211,106,160832,1,6,1:3:0:0:
139,69,160932,1,4,1:3:0:0:
93,1,161032,2,0,P|62:53|72:120,1,99.9999970197678,4|0,1:1|0:0,0:0:0:0:
231,232,161232,2,0,P|247:276|243:325,1,79.9999976158142,2|0,3:2|0:0,0:0:0:0:
55,367,161432,5,10,1:2:0:0:
169,290,161532,2,0,P|156:335|123:365,1,79.9999976158142,0|0,3:3|0:0,0:0:0:0:
226,384,161732,1,0,3:3:0:0:
88,294,161832,2,0,P|78:208|122:129,1,159.999995231628,2|2,1:2|3:2,0:0:0:0:
192,90,162132,2,0,P|191:50|159:4,1,79.9999976158142,2|8,2:2|1:2,0:0:0:0:
172,15,162332,1,0,0:0:0:0:
172,15,162432,2,0,P|233:84|398:93,1,207.999993801117,2|4,3:2|1:2,0:0:0:0:
342,109,162832,6,0,P|292:138|265:174,1,95.9999971389771,2|0,3:2|3:3,0:0:0:0:
184,377,163032,1,10,1:2:0:0:
184,377,163132,1,0,3:3:0:0:
184,377,163232,2,0,P|184:318|166:277,1,95.9999971389771,2|0,3:2|0:0,0:0:0:0:
30,106,163432,5,0,1:1:0:0:
30,106,163532,2,0,P|81:135|125:140,1,95.9999971389771,0|2,3:3|2:2,0:0:0:0:
210,78,163732,1,0,3:3:0:0:
131,224,163832,2,0,P|174:198|201:152,1,95.9999971389771,10|0,1:2|0:0,0:0:0:0:
111,0,164032,6,0,B|143:152|143:385,2,383.999988555908,6|2|2,1:2|1:2|1:2,0:0:0:0:
0,70,164932,1,0,3:3:0:0:
0,70,165032,6,0,P|36:108|52:152,1,79.9999976158142,0|0,0:0|3:3,0:0:0:0:
181,0,165232,2,0,P|163:38|150:85,1,79.9999976158142,2|0,1:2|0:0,0:0:0:0:
50,236,165432,2,0,P|97:246|128:264,1,63.9999980926514,8|0,1:2|3:3,0:0:0:0:
373,128,165632,6,0,P|236:143|95:178,1,239.999992847443,2|0,1:2|3:3,0:0:0:0:
136,165,166032,6,0,P|140:132|143:96,1,59.9999982118608,2|0,1:2|0:0,0:0:0:0:
211,237,166232,2,0,P|223:137|227:58,1,159.999995231628,10|2,1:2|3:2,0:0:0:0:
140,15,166532,1,0,3:3:0:0:
140,15,166632,6,0,B|200:24|221:65|221:65|276:41|276:41|318:70|318:70|354:32|419:38,1,319.999990463257,2|14,3:2|2:2,0:0:0:0:
431,363,167432,6,0,P|384:351|348:351,1,79.9999976158142,4|0,1:1|0:0,0:0:0:0:
385,160,167632,2,0,P|432:172|468:172,1,79.9999976158142,2|0,3:2|0:0,0:0:0:0:
502,278,167832,2,0,P|393:263|273:244,1,191.999994277954,10|2,1:2|3:2,0:0:0:0:
15,345,168232,6,0,P|62:339|96:321,1,79.9999976158142,2|0,1:2|3:3,0:0:0:0:
173,227,168432,1,2,2:2:0:0:
144,384,168532,6,0,P|168:351|178:298,1,79.9999976158142,2|8,3:2|1:2,0:0:0:0:
181,196,168732,1,0,0:0:0:0:
258,322,168832,6,0,B|266:222|177:256|197:126,1,191.999994277954,2|0,3:2|1:1,0:0:0:0:
126,95,169132,1,0,0:0:0:0:
126,95,169232,2,0,P|171:64|209:59,1,79.9999976158142,2|0,3:2|0:0,0:0:0:0:
443,162,169432,2,0,P|342:162|268:172,1,159.999995231628,10|2,1:2|2:2,0:0:0:0:
283,169,169832,6,0,P|278:119|274:72,1,79.9999976158142,2|0,1:2|3:3,0:0:0:0:
351,50,170032,1,0,0:0:0:0:
374,219,170132,2,0,P|368:168|364:121,1,79.9999976158142,2|8,1:2|3:2,0:0:0:0:
365,139,170332,1,0,0:0:0:0:
365,139,170432,6,0,B|381:250|297:231|320:355,1,207.999993801117,2|0,1:2|0:0,0:0:0:0:
317,335,170832,6,0,P|277:350|260:364,1,59.9999982118608,2|0,1:2|0:0,0:0:0:0:
175,226,171032,2,0,P|208:240|244:278,1,79.9999976158142,10|0,1:2|0:0,0:0:0:0:
375,162,171232,2,0,P|328:175|285:205,1,79.9999976158142,2|0,3:2|3:3,0:0:0:0:
209,92,171432,1,2,1:2:0:0:
190,56,171532,1,0,3:3:0:0:
179,20,171632,1,2,3:2:0:0:
255,35,171732,1,0,0:0:0:0:
332,52,171832,1,10,1:2:0:0:
407,71,171932,1,0,3:3:0:0:
482,94,172032,6,0,P|460:196|450:265,1,159.999995231628,2|0,1:2|3:3,0:0:0:0:
30,290,172432,2,0,P|52:188|62:119,1,159.999995231628,2|10,3:2|1:2,0:0:0:0:
75,46,172732,1,0,3:3:0:0:
75,46,172832,2,0,P|122:68|143:104,1,79.9999976158142,2|0,3:2|3:3,0:0:0:0:
200,247,173032,2,0,P|195:195|279:223,1,159.999995231628,0|2,1:1|3:2,0:0:0:0:
277,205,173332,6,0,P|169:99|198:247,1,399.999988079071,0|0,1:1|0:0,0:0:0:0:
198,247,173632,6,0,P|193:195|277:223,1,159.999995231628,2|0,1:2|3:3,0:0:0:0:
277,204,174232,6,0,P|129:30|200:247,1,639.999820926519,14|0,1:2|0:0,0:0:0:0:
214,341,174632,6,0,P|318:320|401:306,1,159.999995231628,2|2,1:2|2:2,0:0:0:0:
432,384,174932,1,2,3:2:0:0:
432,384,175032,2,0,P|453:349|497:322,1,79.9999976158142,8|0,1:2|0:0,0:0:0:0:
371,121,175232,6,0,B|346:81|365:-11|585:21|494:211|405:132|434:238,1,319.999990463257,2|0,3:2|1:1,0:0:0:0:
459,307,175532,1,0,0:0:0:0:
459,307,175632,2,0,P|410:309|368:285,1,79.9999976158142,2|0,3:2|0:0,0:0:0:0:
300,239,175832,6,0,P|294:287|290:325,1,79.9999976158142,10|0,1:2|3:3,0:0:0:0:
290,318,176032,2,0,P|250:313|210:308,1,79.9999976158142,2|0,3:2|3:3,0:0:0:0:
193,101,176232,6,0,P|187:53|183:15,1,79.9999976158142,2|0,1:2|3:3,0:0:0:0:
183,21,176432,1,2,2:2:0:0:
183,21,176532,2,0,P|143:25|103:30,1,79.9999976158142,2|8,3:2|1:2,0:0:0:0:
25,194,176832,6,0,B|67:189|101:163|101:163|413:221|413:221|441:193|492:185,3,479.999985694885,2|2|2|2,1:2|1:2|1:2|1:2,0:0:0:0:
232,305,178232,5,10,2:2:0:0:
232,305,178432,2,0,P|238:356|241:413,1,79.9999976158142,2|0,1:2|0:0,0:0:0:0:
295,161,178832,2,0,P|301:212|304:269,1,79.9999976158142,2|10,1:2|2:2,0:0:0:0:
351,0,179232,2,0,P|357:51|360:108,1,79.9999976158142,2|0,1:2|0:0,0:0:0:0:
358,79,179532,1,0,1:1:0:0:
358,79,179632,1,2,1:2:0:0:
427,240,179832,5,10,3:2:0:0:
419,318,179932,1,0,1:1:0:0:
352,356,180032,1,2,1:2:0:0:
352,356,180132,1,0,0:0:0:0:
352,356,180232,2,0,P|288:345|246:342,1,59.9999982118608,4|0,1:2|0:0,0:0:0:0:
160,356,180432,2,0,P|224:345|266:342,1,59.9999982118608,2|0,3:2|0:0,0:0:0:0:
379,258,180632,6,0,P|339:261|296:266,1,67.9999979734423,10|0,1:2|0:0,0:0:0:0:
133,258,180832,2,0,P|173:261|216:266,1,67.9999979734423,2|0,3:2|3:3,0:0:0:0:
395,151,181032,6,0,P|346:167|312:177,1,75.9999977350234,0|0,1:1|0:0,0:0:0:0:
117,151,181232,2,0,P|166:167|200:177,1,75.9999977350234,2|0,3:2|0:0,0:0:0:0:
414,23,181432,6,0,P|377:59|344:83,1,83.9999974966048,8|0,1:2|0:0,0:0:0:0:
98,23,181632,2,0,P|135:59|168:83,1,83.9999974966048,2|0,3:2|3:3,0:0:0:0:
256,40,181832,5,4,1:2:0:0:
256,128,181965,5,0,3:3:0:0:
256,128,182032,1,2,3:2:0:0:
256,220,182165,5,0,3:3:0:0:
256,220,182232,1,8,1:2:0:0:
256,304,182365,5,0,3:3:0:0:
256,304,182432,2,0,L|256:388,1,79.9999976158142,6|0,1:2|3:3,0:0:0:0:
256,88,182732,5,0,3:3:0:0:
256,88,182832,2,0,L|256:4,1,79.9999976158142,2|0,1:2|0:0,0:0:0:0:
57,148,183032,6,0,B|112:149|169:127|169:127|256:200|256:200|339:126|339:126|411:154|494:159,1,479.999985694885,10|4,2:2|1:1,0:0:0:0:
151,371,183632,6,0,P|143:334|131:298,1,71.9999978542329,0|0,3:3|0:0,0:0:0:0:
132,301,183832,2,0,P|72:340|0:354,1,143.999995708466,8|2,1:2|3:2,0:0:0:0:
157,219,184132,1,0,3:3:0:0:
229,269,184232,1,2,1:2:0:0:
229,269,184332,2,0,P|311:270|385:291,1,143.999995708466,0|0,3:3|3:3,0:0:0:0:
84,176,184632,2,0,P|74:156|69:95,1,71.9999978542329,10|0,1:2|0:0,0:0:0:0:
229,269,184832,2,0,P|227:325|211:361,1,71.9999978542329,0|0,3:3|0:0,0:0:0:0:
324,124,185032,2,0,P|325:104|298:46,1,71.9999978542329,2|0,1:2|0:0,0:0:0:0:
151,108,185232,6,0,P|172:40|263:1,1,143.999995708466,0|8,3:3|1:2,0:0:0:0:
374,82,185532,1,0,3:3:0:0:
374,82,185632,2,0,P|334:61|296:56,1,71.9999978542329,2|0,3:2|3:3,0:0:0:0:
216,191,185832,5,2,1:2:0:0:
304,246,185932,2,0,P|240:143|244:77,1,175.999994754791,0|0,3:3|3:3,0:0:0:0:
240,91,186232,2,0,P|202:99|166:128,1,71.9999978542329,10|0,1:2|0:0,0:0:0:0:
116,257,186432,2,0,L|126:302,2,35.9999989271164,0|0|0,3:3|0:0|0:0,0:0:0:0:
183,203,186632,6,0,P|101:223|25:203,2,143.999995708466,2|0|12,1:2|3:3|1:2,0:0:0:0:
258,156,187132,2,0,P|298:77|370:25,1,143.999995708466,0|0,3:3|3:3,0:0:0:0:
265,237,187432,1,2,1:2:0:0:
265,237,187532,2,0,P|283:281|286:325,1,71.9999978542329,0|0,3:3|0:0,0:0:0:0:
258,156,187732,2,0,P|232:123|221:80,1,71.9999978542329,0|10,3:3|1:2,0:0:0:0:
222,94,187932,1,0,3:3:0:0:
222,94,188032,6,0,P|342:117|400:110,1,143.999995708466,0|2,3:3|1:2,0:0:0:0:
267,291,188432,2,0,P|146:267|88:274,1,143.999995708466,0|10,3:3|1:2,0:0:0:0:
362,338,188732,2,0,P|402:328|448:302,1,71.9999978542329,0|0,3:3|3:3,0:0:0:0:
341,258,188932,1,0,1:1:0:0:
277,316,189032,1,2,1:2:0:0:
277,316,189132,2,0,P|208:335|133:381,1,143.999995708466,0|0,3:3|3:3,0:0:0:0:
341,258,189432,2,0,P|350:218|368:187,1,71.9999978542329,8|0,1:2|0:0,0:0:0:0:
294,142,189632,2,0,P|283:101|264:69,1,71.9999978542329,0|0,1:1|3:3,0:0:0:0:
359,0,189832,1,0,3:3:0:0:
359,0,190032,6,0,B|381:37|361:74|361:74|364:50|349:23,1,127.999996185303,0|0,1:1|0:0,0:0:0:0:
238,68,190232,2,0,P|381:38|521:26,1,255.999992370606,12|2,1:2|3:2,0:0:0:0:
238,68,190532,1,0,3:3:0:0:
309,126,190632,5,2,1:2:0:0:
309,126,190732,2,0,P|298:180|290:305,1,159.999995231628,0|0,3:3|3:3,0:0:0:0:
227,142,191032,2,0,P|215:93|192:53,1,79.9999976158142,10|0,1:2|0:0,0:0:0:0:
345,0,191232,2,0,P|312:32|274:49,1,79.9999976158142,0|0,3:3|0:0,0:0:0:0:
68,91,191432,2,0,P|121:112|153:138,1,79.9999976158142,2|0,1:2|0:0,0:0:0:0:
161,282,191632,6,0,P|185:191|249:126,1,159.999995231628,0|8,3:3|1:2,0:0:0:0:
242,59,191932,1,0,3:3:0:0:
242,59,192032,2,0,P|287:77|312:130,1,79.9999976158142,2|0,3:2|0:0,0:0:0:0:
340,173,192232,5,2,1:2:0:0:
380,54,192332,2,0,B|422:154|338:151|371:257,1,191.999994277954,0|0,3:3|3:3,0:0:0:0:
391,358,192632,1,10,1:2:0:0:
456,355,192732,1,0,3:3:0:0:
488,300,192832,1,0,3:3:0:0:
471,242,192932,1,0,0:0:0:0:
414,204,193032,6,0,P|325:224|243:236,1,159.999995231628,2|0,1:2|3:3,0:0:0:0:
72,287,193432,1,12,1:2:0:0:
103,125,193532,2,0,P|101:170|81:206,1,79.9999976158142,0|2,3:3|3:2,0:0:0:0:
154,307,193732,1,0,3:3:0:0:
0,244,193832,5,2,1:2:0:0:
0,244,193932,2,0,B|94:275|26:356|140:390,1,191.999994277954,0|0,3:3|3:3,0:0:0:0:
226,276,194232,2,0,P|183:287|146:315,1,79.9999976158142,10|0,1:2|0:0,0:0:0:0:
299,384,194432,2,0,P|249:361|209:359,1,79.9999976158142,0|0,3:3|0:0,0:0:0:0:
217,177,194632,6,0,L|225:129,6,39.9999988079071,2|0|0|0|0|0|0,1:2|0:0|0:0|0:0|3:3|0:0|0:0,0:0:0:0:
187,228,195032,1,10,1:2:0:0:
234,270,195132,1,0,3:3:0:0:
295,254,195232,1,0,3:3:0:0:
316,199,195332,1,0,3:3:0:0:
304,141,195432,1,2,1:2:0:0:
334,85,195532,1,0,3:3:0:0:
396,74,195632,1,0,0:0:0:0:
446,109,195732,1,0,3:3:0:0:
413,187,195832,2,0,P|416:218|418:253,1,59.9999982118608,8|0,1:2|0:0,0:0:0:0:
498,292,196032,2,0,P|501:323|503:358,1,59.9999982118608,8|0,1:2|3:3,0:0:0:0:
512,187,196232,6,0,B|281:226|34:237,1,479.999985694885,4|10,1:1|1:2,0:0:0:0:
239,85,196832,1,2,3:2:0:0:
172,149,197032,6,0,P|152:119|116:95,1,71.9999978542329,2|0,1:2|3:3,0:0:0:0:
332,98,197232,1,2,2:2:0:0:
332,98,197332,2,0,P|338:50|364:12,1,71.9999978542329,2|8,3:2|1:2,0:0:0:0:
274,225,197632,2,0,P|254:138|230:51,1,143.999995708466,2|0,3:2|1:1,0:0:0:0:
239,85,198032,2,0,P|277:66|319:66,1,71.9999978542329,0|0,3:3|0:0,0:0:0:0:
415,207,198232,2,0,P|357:154|279:148,1,143.999995708466,10|2,1:2|3:2,0:0:0:0:
73,153,198632,6,0,P|108:165|135:200,1,71.9999978542329,2|0,1:2|3:3,0:0:0:0:
212,241,198832,1,2,2:2:0:0:
212,241,198932,2,0,P|219:289|206:331,1,71.9999978542329,2|8,3:2|1:2,0:0:0:0:
214,311,199232,2,0,P|118:297|51:296,1,143.999995708466,2|4,3:2|1:2,0:0:0:0:
296,341,199632,5,2,3:2:0:0:
405,152,199832,1,10,1:2:0:0:
216,43,200032,1,2,3:2:0:0:
107,232,200232,1,2,1:2:0:0:
299,149,200432,6,0,L|306:206,2,35.9999989271164,0|0|2,3:3|3:3|3:2,0:0:0:0:
213,133,200632,2,0,P|224:199|231:283,1,143.999995708466,8|2,1:2|3:2,0:0:0:0:
311,264,200932,1,0,0:0:0:0:
311,264,201032,2,0,P|353:263|391:269,1,71.9999978542329,0|0,1:1|0:0,0:0:0:0:
151,236,201232,2,0,P|109:237|71:231,1,71.9999978542329,0|0,3:3|3:3,0:0:0:0:
154,35,201432,6,0,B|103:154|272:162|230:275,1,271.999991893768,14|0,1:2|3:3,0:0:0:0:
244,371,201732,1,0,3:3:0:0:
244,371,201832,6,0,B|202:258|371:250|320:130,1,271.999991893768,14|0,1:2|3:3,0:0:0:0:
343,31,202132,1,0,3:3:0:0:
343,31,202232,6,0,B|292:150|461:158|419:271,1,271.999991893768,14|0,1:2|3:3,0:0:0:0:
419,270,202532,1,0,3:3:0:0:
419,270,202632,1,4,1:2:0:0:
24,328,202832,6,0,P|26:293|61:262,1,71.9999978542329,0|0,3:3|0:0,0:0:0:0:
249,342,203032,2,0,P|178:324|90:321,1,143.999995708466,10|2,1:2|3:2,0:0:0:0:
107,319,203332,1,0,0:0:0:0:
107,319,203432,1,2,1:2:0:0:
226,130,203632,2,0,L|234:213,2,71.9999978542329,2|0|10,2:2|3:3|1:2,0:0:0:0:
326,372,204032,5,2,3:2:0:0:
326,372,204132,2,0,P|348:332|344:293,1,71.9999978542329,0|0,0:0|1:1,0:0:0:0:
166,224,204432,2,0,P|255:279|281:338,1,143.999995708466,0|10,3:3|1:2,0:0:0:0:
512,134,204832,2,0,P|470:150|438:157,1,71.9999978542329,2|0,3:2|0:0,0:0:0:0:
395,232,205032,1,2,1:2:0:0:
395,232,205232,6,0,P|346:203|311:196,1,71.9999978542329,2|2,2:2|3:2,0:0:0:0:
441,76,205432,1,8,1:2:0:0:
441,76,205532,1,2,3:2:0:0:
441,76,205632,6,0,P|417:215|406:343,1,239.999992847443,2|4,3:2|1:2,0:0:0:0:
407,313,206032,6,0,P|366:280|357:252,1,79.9999976158142,2|0,3:2|0:0,0:0:0:0:
210,297,206232,2,0,P|228:247|252:229,1,79.9999976158142,10|0,1:2|0:0,0:0:0:0:
164,103,206432,2,0,P|217:105|241:122,1,79.9999976158142,2|0,3:2|0:0,0:0:0:0:
333,0,206632,2,0,P|347:51|337:79,1,79.9999976158142,2|0,1:2|0:0,0:0:0:0:
484,130,206832,2,0,P|439:159|409:159,1,79.9999976158142,2|0,3:2|3:3,0:0:0:0:
322,168,207032,1,10,1:2:0:0:
322,168,207132,1,0,0:0:0:0:
322,168,207232,6,0,B|324:158|349:180|280:192|256:171|292:84|393:143|350:236|293:210|276:148|313:169|313:169|323:148|322:162,1,159.999995231628,2|0,3:2|1:1,0:0:0:0:
413,159,207632,6,0,P|453:154|484:130,1,79.9999976158142,2|0,3:2|3:3,0:0:0:0:
247,231,207832,2,0,P|219:258|210:297,1,79.9999976158142,14|0,1:2|0:0,0:0:0:0:
339,75,208032,2,0,P|347:36|333:0,1,79.9999976158142,2|0,2:2|3:3,0:0:0:0:
357,255,208232,2,0,P|373:291|407:313,1,79.9999976158142,6|0,1:2|0:0,0:0:0:0:
238,119,208432,1,2,3:2:0:0:
238,119,208532,6,0,P|203:100|164:103,1,79.9999976158142,2|12,3:2|1:2,0:0:0:0:
135,26,208732,1,0,0:0:0:0:
135,26,208832,2,0,P|101:46|84:82,1,79.9999976158142,8|0,1:2|0:0,0:0:0:0:
0,109,209032,6,0,P|199:143|505:220,1,479.999985694885,4|10,1:1|1:2,0:0:0:0:
136,348,209632,5,2,3:2:0:0:
233,302,209832,2,0,P|228:339|210:379,1,71.9999978542329,2|0,1:2|3:3,0:0:0:0:
135,246,210032,1,2,2:2:0:0:
135,246,210132,2,0,P|87:276|69:305,1,71.9999978542329,2|8,3:2|1:2,0:0:0:0:
295,324,210432,2,0,P|168:326|109:347,1,143.999995708466,2|0,3:2|1:1,0:0:0:0:
295,324,210832,1,0,3:3:0:0:
194,98,211032,2,0,P|217:191|215:267,1,143.999995708466,10|2,1:2|3:2,0:0:0:0:
217,238,211332,1,0,0:0:0:0:
202,328,211432,5,2,1:2:0:0:
202,328,211532,2,0,P|125:311|155:259,1,143.999995708466,0|2,3:3|3:2,0:0:0:0:
217,238,211832,2,0,P|260:229|299:225,1,71.9999978542329,8|0,1:2|0:0,0:0:0:0:
345,139,212032,6,0,P|245:154|104:185,1,215.999993562699,14|0,1:1|0:0,0:0:0:0:
132,177,212432,6,0,P|139:142|143:106,1,71.9999978542329,2|0,3:2|0:0,0:0:0:0:
154,27,212632,2,0,P|189:34|225:37,1,71.9999978542329,10|0,1:2|0:0,0:0:0:0:
304,48,212832,2,0,P|296:83|293:119,1,71.9999978542329,2|0,3:2|0:0,0:0:0:0:
279,197,213032,2,0,P|314:204|350:207,1,71.9999978542329,2|0,1:2|3:3,0:0:0:0:
429,218,213232,1,2,2:2:0:0:
429,218,213332,2,0,P|421:253|418:289,1,71.9999978542329,0|10,1:3|1:2,0:0:0:0:
373,368,213632,6,0,P|367:221|354:73,1,263.999992132187,2|0,1:2|1:3,0:0:0:0:
370,22,214032,2,0,P|311:28|272:28,1,87.9999973773958,0|0,1:1|0:0,0:0:0:0:
101,193,214232,2,0,P|96:224|93:246,2,43.9999986886979,8|0|0,1:2|1:1|1:1,0:0:0:0:
183,178,214432,1,0,1:1:0:0:
183,178,214532,2,0,P|172:252|167:288,2,87.9999973773958,8|2|10,1:2|1:2|3:2,0:0:0:0:
29,384,214832,2,0,P|13:354|12:313,1,59.9999982118608,0|0,3:3|1:1,0:0:0:0:
283,305,215032,2,0,P|120:317|74:338,1,191.999994277954,8|2,1:2|3:2,0:0:0:0:
95,327,215332,1,0,0:0:0:0:
95,327,215432,1,2,2:2:0:0:
104,48,215632,6,0,P|85:149|31:79,1,239.999992847443,2|12,1:2|1:1,0:0:0:0:
136,228,216032,1,2,3:2:0:0:
136,228,216132,1,0,3:3:0:0:
136,228,216232,1,2,1:2:0:0:
257,161,216432,6,0,P|257:257|331:195,1,239.999992847443,2|8,2:2|1:2,0:0:0:0:
200,348,216832,1,0,3:3:0:0:
143,284,217032,5,0,1:1:0:0:
143,284,217132,2,0,P|100:270|58:250,1,71.9999978542329,0|0,3:3|0:0,0:0:0:0:
48,343,217332,2,0,P|91:357|133:377,1,71.9999978542329,0|8,3:3|1:2,0:0:0:0:
200,348,217532,1,0,3:3:0:0:
200,348,217632,1,0,3:3:0:0:
369,284,217832,5,0,1:1:0:0:
369,284,217932,2,0,P|412:270|454:250,1,71.9999978542329,0|0,3:3|0:0,0:0:0:0:
464,343,218132,1,0,3:3:0:0:
464,343,218232,2,0,P|421:357|379:377,1,71.9999978542329,8|0,1:2|0:0,0:0:0:0:
299,221,218432,2,0,P|256:235|214:255,1,71.9999978542329,2|0,1:2|0:0,0:0:0:0:
312,348,218632,1,2,1:2:0:0:
165,174,218832,6,0,P|146:275|92:205,1,239.999992847443,2|4,3:2|1:2,0:0:0:0:
366,225,219232,1,2,3:2:0:0:
366,225,219332,1,0,3:3:0:0:
366,225,219432,1,2,1:2:0:0:
393,29,219632,6,0,P|412:130|466:60,1,239.999992847443,2|0,3:2|1:1,0:0:0:0:
197,142,220032,1,0,3:3:0:0:
308,244,220232,1,0,1:1:0:0:
308,244,220332,1,0,0:0:0:0:
308,244,220432,2,0,P|344:236|391:232,1,71.9999978542329,0|0,3:3|0:0,0:0:0:0:
199,147,220632,2,0,P|163:155|116:159,1,71.9999978542329,8|0,3:2|0:0,0:0:0:0:
211,313,220832,5,0,3:3:0:0:
211,313,220932,1,0,3:3:0:0:
211,313,221032,2,0,P|204:260|198:233,1,71.9999978542329,0|0,0:0|3:3,0:0:0:0:
299,203,221232,2,0,P|292:150|286:123,1,71.9999978542329,0|0,0:0|3:3,0:0:0:0:
388,93,221432,2,0,P|381:40|375:13,1,71.9999978542329,12|0,2:2|3:3,0:0:0:0:
248,37,221632,1,0,3:3:0:0:
248,37,221732,1,0,0:0:0:0:
248,37,221832,6,0,P|256:130|256:344,1,287.999991416932,4|0,1:1|0:0,0:0:0:0:
271,353,223232,6,0,B|230:344|218:304|256:264|314:285|282:321|282:321|229:292|214:258|250:204|306:229|277:258|277:258|227:238|207:202|247:146|304:186|274:208|274:208|223:179|206:139|240:93|301:127|267:151|267:151|222:119|201:83|237:27|294:73|261:97|261:97|215:59|203:17|245:-14|288:24|262:48|262:48|239:30,1,959.999971389773,2|0,2:2|0:0,0:0:0:0:
248,37,225032,6,0,P|256:130|256:344,1,287.999991416932
271,353,226432,6,0,B|230:344|218:304|256:264|314:285|282:321|282:321|229:292|214:258|250:204|306:229|277:258|277:258|227:238|207:202|247:146|304:186|274:208|274:208|223:179|206:139|240:93|301:127|267:151|267:151|222:119|201:83|237:27|294:73|261:97|261:97|215:59|203:17|245:-14|288:24|262:48|262:48|239:30,1,959.999971380171,2|0,2:2|0:0,0:0:0:0:
256,192,228332,12,0,233832,0:0:0:0:
