osu file format v14

[General]
AudioFilename: audio.mp3
AudioLeadIn: 0
PreviewTime: 48711
Countdown: 0
SampleSet: Normal
StackLeniency: 0.7
Mode: 3
LetterboxInBreaks: 0
SpecialStyle: 0
WidescreenStoryboard: 0

[Editor]
DistanceSpacing: 1.2
BeatDivisor: 4
GridSize: 4
TimelineZoom: 1.699999

[Metadata]
Title:Cranberry City feat. Luschel
TitleUnicode:Cranberry City feat. Luschel
Artist:lapix
ArtistUnicode:lapix
Creator:8230
Version:Beginner
Source:beatmania IIDX 26 Rootage
Tags:vocal dump chordjack chord jack cj garage pop ost original soundtrack selection mrx-060 megarex rizing destruction c97 comiket97 comic market 97 コミックマーケット97 コミケ97 doujin dojin english vgm video game music rhythm electronic funk
BeatmapID:4213921
BeatmapSetID:2023123

[Difficulty]
HPDrainRate:6.5
CircleSize:4
OverallDifficulty:6.5
ApproachRate:5
SliderMultiplier:1.4
SliderTickRate:1

[Events]
//Background and Video events
0,0,"j10.jpg",0,0
//Break Periods
//Storyboard Layer 0 (Background)
//Storyboard Layer 1 (Fail)
//Storyboard Layer 2 (Pass)
//Storyboard Layer 3 (Foreground)
//Storyboard Layer 4 (Overlay)
//Storyboard Sound Samples
Sample,3494,0,"normal-hitwhistle.wav",10
Sample,3602,0,"normal-hitwhistle.wav",10
Sample,3711,0,"normal-hitwhistle.wav",10
Sample,3820,0,"normal-hitwhistle.wav",10
Sample,3928,0,"normal-hitwhistle.wav",10
Sample,4037,0,"normal-hitwhistle.wav",10
Sample,4146,0,"normal-hitwhistle.wav",25
Sample,4254,0,"normal-hitwhistle.wav",25
Sample,4363,0,"normal-hitwhistle.wav",40
Sample,4472,0,"normal-hitwhistle.wav",40
Sample,4581,0,"normal-hitwhistle.wav",55
Sample,4689,0,"normal-hitwhistle.wav",55
Sample,4907,0,"normal-hitwhistle.wav",70
Sample,5015,0,"normal-hitclap.wav",70
Sample,5015,0,"normal-hitwhistle.wav",70
Sample,5124,0,"normal-hitclap.wav",70
Sample,5124,0,"normal-hitwhistle.wav",70
Sample,8059,0,"normal-hitwhistle.wav",70
Sample,9472,0,"normal-hitwhistle.wav",70
Sample,9798,0,"normal-hitwhistle.wav",70
Sample,11537,0,"normal-hitwhistle.wav",70
Sample,13494,0,"normal-hitfinish.wav",35
Sample,15015,0,"normal-hitwhistle.wav",70
Sample,15885,0,"normal-hitwhistle.wav",70
Sample,16428,0,"normal-hitwhistle.wav",70
Sample,16754,0,"normal-hitwhistle.wav",70
Sample,18494,0,"normal-hitwhistle.wav",70
Sample,19363,0,"normal-hitwhistle.wav",70
Sample,20124,0,"normal-hitwhistle.wav",70
Sample,20450,0,"normal-hitclap.wav",70
Sample,21972,0,"normal-hitwhistle.wav",70
Sample,23602,0,"normal-hitwhistle.wav",35
Sample,23711,0,"normal-hitwhistle.wav",35
Sample,23820,0,"normal-hitwhistle.wav",35
Sample,25124,0,"normal-hitwhistle.wav",70
Sample,25450,0,"normal-hitwhistle.wav",70
Sample,27189,0,"normal-hitwhistle.wav",35
Sample,27298,0,"normal-hitwhistle.wav",35
Sample,29798,0,"normal-hitwhistle.wav",70
Sample,32081,0,"normal-hitwhistle.wav",70
Sample,40994,0,"normal-hitwhistle.wav",70
Sample,41211,0,"normal-hitwhistle.wav",70
Sample,41428,0,"normal-hitwhistle.wav",70
Sample,41537,0,"normal-hitwhistle.wav",70
Sample,41972,0,"normal-hitfinish.wav",35
Sample,41972,0,"normal-hitwhistle.wav",70
Sample,42189,0,"normal-hitfinish.wav",35
Sample,42407,0,"normal-hitwhistle.wav",70
Sample,42407,0,"normal-hitfinish.wav",35
Sample,43711,0,"normal-hitwhistle.wav",70
Sample,43711,0,"normal-hitfinish.wav",35
Sample,43928,0,"normal-hitfinish.wav",35
Sample,44146,0,"normal-hitfinish.wav",35
Sample,44146,0,"normal-hitwhistle.wav",70
Sample,46320,0,"normal-hitwhistle.wav",25
Sample,46392,0,"normal-hitwhistle.wav",30
Sample,46465,0,"normal-hitwhistle.wav",35
Sample,46610,0,"normal-hitwhistle.wav",45
Sample,46682,0,"normal-hitwhistle.wav",50
Sample,46827,0,"normal-hitwhistle.wav",60
Sample,46899,0,"normal-hitwhistle.wav",65
Sample,47117,0,"normal-hitwhistle.wav",70
Sample,47262,0,"normal-hitwhistle.wav",70
Sample,47407,0,"normal-hitwhistle.wav",70
Sample,47552,0,"normal-hitwhistle.wav",70
Sample,47697,0,"normal-hitwhistle.wav",70
Sample,47841,0,"normal-hitclap.wav",70
Sample,49146,0,"normal-hitclap.wav",70
Sample,49581,0,"normal-hitwhistle.wav",70
Sample,50015,0,"normal-hitclap.wav",70
Sample,50885,0,"normal-hitclap.wav",70
Sample,51320,0,"normal-hitwhistle.wav",70
Sample,51754,0,"normal-hitclap.wav",70
Sample,52624,0,"normal-hitclap.wav",70
Sample,53059,0,"normal-hitwhistle.wav",70
Sample,53494,0,"normal-hitwhistle.wav",70
Sample,53494,0,"normal-hitclap.wav",70
Sample,54363,0,"normal-hitclap.wav",70
Sample,55233,0,"normal-hitfinish.wav",35
Sample,55233,0,"normal-hitclap.wav",70
Sample,56102,0,"normal-hitclap.wav",70
Sample,56972,0,"normal-hitclap.wav",70
Sample,57841,0,"normal-hitclap.wav",70
Sample,58276,0,"normal-hitwhistle.wav",70
Sample,58711,0,"normal-hitclap.wav",70
Sample,59146,0,"normal-hitwhistle.wav",70
Sample,59581,0,"normal-hitclap.wav",70
Sample,60450,0,"normal-hitclap.wav",70
Sample,61102,0,"normal-hitwhistle.wav",70
Sample,61537,0,"normal-hitwhistle.wav",70
Sample,63059,0,"normal-hitclap.wav",70
Sample,63928,0,"normal-hitclap.wav",70
Sample,64798,0,"normal-hitclap.wav",70
Sample,65668,0,"normal-hitclap.wav",70
Sample,65885,0,"normal-hitwhistle.wav",70
Sample,66537,0,"normal-hitfinish.wav",70
Sample,66972,0,"normal-hitwhistle.wav",70
Sample,67407,0,"normal-hitclap.wav",70
Sample,68276,0,"normal-hitclap.wav",70
Sample,69146,0,"normal-hitclap.wav",70
Sample,69146,0,"normal-hitfinish.wav",35
Sample,70015,0,"normal-hitclap.wav",70
Sample,70885,0,"normal-hitclap.wav",70
Sample,71537,0,"normal-hitwhistle.wav",70
Sample,71754,0,"normal-hitclap.wav",70
Sample,71972,0,"normal-hitwhistle.wav",70
Sample,72624,0,"normal-hitclap.wav",70
Sample,73059,0,"normal-hitwhistle.wav",70
Sample,73059,0,"normal-hitfinish.wav",70
Sample,73494,0,"normal-hitclap.wav",70
Sample,74363,0,"normal-hitclap.wav",70
Sample,75015,0,"normal-hitwhistle.wav",70
Sample,83168,0,"normal-hitwhistle.wav",70
Sample,83385,0,"normal-hitwhistle.wav",70
Sample,90885,0,"normal-hitclap.wav",70
Sample,91320,0,"normal-hitwhistle.wav",70
Sample,91754,0,"normal-hitclap.wav",70
Sample,91754,0,"normal-hitwhistle.wav",70
Sample,92624,0,"normal-hitclap.wav",70
Sample,93059,0,"normal-hitwhistle.wav",70
Sample,93494,0,"normal-hitclap.wav",70
Sample,93494,0,"normal-hitwhistle.wav",70
Sample,94363,0,"normal-hitclap.wav",70
Sample,95233,0,"normal-hitclap.wav",70
Sample,96102,0,"normal-hitclap.wav",70
Sample,96972,0,"normal-hitfinish.wav",35
Sample,97841,0,"normal-hitclap.wav",70
Sample,98276,0,"normal-hitwhistle.wav",70
Sample,98711,0,"normal-hitclap.wav",70
Sample,98711,0,"normal-hitwhistle.wav",70
Sample,99581,0,"normal-hitclap.wav",70
Sample,100450,0,"normal-hitclap.wav",70
Sample,101320,0,"normal-hitclap.wav",70
Sample,102189,0,"normal-hitclap.wav",70
Sample,102841,0,"normal-hitwhistle.wav",70
Sample,103602,0,"normal-hitwhistle.wav",70
Sample,103928,0,"normal-hitclap.wav",70
Sample,104798,0,"normal-hitclap.wav",70
Sample,105668,0,"normal-hitclap.wav",70
Sample,106537,0,"normal-hitclap.wav",70
Sample,107407,0,"normal-hitclap.wav",70
Sample,108276,0,"normal-hitclap.wav",70
Sample,109146,0,"normal-hitclap.wav",70
Sample,110015,0,"normal-hitwhistle.wav",70
Sample,110015,0,"normal-hitclap.wav",70
Sample,110885,0,"normal-hitfinish.wav",35
Sample,111754,0,"normal-hitclap.wav",70
Sample,112624,0,"normal-hitclap.wav",70
Sample,113276,0,"normal-hitwhistle.wav",70
Sample,113711,0,"normal-hitwhistle.wav",70
Sample,114146,0,"normal-hitwhistle.wav",70
Sample,114254,0,"normal-hitwhistle.wav",70
Sample,114363,0,"normal-hitfinish.wav",35
Sample,114798,0,"normal-hitfinish.wav",70
Sample,115124,0,"normal-hitwhistle.wav",70
Sample,115233,0,"normal-hitclap.wav",70
Sample,115450,0,"normal-hitwhistle.wav",70
Sample,116102,0,"normal-hitclap.wav",70
Sample,116320,0,"normal-hitwhistle.wav",70

[TimingPoints]
1755,434.782608695652,4,1,1,50,1,0
48711,-100,4,1,1,50,0,1
62624,-100,4,1,1,50,0,0
66537,-100,4,1,1,50,0,1
76537,-100,4,1,1,50,0,0
90450,-100,4,1,1,50,0,1
104363,-100,4,1,1,50,0,0

[HitObjects]
64,192,1755,5,0,0:0:0:70:normal-hitwhistle.wav
192,192,1755,1,0,0:0:0:10:normal-hitfinish.wav
192,192,2081,1,0,0:0:0:25:normal-hitfinish.wav
64,192,2081,1,0,0:0:0:70:normal-hitwhistle.wav
320,192,2407,1,0,0:0:0:70:normal-hitwhistle.wav
448,192,2407,1,0,0:0:0:40:normal-hitfinish.wav
320,192,2733,1,0,0:0:0:70:normal-hitwhistle.wav
448,192,2733,1,0,0:0:0:55:normal-hitfinish.wav
64,192,3059,128,0,4798:0:0:0:70:normal-hitwhistle.wav
192,192,3059,1,0,0:0:0:70:normal-hitfinish.wav
448,192,4798,1,0,0:0:0:70:normal-hitwhistle.wav
64,192,5233,1,0,0:0:0:70:normal-hitwhistle.wav
192,192,5233,1,0,0:0:0:70:normal-hitclap.wav
64,192,5668,1,0,0:0:0:70:normal-hitwhistle.wav
192,192,5668,1,0,0:0:0:70:normal-hitclap.wav
64,192,6102,1,0,0:0:0:70:normal-hitwhistle.wav
192,192,6102,1,0,0:0:0:70:normal-hitclap.wav
64,192,6537,1,0,0:0:0:70:normal-hitclap.wav
448,192,6537,1,0,0:0:0:0:
320,192,6972,1,0,0:0:0:70:normal-hitwhistle.wav
448,192,6972,1,0,0:0:0:70:normal-hitfinish.wav
64,192,7407,1,0,0:0:0:70:normal-hitclap.wav
320,192,7733,1,0,0:0:0:70:normal-hitwhistle.wav
192,192,7950,1,0,0:0:0:0:
448,192,8276,1,0,0:0:0:70:normal-hitclap.wav
64,192,8711,1,0,0:0:0:70:normal-hitwhistle.wav
320,192,8711,1,0,0:0:0:0:
320,192,9146,1,0,0:0:0:70:normal-hitclap.wav
192,192,9581,128,0,10015:0:0:0:0:
448,192,10015,128,0,10450:0:0:0:70:normal-hitclap.wav
64,192,10450,1,0,0:0:0:70:normal-hitwhistle.wav
192,192,10450,1,0,0:0:0:0:
448,192,10885,1,0,0:0:0:70:normal-hitclap.wav
192,192,11211,1,0,0:0:0:70:normal-hitwhistle.wav
320,192,11428,1,0,0:0:0:0:
64,192,11754,1,0,0:0:0:70:normal-hitclap.wav
64,192,12189,1,0,0:0:0:70:normal-hitwhistle.wav
448,192,12189,1,0,0:0:0:0:
320,192,12624,1,0,0:0:0:70:normal-hitclap.wav
192,192,12950,1,0,0:0:0:70:normal-hitwhistle.wav
192,192,13276,1,0,0:0:0:70:normal-hitwhistle.wav
448,192,13494,128,0,13928:0:0:0:70:normal-hitclap.wav
64,192,13928,1,0,0:0:0:70:normal-hitwhistle.wav
192,192,13928,1,0,0:0:0:70:normal-hitfinish.wav
448,192,14363,1,0,0:0:0:70:normal-hitclap.wav
192,192,14689,1,0,0:0:0:70:normal-hitwhistle.wav
320,192,14907,1,0,0:0:0:0:
64,192,15233,1,0,0:0:0:70:normal-hitclap.wav
192,192,15668,1,0,0:0:0:70:normal-hitwhistle.wav
448,192,15668,1,0,0:0:0:0:
192,192,16102,1,0,0:0:0:70:normal-hitclap.wav
320,192,16537,128,0,16972:0:0:0:0:
64,192,16972,128,0,17407:0:0:0:70:normal-hitclap.wav
320,192,17407,1,0,0:0:0:70:normal-hitwhistle.wav
448,192,17407,1,0,0:0:0:0:
64,192,17841,1,0,0:0:0:70:normal-hitclap.wav
320,192,18168,1,0,0:0:0:70:normal-hitwhistle.wav
192,192,18385,1,0,0:0:0:0:
448,192,18711,1,0,0:0:0:70:normal-hitclap.wav
64,192,19146,1,0,0:0:0:70:normal-hitwhistle.wav
448,192,19146,1,0,0:0:0:70:normal-hitfinish.wav
320,192,19472,1,0,0:0:0:70:normal-hitwhistle.wav
320,192,19689,1,0,0:0:0:70:normal-hitwhistle.wav
192,192,19907,1,0,0:0:0:70:normal-hitwhistle.wav
320,192,20233,1,0,0:0:0:70:normal-hitwhistle.wav
320,192,20450,128,0,20885:0:0:0:70:normal-hitwhistle.wav
64,192,20885,128,0,21320:0:0:0:70:normal-hitwhistle.wav
192,192,20885,1,0,0:0:0:0:
448,192,21320,1,0,0:0:0:70:normal-hitclap.wav
320,192,21754,1,0,0:0:0:70:normal-hitwhistle.wav
448,192,21754,128,0,22189:0:0:0:0:
64,192,22189,1,0,0:0:0:70:normal-hitclap.wav
192,192,22624,1,0,0:0:0:70:normal-hitwhistle.wav
320,192,22624,1,0,0:0:0:0:
320,192,23059,128,0,23494:0:0:0:0:
64,192,23494,128,0,23928:0:0:0:35:normal-hitwhistle.wav
448,192,23928,1,0,0:0:0:70:normal-hitclap.wav
64,192,24363,1,0,0:0:0:70:normal-hitwhistle.wav
448,192,24363,128,0,24798:0:0:0:0:
192,192,24798,1,0,0:0:0:70:normal-hitclap.wav
320,192,25233,128,0,25668:0:0:0:0:
64,192,25668,1,0,0:0:0:70:normal-hitclap.wav
192,192,26102,128,0,26537:0:0:0:70:normal-hitwhistle.wav
448,192,26102,1,0,0:0:0:0:
320,192,26537,1,0,0:0:0:0:
64,192,26863,128,0,27407:0:0:0:0:
448,192,27407,1,0,0:0:0:70:normal-hitclap.wav
320,192,27841,1,0,0:0:0:70:normal-hitwhistle.wav
448,192,27841,128,0,28276:0:0:0:0:
192,192,28276,1,0,0:0:0:70:normal-hitclap.wav
448,192,28602,1,0,0:0:0:70:normal-hitwhistle.wav
64,192,28928,1,0,0:0:0:70:normal-hitwhistle.wav
320,192,29146,1,0,0:0:0:70:normal-hitclap.wav
64,192,29581,128,0,30015:0:0:0:70:normal-hitwhistle.wav
192,192,29581,1,0,0:0:0:0:
448,192,30015,1,0,0:0:0:70:normal-hitclap.wav
64,192,30341,1,0,0:0:0:70:normal-hitwhistle.wav
448,192,30668,1,0,0:0:0:0:
192,192,30885,1,0,0:0:0:70:normal-hitclap.wav
320,192,31102,1,0,0:0:0:0:
64,192,31320,1,0,0:0:0:70:normal-hitwhistle.wav
448,192,31320,1,0,0:0:0:70:normal-hitfinish.wav
320,192,31754,1,0,0:0:0:70:normal-hitclap.wav
192,192,32189,1,0,0:0:0:0:
448,192,32407,1,0,0:0:0:70:normal-hitwhistle.wav
64,192,32624,1,0,0:0:0:70:normal-hitclap.wav
320,192,33059,1,0,0:0:0:70:normal-hitwhistle.wav
64,192,33276,1,0,0:0:0:70:normal-hitwhistle.wav
448,192,33494,1,0,0:0:0:70:normal-hitclap.wav
192,192,33820,1,0,0:0:0:70:normal-hitwhistle.wav
448,192,34146,1,0,0:0:0:0:
192,192,34363,1,0,0:0:0:70:normal-hitwhistle.wav
64,192,34363,1,0,0:0:0:70:normal-hitclap.wav
64,192,34798,1,0,0:0:0:70:normal-hitwhistle.wav
448,192,34798,128,0,35233:0:0:0:70:normal-hitfinish.wav
192,192,35233,128,0,35668:0:0:0:70:normal-hitclap.wav
320,192,35668,128,0,36102:0:0:0:70:normal-hitwhistle.wav
64,192,36102,128,0,36537:0:0:0:70:normal-hitclap.wav
320,192,36537,1,0,0:0:0:70:normal-hitwhistle.wav
448,192,36537,1,0,0:0:0:0:
192,192,36972,1,0,0:0:0:70:normal-hitwhistle.wav
320,192,36972,1,0,0:0:0:70:normal-hitclap.wav
64,192,37407,1,0,0:0:0:70:normal-hitwhistle.wav
192,192,37407,1,0,0:0:0:0:
320,192,37841,1,0,0:0:0:70:normal-hitclap.wav
64,192,38276,1,0,0:0:0:70:normal-hitwhistle.wav
448,192,38276,128,0,38711:0:0:0:0:
192,192,38711,128,0,39146:0:0:0:70:normal-hitclap.wav
448,192,39146,1,0,0:0:0:70:normal-hitwhistle.wav
320,192,39581,1,0,0:0:0:70:normal-hitclap.wav
64,192,40015,1,0,0:0:0:70:normal-hitwhistle.wav
192,192,40015,1,0,0:0:0:0:
192,192,40450,1,0,0:0:0:70:normal-hitwhistle.wav
320,192,40450,1,0,0:0:0:70:normal-hitclap.wav
320,192,40885,1,0,0:0:0:70:normal-hitwhistle.wav
448,192,40885,1,0,0:0:0:0:
192,192,41320,1,0,0:0:0:70:normal-hitclap.wav
64,192,41754,128,0,42624:0:0:0:70:normal-hitwhistle.wav
448,192,41754,1,0,0:0:0:70:normal-hitfinish.wav
448,192,42189,1,0,0:0:0:70:normal-hitwhistle.wav
320,192,42624,128,0,43059:0:0:0:70:normal-hitwhistle.wav
64,192,43494,1,0,0:0:0:70:normal-hitwhistle.wav
448,192,43494,128,0,44363:0:0:0:70:normal-hitfinish.wav
64,192,43928,1,0,0:0:0:70:normal-hitwhistle.wav
192,192,44363,128,0,44798:0:0:0:70:normal-hitwhistle.wav
64,192,45233,1,0,0:0:0:35:normal-hitfinish.wav
448,192,45233,1,0,0:0:0:0:
192,192,45668,1,0,0:0:0:0:
320,192,46102,1,0,0:0:0:35:normal-hitfinish.wav
192,192,46537,1,0,0:0:0:40:normal-hitwhistle.wav
448,192,46754,1,0,0:0:0:55:normal-hitwhistle.wav
64,192,46972,128,0,47841:0:0:0:70:normal-hitwhistle.wav
448,192,47841,1,0,0:0:0:70:normal-hitwhistle.wav
64,192,48276,1,0,0:0:0:70:normal-hitclap.wav
192,192,48276,1,0,0:0:0:35:normal-hitfinish.wav
64,192,48711,1,0,0:0:0:70:normal-hitwhistle.wav
448,192,48711,1,0,0:0:0:70:normal-hitfinish.wav
448,192,49146,1,0,0:0:0:70:normal-hitwhistle.wav
192,192,49472,1,0,0:0:0:0:
320,192,49689,1,0,0:0:0:0:
192,192,50015,1,0,0:0:0:70:normal-hitwhistle.wav
64,192,50450,1,0,0:0:0:70:normal-hitwhistle.wav
448,192,50450,1,0,0:0:0:0:
64,192,50885,1,0,0:0:0:70:normal-hitwhistle.wav
320,192,51211,1,0,0:0:0:0:
192,192,51428,1,0,0:0:0:0:
320,192,51754,1,0,0:0:0:70:normal-hitwhistle.wav
64,192,52189,1,0,0:0:0:70:normal-hitwhistle.wav
448,192,52189,1,0,0:0:0:0:
448,192,52624,1,0,0:0:0:70:normal-hitwhistle.wav
320,192,52950,1,0,0:0:0:0:
192,192,53168,1,0,0:0:0:0:
320,192,53385,1,0,0:0:0:0:
64,192,53711,1,0,0:0:0:0:
64,192,53928,128,0,54363:0:0:0:70:normal-hitwhistle.wav
192,192,54363,1,0,0:0:0:70:normal-hitwhistle.wav
448,192,54581,1,0,0:0:0:0:
448,192,54798,128,0,55233:0:0:0:70:normal-hitwhistle.wav
320,192,55233,1,0,0:0:0:70:normal-hitwhistle.wav
192,192,55668,1,0,0:0:0:70:normal-hitwhistle.wav
448,192,55668,1,0,0:0:0:70:normal-hitfinish.wav
192,192,56102,1,0,0:0:0:70:normal-hitwhistle.wav
64,192,56537,1,0,0:0:0:70:normal-hitwhistle.wav
320,192,56537,1,0,0:0:0:0:
320,192,56972,1,0,0:0:0:70:normal-hitwhistle.wav
64,192,57407,128,0,57841:0:0:0:70:normal-hitwhistle.wav
448,192,57407,1,0,0:0:0:0:
448,192,57841,128,0,58168:0:0:0:70:normal-hitwhistle.wav
64,192,58168,1,0,0:0:0:0:
320,192,58494,1,0,0:0:0:0:
192,192,58711,1,0,0:0:0:70:normal-hitwhistle.wav
320,192,58928,1,0,0:0:0:0:
64,192,59363,1,0,0:0:0:0:
320,192,59581,128,0,60015:0:0:0:70:normal-hitwhistle.wav
192,192,60015,128,0,60450:0:0:0:70:normal-hitwhistle.wav
64,192,60450,128,0,60885:0:0:0:70:normal-hitwhistle.wav
320,192,60885,1,0,0:0:0:70:normal-hitwhistle.wav
448,192,60885,1,0,0:0:0:0:
320,192,61211,128,0,61754:0:0:0:70:normal-hitwhistle.wav
448,192,61211,128,0,61754:0:0:0:0:
64,192,61754,128,0,62189:0:0:0:70:normal-hitwhistle.wav
320,192,62189,1,0,0:0:0:70:normal-hitclap.wav
448,192,62189,1,0,0:0:0:35:normal-hitfinish.wav
64,192,62624,1,0,0:0:0:70:normal-hitwhistle.wav
448,192,62624,1,0,0:0:0:70:normal-hitfinish.wav
64,192,63494,1,0,0:0:0:70:normal-hitwhistle.wav
192,192,63494,1,0,0:0:0:0:
320,192,63711,1,0,0:0:0:70:normal-hitwhistle.wav
448,192,63711,1,0,0:0:0:0:
64,192,64363,1,0,0:0:0:70:normal-hitwhistle.wav
448,192,64363,1,0,0:0:0:0:
320,192,65233,1,0,0:0:0:70:normal-hitwhistle.wav
448,192,65233,1,0,0:0:0:0:
64,192,65559,1,0,0:0:0:70:normal-hitwhistle.wav
192,192,65559,1,0,0:0:0:0:
64,192,66102,1,0,0:0:0:70:normal-hitwhistle.wav
448,192,66102,1,0,0:0:0:35:normal-hitfinish.wav
320,192,66537,1,0,0:0:0:70:normal-hitwhistle.wav
448,192,66537,1,0,0:0:0:70:normal-hitclap.wav
192,192,66863,1,0,0:0:0:0:
320,192,67081,1,0,0:0:0:0:
64,192,67407,1,0,0:0:0:70:normal-hitwhistle.wav
448,192,67624,1,0,0:0:0:0:
448,192,67841,128,0,68276:0:0:0:70:normal-hitwhistle.wav
320,192,68276,1,0,0:0:0:70:normal-hitwhistle.wav
64,192,68494,1,0,0:0:0:0:
64,192,68711,128,0,69146:0:0:0:70:normal-hitwhistle.wav
192,192,69146,1,0,0:0:0:70:normal-hitwhistle.wav
64,192,69581,1,0,0:0:0:70:normal-hitwhistle.wav
320,192,69581,1,0,0:0:0:70:normal-hitfinish.wav
320,192,70015,1,0,0:0:0:70:normal-hitwhistle.wav
192,192,70450,1,0,0:0:0:70:normal-hitwhistle.wav
448,192,70450,1,0,0:0:0:0:
192,192,70885,1,0,0:0:0:70:normal-hitwhistle.wav
64,192,71320,1,0,0:0:0:70:normal-hitwhistle.wav
448,192,71320,128,0,71754:0:0:0:0:
64,192,71754,128,0,72081:0:0:0:70:normal-hitwhistle.wav
448,192,72081,1,0,0:0:0:70:normal-hitwhistle.wav
192,192,72407,1,0,0:0:0:70:normal-hitwhistle.wav
320,192,72624,1,0,0:0:0:70:normal-hitwhistle.wav
192,192,72841,1,0,0:0:0:0:
448,192,73276,1,0,0:0:0:0:
192,192,73494,128,0,73928:0:0:0:70:normal-hitwhistle.wav
320,192,73928,128,0,74363:0:0:0:70:normal-hitwhistle.wav
448,192,74363,128,0,74798:0:0:0:70:normal-hitwhistle.wav
64,192,74798,1,0,0:0:0:70:normal-hitwhistle.wav
192,192,74798,1,0,0:0:0:0:
64,192,75124,128,0,75668:0:0:0:70:normal-hitwhistle.wav
192,192,75124,128,0,75668:0:0:0:0:
448,192,75668,128,0,76102:0:0:0:0:
64,192,76102,1,0,0:0:0:70:normal-hitwhistle.wav
192,192,76102,1,0,0:0:0:70:normal-hitclap.wav
320,192,76537,1,0,0:0:0:70:normal-hitwhistle.wav
448,192,76537,128,0,77407:0:0:0:70:normal-hitfinish.wav
64,192,77407,1,0,0:0:0:70:normal-hitclap.wav
192,192,78276,128,0,79146:0:0:0:0:
448,192,79146,1,0,0:0:0:70:normal-hitclap.wav
192,192,79581,1,0,0:0:0:70:normal-hitwhistle.wav
64,192,80015,128,0,80885:0:0:0:70:normal-hitwhistle.wav
320,192,80015,1,0,0:0:0:0:
448,192,80885,1,0,0:0:0:70:normal-hitclap.wav
320,192,81754,128,0,82624:0:0:0:0:
64,192,82624,1,0,0:0:0:70:normal-hitclap.wav
320,192,83059,1,0,0:0:0:70:normal-hitwhistle.wav
192,192,83276,1,0,0:0:0:70:normal-hitwhistle.wav
64,192,83494,1,0,0:0:0:70:normal-hitwhistle.wav
448,192,83494,1,0,0:0:0:70:normal-hitfinish.wav
192,192,83928,1,0,0:0:0:70:normal-hitclap.wav
64,192,84581,1,0,0:0:0:70:normal-hitwhistle.wav
320,192,84798,1,0,0:0:0:70:normal-hitclap.wav
448,192,85233,1,0,0:0:0:70:normal-hitwhistle.wav
64,192,85450,1,0,0:0:0:70:normal-hitwhistle.wav
320,192,85668,1,0,0:0:0:70:normal-hitclap.wav
64,192,86030,1,0,0:0:0:70:normal-hitwhistle.wav
448,192,86320,1,0,0:0:0:70:normal-hitwhistle.wav
192,192,86537,1,0,0:0:0:70:normal-hitclap.wav
64,192,86972,1,0,0:0:0:70:normal-hitwhistle.wav
320,192,87407,1,0,0:0:0:70:normal-hitclap.wav
448,192,88059,1,0,0:0:0:70:normal-hitwhistle.wav
192,192,88276,1,0,0:0:0:70:normal-hitclap.wav
320,192,88711,1,0,0:0:0:70:normal-hitwhistle.wav
448,192,88711,128,0,89581:0:0:0:70:normal-hitfinish.wav
64,192,89581,1,0,0:0:0:0:
64,192,90015,1,0,0:0:0:70:normal-hitclap.wav
448,192,90015,1,0,0:0:0:35:normal-hitfinish.wav
320,192,90450,1,0,0:0:0:70:normal-hitwhistle.wav
448,192,90450,1,0,0:0:0:70:normal-hitfinish.wav
64,192,90885,1,0,0:0:0:70:normal-hitwhistle.wav
448,192,91211,1,0,0:0:0:0:
320,192,91428,1,0,0:0:0:0:
192,192,91646,1,0,0:0:0:0:
448,192,91863,1,0,0:0:0:0:
64,192,92189,1,0,0:0:0:70:normal-hitwhistle.wav
192,192,92189,1,0,0:0:0:0:
448,192,92624,1,0,0:0:0:70:normal-hitwhistle.wav
64,192,92950,1,0,0:0:0:0:
320,192,93168,1,0,0:0:0:0:
192,192,93385,1,0,0:0:0:0:
64,192,93602,1,0,0:0:0:0:
64,192,93928,128,0,94363:0:0:0:70:normal-hitwhistle.wav
448,192,93928,1,0,0:0:0:0:
192,192,94363,1,0,0:0:0:70:normal-hitwhistle.wav
320,192,94798,128,0,95233:0:0:0:70:normal-hitwhistle.wav
448,192,95233,1,0,0:0:0:70:normal-hitwhistle.wav
64,192,95668,1,0,0:0:0:70:normal-hitwhistle.wav
448,192,95668,128,0,96102:0:0:0:0:
320,192,96102,128,0,96537:0:0:0:70:normal-hitwhistle.wav
192,192,96537,128,0,96972:0:0:0:70:normal-hitwhistle.wav
64,192,96972,1,0,0:0:0:70:normal-hitwhistle.wav
448,192,96972,1,0,0:0:0:70:normal-hitclap.wav
320,192,97407,1,0,0:0:0:70:normal-hitwhistle.wav
448,192,97407,1,0,0:0:0:70:normal-hitfinish.wav
64,192,97841,1,0,0:0:0:70:normal-hitwhistle.wav
448,192,98168,1,0,0:0:0:0:
192,192,98385,1,0,0:0:0:0:
320,192,98602,1,0,0:0:0:0:
448,192,98928,1,0,0:0:0:0:
64,192,99146,128,0,99581:0:0:0:70:normal-hitwhistle.wav
320,192,99146,1,0,0:0:0:0:
192,192,99581,128,0,100015:0:0:0:70:normal-hitwhistle.wav
320,192,100015,128,0,100450:0:0:0:70:normal-hitwhistle.wav
64,192,100450,1,0,0:0:0:70:normal-hitwhistle.wav
448,192,100885,1,0,0:0:0:70:normal-hitwhistle.wav
192,192,101102,1,0,0:0:0:0:
320,192,101320,1,0,0:0:0:70:normal-hitwhistle.wav
64,192,101754,1,0,0:0:0:70:normal-hitwhistle.wav
320,192,101972,1,0,0:0:0:0:
192,192,102189,1,0,0:0:0:70:normal-hitwhistle.wav
64,192,102624,1,0,0:0:0:70:normal-hitwhistle.wav
448,192,102624,1,0,0:0:0:70:normal-hitfinish.wav
192,192,102950,1,0,0:0:0:70:normal-hitwhistle.wav
192,192,103168,1,0,0:0:0:70:normal-hitwhistle.wav
448,192,103385,1,0,0:0:0:70:normal-hitwhistle.wav
192,192,103711,1,0,0:0:0:70:normal-hitwhistle.wav
192,192,103928,1,0,0:0:0:70:normal-hitwhistle.wav
448,192,104146,1,0,0:0:0:70:normal-hitwhistle.wav
64,192,104363,128,0,104798:0:0:0:70:normal-hitwhistle.wav
192,192,104363,1,0,0:0:0:70:normal-hitfinish.wav
448,192,104798,128,0,105233:0:0:0:70:normal-hitwhistle.wav
192,192,105233,1,0,0:0:0:70:normal-hitwhistle.wav
320,192,105450,1,0,0:0:0:0:
448,192,105668,1,0,0:0:0:70:normal-hitwhistle.wav
192,192,106102,1,0,0:0:0:70:normal-hitwhistle.wav
448,192,106320,1,0,0:0:0:0:
192,192,106537,128,0,106972:0:0:0:70:normal-hitwhistle.wav
320,192,106972,1,0,0:0:0:70:normal-hitwhistle.wav
64,192,107189,1,0,0:0:0:0:
192,192,107407,1,0,0:0:0:70:normal-hitwhistle.wav
320,192,107841,1,0,0:0:0:70:normal-hitwhistle.wav
64,192,108059,1,0,0:0:0:0:
320,192,108276,128,0,108711:0:0:0:70:normal-hitwhistle.wav
192,192,108711,1,0,0:0:0:70:normal-hitwhistle.wav
448,192,108928,1,0,0:0:0:0:
320,192,109146,1,0,0:0:0:70:normal-hitwhistle.wav
192,192,109581,1,0,0:0:0:70:normal-hitwhistle.wav
448,192,109581,1,0,0:0:0:0:
64,192,109798,128,0,110450:0:0:0:0:
320,192,110450,1,0,0:0:0:70:normal-hitwhistle.wav
192,192,110668,1,0,0:0:0:0:
64,192,110885,1,0,0:0:0:70:normal-hitwhistle.wav
448,192,110885,1,0,0:0:0:70:normal-hitclap.wav
320,192,111320,1,0,0:0:0:70:normal-hitwhistle.wav
448,192,111320,128,0,111754:0:0:0:70:normal-hitfinish.wav
64,192,111754,1,0,0:0:0:70:normal-hitwhistle.wav
320,192,112189,1,0,0:0:0:70:normal-hitwhistle.wav
192,192,112407,1,0,0:0:0:0:
64,192,112624,1,0,0:0:0:70:normal-hitwhistle.wav
64,192,113059,1,0,0:0:0:70:normal-hitwhistle.wav
448,192,113059,1,0,0:0:0:0:
320,192,113494,1,0,0:0:0:70:normal-hitwhistle.wav
448,192,113494,1,0,0:0:0:70:normal-hitclap.wav
64,192,113820,1,0,0:0:0:70:normal-hitwhistle.wav
192,192,113820,1,0,0:0:0:0:
64,192,114363,1,0,0:0:0:70:normal-hitwhistle.wav
448,192,114363,1,0,0:0:0:70:normal-hitclap.wav
320,192,114798,1,0,0:0:0:70:normal-hitwhistle.wav
192,192,115015,1,0,0:0:0:70:normal-hitwhistle.wav
320,192,115233,1,0,0:0:0:70:normal-hitwhistle.wav
448,192,115668,1,0,0:0:0:70:normal-hitwhistle.wav
64,192,115885,1,0,0:0:0:70:normal-hitwhistle.wav
448,192,116102,1,0,0:0:0:70:normal-hitwhistle.wav
64,192,116537,1,0,0:0:0:70:normal-hitwhistle.wav
192,192,116537,1,0,0:0:0:70:normal-hitclap.wav
192,192,116972,1,0,0:0:0:70:normal-hitwhistle.wav
320,192,116972,1,0,0:0:0:70:normal-hitclap.wav
320,192,117407,1,0,0:0:0:70:normal-hitwhistle.wav
448,192,117407,1,0,0:0:0:70:normal-hitclap.wav
320,192,117841,1,0,0:0:0:70:normal-hitwhistle.wav
448,192,117841,1,0,0:0:0:70:normal-hitclap.wav
64,192,118059,128,0,118711:0:0:0:70:normal-hitwhistle.wav
192,192,118059,128,0,118711:0:0:0:70:normal-hitfinish.wav
