osu file format v14

[General]
AudioFilename: audio.mp3
AudioLeadIn: 0
PreviewTime: 48711
Countdown: 0
SampleSet: Normal
StackLeniency: 0.7
Mode: 3
LetterboxInBreaks: 0
SpecialStyle: 0
WidescreenStoryboard: 1

[Editor]
DistanceSpacing: 1.2
BeatDivisor: 4
GridSize: 4
TimelineZoom: 1.999998

[Metadata]
Title:Cranberry City feat. Luschel
TitleUnicode:Cranberry City feat. Luschel
Artist:lapix
ArtistUnicode:lapix
Creator:8230
Version:Another
Source:beatmania IIDX 26 Rootage
Tags:vocal dump chordjack chord jack cj garage pop ost original soundtrack selection mrx-060 megarex rizing destruction c97 comiket97 comic market 97 コミックマーケット97 コミケ97 doujin dojin english vgm video game music rhythm electronic funk
BeatmapID:4213919
BeatmapSetID:2023123

[Difficulty]
HPDrainRate:8
CircleSize:4
OverallDifficulty:8.2
ApproachRate:5
SliderMultiplier:1.4
SliderTickRate:1

[Events]
//Background and Video events
0,0,"j10.jpg",0,0
//Break Periods
//Storyboard Layer 0 (Background)
//Storyboard Layer 1 (Fail)
//Storyboard Layer 2 (Pass)
//Storyboard Layer 3 (Foreground)
//Storyboard Layer 4 (Overlay)
//Storyboard Sound Samples
Sample,3494,0,"normal-hitwhistle.wav",10
Sample,3602,0,"normal-hitwhistle.wav",10
Sample,3711,0,"normal-hitwhistle.wav",10
Sample,3820,0,"normal-hitwhistle.wav",10
Sample,53494,0,"normal-hitclap.wav",70
Sample,56972,0,"normal-hitclap.wav",70
Sample,58276,0,"normal-hitwhistle.wav",70
Sample,70885,0,"normal-hitclap.wav",70
Sample,91754,0,"normal-hitclap.wav",70
Sample,93494,0,"normal-hitclap.wav",70
Sample,95233,0,"normal-hitclap.wav",70
Sample,98711,0,"normal-hitclap.wav",70

[TimingPoints]
1755,434.782608695652,4,1,1,50,1,0
48711,-100,4,1,1,50,0,1
62624,-100,4,1,1,50,0,0
66537,-100,4,1,1,50,0,1
76537,-100,4,1,1,50,0,0
90450,-100,4,1,1,50,0,1
104363,-100,4,1,1,50,0,0

[HitObjects]
64,192,1755,5,0,0:0:0:70:normal-hitwhistle.wav
192,192,1755,1,0,0:0:0:10:normal-hitfinish.wav
448,192,1755,1,0,0:0:0:0:
192,192,1863,1,0,0:0:0:0:
320,192,1972,1,0,0:0:0:0:
64,192,2081,1,0,0:0:0:70:normal-hitwhistle.wav
320,192,2081,1,0,0:0:0:25:normal-hitfinish.wav
448,192,2081,1,0,0:0:0:0:
192,192,2189,1,0,0:0:0:0:
320,192,2298,1,0,0:0:0:0:
64,192,2407,1,0,0:0:0:70:normal-hitwhistle.wav
192,192,2407,1,0,0:0:0:40:normal-hitfinish.wav
448,192,2407,1,0,0:0:0:0:
64,192,2515,1,0,0:0:0:0:
448,192,2624,1,0,0:0:0:0:
64,192,2733,1,0,0:0:0:70:normal-hitwhistle.wav
320,192,2733,1,0,0:0:0:55:normal-hitfinish.wav
448,192,2733,1,0,0:0:0:0:
192,192,2841,1,0,0:0:0:0:
320,192,2950,1,0,0:0:0:0:
64,192,3059,128,0,3928:0:0:0:70:normal-hitwhistle.wav
192,192,3059,128,0,3928:0:0:0:70:normal-hitfinish.wav
448,192,3059,128,0,4363:0:0:0:0:
320,192,3928,1,0,0:0:0:10:normal-hitwhistle.wav
64,192,4037,1,0,0:0:0:10:normal-hitwhistle.wav
192,192,4146,1,0,0:0:0:25:normal-hitwhistle.wav
320,192,4254,1,0,0:0:0:25:normal-hitwhistle.wav
64,192,4363,1,0,0:0:0:40:normal-hitwhistle.wav
192,192,4363,1,0,0:0:0:0:
320,192,4472,1,0,0:0:0:40:normal-hitwhistle.wav
448,192,4472,1,0,0:0:0:0:
64,192,4581,1,0,0:0:0:55:normal-hitwhistle.wav
192,192,4581,1,0,0:0:0:0:
320,192,4689,1,0,0:0:0:55:normal-hitwhistle.wav
448,192,4689,1,0,0:0:0:0:
64,192,4798,1,0,0:0:0:70:normal-hitwhistle.wav
192,192,4798,1,0,0:0:0:0:
320,192,4907,1,0,0:0:0:70:normal-hitwhistle.wav
448,192,4907,1,0,0:0:0:0:
64,192,5015,1,0,0:0:0:70:normal-hitwhistle.wav
192,192,5015,1,0,0:0:0:70:normal-hitclap.wav
64,192,5124,1,0,0:0:0:70:normal-hitwhistle.wav
192,192,5124,1,0,0:0:0:70:normal-hitclap.wav
320,192,5233,128,0,5450:0:0:0:70:normal-hitwhistle.wav
448,192,5233,128,0,5450:0:0:0:70:normal-hitclap.wav
64,192,5450,1,0,0:0:0:0:
320,192,5668,128,0,5885:0:0:0:70:normal-hitwhistle.wav
448,192,5668,128,0,5885:0:0:0:70:normal-hitclap.wav
64,192,5885,1,0,0:0:0:0:
320,192,6102,128,0,6320:0:0:0:70:normal-hitwhistle.wav
448,192,6102,128,0,6320:0:0:0:70:normal-hitclap.wav
64,192,6320,1,0,0:0:0:0:
192,192,6428,1,0,0:0:0:0:
64,192,6537,1,0,0:0:0:70:normal-hitclap.wav
320,192,6537,1,0,0:0:0:0:
448,192,6537,1,0,0:0:0:0:
64,192,6972,1,0,0:0:0:70:normal-hitwhistle.wav
192,192,6972,1,0,0:0:0:70:normal-hitfinish.wav
448,192,6972,1,0,0:0:0:0:
320,192,7189,1,0,0:0:0:0:
64,192,7407,1,0,0:0:0:70:normal-hitclap.wav
320,192,7407,1,0,0:0:0:0:
448,192,7407,1,0,0:0:0:0:
192,192,7515,1,0,0:0:0:0:
320,192,7624,1,0,0:0:0:0:
64,192,7733,1,0,0:0:0:70:normal-hitwhistle.wav
192,192,7733,1,0,0:0:0:0:
448,192,7733,1,0,0:0:0:0:
320,192,7950,1,0,0:0:0:0:
448,192,7950,1,0,0:0:0:0:
64,192,8059,1,0,0:0:0:70:normal-hitwhistle.wav
448,192,8059,1,0,0:0:0:0:
64,192,8276,1,0,0:0:0:70:normal-hitclap.wav
192,192,8276,1,0,0:0:0:0:
448,192,8276,1,0,0:0:0:0:
320,192,8385,1,0,0:0:0:0:
192,192,8494,1,0,0:0:0:0:
448,192,8494,1,0,0:0:0:0:
192,192,8602,1,0,0:0:0:0:
64,192,8711,1,0,0:0:0:70:normal-hitwhistle.wav
320,192,8711,1,0,0:0:0:0:
448,192,8711,1,0,0:0:0:0:
320,192,8928,1,0,0:0:0:0:
320,192,9037,1,0,0:0:0:0:
64,192,9146,1,0,0:0:0:70:normal-hitclap.wav
192,192,9146,1,0,0:0:0:0:
448,192,9146,1,0,0:0:0:0:
320,192,9254,1,0,0:0:0:0:
192,192,9363,1,0,0:0:0:0:
64,192,9472,1,0,0:0:0:70:normal-hitwhistle.wav
320,192,9472,1,0,0:0:0:0:
448,192,9472,1,0,0:0:0:0:
64,192,9689,1,0,0:0:0:0:
192,192,9689,1,0,0:0:0:0:
64,192,9798,1,0,0:0:0:70:normal-hitwhistle.wav
448,192,9798,1,0,0:0:0:0:
64,192,10015,1,0,0:0:0:70:normal-hitclap.wav
192,192,10015,1,0,0:0:0:0:
448,192,10015,1,0,0:0:0:0:
320,192,10124,1,0,0:0:0:0:
64,192,10233,1,0,0:0:0:0:
448,192,10233,1,0,0:0:0:0:
192,192,10341,1,0,0:0:0:0:
320,192,10341,1,0,0:0:0:0:
64,192,10450,1,0,0:0:0:70:normal-hitwhistle.wav
320,192,10450,1,0,0:0:0:0:
448,192,10450,1,0,0:0:0:0:
192,192,10668,1,0,0:0:0:0:
64,192,10885,1,0,0:0:0:70:normal-hitclap.wav
192,192,10885,1,0,0:0:0:0:
448,192,10885,1,0,0:0:0:0:
320,192,10994,1,0,0:0:0:0:
192,192,11102,1,0,0:0:0:0:
64,192,11211,1,0,0:0:0:70:normal-hitwhistle.wav
320,192,11211,1,0,0:0:0:0:
448,192,11211,1,0,0:0:0:0:
192,192,11428,1,0,0:0:0:0:
448,192,11428,1,0,0:0:0:0:
64,192,11537,1,0,0:0:0:70:normal-hitwhistle.wav
192,192,11537,1,0,0:0:0:0:
64,192,11754,1,0,0:0:0:70:normal-hitclap.wav
320,192,11754,1,0,0:0:0:0:
448,192,11754,1,0,0:0:0:0:
192,192,11863,1,0,0:0:0:0:
64,192,11972,1,0,0:0:0:0:
192,192,11972,1,0,0:0:0:0:
320,192,12081,1,0,0:0:0:0:
64,192,12189,1,0,0:0:0:70:normal-hitwhistle.wav
192,192,12189,1,0,0:0:0:0:
448,192,12189,1,0,0:0:0:0:
192,192,12407,1,0,0:0:0:0:
320,192,12407,1,0,0:0:0:0:
64,192,12624,1,0,0:0:0:70:normal-hitclap.wav
320,192,12624,1,0,0:0:0:0:
448,192,12624,1,0,0:0:0:0:
320,192,12733,1,0,0:0:0:0:
448,192,12733,1,0,0:0:0:0:
192,192,12841,1,0,0:0:0:0:
64,192,12950,1,0,0:0:0:70:normal-hitwhistle.wav
320,192,12950,1,0,0:0:0:0:
448,192,12950,1,0,0:0:0:0:
64,192,13168,1,0,0:0:0:0:
192,192,13168,1,0,0:0:0:0:
64,192,13276,1,0,0:0:0:70:normal-hitwhistle.wav
192,192,13276,1,0,0:0:0:0:
448,192,13276,1,0,0:0:0:0:
64,192,13494,1,0,0:0:0:70:normal-hitclap.wav
320,192,13494,1,0,0:0:0:35:normal-hitfinish.wav
448,192,13494,1,0,0:0:0:0:
192,192,13602,1,0,0:0:0:0:
320,192,13711,1,0,0:0:0:0:
448,192,13711,1,0,0:0:0:0:
64,192,13820,1,0,0:0:0:0:
192,192,13820,1,0,0:0:0:0:
64,192,13928,1,0,0:0:0:70:normal-hitwhistle.wav
320,192,13928,1,0,0:0:0:70:normal-hitfinish.wav
448,192,13928,1,0,0:0:0:0:
192,192,14146,1,0,0:0:0:0:
64,192,14363,1,0,0:0:0:70:normal-hitclap.wav
192,192,14363,1,0,0:0:0:0:
448,192,14363,1,0,0:0:0:0:
320,192,14472,1,0,0:0:0:0:
448,192,14581,1,0,0:0:0:0:
64,192,14689,1,0,0:0:0:70:normal-hitwhistle.wav
192,192,14689,1,0,0:0:0:0:
320,192,14689,1,0,0:0:0:0:
320,192,14907,1,0,0:0:0:0:
448,192,14907,1,0,0:0:0:0:
64,192,15015,1,0,0:0:0:70:normal-hitwhistle.wav
448,192,15015,1,0,0:0:0:0:
64,192,15233,1,0,0:0:0:70:normal-hitclap.wav
320,192,15233,1,0,0:0:0:0:
448,192,15233,1,0,0:0:0:0:
192,192,15341,1,0,0:0:0:0:
64,192,15450,1,0,0:0:0:0:
448,192,15450,1,0,0:0:0:0:
64,192,15559,1,0,0:0:0:0:
192,192,15668,1,0,0:0:0:70:normal-hitwhistle.wav
320,192,15668,1,0,0:0:0:0:
448,192,15668,1,0,0:0:0:0:
320,192,15885,1,0,0:0:0:70:normal-hitwhistle.wav
448,192,15885,1,0,0:0:0:0:
320,192,15994,1,0,0:0:0:0:
64,192,16102,1,0,0:0:0:70:normal-hitclap.wav
192,192,16102,1,0,0:0:0:0:
448,192,16102,1,0,0:0:0:0:
320,192,16211,1,0,0:0:0:0:
192,192,16320,1,0,0:0:0:0:
64,192,16428,1,0,0:0:0:70:normal-hitwhistle.wav
320,192,16428,1,0,0:0:0:0:
448,192,16428,1,0,0:0:0:0:
64,192,16646,1,0,0:0:0:0:
192,192,16646,1,0,0:0:0:0:
64,192,16754,1,0,0:0:0:70:normal-hitwhistle.wav
448,192,16754,1,0,0:0:0:0:
64,192,16972,1,0,0:0:0:70:normal-hitclap.wav
320,192,16972,1,0,0:0:0:0:
448,192,16972,1,0,0:0:0:0:
192,192,17081,1,0,0:0:0:0:
64,192,17189,1,0,0:0:0:0:
448,192,17189,1,0,0:0:0:0:
192,192,17298,1,0,0:0:0:0:
320,192,17298,1,0,0:0:0:0:
64,192,17407,1,0,0:0:0:70:normal-hitwhistle.wav
320,192,17407,1,0,0:0:0:0:
448,192,17407,1,0,0:0:0:0:
192,192,17515,1,0,0:0:0:0:
320,192,17624,1,0,0:0:0:0:
448,192,17733,1,0,0:0:0:0:
64,192,17841,1,0,0:0:0:70:normal-hitclap.wav
192,192,17841,1,0,0:0:0:0:
320,192,17841,1,0,0:0:0:0:
448,192,17950,1,0,0:0:0:0:
64,192,18059,1,0,0:0:0:0:
192,192,18168,1,0,0:0:0:70:normal-hitwhistle.wav
320,192,18168,1,0,0:0:0:0:
448,192,18168,1,0,0:0:0:0:
64,192,18276,1,0,0:0:0:0:
192,192,18385,1,0,0:0:0:0:
448,192,18385,1,0,0:0:0:0:
320,192,18494,1,0,0:0:0:70:normal-hitwhistle.wav
448,192,18494,1,0,0:0:0:0:
192,192,18602,1,0,0:0:0:0:
64,192,18711,1,0,0:0:0:70:normal-hitclap.wav
320,192,18711,1,0,0:0:0:0:
448,192,18711,1,0,0:0:0:0:
192,192,18820,1,0,0:0:0:0:
64,192,18928,1,0,0:0:0:0:
320,192,18928,1,0,0:0:0:0:
320,192,19037,1,0,0:0:0:0:
64,192,19146,1,0,0:0:0:70:normal-hitwhistle.wav
192,192,19146,1,0,0:0:0:70:normal-hitfinish.wav
448,192,19146,1,0,0:0:0:0:
64,192,19363,1,0,0:0:0:70:normal-hitwhistle.wav
192,192,19363,1,0,0:0:0:0:
448,192,19363,1,0,0:0:0:0:
64,192,19472,1,0,0:0:0:70:normal-hitwhistle.wav
192,192,19472,1,0,0:0:0:0:
448,192,19472,1,0,0:0:0:0:
64,192,19689,1,0,0:0:0:70:normal-hitwhistle.wav
192,192,19689,1,0,0:0:0:0:
448,192,19689,1,0,0:0:0:0:
64,192,19907,1,0,0:0:0:70:normal-hitwhistle.wav
320,192,19907,1,0,0:0:0:0:
448,192,19907,1,0,0:0:0:0:
64,192,20124,1,0,0:0:0:70:normal-hitwhistle.wav
320,192,20124,1,0,0:0:0:0:
448,192,20124,1,0,0:0:0:0:
64,192,20233,1,0,0:0:0:70:normal-hitwhistle.wav
320,192,20233,1,0,0:0:0:0:
448,192,20233,1,0,0:0:0:0:
192,192,20341,1,0,0:0:0:0:
64,192,20450,1,0,0:0:0:70:normal-hitwhistle.wav
320,192,20450,1,0,0:0:0:70:normal-hitclap.wav
448,192,20450,1,0,0:0:0:0:
64,192,20885,1,0,0:0:0:70:normal-hitwhistle.wav
192,192,20885,1,0,0:0:0:0:
448,192,20885,1,0,0:0:0:0:
320,192,20994,1,0,0:0:0:0:
64,192,21102,1,0,0:0:0:0:
448,192,21102,1,0,0:0:0:0:
192,192,21211,1,0,0:0:0:0:
64,192,21320,1,0,0:0:0:70:normal-hitclap.wav
448,192,21320,1,0,0:0:0:0:
320,192,21392,1,0,0:0:0:0:
192,192,21465,1,0,0:0:0:0:
64,192,21537,1,0,0:0:0:0:
64,192,21754,1,0,0:0:0:70:normal-hitwhistle.wav
320,192,21754,1,0,0:0:0:0:
448,192,21754,1,0,0:0:0:0:
192,192,21863,1,0,0:0:0:0:
64,192,21972,1,0,0:0:0:70:normal-hitwhistle.wav
448,192,21972,1,0,0:0:0:0:
320,192,22081,1,0,0:0:0:0:
64,192,22189,1,0,0:0:0:70:normal-hitclap.wav
448,192,22189,1,0,0:0:0:0:
192,192,22262,1,0,0:0:0:0:
320,192,22334,1,0,0:0:0:0:
448,192,22407,1,0,0:0:0:0:
64,192,22624,1,0,0:0:0:70:normal-hitwhistle.wav
192,192,22624,1,0,0:0:0:0:
448,192,22624,1,0,0:0:0:0:
448,192,22733,1,0,0:0:0:0:
64,192,22841,1,0,0:0:0:0:
320,192,22841,1,0,0:0:0:0:
320,192,22950,1,0,0:0:0:0:
192,192,23059,1,0,0:0:0:0:
448,192,23059,1,0,0:0:0:0:
64,192,23131,1,0,0:0:0:0:
320,192,23204,1,0,0:0:0:0:
192,192,23276,1,0,0:0:0:0:
448,192,23349,1,0,0:0:0:0:
320,192,23421,1,0,0:0:0:0:
64,192,23494,1,0,0:0:0:35:normal-hitwhistle.wav
192,192,23494,1,0,0:0:0:0:
320,192,23602,1,0,0:0:0:35:normal-hitwhistle.wav
64,192,23711,1,0,0:0:0:35:normal-hitwhistle.wav
448,192,23711,1,0,0:0:0:0:
192,192,23820,1,0,0:0:0:35:normal-hitwhistle.wav
320,192,23820,1,0,0:0:0:0:
64,192,23928,1,0,0:0:0:70:normal-hitclap.wav
192,192,23928,1,0,0:0:0:0:
448,192,23928,1,0,0:0:0:0:
320,192,24146,1,0,0:0:0:0:
448,192,24146,1,0,0:0:0:0:
64,192,24254,1,0,0:0:0:0:
192,192,24254,1,0,0:0:0:0:
64,192,24363,1,0,0:0:0:70:normal-hitwhistle.wav
320,192,24363,1,0,0:0:0:0:
448,192,24363,1,0,0:0:0:0:
192,192,24472,1,0,0:0:0:0:
64,192,24581,1,0,0:0:0:0:
448,192,24581,1,0,0:0:0:0:
320,192,24689,1,0,0:0:0:0:
64,192,24798,1,0,0:0:0:70:normal-hitclap.wav
448,192,24798,1,0,0:0:0:0:
192,192,24870,1,0,0:0:0:0:
320,192,24943,1,0,0:0:0:0:
448,192,25015,1,0,0:0:0:0:
64,192,25124,1,0,0:0:0:70:normal-hitwhistle.wav
192,192,25124,1,0,0:0:0:0:
320,192,25233,1,0,0:0:0:0:
448,192,25233,1,0,0:0:0:0:
64,192,25341,1,0,0:0:0:0:
192,192,25341,1,0,0:0:0:0:
320,192,25450,1,0,0:0:0:70:normal-hitwhistle.wav
448,192,25450,1,0,0:0:0:0:
192,192,25559,1,0,0:0:0:0:
64,192,25668,1,0,0:0:0:70:normal-hitclap.wav
448,192,25668,1,0,0:0:0:0:
320,192,25740,1,0,0:0:0:0:
192,192,25812,1,0,0:0:0:0:
64,192,25885,1,0,0:0:0:0:
448,192,25885,1,0,0:0:0:0:
320,192,25994,1,0,0:0:0:0:
64,192,26102,1,0,0:0:0:70:normal-hitwhistle.wav
448,192,26102,1,0,0:0:0:0:
192,192,26175,1,0,0:0:0:0:
320,192,26247,1,0,0:0:0:0:
64,192,26320,1,0,0:0:0:0:
192,192,26392,1,0,0:0:0:0:
64,192,26537,1,0,0:0:0:0:
448,192,26537,1,0,0:0:0:0:
320,192,26754,1,0,0:0:0:0:
448,192,26754,1,0,0:0:0:0:
64,192,26863,1,0,0:0:0:0:
192,192,26863,1,0,0:0:0:0:
320,192,26936,1,0,0:0:0:0:
448,192,27008,1,0,0:0:0:0:
192,192,27081,1,0,0:0:0:0:
320,192,27153,1,0,0:0:0:0:
64,192,27189,1,0,0:0:0:35:normal-hitwhistle.wav
448,192,27226,1,0,0:0:0:0:
192,192,27298,1,0,0:0:0:35:normal-hitwhistle.wav
64,192,27407,1,0,0:0:0:70:normal-hitclap.wav
320,192,27407,1,0,0:0:0:0:
448,192,27407,1,0,0:0:0:0:
64,192,27624,1,0,0:0:0:0:
192,192,27624,1,0,0:0:0:0:
320,192,27733,1,0,0:0:0:0:
448,192,27733,1,0,0:0:0:0:
64,192,27841,1,0,0:0:0:70:normal-hitwhistle.wav
192,192,27841,1,0,0:0:0:0:
448,192,27841,1,0,0:0:0:0:
320,192,27950,1,0,0:0:0:0:
448,192,28059,1,0,0:0:0:0:
320,192,28168,1,0,0:0:0:0:
64,192,28276,1,0,0:0:0:70:normal-hitclap.wav
448,192,28276,1,0,0:0:0:0:
192,192,28385,1,0,0:0:0:0:
320,192,28494,1,0,0:0:0:0:
448,192,28494,1,0,0:0:0:0:
64,192,28602,1,0,0:0:0:70:normal-hitwhistle.wav
448,192,28602,1,0,0:0:0:0:
320,192,28711,1,0,0:0:0:0:
192,192,28820,1,0,0:0:0:0:
64,192,28928,1,0,0:0:0:70:normal-hitwhistle.wav
448,192,28928,1,0,0:0:0:0:
320,192,29037,1,0,0:0:0:0:
64,192,29146,1,0,0:0:0:70:normal-hitclap.wav
448,192,29146,1,0,0:0:0:0:
192,192,29254,1,0,0:0:0:0:
320,192,29363,1,0,0:0:0:0:
448,192,29363,1,0,0:0:0:0:
64,192,29472,1,0,0:0:0:0:
192,192,29472,1,0,0:0:0:0:
64,192,29581,1,0,0:0:0:70:normal-hitwhistle.wav
320,192,29581,1,0,0:0:0:0:
448,192,29581,1,0,0:0:0:0:
192,192,29689,1,0,0:0:0:0:
64,192,29798,1,0,0:0:0:70:normal-hitwhistle.wav
192,192,29907,1,0,0:0:0:0:
64,192,30015,1,0,0:0:0:70:normal-hitclap.wav
448,192,30015,1,0,0:0:0:0:
320,192,30124,1,0,0:0:0:0:
448,192,30233,1,0,0:0:0:0:
64,192,30341,1,0,0:0:0:70:normal-hitwhistle.wav
192,192,30341,1,0,0:0:0:0:
320,192,30450,1,0,0:0:0:0:
192,192,30559,1,0,0:0:0:0:
64,192,30668,1,0,0:0:0:0:
448,192,30668,1,0,0:0:0:0:
320,192,30776,1,0,0:0:0:0:
64,192,30885,1,0,0:0:0:70:normal-hitclap.wav
192,192,30885,1,0,0:0:0:0:
448,192,30885,1,0,0:0:0:0:
192,192,30994,1,0,0:0:0:0:
64,192,31102,1,0,0:0:0:0:
320,192,31102,1,0,0:0:0:0:
448,192,31102,1,0,0:0:0:0:
320,192,31211,1,0,0:0:0:0:
64,192,31320,1,0,0:0:0:70:normal-hitwhistle.wav
192,192,31320,1,0,0:0:0:70:normal-hitfinish.wav
448,192,31320,1,0,0:0:0:0:
320,192,31428,1,0,0:0:0:0:
64,192,31537,1,0,0:0:0:0:
192,192,31537,1,0,0:0:0:0:
64,192,31646,1,0,0:0:0:0:
192,192,31754,1,0,0:0:0:70:normal-hitclap.wav
320,192,31754,1,0,0:0:0:0:
448,192,31754,1,0,0:0:0:0:
64,192,31863,1,0,0:0:0:0:
192,192,31972,1,0,0:0:0:0:
448,192,31972,1,0,0:0:0:0:
64,192,32081,1,0,0:0:0:70:normal-hitwhistle.wav
192,192,32081,1,0,0:0:0:0:
320,192,32189,1,0,0:0:0:0:
448,192,32189,1,0,0:0:0:0:
64,192,32298,1,0,0:0:0:0:
192,192,32298,1,0,0:0:0:0:
320,192,32407,1,0,0:0:0:70:normal-hitwhistle.wav
448,192,32407,1,0,0:0:0:0:
448,192,32515,1,0,0:0:0:0:
64,192,32624,1,0,0:0:0:70:normal-hitclap.wav
192,192,32624,1,0,0:0:0:0:
320,192,32624,1,0,0:0:0:0:
448,192,32733,1,0,0:0:0:0:
64,192,32841,1,0,0:0:0:0:
320,192,32841,1,0,0:0:0:0:
320,192,32950,1,0,0:0:0:0:
448,192,32950,1,0,0:0:0:0:
64,192,33059,1,0,0:0:0:70:normal-hitwhistle.wav
192,192,33059,1,0,0:0:0:0:
448,192,33059,1,0,0:0:0:0:
320,192,33168,1,0,0:0:0:0:
64,192,33276,1,0,0:0:0:70:normal-hitwhistle.wav
192,192,33276,1,0,0:0:0:0:
320,192,33385,1,0,0:0:0:0:
64,192,33494,1,0,0:0:0:70:normal-hitclap.wav
192,192,33494,1,0,0:0:0:0:
448,192,33494,1,0,0:0:0:0:
64,192,33602,1,0,0:0:0:0:
192,192,33711,1,0,0:0:0:0:
448,192,33711,1,0,0:0:0:0:
64,192,33820,1,0,0:0:0:70:normal-hitwhistle.wav
192,192,33820,1,0,0:0:0:0:
320,192,33928,1,0,0:0:0:0:
448,192,33928,1,0,0:0:0:0:
64,192,34037,1,0,0:0:0:0:
192,192,34037,1,0,0:0:0:0:
320,192,34146,1,0,0:0:0:0:
448,192,34146,1,0,0:0:0:0:
320,192,34254,1,0,0:0:0:0:
64,192,34363,128,0,34581:0:0:0:70:normal-hitwhistle.wav
192,192,34363,1,0,0:0:0:70:normal-hitclap.wav
448,192,34363,1,0,0:0:0:0:
192,192,34581,128,0,34798:0:0:0:0:
320,192,34581,1,0,0:0:0:0:
64,192,34798,1,0,0:0:0:70:normal-hitwhistle.wav
320,192,34798,128,0,35233:0:0:0:70:normal-hitfinish.wav
448,192,34798,1,0,0:0:0:0:
192,192,35015,1,0,0:0:0:0:
64,192,35233,1,0,0:0:0:70:normal-hitclap.wav
192,192,35233,128,0,35668:0:0:0:0:
448,192,35233,1,0,0:0:0:0:
448,192,35450,1,0,0:0:0:0:
64,192,35559,1,0,0:0:0:0:
320,192,35668,1,0,0:0:0:70:normal-hitwhistle.wav
448,192,35668,128,0,36102:0:0:0:0:
64,192,35776,1,0,0:0:0:0:
320,192,35885,1,0,0:0:0:0:
64,192,36102,128,0,36537:0:0:0:70:normal-hitclap.wav
192,192,36102,1,0,0:0:0:0:
320,192,36102,1,0,0:0:0:0:
448,192,36320,1,0,0:0:0:0:
192,192,36537,128,0,36754:0:0:0:70:normal-hitwhistle.wav
448,192,36537,128,0,36754:0:0:0:0:
320,192,36646,1,0,0:0:0:0:
64,192,36754,1,0,0:0:0:0:
64,192,36972,1,0,0:0:0:70:normal-hitwhistle.wav
192,192,36972,128,0,37189:0:0:0:70:normal-hitclap.wav
320,192,36972,128,0,37189:0:0:0:0:
448,192,37189,1,0,0:0:0:0:
64,192,37407,128,0,37624:0:0:0:70:normal-hitwhistle.wav
320,192,37407,128,0,37624:0:0:0:0:
448,192,37407,1,0,0:0:0:0:
192,192,37624,128,0,37841:0:0:0:0:
64,192,37841,1,0,0:0:0:70:normal-hitclap.wav
320,192,37841,1,0,0:0:0:0:
448,192,37841,1,0,0:0:0:0:
192,192,38059,1,0,0:0:0:0:
320,192,38059,128,0,38276:0:0:0:0:
64,192,38276,1,0,0:0:0:70:normal-hitwhistle.wav
192,192,38276,128,0,38711:0:0:0:0:
448,192,38276,1,0,0:0:0:0:
320,192,38494,1,0,0:0:0:0:
64,192,38711,1,0,0:0:0:70:normal-hitclap.wav
320,192,38711,128,0,39146:0:0:0:0:
448,192,38711,1,0,0:0:0:0:
64,192,38928,1,0,0:0:0:0:
448,192,39037,1,0,0:0:0:0:
64,192,39146,128,0,39363:0:0:0:70:normal-hitwhistle.wav
192,192,39146,1,0,0:0:0:0:
448,192,39254,1,0,0:0:0:0:
192,192,39363,128,0,39581:0:0:0:0:
320,192,39363,1,0,0:0:0:0:
64,192,39581,1,0,0:0:0:70:normal-hitclap.wav
320,192,39581,1,0,0:0:0:0:
448,192,39581,128,0,39798:0:0:0:0:
192,192,39798,1,0,0:0:0:0:
320,192,39798,128,0,40015:0:0:0:0:
64,192,40015,128,0,40233:0:0:0:70:normal-hitwhistle.wav
192,192,40015,1,0,0:0:0:0:
448,192,40015,128,0,40233:0:0:0:0:
320,192,40233,1,0,0:0:0:0:
192,192,40450,128,0,40668:0:0:0:70:normal-hitwhistle.wav
320,192,40450,1,0,0:0:0:70:normal-hitclap.wav
448,192,40450,128,0,40668:0:0:0:0:
64,192,40668,1,0,0:0:0:0:
320,192,40885,128,0,41102:0:0:0:70:normal-hitwhistle.wav
448,192,40885,128,0,41102:0:0:0:0:
64,192,40994,1,0,0:0:0:70:normal-hitwhistle.wav
192,192,40994,1,0,0:0:0:0:
64,192,41211,1,0,0:0:0:70:normal-hitwhistle.wav
192,192,41211,1,0,0:0:0:0:
320,192,41320,1,0,0:0:0:70:normal-hitclap.wav
448,192,41320,1,0,0:0:0:0:
64,192,41428,1,0,0:0:0:70:normal-hitwhistle.wav
192,192,41428,1,0,0:0:0:0:
64,192,41537,1,0,0:0:0:70:normal-hitwhistle.wav
320,192,41537,1,0,0:0:0:0:
448,192,41537,1,0,0:0:0:0:
64,192,41754,1,0,0:0:0:70:normal-hitwhistle.wav
192,192,41754,1,0,0:0:0:70:normal-hitfinish.wav
448,192,41754,1,0,0:0:0:0:
192,192,41863,1,0,0:0:0:0:
64,192,41972,1,0,0:0:0:70:normal-hitwhistle.wav
320,192,41972,1,0,0:0:0:35:normal-hitfinish.wav
448,192,41972,1,0,0:0:0:0:
448,192,42081,1,0,0:0:0:0:
64,192,42189,1,0,0:0:0:70:normal-hitwhistle.wav
192,192,42189,1,0,0:0:0:35:normal-hitfinish.wav
320,192,42189,1,0,0:0:0:0:
64,192,42298,1,0,0:0:0:0:
192,192,42407,1,0,0:0:0:70:normal-hitwhistle.wav
320,192,42407,1,0,0:0:0:35:normal-hitfinish.wav
448,192,42407,1,0,0:0:0:0:
320,192,42515,1,0,0:0:0:0:
64,192,42624,128,0,43276:0:0:0:70:normal-hitwhistle.wav
192,192,42624,128,0,42950:0:0:0:0:
448,192,42624,1,0,0:0:0:0:
320,192,42950,1,0,0:0:0:0:
448,192,42950,128,0,43276:0:0:0:0:
192,192,43276,1,0,0:0:0:0:
320,192,43276,1,0,0:0:0:0:
64,192,43494,1,0,0:0:0:70:normal-hitwhistle.wav
320,192,43494,1,0,0:0:0:70:normal-hitfinish.wav
448,192,43494,1,0,0:0:0:0:
320,192,43602,1,0,0:0:0:0:
64,192,43711,1,0,0:0:0:70:normal-hitwhistle.wav
192,192,43711,1,0,0:0:0:35:normal-hitfinish.wav
448,192,43711,1,0,0:0:0:0:
64,192,43820,1,0,0:0:0:0:
192,192,43928,1,0,0:0:0:70:normal-hitwhistle.wav
320,192,43928,1,0,0:0:0:35:normal-hitfinish.wav
448,192,43928,1,0,0:0:0:0:
448,192,44037,1,0,0:0:0:0:
64,192,44146,1,0,0:0:0:70:normal-hitwhistle.wav
192,192,44146,1,0,0:0:0:35:normal-hitfinish.wav
320,192,44146,1,0,0:0:0:0:
192,192,44254,1,0,0:0:0:0:
64,192,44363,1,0,0:0:0:70:normal-hitwhistle.wav
320,192,44363,128,0,44689:0:0:0:0:
448,192,44363,128,0,45015:0:0:0:0:
64,192,44689,128,0,45015:0:0:0:0:
192,192,44689,1,0,0:0:0:0:
192,192,45015,1,0,0:0:0:0:
320,192,45015,1,0,0:0:0:0:
448,192,45233,1,0,0:0:0:35:normal-hitfinish.wav
64,192,45233,1,0,0:0:0:0:
320,192,45305,1,0,0:0:0:0:
192,192,45378,1,0,0:0:0:0:
64,192,45450,1,0,0:0:0:0:
320,192,45523,1,0,0:0:0:0:
448,192,45595,1,0,0:0:0:0:
192,192,45668,1,0,0:0:0:0:
64,192,45740,1,0,0:0:0:0:
320,192,45812,1,0,0:0:0:0:
192,192,45885,1,0,0:0:0:0:
448,192,45957,1,0,0:0:0:0:
64,192,46030,1,0,0:0:0:0:
320,192,46102,1,0,0:0:0:35:normal-hitfinish.wav
448,192,46175,1,0,0:0:0:0:
192,192,46247,1,0,0:0:0:0:
320,192,46320,1,0,0:0:0:25:normal-hitwhistle.wav
64,192,46392,1,0,0:0:0:30:normal-hitwhistle.wav
448,192,46465,1,0,0:0:0:35:normal-hitwhistle.wav
192,192,46537,1,0,0:0:0:40:normal-hitwhistle.wav
320,192,46610,1,0,0:0:0:45:normal-hitwhistle.wav
64,192,46682,1,0,0:0:0:50:normal-hitwhistle.wav
192,192,46754,1,0,0:0:0:55:normal-hitwhistle.wav
320,192,46827,1,0,0:0:0:60:normal-hitwhistle.wav
448,192,46899,1,0,0:0:0:65:normal-hitwhistle.wav
192,192,46972,1,0,0:0:0:70:normal-hitwhistle.wav
64,192,46972,1,0,0:0:0:0:
192,192,47117,1,0,0:0:0:70:normal-hitwhistle.wav
64,192,47117,1,0,0:0:0:0:
64,192,47262,1,0,0:0:0:70:normal-hitwhistle.wav
192,192,47262,1,0,0:0:0:0:
448,192,47407,1,0,0:0:0:70:normal-hitwhistle.wav
320,192,47407,1,0,0:0:0:0:
320,192,47552,1,0,0:0:0:70:normal-hitwhistle.wav
448,192,47552,1,0,0:0:0:0:
320,192,47697,1,0,0:0:0:70:normal-hitwhistle.wav
448,192,47697,1,0,0:0:0:0:
64,192,47841,128,0,48059:0:0:0:70:normal-hitwhistle.wav
192,192,47841,128,0,48059:0:0:0:70:normal-hitclap.wav
448,192,48059,1,0,0:0:0:0:
320,192,48168,1,0,0:0:0:0:
64,192,48276,1,0,0:0:0:70:normal-hitclap.wav
192,192,48276,1,0,0:0:0:35:normal-hitfinish.wav
448,192,48276,1,0,0:0:0:0:
64,192,48711,1,0,0:0:0:70:normal-hitwhistle.wav
320,192,48711,1,0,0:0:0:70:normal-hitfinish.wav
448,192,48711,1,0,0:0:0:0:
320,192,48820,1,0,0:0:0:0:
64,192,48928,1,0,0:0:0:0:
192,192,48928,1,0,0:0:0:0:
192,192,49037,1,0,0:0:0:0:
64,192,49146,1,0,0:0:0:70:normal-hitwhistle.wav
320,192,49146,1,0,0:0:0:70:normal-hitclap.wav
448,192,49146,1,0,0:0:0:0:
448,192,49254,1,0,0:0:0:0:
64,192,49363,1,0,0:0:0:0:
192,192,49363,1,0,0:0:0:0:
64,192,49472,1,0,0:0:0:0:
320,192,49472,1,0,0:0:0:0:
448,192,49472,1,0,0:0:0:0:
320,192,49581,1,0,0:0:0:70:normal-hitwhistle.wav
64,192,49689,1,0,0:0:0:0:
192,192,49689,1,0,0:0:0:0:
448,192,49689,1,0,0:0:0:0:
192,192,49798,1,0,0:0:0:0:
64,192,49907,1,0,0:0:0:0:
320,192,49907,1,0,0:0:0:0:
448,192,49907,1,0,0:0:0:0:
192,192,50015,1,0,0:0:0:70:normal-hitwhistle.wav
320,192,50015,1,0,0:0:0:70:normal-hitclap.wav
448,192,50015,1,0,0:0:0:0:
64,192,50124,1,0,0:0:0:0:
192,192,50233,1,0,0:0:0:0:
320,192,50341,1,0,0:0:0:0:
64,192,50450,1,0,0:0:0:70:normal-hitwhistle.wav
192,192,50450,1,0,0:0:0:0:
448,192,50450,1,0,0:0:0:0:
192,192,50559,1,0,0:0:0:0:
320,192,50668,1,0,0:0:0:0:
448,192,50668,1,0,0:0:0:0:
320,192,50776,1,0,0:0:0:0:
64,192,50885,1,0,0:0:0:70:normal-hitwhistle.wav
192,192,50885,1,0,0:0:0:70:normal-hitclap.wav
448,192,50885,1,0,0:0:0:0:
64,192,50994,1,0,0:0:0:0:
320,192,51102,1,0,0:0:0:0:
448,192,51102,1,0,0:0:0:0:
64,192,51211,1,0,0:0:0:0:
192,192,51211,1,0,0:0:0:0:
448,192,51211,1,0,0:0:0:0:
192,192,51320,1,0,0:0:0:70:normal-hitwhistle.wav
64,192,51428,1,0,0:0:0:0:
320,192,51428,1,0,0:0:0:0:
448,192,51428,1,0,0:0:0:0:
320,192,51537,1,0,0:0:0:0:
64,192,51646,1,0,0:0:0:0:
192,192,51646,1,0,0:0:0:0:
448,192,51646,1,0,0:0:0:0:
64,192,51754,1,0,0:0:0:70:normal-hitwhistle.wav
192,192,51754,1,0,0:0:0:70:normal-hitclap.wav
320,192,51754,1,0,0:0:0:0:
448,192,51863,1,0,0:0:0:0:
192,192,51972,1,0,0:0:0:0:
320,192,51972,1,0,0:0:0:0:
64,192,52081,1,0,0:0:0:0:
192,192,52189,1,0,0:0:0:70:normal-hitwhistle.wav
320,192,52189,1,0,0:0:0:0:
448,192,52189,1,0,0:0:0:0:
448,192,52298,1,0,0:0:0:0:
64,192,52407,1,0,0:0:0:0:
192,192,52407,1,0,0:0:0:0:
64,192,52515,1,0,0:0:0:0:
192,192,52624,1,0,0:0:0:70:normal-hitwhistle.wav
320,192,52624,1,0,0:0:0:70:normal-hitclap.wav
448,192,52624,1,0,0:0:0:0:
320,192,52733,1,0,0:0:0:0:
64,192,52841,1,0,0:0:0:0:
192,192,52841,1,0,0:0:0:0:
64,192,52950,1,0,0:0:0:0:
320,192,52950,1,0,0:0:0:0:
448,192,52950,1,0,0:0:0:0:
320,192,53059,1,0,0:0:0:70:normal-hitwhistle.wav
64,192,53168,1,0,0:0:0:0:
192,192,53168,1,0,0:0:0:0:
448,192,53168,1,0,0:0:0:0:
192,192,53276,1,0,0:0:0:0:
64,192,53385,1,0,0:0:0:0:
320,192,53385,1,0,0:0:0:0:
448,192,53385,1,0,0:0:0:0:
192,192,53494,1,0,0:0:0:70:normal-hitwhistle.wav
320,192,53602,1,0,0:0:0:0:
64,192,53711,1,0,0:0:0:0:
192,192,53711,1,0,0:0:0:0:
448,192,53711,1,0,0:0:0:0:
192,192,53820,1,0,0:0:0:0:
64,192,53928,1,0,0:0:0:70:normal-hitwhistle.wav
320,192,53928,1,0,0:0:0:0:
448,192,53928,1,0,0:0:0:0:
192,192,54037,1,0,0:0:0:0:
320,192,54037,1,0,0:0:0:0:
64,192,54146,1,0,0:0:0:0:
448,192,54146,1,0,0:0:0:0:
192,192,54254,1,0,0:0:0:0:
320,192,54254,1,0,0:0:0:0:
64,192,54363,1,0,0:0:0:70:normal-hitwhistle.wav
320,192,54363,1,0,0:0:0:70:normal-hitclap.wav
448,192,54363,1,0,0:0:0:0:
192,192,54472,1,0,0:0:0:0:
320,192,54581,1,0,0:0:0:0:
448,192,54581,1,0,0:0:0:0:
320,192,54689,1,0,0:0:0:0:
64,192,54798,1,0,0:0:0:70:normal-hitwhistle.wav
192,192,54798,1,0,0:0:0:0:
448,192,54798,1,0,0:0:0:0:
192,192,54907,1,0,0:0:0:0:
320,192,54907,1,0,0:0:0:0:
64,192,55015,1,0,0:0:0:0:
448,192,55015,1,0,0:0:0:0:
192,192,55124,1,0,0:0:0:0:
320,192,55124,1,0,0:0:0:0:
64,192,55233,1,0,0:0:0:70:normal-hitwhistle.wav
192,192,55233,1,0,0:0:0:70:normal-hitclap.wav
448,192,55233,1,0,0:0:0:35:normal-hitfinish.wav
320,192,55341,1,0,0:0:0:0:
64,192,55450,1,0,0:0:0:0:
192,192,55450,1,0,0:0:0:0:
320,192,55559,1,0,0:0:0:0:
448,192,55559,1,0,0:0:0:0:
64,192,55668,1,0,0:0:0:70:normal-hitwhistle.wav
192,192,55668,1,0,0:0:0:70:normal-hitfinish.wav
448,192,55668,1,0,0:0:0:0:
64,192,55776,1,0,0:0:0:0:
192,192,55776,1,0,0:0:0:0:
320,192,55885,1,0,0:0:0:0:
448,192,55885,1,0,0:0:0:0:
192,192,55994,1,0,0:0:0:0:
64,192,56102,1,0,0:0:0:70:normal-hitwhistle.wav
320,192,56102,1,0,0:0:0:70:normal-hitclap.wav
448,192,56102,1,0,0:0:0:0:
320,192,56211,1,0,0:0:0:0:
448,192,56211,1,0,0:0:0:0:
64,192,56320,1,0,0:0:0:0:
192,192,56320,1,0,0:0:0:0:
64,192,56428,1,0,0:0:0:0:
320,192,56428,1,0,0:0:0:0:
448,192,56428,1,0,0:0:0:0:
320,192,56537,1,0,0:0:0:70:normal-hitwhistle.wav
64,192,56646,1,0,0:0:0:0:
192,192,56646,1,0,0:0:0:0:
320,192,56754,1,0,0:0:0:0:
448,192,56754,1,0,0:0:0:0:
64,192,56863,1,0,0:0:0:0:
192,192,56863,1,0,0:0:0:0:
448,192,56863,1,0,0:0:0:0:
192,192,56972,1,0,0:0:0:70:normal-hitwhistle.wav
320,192,57081,1,0,0:0:0:0:
448,192,57081,1,0,0:0:0:0:
64,192,57189,1,0,0:0:0:0:
320,192,57189,128,0,57407:0:0:0:0:
448,192,57189,1,0,0:0:0:0:
64,192,57407,1,0,0:0:0:70:normal-hitwhistle.wav
192,192,57407,1,0,0:0:0:0:
448,192,57407,1,0,0:0:0:0:
64,192,57515,1,0,0:0:0:0:
192,192,57515,1,0,0:0:0:0:
64,192,57624,1,0,0:0:0:0:
192,192,57624,1,0,0:0:0:0:
64,192,57841,1,0,0:0:0:70:normal-hitwhistle.wav
320,192,57841,1,0,0:0:0:70:normal-hitclap.wav
448,192,57841,1,0,0:0:0:0:
320,192,57950,1,0,0:0:0:0:
448,192,57950,1,0,0:0:0:0:
320,192,58059,1,0,0:0:0:0:
448,192,58059,1,0,0:0:0:0:
64,192,58168,128,0,58385:0:0:0:0:
192,192,58168,1,0,0:0:0:0:
64,192,58494,1,0,0:0:0:0:
192,192,58494,1,0,0:0:0:0:
448,192,58494,1,0,0:0:0:0:
192,192,58602,1,0,0:0:0:0:
64,192,58711,1,0,0:0:0:70:normal-hitwhistle.wav
320,192,58711,1,0,0:0:0:70:normal-hitclap.wav
448,192,58711,1,0,0:0:0:0:
320,192,58820,1,0,0:0:0:0:
64,192,58928,1,0,0:0:0:0:
192,192,58928,1,0,0:0:0:0:
448,192,58928,1,0,0:0:0:0:
192,192,59037,1,0,0:0:0:0:
320,192,59037,1,0,0:0:0:0:
64,192,59146,1,0,0:0:0:70:normal-hitwhistle.wav
320,192,59146,1,0,0:0:0:0:
448,192,59146,1,0,0:0:0:0:
192,192,59254,1,0,0:0:0:0:
320,192,59363,1,0,0:0:0:0:
448,192,59363,1,0,0:0:0:0:
448,192,59472,1,0,0:0:0:0:
64,192,59581,1,0,0:0:0:70:normal-hitwhistle.wav
192,192,59581,1,0,0:0:0:70:normal-hitclap.wav
320,192,59581,1,0,0:0:0:0:
64,192,59689,1,0,0:0:0:0:
192,192,59798,1,0,0:0:0:0:
320,192,59798,1,0,0:0:0:0:
448,192,59798,1,0,0:0:0:0:
320,192,59907,1,0,0:0:0:0:
64,192,60015,1,0,0:0:0:70:normal-hitwhistle.wav
192,192,60015,1,0,0:0:0:0:
448,192,60015,1,0,0:0:0:0:
192,192,60124,1,0,0:0:0:0:
64,192,60233,1,0,0:0:0:0:
320,192,60233,1,0,0:0:0:0:
448,192,60233,1,0,0:0:0:0:
448,192,60341,1,0,0:0:0:0:
64,192,60450,1,0,0:0:0:70:normal-hitwhistle.wav
192,192,60450,1,0,0:0:0:70:normal-hitclap.wav
320,192,60450,1,0,0:0:0:0:
64,192,60559,1,0,0:0:0:0:
192,192,60668,1,0,0:0:0:0:
320,192,60668,1,0,0:0:0:0:
448,192,60668,1,0,0:0:0:0:
320,192,60776,1,0,0:0:0:0:
64,192,60885,1,0,0:0:0:70:normal-hitwhistle.wav
192,192,60885,1,0,0:0:0:0:
448,192,60885,1,0,0:0:0:0:
64,192,61102,1,0,0:0:0:70:normal-hitwhistle.wav
320,192,61102,1,0,0:0:0:0:
448,192,61102,1,0,0:0:0:0:
64,192,61211,128,0,61428:0:0:0:70:normal-hitwhistle.wav
320,192,61211,128,0,61428:0:0:0:0:
448,192,61211,128,0,61428:0:0:0:0:
64,192,61537,1,0,0:0:0:70:normal-hitwhistle.wav
192,192,61537,1,0,0:0:0:0:
448,192,61537,1,0,0:0:0:0:
64,192,61754,1,0,0:0:0:70:normal-hitwhistle.wav
320,192,61754,1,0,0:0:0:0:
448,192,61754,1,0,0:0:0:0:
192,192,61863,1,0,0:0:0:0:
320,192,61863,1,0,0:0:0:0:
64,192,61972,1,0,0:0:0:0:
448,192,61972,1,0,0:0:0:0:
192,192,62081,1,0,0:0:0:0:
320,192,62081,1,0,0:0:0:0:
64,192,62189,128,0,62407:0:0:0:70:normal-hitclap.wav
192,192,62189,128,0,62407:0:0:0:35:normal-hitfinish.wav
448,192,62189,128,0,62407:0:0:0:0:
64,192,62624,1,0,0:0:0:70:normal-hitwhistle.wav
320,192,62624,1,0,0:0:0:70:normal-hitfinish.wav
448,192,62624,1,0,0:0:0:0:
192,192,62841,1,0,0:0:0:0:
320,192,63059,1,0,0:0:0:70:normal-hitclap.wav
448,192,63059,1,0,0:0:0:0:
192,192,63276,1,0,0:0:0:0:
64,192,63385,1,0,0:0:0:0:
192,192,63494,1,0,0:0:0:70:normal-hitwhistle.wav
320,192,63494,1,0,0:0:0:0:
448,192,63494,1,0,0:0:0:0:
192,192,63602,1,0,0:0:0:0:
64,192,63711,1,0,0:0:0:70:normal-hitwhistle.wav
320,192,63711,1,0,0:0:0:0:
448,192,63711,1,0,0:0:0:0:
320,192,63820,1,0,0:0:0:0:
192,192,63928,1,0,0:0:0:70:normal-hitclap.wav
448,192,63928,1,0,0:0:0:0:
64,192,64146,1,0,0:0:0:0:
64,192,64363,1,0,0:0:0:70:normal-hitwhistle.wav
192,192,64363,1,0,0:0:0:0:
448,192,64363,1,0,0:0:0:0:
320,192,64581,1,0,0:0:0:0:
64,192,64798,1,0,0:0:0:70:normal-hitclap.wav
192,192,64798,1,0,0:0:0:0:
320,192,65015,1,0,0:0:0:0:
448,192,65124,1,0,0:0:0:0:
64,192,65233,1,0,0:0:0:70:normal-hitwhistle.wav
192,192,65233,1,0,0:0:0:0:
320,192,65233,1,0,0:0:0:0:
320,192,65341,1,0,0:0:0:0:
448,192,65341,1,0,0:0:0:0:
64,192,65450,1,0,0:0:0:0:
192,192,65450,1,0,0:0:0:0:
192,192,65559,1,0,0:0:0:70:normal-hitwhistle.wav
320,192,65559,1,0,0:0:0:0:
448,192,65559,1,0,0:0:0:0:
64,192,65668,1,0,0:0:0:70:normal-hitclap.wav
320,192,65668,1,0,0:0:0:0:
320,192,65885,1,0,0:0:0:70:normal-hitwhistle.wav
448,192,65885,1,0,0:0:0:0:
64,192,66102,128,0,66320:0:0:0:70:normal-hitwhistle.wav
192,192,66102,128,0,66320:0:0:0:35:normal-hitfinish.wav
448,192,66102,128,0,66320:0:0:0:0:
64,192,66537,1,0,0:0:0:70:normal-hitwhistle.wav
192,192,66537,1,0,0:0:0:70:normal-hitclap.wav
320,192,66537,1,0,0:0:0:70:normal-hitfinish.wav
448,192,66537,1,0,0:0:0:0:
64,192,66646,1,0,0:0:0:0:
320,192,66754,1,0,0:0:0:0:
448,192,66754,1,0,0:0:0:0:
64,192,66863,1,0,0:0:0:0:
192,192,66863,1,0,0:0:0:0:
448,192,66863,1,0,0:0:0:0:
192,192,66972,1,0,0:0:0:70:normal-hitwhistle.wav
64,192,67081,1,0,0:0:0:0:
320,192,67081,1,0,0:0:0:0:
448,192,67081,1,0,0:0:0:0:
320,192,67189,1,0,0:0:0:0:
64,192,67298,1,0,0:0:0:0:
192,192,67298,1,0,0:0:0:0:
64,192,67407,1,0,0:0:0:70:normal-hitwhistle.wav
320,192,67407,1,0,0:0:0:70:normal-hitclap.wav
448,192,67407,1,0,0:0:0:0:
192,192,67515,1,0,0:0:0:0:
64,192,67624,1,0,0:0:0:0:
320,192,67624,1,0,0:0:0:0:
448,192,67624,1,0,0:0:0:0:
320,192,67733,1,0,0:0:0:0:
64,192,67841,1,0,0:0:0:70:normal-hitwhistle.wav
192,192,67841,1,0,0:0:0:0:
448,192,67841,1,0,0:0:0:0:
192,192,67950,1,0,0:0:0:0:
320,192,67950,1,0,0:0:0:0:
64,192,68059,1,0,0:0:0:0:
448,192,68059,1,0,0:0:0:0:
192,192,68168,1,0,0:0:0:0:
320,192,68168,1,0,0:0:0:0:
64,192,68276,1,0,0:0:0:70:normal-hitwhistle.wav
192,192,68276,1,0,0:0:0:70:normal-hitclap.wav
448,192,68276,1,0,0:0:0:0:
320,192,68385,1,0,0:0:0:0:
64,192,68494,1,0,0:0:0:0:
192,192,68494,1,0,0:0:0:0:
192,192,68602,1,0,0:0:0:0:
64,192,68711,1,0,0:0:0:70:normal-hitwhistle.wav
320,192,68711,1,0,0:0:0:0:
448,192,68711,1,0,0:0:0:0:
192,192,68820,1,0,0:0:0:0:
320,192,68820,1,0,0:0:0:0:
64,192,68928,1,0,0:0:0:0:
448,192,68928,1,0,0:0:0:0:
192,192,69037,1,0,0:0:0:0:
320,192,69037,1,0,0:0:0:0:
64,192,69146,1,0,0:0:0:70:normal-hitwhistle.wav
320,192,69146,1,0,0:0:0:70:normal-hitclap.wav
448,192,69146,1,0,0:0:0:35:normal-hitfinish.wav
192,192,69254,1,0,0:0:0:0:
320,192,69363,1,0,0:0:0:0:
448,192,69363,1,0,0:0:0:0:
64,192,69472,1,0,0:0:0:0:
192,192,69472,1,0,0:0:0:0:
64,192,69581,1,0,0:0:0:70:normal-hitwhistle.wav
320,192,69581,1,0,0:0:0:70:normal-hitfinish.wav
448,192,69581,1,0,0:0:0:0:
320,192,69689,1,0,0:0:0:0:
448,192,69689,1,0,0:0:0:0:
64,192,69798,1,0,0:0:0:0:
192,192,69798,1,0,0:0:0:0:
320,192,69907,1,0,0:0:0:0:
64,192,70015,1,0,0:0:0:70:normal-hitwhistle.wav
192,192,70015,1,0,0:0:0:70:normal-hitclap.wav
448,192,70015,1,0,0:0:0:0:
64,192,70124,1,0,0:0:0:0:
192,192,70124,1,0,0:0:0:0:
320,192,70233,1,0,0:0:0:0:
448,192,70233,1,0,0:0:0:0:
64,192,70341,1,0,0:0:0:0:
192,192,70341,1,0,0:0:0:0:
448,192,70341,1,0,0:0:0:0:
192,192,70450,1,0,0:0:0:70:normal-hitwhistle.wav
320,192,70559,1,0,0:0:0:0:
448,192,70559,1,0,0:0:0:0:
64,192,70668,1,0,0:0:0:0:
192,192,70668,1,0,0:0:0:0:
64,192,70776,1,0,0:0:0:0:
320,192,70776,1,0,0:0:0:0:
448,192,70776,1,0,0:0:0:0:
320,192,70885,1,0,0:0:0:70:normal-hitwhistle.wav
64,192,70994,1,0,0:0:0:0:
192,192,70994,1,0,0:0:0:0:
64,192,71102,1,0,0:0:0:0:
192,192,71102,128,0,71320:0:0:0:0:
448,192,71102,1,0,0:0:0:0:
64,192,71320,1,0,0:0:0:70:normal-hitwhistle.wav
320,192,71320,1,0,0:0:0:0:
448,192,71320,1,0,0:0:0:0:
320,192,71428,1,0,0:0:0:0:
448,192,71428,1,0,0:0:0:0:
320,192,71537,1,0,0:0:0:70:normal-hitwhistle.wav
448,192,71537,1,0,0:0:0:0:
64,192,71754,1,0,0:0:0:70:normal-hitwhistle.wav
192,192,71754,1,0,0:0:0:70:normal-hitclap.wav
64,192,71863,1,0,0:0:0:0:
192,192,71863,1,0,0:0:0:0:
64,192,71972,1,0,0:0:0:70:normal-hitwhistle.wav
192,192,71972,1,0,0:0:0:0:
320,192,72081,1,0,0:0:0:70:normal-hitwhistle.wav
448,192,72081,128,0,72298:0:0:0:0:
64,192,72407,1,0,0:0:0:70:normal-hitwhistle.wav
320,192,72407,1,0,0:0:0:0:
448,192,72407,1,0,0:0:0:0:
320,192,72515,1,0,0:0:0:0:
64,192,72624,1,0,0:0:0:70:normal-hitwhistle.wav
192,192,72624,1,0,0:0:0:70:normal-hitclap.wav
448,192,72624,1,0,0:0:0:0:
192,192,72733,1,0,0:0:0:0:
64,192,72841,1,0,0:0:0:0:
320,192,72841,1,0,0:0:0:0:
448,192,72841,1,0,0:0:0:0:
192,192,72950,1,0,0:0:0:0:
320,192,72950,1,0,0:0:0:0:
64,192,73059,1,0,0:0:0:70:normal-hitwhistle.wav
192,192,73059,1,0,0:0:0:70:normal-hitfinish.wav
448,192,73059,1,0,0:0:0:0:
320,192,73168,1,0,0:0:0:0:
64,192,73276,1,0,0:0:0:0:
192,192,73276,1,0,0:0:0:0:
64,192,73385,1,0,0:0:0:0:
192,192,73494,1,0,0:0:0:70:normal-hitwhistle.wav
320,192,73494,1,0,0:0:0:70:normal-hitclap.wav
448,192,73494,1,0,0:0:0:0:
448,192,73602,1,0,0:0:0:0:
64,192,73711,1,0,0:0:0:0:
192,192,73711,1,0,0:0:0:0:
320,192,73711,1,0,0:0:0:0:
192,192,73820,1,0,0:0:0:0:
64,192,73928,1,0,0:0:0:70:normal-hitwhistle.wav
320,192,73928,1,0,0:0:0:0:
448,192,73928,1,0,0:0:0:0:
320,192,74037,1,0,0:0:0:0:
64,192,74146,1,0,0:0:0:0:
192,192,74146,1,0,0:0:0:0:
448,192,74146,1,0,0:0:0:0:
64,192,74254,1,0,0:0:0:0:
192,192,74363,1,0,0:0:0:70:normal-hitwhistle.wav
320,192,74363,1,0,0:0:0:70:normal-hitclap.wav
448,192,74363,1,0,0:0:0:0:
448,192,74472,1,0,0:0:0:0:
64,192,74581,1,0,0:0:0:0:
192,192,74581,1,0,0:0:0:0:
320,192,74581,1,0,0:0:0:0:
192,192,74689,1,0,0:0:0:0:
64,192,74798,1,0,0:0:0:70:normal-hitwhistle.wav
320,192,74798,1,0,0:0:0:0:
448,192,74798,1,0,0:0:0:0:
64,192,75015,1,0,0:0:0:70:normal-hitwhistle.wav
192,192,75015,1,0,0:0:0:0:
448,192,75015,1,0,0:0:0:0:
64,192,75124,128,0,75341:0:0:0:70:normal-hitwhistle.wav
192,192,75124,128,0,75341:0:0:0:0:
448,192,75124,128,0,75341:0:0:0:0:
64,192,75450,1,0,0:0:0:0:
320,192,75450,1,0,0:0:0:0:
448,192,75450,1,0,0:0:0:0:
64,192,75668,1,0,0:0:0:0:
192,192,75668,1,0,0:0:0:0:
448,192,75668,1,0,0:0:0:0:
192,192,75776,1,0,0:0:0:0:
320,192,75776,1,0,0:0:0:0:
64,192,75885,1,0,0:0:0:0:
448,192,75885,1,0,0:0:0:0:
192,192,75994,1,0,0:0:0:0:
320,192,75994,1,0,0:0:0:0:
64,192,76102,128,0,76320:0:0:0:70:normal-hitwhistle.wav
320,192,76102,128,0,76320:0:0:0:70:normal-hitclap.wav
448,192,76102,128,0,76320:0:0:0:0:
64,192,76537,1,0,0:0:0:70:normal-hitwhistle.wav
192,192,76537,1,0,0:0:0:70:normal-hitfinish.wav
448,192,76537,1,0,0:0:0:0:
320,192,76646,1,0,0:0:0:0:
64,192,76754,1,0,0:0:0:0:
448,192,76754,1,0,0:0:0:0:
192,192,76863,1,0,0:0:0:0:
320,192,76972,1,0,0:0:0:0:
448,192,76972,1,0,0:0:0:0:
192,192,77081,1,0,0:0:0:0:
64,192,77189,1,0,0:0:0:0:
448,192,77189,1,0,0:0:0:0:
320,192,77298,1,0,0:0:0:0:
64,192,77407,128,0,77733:0:0:0:70:normal-hitclap.wav
192,192,77407,1,0,0:0:0:0:
448,192,77407,1,0,0:0:0:0:
192,192,77515,1,0,0:0:0:0:
320,192,77624,1,0,0:0:0:0:
320,192,77733,1,0,0:0:0:0:
64,192,77841,1,0,0:0:0:0:
448,192,77841,1,0,0:0:0:0:
192,192,77950,1,0,0:0:0:0:
320,192,78059,1,0,0:0:0:0:
448,192,78059,1,0,0:0:0:0:
192,192,78168,1,0,0:0:0:0:
64,192,78276,1,0,0:0:0:0:
448,192,78276,1,0,0:0:0:0:
320,192,78385,1,0,0:0:0:0:
192,192,78494,1,0,0:0:0:0:
64,192,78602,1,0,0:0:0:0:
448,192,78602,1,0,0:0:0:0:
192,192,78711,1,0,0:0:0:0:
320,192,78820,1,0,0:0:0:0:
64,192,78928,1,0,0:0:0:0:
448,192,78928,1,0,0:0:0:0:
192,192,79037,1,0,0:0:0:0:
64,192,79146,1,0,0:0:0:70:normal-hitclap.wav
320,192,79146,1,0,0:0:0:0:
448,192,79146,128,0,79472:0:0:0:0:
320,192,79254,1,0,0:0:0:0:
192,192,79363,1,0,0:0:0:0:
192,192,79472,1,0,0:0:0:0:
64,192,79581,1,0,0:0:0:70:normal-hitwhistle.wav
320,192,79581,1,0,0:0:0:0:
448,192,79581,1,0,0:0:0:0:
192,192,79689,1,0,0:0:0:0:
64,192,79798,1,0,0:0:0:0:
448,192,79798,1,0,0:0:0:0:
320,192,79907,1,0,0:0:0:0:
64,192,80015,1,0,0:0:0:70:normal-hitwhistle.wav
192,192,80015,1,0,0:0:0:0:
448,192,80015,1,0,0:0:0:0:
320,192,80124,1,0,0:0:0:0:
192,192,80233,1,0,0:0:0:0:
64,192,80341,1,0,0:0:0:0:
320,192,80341,1,0,0:0:0:0:
448,192,80450,1,0,0:0:0:0:
64,192,80559,1,0,0:0:0:0:
192,192,80668,1,0,0:0:0:0:
448,192,80668,1,0,0:0:0:0:
320,192,80776,1,0,0:0:0:0:
64,192,80885,1,0,0:0:0:70:normal-hitclap.wav
192,192,80885,1,0,0:0:0:0:
448,192,80885,1,0,0:0:0:0:
320,192,80994,1,0,0:0:0:0:
64,192,81102,1,0,0:0:0:0:
320,192,81211,1,0,0:0:0:0:
64,192,81320,1,0,0:0:0:0:
320,192,81428,1,0,0:0:0:0:
64,192,81537,1,0,0:0:0:0:
192,192,81537,1,0,0:0:0:0:
320,192,81646,1,0,0:0:0:0:
64,192,81754,1,0,0:0:0:0:
448,192,81754,1,0,0:0:0:0:
320,192,81863,1,0,0:0:0:0:
192,192,81972,1,0,0:0:0:0:
64,192,82081,1,0,0:0:0:0:
448,192,82081,1,0,0:0:0:0:
192,192,82189,1,0,0:0:0:0:
320,192,82298,1,0,0:0:0:0:
64,192,82407,1,0,0:0:0:0:
448,192,82407,1,0,0:0:0:0:
192,192,82515,1,0,0:0:0:0:
64,192,82624,1,0,0:0:0:70:normal-hitclap.wav
320,192,82624,1,0,0:0:0:0:
448,192,82624,1,0,0:0:0:0:
192,192,82733,1,0,0:0:0:0:
448,192,82841,1,0,0:0:0:0:
192,192,82950,1,0,0:0:0:0:
320,192,83059,1,0,0:0:0:70:normal-hitwhistle.wav
448,192,83059,1,0,0:0:0:0:
64,192,83168,1,0,0:0:0:70:normal-hitwhistle.wav
192,192,83168,1,0,0:0:0:0:
320,192,83276,1,0,0:0:0:70:normal-hitwhistle.wav
448,192,83276,1,0,0:0:0:0:
64,192,83385,1,0,0:0:0:70:normal-hitwhistle.wav
192,192,83385,1,0,0:0:0:0:
64,192,83494,1,0,0:0:0:70:normal-hitwhistle.wav
320,192,83494,1,0,0:0:0:70:normal-hitfinish.wav
448,192,83494,1,0,0:0:0:0:
192,192,83602,1,0,0:0:0:0:
64,192,83711,1,0,0:0:0:0:
448,192,83711,1,0,0:0:0:0:
320,192,83820,1,0,0:0:0:0:
64,192,83928,1,0,0:0:0:70:normal-hitclap.wav
192,192,83928,1,0,0:0:0:0:
448,192,83928,1,0,0:0:0:0:
320,192,84037,1,0,0:0:0:0:
64,192,84146,1,0,0:0:0:0:
192,192,84146,1,0,0:0:0:0:
320,192,84254,1,0,0:0:0:0:
64,192,84363,1,0,0:0:0:0:
448,192,84363,1,0,0:0:0:0:
64,192,84472,1,0,0:0:0:0:
192,192,84581,1,0,0:0:0:70:normal-hitwhistle.wav
320,192,84581,1,0,0:0:0:0:
448,192,84581,1,0,0:0:0:0:
320,192,84689,1,0,0:0:0:0:
64,192,84798,1,0,0:0:0:70:normal-hitclap.wav
192,192,84798,1,0,0:0:0:0:
448,192,84798,1,0,0:0:0:0:
192,192,84907,1,0,0:0:0:0:
320,192,85015,1,0,0:0:0:0:
448,192,85015,1,0,0:0:0:0:
448,192,85124,1,0,0:0:0:0:
64,192,85233,1,0,0:0:0:70:normal-hitwhistle.wav
192,192,85233,1,0,0:0:0:0:
320,192,85233,1,0,0:0:0:0:
192,192,85341,1,0,0:0:0:0:
64,192,85450,1,0,0:0:0:70:normal-hitwhistle.wav
320,192,85450,1,0,0:0:0:0:
448,192,85450,1,0,0:0:0:0:
192,192,85559,1,0,0:0:0:0:
64,192,85668,1,0,0:0:0:70:normal-hitclap.wav
320,192,85668,1,0,0:0:0:0:
448,192,85668,1,0,0:0:0:0:
192,192,85776,1,0,0:0:0:0:
320,192,85885,1,0,0:0:0:0:
448,192,85994,1,0,0:0:0:0:
64,192,86030,1,0,0:0:0:70:normal-hitwhistle.wav
192,192,86030,1,0,0:0:0:0:
320,192,86102,1,0,0:0:0:0:
320,192,86211,1,0,0:0:0:0:
64,192,86320,1,0,0:0:0:70:normal-hitwhistle.wav
192,192,86320,1,0,0:0:0:0:
448,192,86320,1,0,0:0:0:0:
64,192,86428,1,0,0:0:0:0:
192,192,86537,1,0,0:0:0:70:normal-hitclap.wav
320,192,86537,1,0,0:0:0:0:
448,192,86537,1,0,0:0:0:0:
448,192,86646,1,0,0:0:0:0:
64,192,86754,1,0,0:0:0:0:
192,192,86754,1,0,0:0:0:0:
192,192,86863,1,0,0:0:0:0:
64,192,86972,1,0,0:0:0:70:normal-hitwhistle.wav
320,192,86972,1,0,0:0:0:0:
448,192,86972,1,0,0:0:0:0:
320,192,87081,1,0,0:0:0:0:
64,192,87189,1,0,0:0:0:0:
192,192,87189,1,0,0:0:0:0:
448,192,87298,1,0,0:0:0:0:
64,192,87407,1,0,0:0:0:70:normal-hitclap.wav
192,192,87407,1,0,0:0:0:0:
320,192,87407,1,0,0:0:0:0:
448,192,87515,1,0,0:0:0:0:
192,192,87624,1,0,0:0:0:0:
320,192,87624,1,0,0:0:0:0:
64,192,87733,1,0,0:0:0:0:
192,192,87841,1,0,0:0:0:0:
448,192,87841,1,0,0:0:0:0:
192,192,87950,1,0,0:0:0:0:
64,192,88059,1,0,0:0:0:70:normal-hitwhistle.wav
320,192,88059,1,0,0:0:0:0:
448,192,88059,1,0,0:0:0:0:
448,192,88168,1,0,0:0:0:0:
64,192,88276,1,0,0:0:0:70:normal-hitclap.wav
192,192,88276,1,0,0:0:0:0:
320,192,88276,1,0,0:0:0:0:
64,192,88385,1,0,0:0:0:0:
320,192,88494,1,0,0:0:0:0:
448,192,88494,1,0,0:0:0:0:
320,192,88602,1,0,0:0:0:0:
64,192,88711,1,0,0:0:0:70:normal-hitwhistle.wav
192,192,88711,1,0,0:0:0:70:normal-hitfinish.wav
448,192,88711,1,0,0:0:0:0:
448,192,88820,1,0,0:0:0:0:
64,192,88928,1,0,0:0:0:0:
64,192,89037,1,0,0:0:0:0:
320,192,89146,1,0,0:0:0:0:
320,192,89254,1,0,0:0:0:0:
192,192,89363,1,0,0:0:0:0:
320,192,89472,1,0,0:0:0:0:
64,192,89581,1,0,0:0:0:0:
448,192,89581,1,0,0:0:0:0:
192,192,89689,1,0,0:0:0:0:
64,192,89798,1,0,0:0:0:0:
448,192,89798,1,0,0:0:0:0:
320,192,89907,1,0,0:0:0:0:
64,192,90015,1,0,0:0:0:70:normal-hitclap.wav
192,192,90015,1,0,0:0:0:35:normal-hitfinish.wav
448,192,90015,1,0,0:0:0:0:
64,192,90450,1,0,0:0:0:70:normal-hitwhistle.wav
320,192,90450,1,0,0:0:0:70:normal-hitfinish.wav
448,192,90450,1,0,0:0:0:0:
448,192,90559,1,0,0:0:0:0:
64,192,90668,1,0,0:0:0:0:
192,192,90668,1,0,0:0:0:0:
192,192,90776,1,0,0:0:0:0:
64,192,90885,1,0,0:0:0:70:normal-hitwhistle.wav
320,192,90885,1,0,0:0:0:70:normal-hitclap.wav
448,192,90885,1,0,0:0:0:0:
192,192,90994,1,0,0:0:0:0:
320,192,91102,1,0,0:0:0:0:
448,192,91102,1,0,0:0:0:0:
64,192,91211,1,0,0:0:0:0:
192,192,91211,1,0,0:0:0:0:
448,192,91211,1,0,0:0:0:0:
64,192,91320,1,0,0:0:0:70:normal-hitwhistle.wav
192,192,91428,1,0,0:0:0:0:
320,192,91428,1,0,0:0:0:0:
448,192,91428,1,0,0:0:0:0:
320,192,91537,1,0,0:0:0:0:
64,192,91646,1,0,0:0:0:0:
192,192,91646,1,0,0:0:0:0:
448,192,91646,1,0,0:0:0:0:
320,192,91754,1,0,0:0:0:70:normal-hitwhistle.wav
64,192,91863,1,0,0:0:0:0:
320,192,91863,1,0,0:0:0:0:
448,192,91863,1,0,0:0:0:0:
192,192,91972,1,0,0:0:0:0:
320,192,92081,1,0,0:0:0:0:
64,192,92189,1,0,0:0:0:70:normal-hitwhistle.wav
192,192,92189,1,0,0:0:0:0:
448,192,92189,1,0,0:0:0:0:
64,192,92298,1,0,0:0:0:0:
320,192,92407,1,0,0:0:0:0:
448,192,92407,1,0,0:0:0:0:
320,192,92515,1,0,0:0:0:0:
64,192,92624,1,0,0:0:0:70:normal-hitwhistle.wav
192,192,92624,1,0,0:0:0:70:normal-hitclap.wav
448,192,92624,1,0,0:0:0:0:
320,192,92733,1,0,0:0:0:0:
64,192,92841,1,0,0:0:0:0:
192,192,92841,1,0,0:0:0:0:
64,192,92950,1,0,0:0:0:0:
320,192,92950,1,0,0:0:0:0:
448,192,92950,1,0,0:0:0:0:
448,192,93059,1,0,0:0:0:70:normal-hitwhistle.wav
64,192,93168,1,0,0:0:0:0:
192,192,93168,1,0,0:0:0:0:
320,192,93168,1,0,0:0:0:0:
192,192,93276,1,0,0:0:0:0:
64,192,93385,1,0,0:0:0:0:
320,192,93385,1,0,0:0:0:0:
448,192,93385,1,0,0:0:0:0:
192,192,93494,1,0,0:0:0:70:normal-hitwhistle.wav
64,192,93602,1,0,0:0:0:0:
192,192,93602,1,0,0:0:0:0:
448,192,93602,1,0,0:0:0:0:
320,192,93711,1,0,0:0:0:0:
192,192,93820,1,0,0:0:0:0:
64,192,93928,1,0,0:0:0:70:normal-hitwhistle.wav
320,192,93928,1,0,0:0:0:0:
448,192,93928,1,0,0:0:0:0:
192,192,94037,1,0,0:0:0:0:
320,192,94037,1,0,0:0:0:0:
64,192,94146,1,0,0:0:0:0:
448,192,94146,1,0,0:0:0:0:
320,192,94254,1,0,0:0:0:0:
64,192,94363,1,0,0:0:0:70:normal-hitwhistle.wav
192,192,94363,1,0,0:0:0:70:normal-hitclap.wav
448,192,94363,1,0,0:0:0:0:
320,192,94472,1,0,0:0:0:0:
448,192,94472,1,0,0:0:0:0:
64,192,94581,1,0,0:0:0:0:
192,192,94689,1,0,0:0:0:0:
320,192,94689,1,0,0:0:0:0:
64,192,94798,1,0,0:0:0:70:normal-hitwhistle.wav
192,192,94798,1,0,0:0:0:0:
448,192,94798,1,0,0:0:0:0:
320,192,94907,1,0,0:0:0:0:
64,192,95015,1,0,0:0:0:0:
192,192,95015,1,0,0:0:0:0:
64,192,95124,1,0,0:0:0:0:
320,192,95124,1,0,0:0:0:0:
448,192,95124,1,0,0:0:0:0:
192,192,95233,1,0,0:0:0:70:normal-hitwhistle.wav
320,192,95341,1,0,0:0:0:0:
448,192,95341,1,0,0:0:0:0:
64,192,95450,1,0,0:0:0:0:
192,192,95450,1,0,0:0:0:0:
448,192,95450,1,0,0:0:0:0:
320,192,95559,1,0,0:0:0:0:
64,192,95668,1,0,0:0:0:70:normal-hitwhistle.wav
192,192,95668,1,0,0:0:0:0:
448,192,95668,1,0,0:0:0:0:
64,192,95776,1,0,0:0:0:0:
192,192,95885,1,0,0:0:0:0:
320,192,95885,1,0,0:0:0:0:
192,192,95994,1,0,0:0:0:0:
64,192,96102,1,0,0:0:0:70:normal-hitwhistle.wav
320,192,96102,1,0,0:0:0:70:normal-hitclap.wav
448,192,96102,1,0,0:0:0:0:
320,192,96211,1,0,0:0:0:0:
64,192,96320,1,0,0:0:0:0:
192,192,96320,1,0,0:0:0:0:
64,192,96428,1,0,0:0:0:0:
320,192,96428,1,0,0:0:0:0:
448,192,96428,1,0,0:0:0:0:
192,192,96537,1,0,0:0:0:70:normal-hitwhistle.wav
64,192,96646,1,0,0:0:0:0:
320,192,96646,1,0,0:0:0:0:
448,192,96646,1,0,0:0:0:0:
320,192,96754,1,0,0:0:0:0:
448,192,96754,1,0,0:0:0:0:
64,192,96863,1,0,0:0:0:0:
192,192,96863,1,0,0:0:0:0:
64,192,96972,1,0,0:0:0:70:normal-hitwhistle.wav
192,192,96972,1,0,0:0:0:70:normal-hitclap.wav
448,192,96972,1,0,0:0:0:35:normal-hitfinish.wav
320,192,97081,1,0,0:0:0:0:
192,192,97189,1,0,0:0:0:0:
320,192,97298,1,0,0:0:0:0:
64,192,97407,1,0,0:0:0:70:normal-hitwhistle.wav
192,192,97407,1,0,0:0:0:70:normal-hitfinish.wav
320,192,97407,1,0,0:0:0:0:
448,192,97407,1,0,0:0:0:0:
64,192,97515,1,0,0:0:0:0:
320,192,97624,1,0,0:0:0:0:
448,192,97624,1,0,0:0:0:0:
320,192,97733,1,0,0:0:0:0:
64,192,97841,1,0,0:0:0:70:normal-hitwhistle.wav
192,192,97841,1,0,0:0:0:70:normal-hitclap.wav
448,192,97841,1,0,0:0:0:0:
320,192,97950,1,0,0:0:0:0:
64,192,98059,1,0,0:0:0:0:
192,192,98059,1,0,0:0:0:0:
64,192,98168,1,0,0:0:0:0:
320,192,98168,1,0,0:0:0:0:
448,192,98168,1,0,0:0:0:0:
448,192,98276,1,0,0:0:0:70:normal-hitwhistle.wav
64,192,98385,1,0,0:0:0:0:
192,192,98385,1,0,0:0:0:0:
320,192,98385,1,0,0:0:0:0:
320,192,98494,1,0,0:0:0:0:
64,192,98602,1,0,0:0:0:0:
192,192,98602,1,0,0:0:0:0:
448,192,98602,1,0,0:0:0:0:
320,192,98711,1,0,0:0:0:70:normal-hitwhistle.wav
192,192,98820,1,0,0:0:0:0:
64,192,98928,1,0,0:0:0:0:
320,192,98928,1,0,0:0:0:0:
448,192,98928,1,0,0:0:0:0:
192,192,99037,1,0,0:0:0:0:
64,192,99146,1,0,0:0:0:70:normal-hitwhistle.wav
320,192,99146,1,0,0:0:0:0:
448,192,99146,1,0,0:0:0:0:
192,192,99254,1,0,0:0:0:0:
448,192,99254,1,0,0:0:0:0:
64,192,99363,1,0,0:0:0:0:
320,192,99363,1,0,0:0:0:0:
192,192,99472,1,0,0:0:0:0:
448,192,99472,1,0,0:0:0:0:
64,192,99581,1,0,0:0:0:70:normal-hitwhistle.wav
320,192,99581,1,0,0:0:0:70:normal-hitclap.wav
448,192,99581,1,0,0:0:0:0:
192,192,99689,1,0,0:0:0:0:
320,192,99798,1,0,0:0:0:0:
448,192,99798,1,0,0:0:0:0:
320,192,99907,1,0,0:0:0:0:
64,192,100015,1,0,0:0:0:70:normal-hitwhistle.wav
192,192,100015,1,0,0:0:0:0:
448,192,100015,1,0,0:0:0:0:
64,192,100124,1,0,0:0:0:0:
320,192,100124,1,0,0:0:0:0:
192,192,100233,1,0,0:0:0:0:
448,192,100233,1,0,0:0:0:0:
64,192,100341,1,0,0:0:0:0:
320,192,100341,1,0,0:0:0:0:
64,192,100450,1,0,0:0:0:70:normal-hitwhistle.wav
192,192,100450,1,0,0:0:0:70:normal-hitclap.wav
448,192,100450,1,0,0:0:0:0:
320,192,100559,1,0,0:0:0:0:
64,192,100668,1,0,0:0:0:0:
192,192,100668,1,0,0:0:0:0:
192,192,100776,1,0,0:0:0:0:
64,192,100885,1,0,0:0:0:70:normal-hitwhistle.wav
320,192,100885,1,0,0:0:0:0:
448,192,100885,1,0,0:0:0:0:
192,192,100994,1,0,0:0:0:0:
448,192,100994,1,0,0:0:0:0:
64,192,101102,1,0,0:0:0:0:
320,192,101102,1,0,0:0:0:0:
192,192,101211,1,0,0:0:0:0:
64,192,101320,1,0,0:0:0:70:normal-hitwhistle.wav
320,192,101320,1,0,0:0:0:70:normal-hitclap.wav
448,192,101320,1,0,0:0:0:0:
64,192,101428,1,0,0:0:0:0:
192,192,101428,1,0,0:0:0:0:
320,192,101537,1,0,0:0:0:0:
448,192,101537,1,0,0:0:0:0:
192,192,101646,1,0,0:0:0:0:
64,192,101754,1,0,0:0:0:70:normal-hitwhistle.wav
320,192,101754,1,0,0:0:0:0:
448,192,101754,1,0,0:0:0:0:
192,192,101863,1,0,0:0:0:0:
320,192,101863,1,0,0:0:0:0:
64,192,101972,1,0,0:0:0:0:
448,192,101972,1,0,0:0:0:0:
320,192,102081,1,0,0:0:0:0:
64,192,102189,1,0,0:0:0:70:normal-hitwhistle.wav
192,192,102189,1,0,0:0:0:70:normal-hitclap.wav
448,192,102189,1,0,0:0:0:0:
192,192,102298,1,0,0:0:0:0:
320,192,102298,1,0,0:0:0:0:
64,192,102407,1,0,0:0:0:0:
448,192,102407,1,0,0:0:0:0:
192,192,102515,1,0,0:0:0:0:
64,192,102624,1,0,0:0:0:70:normal-hitwhistle.wav
320,192,102624,1,0,0:0:0:70:normal-hitfinish.wav
448,192,102624,1,0,0:0:0:0:
64,192,102841,1,0,0:0:0:70:normal-hitwhistle.wav
320,192,102841,1,0,0:0:0:0:
448,192,102841,1,0,0:0:0:0:
64,192,102950,1,0,0:0:0:70:normal-hitwhistle.wav
320,192,102950,1,0,0:0:0:0:
448,192,102950,1,0,0:0:0:0:
64,192,103168,1,0,0:0:0:70:normal-hitwhistle.wav
320,192,103168,1,0,0:0:0:0:
448,192,103168,1,0,0:0:0:0:
64,192,103385,1,0,0:0:0:70:normal-hitwhistle.wav
192,192,103385,1,0,0:0:0:0:
448,192,103385,1,0,0:0:0:0:
64,192,103602,1,0,0:0:0:70:normal-hitwhistle.wav
192,192,103602,1,0,0:0:0:0:
448,192,103602,1,0,0:0:0:0:
64,192,103711,1,0,0:0:0:70:normal-hitwhistle.wav
192,192,103711,1,0,0:0:0:0:
448,192,103711,1,0,0:0:0:0:
320,192,103820,1,0,0:0:0:0:
64,192,103928,1,0,0:0:0:70:normal-hitwhistle.wav
192,192,103928,1,0,0:0:0:70:normal-hitclap.wav
448,192,103928,1,0,0:0:0:0:
64,192,104146,1,0,0:0:0:70:normal-hitwhistle.wav
192,192,104146,1,0,0:0:0:0:
64,192,104363,1,0,0:0:0:70:normal-hitwhistle.wav
192,192,104363,128,0,104798:0:0:0:70:normal-hitfinish.wav
320,192,104363,1,0,0:0:0:0:
448,192,104363,1,0,0:0:0:0:
448,192,104581,1,0,0:0:0:0:
64,192,104798,1,0,0:0:0:70:normal-hitwhistle.wav
320,192,104798,1,0,0:0:0:70:normal-hitclap.wav
448,192,104798,128,0,105668:0:0:0:0:
320,192,105015,1,0,0:0:0:0:
192,192,105124,1,0,0:0:0:0:
64,192,105233,1,0,0:0:0:70:normal-hitwhistle.wav
320,192,105233,1,0,0:0:0:0:
192,192,105341,1,0,0:0:0:0:
64,192,105450,1,0,0:0:0:0:
64,192,105668,1,0,0:0:0:70:normal-hitwhistle.wav
192,192,105668,1,0,0:0:0:70:normal-hitclap.wav
320,192,105668,1,0,0:0:0:0:
448,192,105776,1,0,0:0:0:0:
192,192,105885,1,0,0:0:0:0:
320,192,105994,1,0,0:0:0:0:
64,192,106102,1,0,0:0:0:70:normal-hitwhistle.wav
192,192,106102,128,0,106320:0:0:0:0:
448,192,106102,1,0,0:0:0:0:
320,192,106211,1,0,0:0:0:0:
64,192,106320,128,0,106537:0:0:0:0:
448,192,106320,1,0,0:0:0:0:
192,192,106537,1,0,0:0:0:70:normal-hitwhistle.wav
320,192,106537,128,0,107407:0:0:0:70:normal-hitclap.wav
448,192,106537,1,0,0:0:0:0:
64,192,106754,1,0,0:0:0:0:
192,192,106863,1,0,0:0:0:0:
64,192,106972,1,0,0:0:0:70:normal-hitwhistle.wav
448,192,106972,1,0,0:0:0:0:
192,192,107081,1,0,0:0:0:0:
448,192,107189,1,0,0:0:0:0:
64,192,107407,1,0,0:0:0:70:normal-hitwhistle.wav
192,192,107407,1,0,0:0:0:70:normal-hitclap.wav
448,192,107407,1,0,0:0:0:0:
320,192,107515,1,0,0:0:0:0:
192,192,107624,1,0,0:0:0:0:
320,192,107733,1,0,0:0:0:0:
64,192,107841,1,0,0:0:0:70:normal-hitwhistle.wav
192,192,107841,1,0,0:0:0:0:
448,192,107841,128,0,108059:0:0:0:0:
64,192,108059,1,0,0:0:0:0:
320,192,108059,128,0,108276:0:0:0:0:
64,192,108276,1,0,0:0:0:70:normal-hitwhistle.wav
192,192,108276,128,0,109146:0:0:0:70:normal-hitclap.wav
448,192,108276,1,0,0:0:0:0:
320,192,108494,1,0,0:0:0:0:
448,192,108602,1,0,0:0:0:0:
64,192,108711,1,0,0:0:0:70:normal-hitwhistle.wav
320,192,108711,1,0,0:0:0:0:
448,192,108820,1,0,0:0:0:0:
64,192,108928,1,0,0:0:0:0:
64,192,109146,1,0,0:0:0:70:normal-hitwhistle.wav
320,192,109146,1,0,0:0:0:70:normal-hitclap.wav
448,192,109146,1,0,0:0:0:0:
192,192,109254,1,0,0:0:0:0:
320,192,109363,1,0,0:0:0:0:
448,192,109472,1,0,0:0:0:0:
64,192,109581,1,0,0:0:0:70:normal-hitwhistle.wav
192,192,109581,128,0,109798:0:0:0:0:
320,192,109581,1,0,0:0:0:0:
448,192,109689,1,0,0:0:0:0:
64,192,109798,128,0,110450:0:0:0:0:
320,192,109798,1,0,0:0:0:0:
192,192,110015,1,0,0:0:0:70:normal-hitwhistle.wav
448,192,110015,1,0,0:0:0:70:normal-hitclap.wav
448,192,110233,1,0,0:0:0:0:
192,192,110341,1,0,0:0:0:0:
320,192,110450,128,0,110885:0:0:0:70:normal-hitwhistle.wav
448,192,110450,1,0,0:0:0:0:
64,192,110559,1,0,0:0:0:0:
192,192,110668,1,0,0:0:0:0:
64,192,110885,1,0,0:0:0:70:normal-hitwhistle.wav
192,192,110885,1,0,0:0:0:70:normal-hitclap.wav
448,192,110885,1,0,0:0:0:35:normal-hitfinish.wav
64,192,111320,1,0,0:0:0:70:normal-hitwhistle.wav
320,192,111320,1,0,0:0:0:70:normal-hitfinish.wav
448,192,111320,1,0,0:0:0:0:
320,192,111428,1,0,0:0:0:0:
448,192,111428,1,0,0:0:0:0:
64,192,111537,1,0,0:0:0:0:
192,192,111537,1,0,0:0:0:0:
64,192,111754,1,0,0:0:0:70:normal-hitwhistle.wav
320,192,111754,1,0,0:0:0:70:normal-hitclap.wav
448,192,111754,1,0,0:0:0:0:
64,192,111972,1,0,0:0:0:0:
192,192,111972,1,0,0:0:0:0:
448,192,111972,1,0,0:0:0:0:
192,192,112081,1,0,0:0:0:0:
64,192,112189,1,0,0:0:0:70:normal-hitwhistle.wav
320,192,112189,1,0,0:0:0:0:
448,192,112189,1,0,0:0:0:0:
64,192,112407,1,0,0:0:0:0:
192,192,112407,1,0,0:0:0:0:
448,192,112407,1,0,0:0:0:0:
64,192,112624,1,0,0:0:0:70:normal-hitwhistle.wav
320,192,112624,1,0,0:0:0:70:normal-hitclap.wav
448,192,112624,1,0,0:0:0:0:
320,192,112733,1,0,0:0:0:0:
64,192,112841,1,0,0:0:0:0:
192,192,112841,1,0,0:0:0:0:
448,192,112841,1,0,0:0:0:0:
192,192,113059,1,0,0:0:0:70:normal-hitwhistle.wav
320,192,113059,1,0,0:0:0:0:
448,192,113059,1,0,0:0:0:0:
64,192,113276,1,0,0:0:0:70:normal-hitwhistle.wav
192,192,113276,1,0,0:0:0:0:
320,192,113276,1,0,0:0:0:0:
64,192,113494,1,0,0:0:0:70:normal-hitwhistle.wav
320,192,113494,1,0,0:0:0:70:normal-hitclap.wav
448,192,113494,1,0,0:0:0:0:
64,192,113602,1,0,0:0:0:0:
192,192,113602,1,0,0:0:0:0:
320,192,113711,1,0,0:0:0:70:normal-hitwhistle.wav
64,192,113820,1,0,0:0:0:70:normal-hitwhistle.wav
192,192,113820,1,0,0:0:0:0:
448,192,113820,1,0,0:0:0:0:
64,192,114037,1,0,0:0:0:0:
192,192,114037,1,0,0:0:0:0:
448,192,114037,1,0,0:0:0:0:
320,192,114146,1,0,0:0:0:70:normal-hitwhistle.wav
448,192,114146,1,0,0:0:0:0:
192,192,114254,1,0,0:0:0:70:normal-hitwhistle.wav
64,192,114363,1,0,0:0:0:70:normal-hitwhistle.wav
320,192,114363,1,0,0:0:0:70:normal-hitclap.wav
448,192,114363,1,0,0:0:0:35:normal-hitfinish.wav
320,192,114581,1,0,0:0:0:0:
448,192,114581,1,0,0:0:0:0:
192,192,114689,1,0,0:0:0:0:
64,192,114798,1,0,0:0:0:70:normal-hitwhistle.wav
320,192,114798,1,0,0:0:0:70:normal-hitfinish.wav
448,192,114798,1,0,0:0:0:0:
64,192,115015,1,0,0:0:0:70:normal-hitwhistle.wav
192,192,115015,1,0,0:0:0:0:
320,192,115124,1,0,0:0:0:70:normal-hitwhistle.wav
64,192,115233,1,0,0:0:0:70:normal-hitwhistle.wav
192,192,115233,1,0,0:0:0:70:normal-hitclap.wav
448,192,115233,1,0,0:0:0:0:
64,192,115450,1,0,0:0:0:70:normal-hitwhistle.wav
320,192,115450,1,0,0:0:0:0:
448,192,115450,1,0,0:0:0:0:
320,192,115559,1,0,0:0:0:0:
64,192,115668,1,0,0:0:0:70:normal-hitwhistle.wav
192,192,115668,1,0,0:0:0:0:
448,192,115668,1,0,0:0:0:0:
64,192,115885,1,0,0:0:0:70:normal-hitwhistle.wav
320,192,115885,1,0,0:0:0:0:
448,192,115885,1,0,0:0:0:0:
64,192,116102,1,0,0:0:0:70:normal-hitwhistle.wav
192,192,116102,1,0,0:0:0:70:normal-hitclap.wav
448,192,116102,1,0,0:0:0:0:
192,192,116211,1,0,0:0:0:0:
64,192,116320,1,0,0:0:0:70:normal-hitwhistle.wav
320,192,116320,1,0,0:0:0:0:
448,192,116320,1,0,0:0:0:0:
64,192,116537,1,0,0:0:0:70:normal-hitwhistle.wav
192,192,116537,1,0,0:0:0:70:normal-hitclap.wav
448,192,116537,1,0,0:0:0:0:
192,192,116754,1,0,0:0:0:0:
320,192,116754,1,0,0:0:0:0:
64,192,116972,1,0,0:0:0:70:normal-hitwhistle.wav
320,192,116972,1,0,0:0:0:70:normal-hitclap.wav
448,192,116972,1,0,0:0:0:0:
64,192,117081,1,0,0:0:0:0:
192,192,117081,1,0,0:0:0:0:
320,192,117298,1,0,0:0:0:0:
448,192,117298,1,0,0:0:0:0:
64,192,117407,1,0,0:0:0:70:normal-hitwhistle.wav
192,192,117407,1,0,0:0:0:70:normal-hitclap.wav
448,192,117407,1,0,0:0:0:0:
192,192,117515,1,0,0:0:0:0:
320,192,117515,1,0,0:0:0:0:
64,192,117624,1,0,0:0:0:0:
448,192,117624,1,0,0:0:0:0:
192,192,117733,1,0,0:0:0:0:
320,192,117733,1,0,0:0:0:0:
64,192,117841,1,0,0:0:0:70:normal-hitwhistle.wav
320,192,117841,1,0,0:0:0:70:normal-hitclap.wav
448,192,117841,1,0,0:0:0:0:
64,192,118059,128,0,118711:0:0:0:70:normal-hitwhistle.wav
192,192,118059,128,0,118711:0:0:0:70:normal-hitfinish.wav
320,192,118059,128,0,118711:0:0:0:0:
448,192,118059,128,0,118711:0:0:0:0:
