osu file format v14

[General]
AudioFilename: audio.mp3
AudioLeadIn: 0
PreviewTime: 170118
Countdown: 1
SampleSet: Soft
StackLeniency: 0.7
Mode: 0
LetterboxInBreaks: 0
WidescreenStoryboard: 0

[Editor]
Bookmarks: 3747,23032,44975,55947,66918,94347,116290,171147,193090,215032
DistanceSpacing: 0.5
BeatDivisor: 4
GridSize: 4
TimelineZoom: 2.3

[Metadata]
Title:Carry me away (Extended Mix)
TitleUnicode:Carry me away (Extended Mix)
Artist:lapix
ArtistUnicode:lapix
Creator:Ambrew
Version:Xtreme
Source:
Tags:futurecore
BeatmapID:2007309
BeatmapSetID:958735

[Difficulty]
HPDrainRate:5
CircleSize:4
OverallDifficulty:7.8
ApproachRate:9.5
SliderMultiplier:2.7
SliderTickRate:1

[Events]
//Background and Video events
0,0,"carrybg.jpg",0,0
//Break Periods
2,116489,121250
//Storyboard Layer 0 (Background)
//Storyboard Layer 1 (Fail)
//Storyboard Layer 2 (Pass)
//Storyboard Layer 3 (Foreground)
//Storyboard Sound Samples

[TimingPoints]
1090,342.857142857143,4,2,1,60,1,0
11375,-47.6190476190476,4,2,1,60,0,0
12061,-66.6666666666667,4,2,1,60,0,0
17204,-133.333333333333,4,2,1,60,0,0
17547,-66.6666666666667,4,2,1,60,0,0
22004,-222.222222222221,4,2,1,60,0,0
23032,-66.6666666666667,4,2,1,60,0,0
25432,-100,4,2,1,60,0,0
27147,-66.6666666666667,4,2,1,60,0,0
27661,-100,4,2,1,60,0,0
28347,-66.6666666666667,4,2,1,60,0,0
28518,-90.9090909090909,4,2,1,60,0,0
33661,-133.333333333333,4,2,1,60,0,0
38632,-100,4,2,1,60,0,0
44975,-45.4545454545455,4,2,1,60,0,0
45318,-66.6666666666667,4,2,1,60,0,0
46004,-100,4,2,1,60,0,0
46775,-66.6666666666667,4,2,1,60,0,0
50118,-133.333333333333,4,2,1,60,0,0
50461,-66.6666666666667,4,2,1,60,0,0
50804,-133.333333333333,4,2,1,60,0,0
51318,-100,4,2,1,60,0,0
51832,-66.6666666666667,4,2,1,60,0,0
54232,-50,4,2,1,60,0,0
54575,-100,4,2,1,60,0,0
55604,-66.6666666666667,4,2,1,60,0,0
59804,-100,4,2,1,60,0,0
60061,-66.6666666666667,4,2,1,60,0,0
60747,-133.333333333333,4,2,1,60,0,0
61432,-66.6666666666667,4,2,1,60,0,0
66575,-222.222222222221,4,2,1,60,0,0
66918,-181.818181818181,4,2,1,30,0,0
72232,-100,4,2,1,60,0,0
72404,-133.333333333333,4,2,1,60,0,0
74804,-100,4,2,1,60,0,0
75147,-133.333333333333,4,2,1,60,0,0
77890,-100,4,2,1,60,0,0
83032,-133.333333333333,4,2,1,60,0,0
83375,-100,4,2,1,60,0,0
85432,-133.333333333333,4,2,1,60,0,0
86118,-100,4,2,1,60,0,0
87490,-222.222222222221,4,2,1,60,0,0
88861,-100,4,2,1,60,0,0
90232,-71.4285714285714,4,2,1,60,0,0
92118,-76.9230769230769,4,2,1,60,0,0
92290,-83.3333333333333,4,2,1,60,0,0
92632,-90.9090909090909,4,2,1,60,0,0
92975,-285.714285714284,4,2,1,60,0,0
94004,-100,4,2,1,60,0,0
94347,-34.4827586206897,4,2,1,60,0,0
94690,-66.6666666666667,4,2,1,60,0,0
95632,-133.333333333333,4,2,1,60,0,0
96061,-66.6666666666667,4,2,1,60,0,0
96575,-100,4,2,1,60,0,0
97090,-66.6666666666667,4,2,1,60,0,0
97775,-100,4,2,1,60,0,0
98804,-66.6666666666667,4,2,1,60,0,0
99490,-133.333333333333,4,2,1,60,0,0
99832,-34.4827586206897,4,2,1,60,0,0
100175,-133.333333333333,4,2,1,60,0,0
100518,-66.6666666666667,4,2,1,60,0,0
102232,-100,4,2,1,60,0,0
104632,-222.222222222221,4,2,1,60,0,0
105318,-100,4,2,1,60,0,0
105661,-66.6666666666667,4,2,1,60,0,0
106947,-47.6190476190476,4,2,1,60,0,0
107290,-66.6666666666667,4,2,1,60,0,0
107718,-47.6190476190476,4,2,1,60,0,0
108661,-66.6666666666667,4,2,1,60,0,0
109347,-47.6190476190476,4,2,1,60,0,0
109775,-66.6666666666667,4,2,1,60,0,0
113547,-47.6190476190476,4,2,1,60,0,0
113890,-66.6666666666667,4,2,1,60,0,0
114575,-166.666666666667,4,2,1,60,0,0
125890,-166.666666666667,4,2,1,60,0,0
127261,-133.333333333333,4,2,1,60,0,0
149204,-66.6666666666667,4,2,1,60,0,0
157775,-100,4,2,1,60,0,0
158118,-66.6666666666667,4,2,1,60,0,0
158461,-100,4,2,1,60,0,0
158804,-66.6666666666667,4,2,1,60,0,0
170118,-133.333333333333,4,2,1,60,0,0
170804,-100,4,2,1,60,0,0
171147,-71.4285714285714,4,2,1,80,0,1
215032,-100,4,2,1,60,0,0
225318,-50,4,2,1,60,0,0
226004,-66.6666666666667,4,2,1,60,0,0
230804,-133.333333333333,4,2,1,60,0,0
231490,-100,4,2,1,60,0,0
232175,-76.9230769230769,4,2,1,60,0,0
236632,-76.9230769230769,4,2,1,20,0,0

[HitObjects]
56,93,1090,6,0,P|85:120|133:128,1,67.5,4|0,0:0|0:0,0:0:0:0:
240,121,1261,2,0,P|174:155|92:152,1,135,0|8,0:0|0:0,0:0:0:0:
38,204,1518,1,0,0:0:0:0:
25,217,1604,1,0,0:0:0:0:
25,234,1690,2,0,P|22:263|38:304,1,67.5,0|4,0:0|0:0,0:0:0:0:
137,292,1861,2,0,P|159:242|130:151,1,135
182,197,2118,5,8,0:0:0:0:
199,208,2204,1,0,0:0:0:0:
223,215,2290,1,0,0:0:0:0:
245,218,2375,1,0,0:0:0:0:
268,216,2461,6,0,P|300:210|333:195,1,67.5,4|0,0:0|0:0,0:0:0:0:
380,62,2632,2,0,P|378:137|345:197,1,135,0|8,0:0|0:0,0:0:0:0:
379,226,2890,1,0,0:0:0:0:
393,237,2975,1,0,0:0:0:0:
406,248,3061,2,0,P|420:277|419:324,1,67.5,0|4,0:0|0:0,0:0:0:0:
312,344,3232,2,0,P|281:274|298:200,1,135
336,146,3490,2,0,B|293:139|293:139|270:124,1,67.5,8|0,0:0|0:0,0:0:0:0:
171,10,3661,2,0,B|206:35|206:35|219:59,1,67.5
81,205,3832,6,0,B|35:180|35:180|93:130|192:177,1,202.5,4|0,0:0|0:0,0:0:0:0:
229,237,4175,2,0,P|227:269|234:307,1,67.5,8|0,0:0|0:0,0:0:0:0:
297,193,4347,1,0,0:0:0:0:
305,180,4432,2,0,P|311:146|308:109,1,67.5,0|4,0:0|0:0,0:0:0:0:
320,15,4604,2,0,P|328:96|365:148,1,135
442,192,4861,2,0,P|393:207|375:227,1,67.5,8|0,0:0|0:0,0:0:0:0:
288,278,5032,2,0,P|299:316|341:345,1,67.5
297,193,5204,6,0,B|284:141|190:84|124:144|185:175|231:155,1,202.5,4|0,0:0|0:0,0:0:0:0:
266,106,5547,1,8,0:0:0:0:
252,49,5632,1,0,0:0:0:0:
204,23,5718,1,0,0:0:0:0:
147,22,5804,1,0,0:0:0:0:
97,47,5890,6,0,L|89:137,1,67.5,4|0,0:0|0:0,0:0:0:0:
67,196,6061,2,0,L|-38:183,1,67.5
134,248,6232,2,0,L|128:321,1,67.5,8|0,0:0|0:0,0:0:0:0:
224,172,6404,6,0,L|216:98,1,67.5,4|0,0:0|0:0,0:0:0:0:
492,50,6575,6,0,P|456:74|407:80,1,67.5,4|0,0:0|0:0,0:0:0:0:
294,34,6747,2,0,P|339:81|434:91,1,135,0|8,0:0|0:0,0:0:0:0:
460,154,7004,1,0,0:0:0:0:
469,180,7090,1,0,0:0:0:0:
472,209,7175,2,0,P|471:237|461:281,1,67.5,0|4,0:0|0:0,0:0:0:0:
362,323,7347,2,0,P|343:249|354:188,1,135
298,226,7604,5,8,0:0:0:0:
277,234,7690,1,0,0:0:0:0:
258,237,7775,1,0,0:0:0:0:
239,238,7861,1,0,0:0:0:0:
215,246,7947,6,0,P|181:248|142:270,1,67.5,4|0,0:0|0:0,0:0:0:0:
15,307,8118,2,0,P|84:317|161:290,1,135,0|8,0:0|0:0,0:0:0:0:
165,214,8375,1,0,0:0:0:0:
155,179,8461,1,0,0:0:0:0:
144,151,8547,2,0,P|133:112|115:82,1,67.5,0|4,0:0|0:0,0:0:0:0:
222,10,8718,2,0,P|224:89|241:150,1,135
334,181,8975,2,0,B|357:189|357:189|310:197,1,67.5,8|0,0:0|0:0,0:0:0:0:
165,214,9147,1,0,0:0:0:0:
383,46,9318,6,0,B|411:20|469:46|482:120|413:100|412:152|433:205,1,202.5,4|0,0:0|0:0,0:0:0:0:
469,258,9661,1,8,0:0:0:0:
452,263,9747,1,0,0:0:0:0:
439,272,9832,1,0,0:0:0:0:
428,286,9918,1,0,0:0:0:0:
383,331,10004,5,4,0:0:0:0:
365,327,10090,1,0,0:0:0:0:
330,312,10175,6,0,L|320:224,1,67.5,0|4,0:0|0:0,0:0:0:0:
202,161,10347,2,0,L|197:252,1,67.5,8|0,0:0|0:0,0:0:0:0:
359,131,10518,6,0,B|394:105|394:105|271:134,1,135,4|0,0:0|0:0,0:0:0:0:
212,293,10775,2,0,B|187:323|187:323|202:185,1,135,4|0,0:0|0:0,0:0:0:0:
167,78,11032,2,0,P|170:51|187:77,1,67.5,4|0,0:0|0:0,0:0:0:0:
303,225,11204,2,0,P|306:252|323:226,1,67.5
90,172,11375,6,0,B|66:156|60:101|60:101|107:165|175:199|256:150,1,283.499991348267,4|0,0:0|0:0,0:0:0:0:
377,39,11718,2,0,B|258:15|293:138|248:178|171:172|144:152,1,283.499991348267
442,309,12061,6,0,P|419:279|454:293,1,101.250003862381,4|0,0:0|0:0,0:0:0:0:
363,109,12232,2,0,P|374:152|383:117,1,101.250003862381,4|0,0:0|0:0,0:0:0:0:
130,259,12404,2,0,B|185:229|193:259|260:227|260:227|226:252|213:278,1,202.500007724762,8|0,0:0|0:0,0:0:0:0:
346,324,12661,1,0,0:0:0:0:
358,331,12747,6,0,P|362:281|324:234,1,101.250003862381,4|0,0:0|0:0,0:0:0:0:
279,139,12918,2,0,P|222:160|156:156,1,101.250003862381
249,367,13090,6,0,P|253:317|215:270,1,101.250003862381,8|0,0:0|0:0,0:0:0:0:
58,196,13261,2,0,B|36:163|36:163|59:118|158:122|200:180,1,202.500007724762,0|4,0:0|0:0,0:0:0:0:
218,257,13518,1,0,0:0:0:0:
226,277,13604,2,0,P|193:306|111:297,1,101.250003862381
43,341,13775,6,0,B|15:235|113:263|70:132,1,202.500007724762,8|0,0:0|0:0,0:0:0:0:
155,25,14032,1,0,0:0:0:0:
160,43,14118,6,0,B|213:45|213:45|219:49|219:49|287:54,1,101.250003862381,4|0,0:0|0:0,0:0:0:0:
471,162,14290,2,0,B|417:164|417:164|412:168|412:168|344:173,1,101.250003862381
167,284,14461,5,8,0:0:0:0:
169,268,14547,1,0,0:0:0:0:
203,244,14632,1,0,0:0:0:0:
206,229,14718,1,0,0:0:0:0:
211,97,14804,6,0,B|227:26|227:26|322:85|322:85|261:137|273:235,1,303.750011587143,4|0,0:0|0:0,0:0:0:0:
352,333,15147,2,0,P|418:335|375:216,1,202.500007724762,8|0,0:0|0:0,0:0:0:0:
316,172,15404,1,0,0:0:0:0:
292,181,15490,6,0,P|252:193|202:233,1,101.250003862381,4|0,0:0|0:0,0:0:0:0:
51,291,15661,2,0,L|161:304,1,101.250003862381
415,215,15832,6,0,P|375:227|325:267,1,101.250003862381,8|0,0:0|0:0,0:0:0:0:
259,340,16004,2,0,B|173:329|173:329|163:313|163:313|66:300,1,202.500007724762,0|4,0:0|0:0,0:0:0:0:
48,98,16261,1,0,0:0:0:0:
37,113,16347,2,0,B|22:145|22:145|37:216,1,101.250003862381
221,130,16518,6,0,B|272:132|272:132|215:225|215:225|117:207|117:207|102:141,1,303.750011587143,8|0,0:0|0:0,0:0:0:0:
201,23,16861,5,4,0:0:0:0:
224,19,16947,1,0,0:0:0:0:
272,51,17032,1,0,0:0:0:0:
296,48,17118,1,0,0:0:0:0:
371,21,17204,6,0,B|413:53|413:53|462:59,1,101.250003862381,8|0,0:0|0:0,0:0:0:0:
478,74,17547,6,0,B|437:88|437:88|422:184,1,101.250003862381,4|0,0:0|0:0,0:0:0:0:
464,227,17718,2,0,B|438:243|438:243|359:227,1,101.250003862381,4|0,0:0|0:0,0:0:0:0:
323,305,17890,6,0,B|282:291|282:291|267:195,1,101.250003862381,4|0,0:0|0:0,0:0:0:0:
202,160,18061,2,0,B|229:133|229:133|312:149,1,101.250003862381,4|0,0:0|0:0,0:0:0:0:
311,314,18232,6,0,B|270:300|270:300|255:204,1,101.250003862381,4|0,0:0|0:0,0:0:0:0:
297,161,18403,2,0,B|271:145|271:145|192:161,1,101.250003862381,4|0,0:0|0:0,0:0:0:0:
156,83,18575,6,0,B|115:97|115:97|100:193,1,101.250003862381,4|0,0:0|0:0,0:0:0:0:
35,228,18747,2,0,B|62:255|62:255|145:239,1,101.250003862381,4|0,0:0|0:0,0:0:0:0:
240,93,18918,5,4,0:0:0:0:
249,74,19004,1,4,0:0:0:0:
229,66,19090,1,4,0:0:0:0:
222,86,19175,1,4,0:0:0:0:
242,107,19261,5,4,0:0:0:0:
259,72,19347,1,4,0:0:0:0:
224,53,19432,1,4,0:0:0:0:
209,90,19518,1,4,0:0:0:0:
234,84,19604,6,4,L|228:155,14,50.6250019311906
256,192,20290,12,0,21661,0:0:0:0:
43,213,22004,6,0,P|37:257|22:340,1,121.499996292114
77,317,22518,1,4,0:0:0:0:
71,102,22690,2,0,B|58:78|58:78|122:91,1,91.1249972190858,8|0,0:0|0:0,0:0:0:0:
248,123,23032,6,0,B|213:80|213:80|201:137|273:221|351:183|387:170|397:123,1,303.750011587143,4|0,0:0|0:0,0:0:0:0:
321,232,23375,1,0,0:0:0:0:
316,253,23461,1,0,0:0:0:0:
318,272,23547,1,0,0:0:0:0:
325,290,23632,1,0,0:0:0:0:
334,312,23718,6,0,P|378:306|432:261,1,101.250003862381
358,69,23890,2,0,B|351:24|396:-18|437:69|400:149|346:190,1,202.500007724762
71,147,24232,6,0,B|56:104|56:104|150:61|217:136,1,202.500007724762,4|0,0:0|0:0,0:0:0:0:
170,271,24575,1,0,0:0:0:0:
117,281,24661,1,0,0:0:0:0:
68,291,24747,1,0,0:0:0:0:
64,150,24918,6,0,B|47:100|47:100|150:41|245:99|210:160|255:225|356:205,1,405.000015449524,4|0,0:0|0:0,0:0:0:0:
436,91,25432,2,0,P|428:50|389:27,1,67.5
307,27,25604,2,0,P|278:52|267:90,1,67.5
270,184,25775,5,4,0:0:0:0:
374,286,25947,1,0,0:0:0:0:
165,309,26118,2,0,L|271:294,1,67.5
300,330,26290,2,0,B|250:290|250:290|150:303,1,135
155,308,26547,1,0,0:0:0:0:
132,313,26632,1,0,0:0:0:0:
85,61,26804,2,0,B|48:31|48:31|-4:119|78:207,1,202.5
84,334,27147,6,0,B|19:339|35:262|80:250|151:268|161:310|177:345|239:358|283:327,1,303.750011587143,4|0,0:0|0:0,0:0:0:0:
394,308,27490,2,0,B|433:297|433:297|355:285,1,101.250003862381
237,248,27661,6,0,B|228:133|309:166|278:54,1,202.5,4|0,0:0|0:0,0:0:0:0:
359,45,28004,2,0,P|430:15|403:116,1,202.5
340,208,28347,2,0,B|347:260|347:260|364:204,1,101.250003862381
272,88,28518,6,0,P|235:106|176:125,3,74.2500022659302,4|0|0|0,0:0|0:0|0:0|0:0,0:0:0:0:
119,106,28861,2,0,P|117:153|113:197,3,74.2500022659302
42,229,29204,2,0,P|82:265|126:270,1,74.2500022659302
45,272,29375,2,0,P|80:276|123:264,1,74.2500022659302
78,304,29547,2,0,P|122:278|133:240,1,74.2500022659302
229,222,29718,2,0,B|292:188|359:218|378:273|378:273|309:245,1,222.750006797791,4|0,0:0|0:0,0:0:0:0:
256,304,30061,1,0,0:0:0:0:
247,335,30147,1,0,0:0:0:0:
240,360,30232,1,0,0:0:0:0:
224,214,30404,6,0,B|295:177|373:203|372:242|363:290|454:321|516:293,1,297.000009063721,4|0,0:0|0:0,0:0:0:0:
495,275,30918,2,0,L|487:180,1,74.2500022659302
346,50,31090,2,0,L|346:168,1,74.2500022659302
184,286,31261,6,0,B|133:254|133:254|159:66,1,222.750006797791,4|0,0:0|0:0,0:0:0:0:
250,43,31604,1,0,0:0:0:0:
250,57,31690,1,0,0:0:0:0:
250,71,31775,2,0,B|219:97|219:97|159:104,1,74.2500022659302
50,194,31947,1,0,0:0:0:0:
45,207,32032,1,0,0:0:0:0:
43,220,32118,2,0,B|74:246|74:246|134:253,1,74.2500022659302
235,192,32290,5,0,0:0:0:0:
240,221,32375,1,0,0:0:0:0:
244,189,32461,5,0,0:0:0:0:
249,218,32546,1,0,0:0:0:0:
254,184,32632,5,0,0:0:0:0:
396,295,32804,2,0,B|354:297|354:297|320:276,1,74.2500022659302
335,184,32975,1,0,0:0:0:0:
346,152,33061,1,0,0:0:0:0:
399,129,33147,1,0,0:0:0:0:
412,93,33232,1,0,0:0:0:0:
373,16,33318,5,0,0:0:0:0:
352,12,33404,1,0,0:0:0:0:
336,11,33490,1,0,0:0:0:0:
318,7,33575,1,0,0:0:0:0:
232,81,33661,2,0,B|132:96|132:96|154:65|154:65|186:86,1,151.875005793572,8|0,0:0|0:0,0:0:0:0:
318,7,34004,6,0,B|344:100|296:73|325:170,1,151.875005793572,4|0,0:0|0:0,0:0:0:0:
490,159,34347,2,0,B|464:66|512:93|483:-4,1,151.875005793572,4|0,0:0|0:0,0:0:0:0:
353,228,34690,2,0,B|326:242|326:242|387:274|451:242,2,151.875005793572,4|4|4,0:0|0:0|0:0,0:0:0:0:
353,228,35375,6,0,P|349:198|325:166,1,50.6250019311906,4|0,0:0|0:0,0:0:0:0:
336,94,35547,2,0,P|300:101|269:127,1,50.6250019311906,4|0,0:0|0:0,0:0:0:0:
200,143,35718,2,0,P|194:175|210:173,1,50.6250019311906,8|0,0:0|0:0,0:0:0:0:
161,302,35890,2,0,B|143:215|117:272|89:135,1,151.875005793572,4|0,0:0|0:0,0:0:0:0:
244,26,36318,1,0,0:0:0:0:
217,43,36404,2,0,P|168:56|88:61,1,101.250003862381
244,159,36747,6,0,B|148:136|186:193|72:160,1,151.875005793572,4|0,0:0|0:0,0:0:0:0:
110,306,37090,2,0,B|206:329|168:272|282:305,1,151.875005793572,4|0,0:0|0:0,0:0:0:0:
354,247,37432,2,0,B|379:266|379:266|398:204|342:146,2,151.875005793572,4|4|4,0:0|0:0|0:0,0:0:0:0:
347,146,38118,6,0,P|338:120|338:75,1,50.6250019311906
426,4,38290,2,0,P|400:25|368:42,1,50.6250019311906,4|0,0:0|0:0,0:0:0:0:
253,0,38461,2,0,P|279:27|301:35,1,50.6250019311906
347,146,38632,6,0,P|298:181|192:185,1,135,4|0,0:0|0:0,0:0:0:0:
204,202,38975,2,0,P|223:226|280:261,1,67.5,4|0,0:0|0:0,0:0:0:0:
297,328,39147,1,0,0:0:0:0:
278,320,39232,1,0,0:0:0:0:
261,319,39318,1,0,0:0:0:0:
244,322,39404,1,0,0:0:0:0:
223,341,39490,6,0,P|208:269|172:210,1,135,4|0,0:0|0:0,0:0:0:0:
66,260,39832,1,0,0:0:0:0:
157,88,40004,1,0,0:0:0:0:
17,188,40175,2,0,L|65:115,1,67.5
176,68,40347,2,0,L|246:63,1,67.5
14,153,40518,2,0,P|48:122|82:109,1,67.5
201,56,40690,2,0,P|241:60|273:73,1,67.5
288,226,40861,5,0,0:0:0:0:
277,242,40947,1,0,0:0:0:0:
280,258,41032,1,0,0:0:0:0:
296,276,41118,1,0,0:0:0:0:
316,291,41204,1,0,0:0:0:0:
350,295,41290,1,0,0:0:0:0:
391,274,41375,1,0,0:0:0:0:
411,226,41461,1,0,0:0:0:0:
401,180,41547,5,0,0:0:0:0:
371,135,41632,1,0,0:0:0:0:
328,104,41718,1,0,0:0:0:0:
322,47,41804,1,0,0:0:0:0:
363,5,41890,1,0,0:0:0:0:
440,0,41975,1,0,0:0:0:0:
479,66,42061,1,0,0:0:0:0:
452,137,42147,1,0,0:0:0:0:
371,135,42232,6,0,P|360:151|352:172,30,33.75
443,233,43604,6,0,P|365:249|271:160,1,202.5
411,294,43947,2,0,P|330:274|275:166,1,202.5
367,325,44290,6,0,P|307:292|287:252,1,67.5
125,318,44461,2,0,P|185:286|201:257,1,67.5
236,91,44632,2,0,P|210:27|190:117,1,202.5,8|0,0:0|0:0,0:0:0:0:
51,210,44975,6,0,B|13:226|-2:273|-2:273|24:195|-16:163|30:118|30:118|91:145|89:221|235:208,1,445.500013595581,4|0,0:0|0:0,0:0:0:0:
279,233,45318,2,0,B|289:280|289:280|282:292|282:292|276:347,1,101.250003862381
435,172,45490,2,0,B|432:219|432:219|441:230|441:230|455:284,1,101.250003862381
321,89,45661,1,0,0:0:0:0:
337,8,45747,1,0,0:0:0:0:
419,90,45832,2,0,B|372:100|372:100|360:93|360:93|305:87,1,101.250003862381
135,164,46004,2,0,L|204:158,1,67.5
172,272,46175,1,0,0:0:0:0:
198,290,46261,6,0,B|212:206|212:206|199:145,1,135
63,49,46518,2,0,B|49:133|49:133|62:194,1,135
162,48,46775,2,0,B|214:25|214:25|205:53|172:78,1,101.250003862381
135,164,46947,1,0,0:0:0:0:
160,201,47032,6,0,B|250:133|386:158|386:158|263:208,1,303.750011587143
172,218,47375,2,0,P|205:240|266:250,1,101.250003862381
466,234,47547,2,0,P|400:254|366:253,1,101.250003862381
309,103,47718,5,0,0:0:0:0:
308,72,47804,1,0,0:0:0:0:
372,33,47890,2,0,B|414:34|414:34|468:70,1,101.250003862381
392,129,48061,2,0,L|397:182,3,50.6250019311906
317,179,48232,2,0,L|323:248,3,50.6250019311906
334,315,48404,6,0,B|394:366|431:325|415:263|325:232|196:318,1,303.750011587143,4|0,0:0|0:0,0:0:0:0:
122,370,48747,2,0,P|100:334|116:238,1,101.250003862381
234,115,48918,2,0,P|217:167|173:208,1,101.250003862381
85,366,49090,2,0,P|87:304|105:260,1,101.250003862381,4|0,0:0|0:0,0:0:0:0:
257,147,49261,2,0,P|206:195|163:208,1,101.250003862381
62,348,49432,2,0,P|78:300|114:255,1,101.250003862381
264,180,49604,2,0,P|208:209|162:212,1,101.250003862381
46,165,49775,5,8,0:0:0:0:
44,148,49861,1,0,0:0:0:0:
84,119,49947,1,0,0:0:0:0:
83,103,50032,1,0,0:0:0:0:
55,45,50118,2,0,L|2:37,1,50.6250019311906,8|0,0:0|0:0,0:0:0:0:
59,33,50290,2,0,L|6:25,1,50.6250019311906
162,70,50461,6,0,B|145:114|145:114|182:158|292:148|361:105|383:33,1,303.750011587143,4|0,0:0|0:0,0:0:0:0:
423,123,50804,2,0,P|427:161|435:180,1,50.6250019311906
439,127,50975,2,0,P|443:165|451:184,1,50.6250019311906
339,299,51147,1,0,0:0:0:0:
335,275,51232,1,0,0:0:0:0:
330,250,51318,2,0,P|290:283|246:298,1,67.5,4|0,0:0|0:0,0:0:0:0:
98,336,51490,2,0,P|138:312|161:285,1,67.5,8|0,0:0|0:0,0:0:0:0:
205,154,51661,1,0,0:0:0:0:
403,219,51832,6,0,B|444:239|444:239|454:154|415:80,1,202.500007724762,4|0,0:0|0:0,0:0:0:0:
271,15,52090,1,0,0:0:0:0:
249,23,52175,2,0,P|229:53|238:115,1,101.250003862381,8|0,0:0|0:0,0:0:0:0:
176,187,52347,2,0,L|301:203,1,101.250003862381
384,333,52518,6,0,B|360:293|360:293|191:273,1,202.500007724762,4|0,0:0|0:0,0:0:0:0:
47,262,52775,1,0,0:0:0:0:
61,279,52861,2,0,B|91:255|91:255|98:171,1,101.250003862381,8|0,0:0|0:0,0:0:0:0:
248,135,53032,2,0,B|216:113|216:113|201:30,1,101.250003862381
24,88,53204,6,0,L|126:95,1,101.250003862381,4|0,0:0|0:0,0:0:0:0:
27,104,53375,2,0,L|129:111,1,101.250003862381
344,127,53547,1,8,0:0:0:0:
200,267,53718,1,0,0:0:0:0:
216,292,53804,1,0,0:0:0:0:
234,321,53890,2,0,B|259:288|259:288|248:205,1,101.250003862381,4|0,0:0|0:0,0:0:0:0:
437,291,54061,2,0,B|403:266|403:266|389:184,1,101.250003862381
329,43,54232,6,0,P|289:51|257:54,1,67.5,8|0,0:0|0:0,0:0:0:0:
265,67,54404,2,0,P|299:63|332:56,1,67.5
325,234,54575,6,0,B|367:237|386:176|355:166|331:176|334:142|344:107|361:97,1,135,4|0,0:0|0:0,0:0:0:0:
413,100,54832,2,0,B|436:65|393:18|369:40|365:65|337:46|312:20|312:0,1,135
252,60,55090,2,0,B|218:34|168:73|189:99|214:104|193:131|165:154|145:153,1,135
106,191,55347,2,0,B|93:231|148:263|165:235|161:209|193:220|225:238|231:256,1,135
288,168,55604,6,0,P|290:286|278:384,1,202.500007724762
426,40,55947,6,0,B|466:65|438:159|327:113|327:46|251:50|221:92|194:137,1,303.750011587143,4|0,0:0|0:0,0:0:0:0:
149,207,56290,1,0,0:0:0:0:
157,245,56375,1,0,0:0:0:0:
162,280,56461,1,0,0:0:0:0:
171,316,56547,1,0,0:0:0:0:
182,349,56632,6,0,P|222:329|277:314,1,101.250003862381,8|0,0:0|0:0,0:0:0:0:
434,216,56804,1,0,0:0:0:0:
429,226,56890,2,0,P|373:244|318:239,1,101.250003862381
235,147,57061,1,0,0:0:0:0:
237,88,57147,1,0,0:0:0:0:
269,42,57232,1,0,0:0:0:0:
321,24,57318,5,4,0:0:0:0:
283,68,57404,1,0,0:0:0:0:
226,76,57490,1,0,0:0:0:0:
179,55,57575,1,0,0:0:0:0:
144,19,57661,1,0,0:0:0:0:
93,10,57747,1,0,0:0:0:0:
44,43,57832,1,0,0:0:0:0:
29,93,57918,1,0,0:0:0:0:
42,146,58004,6,0,P|45:190|42:249,1,101.250003862381,8|0,0:0|0:0,0:0:0:0:
184,354,58175,2,0,P|184:288|190:239,1,101.250003862381
165,121,58347,1,0,0:0:0:0:
184,116,58432,1,0,0:0:0:0:
229,162,58518,1,0,0:0:0:0:
251,155,58604,1,0,0:0:0:0:
303,196,58690,5,4,0:0:0:0:
304,152,58775,1,0,0:0:0:0:
308,109,58861,1,0,0:0:0:0:
312,64,58947,1,0,0:0:0:0:
380,46,59032,1,0,0:0:0:0:
430,50,59118,1,0,0:0:0:0:
476,88,59204,1,0,0:0:0:0:
489,138,59290,1,0,0:0:0:0:
485,188,59375,5,8,0:0:0:0:
481,209,59461,2,0,P|423:203|371:210,1,101.250003862381
177,295,59632,2,0,P|244:289|296:293,1,101.250003862381,4|0,0:0|0:0,0:0:0:0:
471,346,59804,2,0,P|410:303|403:359,1,135,4|0,0:0|0:0,0:0:0:0:
383,348,60061,6,0,P|380:286|371:237,1,101.250003862381,4|0,0:0|0:0,0:0:0:0:
366,97,60232,1,0,0:0:0:0:
357,112,60318,2,0,P|320:129|245:146,1,101.250003862381
205,231,60490,1,0,0:0:0:0:
197,253,60575,2,0,P|141:241|79:217,1,101.250003862381
128,26,60747,6,0,L|77:62,1,50.6250019311906,8|0,0:0|0:0,0:0:0:0:
182,73,60918,2,0,L|171:131,1,50.6250019311906
253,57,61090,2,0,L|279:105,1,50.6250019311906
130,35,61261,6,0,L|79:71,1,50.6250019311906
36,262,61432,6,0,B|5:283|5:340|5:340|101:259|112:357|230:216,1,303.750011587143,4|0,0:0|0:0,0:0:0:0:
212,240,61775,2,0,P|245:265|309:278,1,101.250003862381
446,189,61947,1,0,0:0:0:0:
461,162,62032,1,0,0:0:0:0:
475,133,62118,2,0,P|470:67|458:19,1,101.250003862381,8|0,0:0|0:0,0:0:0:0:
295,30,62290,1,0,0:0:0:0:
279,46,62375,2,0,P|270:89|271:147,1,101.250003862381
330,227,62547,1,0,0:0:0:0:
331,265,62632,1,0,0:0:0:0:
352,301,62718,1,0,0:0:0:0:
387,329,62804,5,4,0:0:0:0:
372,285,62890,1,0,0:0:0:0:
325,250,62975,1,0,0:0:0:0:
270,259,63061,1,0,0:0:0:0:
223,285,63147,1,0,0:0:0:0:
194,327,63232,1,0,0:0:0:0:
144,340,63318,1,0,0:0:0:0:
102,324,63404,1,0,0:0:0:0:
48,257,63490,6,0,L|56:151,1,101.250003862381,8|0,0:0|0:0,0:0:0:0:
195,26,63661,2,0,B|185:54|185:54|108:91,1,101.250003862381
186,175,63832,2,0,B|177:148|177:148|149:161,4,50.6250019311906
264,133,64090,1,0,0:0:0:0:
278,156,64175,6,0,B|317:197|317:197|453:132,1,202.500007724762,4|0,0:0|0:0,0:0:0:0:
430,295,64432,1,0,0:0:0:0:
417,272,64518,2,0,B|404:249|404:249|403:249|327:288,1,101.250003862381,4|0,0:0|0:0,0:0:0:0:
255,322,64690,2,0,B|187:355|187:355|170:326,1,101.250003862381
81,164,64861,6,0,B|48:304|48:304|95:266,1,202.500007724762,4|0,0:0|0:0,0:0:0:0:
181,109,65118,1,0,0:0:0:0:
196,85,65204,2,0,B|155:58|155:58|88:62,1,101.250003862381,4|0,0:0|0:0,0:0:0:0:
284,167,65375,2,0,B|301:121|301:121|279:66,1,101.250003862381
313,273,65547,5,4,0:0:0:0:
331,280,65632,1,0,0:0:0:0:
336,261,65718,1,0,0:0:0:0:
320,253,65804,1,0,0:0:0:0:
333,293,65890,5,0,0:0:0:0:
352,296,65975,1,0,0:0:0:0:
353,276,66061,1,0,0:0:0:0:
336,272,66147,1,0,0:0:0:0:
356,308,66232,5,0,0:0:0:0:
375,307,66317,1,0,0:0:0:0:
372,287,66403,1,0,0:0:0:0:
354,286,66489,1,0,0:0:0:0:
382,321,66575,6,0,B|331:327|331:357|280:369,1,91.1249972190858
230,340,66918,6,0,L|175:336,3,37.1250011329651
70,315,67261,2,0,L|122:307,3,37.1250011329651
240,267,67604,6,0,L|185:263,3,37.1250011329651
80,242,67947,2,0,L|132:234,3,37.1250011329651
243,182,68290,6,0,L|186:167,3,37.1250011329651
308,133,68632,2,0,L|274:104,3,37.1250011329651
380,111,68975,2,0,L|371:61,1,37.1250011329651
472,167,69147,2,0,L|481:114,1,37.1250011329651
385,193,69318,2,0,L|391:294,1,74.2500022659302
382,279,69661,6,0,L|379:228,1,37.1250011329651
247,196,69832,2,0,L|244:248,1,37.1250011329651
187,332,70004,1,0,0:0:0:0:
177,341,70090,1,0,0:0:0:0:
128,345,70175,1,0,0:0:0:0:
118,336,70261,2,0,L|111:285,1,37.1250011329651
54,225,70432,1,0,0:0:0:0:
58,215,70518,2,0,L|60:156,1,37.1250011329651
151,88,70690,2,0,L|155:152,3,37.1250011329651
223,176,71032,6,0,L|272:187,1,37.1250011329651
356,248,71204,2,0,L|291:261,1,37.1250011329651
360,168,71375,1,0,0:0:0:0:
375,159,71461,1,0,0:0:0:0:
378,111,71547,1,0,0:0:0:0:
361,100,71632,2,0,L|356:45,1,37.1250011329651
472,137,71804,1,0,0:0:0:0:
455,126,71889,2,0,L|450:71,1,37.1250011329651
451,223,72061,1,0,0:0:0:0:
451,223,72147,1,0,0:0:0:0:
451,223,72232,2,0,L|442:312,1,67.5
300,346,72404,6,0,L|292:276,1,50.6250019311906
299,206,72575,2,0,L|246:176,1,50.6250019311906
177,95,72747,1,0,0:0:0:0:
168,114,72832,1,0,0:0:0:0:
117,129,72918,1,0,0:0:0:0:
96,118,73004,2,0,L|35:135,1,50.6250019311906
98,229,73175,1,0,0:0:0:0:
77,218,73261,2,0,L|16:235,1,50.6250019311906
112,325,73432,2,0,L|168:340,3,50.6250019311906
233,348,73775,6,0,L|293:327,1,50.6250019311906
329,188,73947,2,0,L|323:264,1,50.6250019311906
207,169,74118,2,0,L|202:111,1,50.6250019311906
277,67,74290,1,0,0:0:0:0:
289,55,74375,2,0,L|290:-2,1,50.6250019311906
375,102,74547,1,0,0:0:0:0:
387,90,74632,2,0,L|388:33,1,50.6250019311906
479,189,74804,1,0,0:0:0:0:
479,189,74890,1,0,0:0:0:0:
479,189,74975,2,0,L|373:203,1,67.5
225,309,75147,6,0,L|230:234,1,50.6250019311906
86,195,75318,2,0,L|91:262,1,50.6250019311906
222,98,75490,1,0,0:0:0:0:
237,103,75576,1,0,0:0:0:0:
261,147,75661,1,0,0:0:0:0:
276,155,75747,2,0,L|280:219,1,50.6250019311906
350,106,75918,1,0,0:0:0:0:
365,114,76004,2,0,L|369:178,1,50.6250019311906
400,268,76175,1,0,0:0:0:0:
413,280,76261,1,0,0:0:0:0:
426,294,76347,2,0,L|361:308,1,50.6250019311906
257,351,76518,6,0,L|250:298,1,50.6250019311906,4|0,0:0|0:0,0:0:0:0:
109,352,76690,2,0,L|116:293,1,50.6250019311906,0|4,0:0|0:0,0:0:0:0:
264,344,76861,6,0,L|257:291,1,50.6250019311906
101,344,77033,2,0,L|108:285,1,50.6250019311906,4|0,0:0|0:0,0:0:0:0:
271,338,77204,6,0,L|264:285,1,50.6250019311906,0|4,0:0|0:0,0:0:0:0:
93,337,77376,2,0,L|100:278,1,50.6250019311906
178,152,77547,6,0,B|172:175|172:175|180:197|180:197|177:216|177:216|182:240|182:240|179:270,1,101.250003862381,4|8,0:0|0:0,0:0:0:0:
74,128,77890,5,4,0:0:0:0:
67,110,77975,1,0,0:0:0:0:
59,93,78061,1,0,0:0:0:0:
51,77,78147,1,0,0:0:0:0:
76,36,78232,1,8,0:0:0:0:
115,29,78318,1,0,0:0:0:0:
155,24,78404,1,0,0:0:0:0:
195,21,78490,1,0,0:0:0:0:
229,55,78575,5,4,0:0:0:0:
272,71,78661,1,0,0:0:0:0:
312,86,78747,1,0,0:0:0:0:
348,98,78832,1,0,0:0:0:0:
388,119,78918,2,0,L|384:186,1,67.5,8|0,0:0|0:0,0:0:0:0:
236,285,79090,2,0,L|229:203,1,67.5
427,340,79261,5,4,0:0:0:0:
443,285,79347,1,0,0:0:0:0:
462,232,79432,1,0,0:0:0:0:
479,174,79518,1,0,0:0:0:0:
387,120,79604,1,8,0:0:0:0:
345,130,79690,1,0,0:0:0:0:
320,169,79775,1,0,0:0:0:0:
278,183,79861,1,0,0:0:0:0:
217,248,79947,5,4,0:0:0:0:
212,219,80032,1,0,0:0:0:0:
206,193,80118,1,0,0:0:0:0:
200,168,80204,1,0,0:0:0:0:
98,76,80290,1,4,0:0:0:0:
98,76,80375,1,0,0:0:0:0:
98,76,80461,2,0,L|181:88,1,67.5
85,217,80632,5,4,0:0:0:0:
82,245,80718,1,0,0:0:0:0:
80,269,80804,1,0,0:0:0:0:
77,295,80890,1,0,0:0:0:0:
140,343,80975,1,8,0:0:0:0:
160,351,81061,1,0,0:0:0:0:
200,324,81147,1,0,0:0:0:0:
221,332,81232,1,0,0:0:0:0:
263,355,81318,6,0,L|334:341,1,67.5,4|0,0:0|0:0,0:0:0:0:
308,250,81490,2,0,L|381:272,1,67.5
501,195,81661,2,0,B|466:216|466:216|349:183,1,135,8|0,0:0|0:0,0:0:0:0:
179,50,82004,5,4,0:0:0:0:
235,40,82090,1,0,0:0:0:0:
286,32,82175,1,0,0:0:0:0:
340,25,82261,1,0,0:0:0:0:
416,66,82347,1,8,0:0:0:0:
446,101,82432,1,0,0:0:0:0:
472,134,82518,1,0,0:0:0:0:
449,176,82604,1,0,0:0:0:0:
378,231,82690,5,4,0:0:0:0:
359,265,82775,1,0,0:0:0:0:
343,296,82861,1,0,0:0:0:0:
362,322,82947,1,0,0:0:0:0:
449,355,83032,2,0,B|468:319|468:318|447:243,1,101.250003862381,4|0,0:0|0:0,0:0:0:0:
339,143,83375,5,4,0:0:0:0:
312,150,83461,1,0,0:0:0:0:
289,158,83547,1,0,0:0:0:0:
268,167,83632,1,0,0:0:0:0:
279,225,83718,1,8,0:0:0:0:
233,213,83804,1,0,0:0:0:0:
191,203,83890,1,0,0:0:0:0:
149,193,83975,1,0,0:0:0:0:
103,157,84061,5,4,0:0:0:0:
110,209,84147,1,0,0:0:0:0:
118,256,84232,1,0,0:0:0:0:
127,308,84318,1,0,0:0:0:0:
140,356,84404,2,0,L|236:330,1,67.5,8|0,0:0|0:0,0:0:0:0:
298,361,84575,2,0,L|310:280,1,67.5
397,190,84747,5,4,0:0:0:0:
372,139,84832,1,0,0:0:0:0:
346,91,84918,1,0,0:0:0:0:
322,44,85004,1,0,0:0:0:0:
234,29,85090,1,8,0:0:0:0:
234,29,85175,1,0,0:0:0:0:
234,29,85261,2,0,L|150:48,1,67.5
63,29,85432,6,0,B|44:65|44:66|65:141,1,101.250003862381,4|0,0:0|0:0,0:0:0:0:
63,29,85775,6,0,B|44:65|44:66|65:141,1,101.250003862381,4|0,0:0|0:0,0:0:0:0:
50,216,86118,6,0,L|122:230,1,67.5,4|0,0:0|0:0,0:0:0:0:
181,320,86290,2,0,L|209:252,1,67.5,4|0,0:0|0:0,0:0:0:0:
258,135,86461,1,8,0:0:0:0:
258,135,86547,1,0,0:0:0:0:
258,135,86632,2,0,L|342:154,1,67.5
411,138,86804,1,4,0:0:0:0:
411,138,86890,1,0,0:0:0:0:
411,138,86975,2,0,L|421:219,1,67.5
326,263,87147,1,8,0:0:0:0:
312,282,87232,1,0,0:0:0:0:
316,306,87318,1,0,0:0:0:0:
329,327,87404,1,0,0:0:0:0:
451,325,87490,6,0,B|457:266|457:266|416:201,1,131.624995983124,4|0,0:0|0:0,0:0:0:0:
131,209,88175,2,0,B|114:268|114:268|144:334,1,121.499996292114
138,322,88861,6,0,B|119:359|119:359|273:306,1,202.5
308,315,89204,5,0,0:0:0:0:
300,291,89290,1,0,0:0:0:0:
293,269,89375,1,0,0:0:0:0:
285,243,89461,1,0,0:0:0:0:
322,240,89547,5,0,0:0:0:0:
312,198,89632,1,0,0:0:0:0:
306,163,89718,1,0,0:0:0:0:
298,128,89804,1,0,0:0:0:0:
346,162,89890,5,0,0:0:0:0:
343,110,89975,1,0,0:0:0:0:
340,69,90061,1,0,0:0:0:0:
335,27,90147,1,0,0:0:0:0:
246,17,90232,6,0,B|213:13|213:13|144:50,1,94.4999971160889
69,34,90404,2,0,B|56:64|56:64|72:141,1,94.4999971160889
15,201,90575,2,0,B|41:221|41:221|119:225,1,94.4999971160889
151,350,90747,2,0,B|177:329|177:329|201:255,1,94.4999971160889
318,300,90918,6,0,L|278:187,1,94.4999971160889
246,17,91090,2,0,L|226:153,1,94.4999971160889
325,299,91261,6,0,L|285:186,1,94.4999971160889
253,16,91433,2,0,L|233:152,1,94.4999971160889
448,191,91604,5,0,0:0:0:0:
448,191,91690,1,0,0:0:0:0:
448,191,91775,2,0,L|324:175,1,94.4999971160889
239,282,91947,1,0,0:0:0:0:
239,282,92032,1,0,0:0:0:0:
239,282,92118,2,0,B|230:237|230:237|250:185,1,87.749995983124
198,83,92290,5,0,0:0:0:0:
198,83,92375,1,0,0:0:0:0:
198,83,92461,2,0,L|284:97,1,80.9999975280763
378,36,92632,1,0,0:0:0:0:
378,36,92718,1,0,0:0:0:0:
378,36,92804,2,0,B|390:71|390:71|372:127,1,74.2500022659302
331,202,92975,6,0,L|336:285,1,70.8749978370667
257,309,93318,2,0,L|252:238,1,70.8749978370667
175,267,93661,2,0,L|179:337,1,70.8749978370667
87,232,94004,2,0,B|98:207|98:207|160:193,1,67.5
289,167,94175,1,4,0:0:0:0:
29,145,94347,6,0,B|-24:196|-24:196|-33:134|-33:134|-39:127|-39:127|-50:85|-50:85|36:61|36:61|44:53|44:53|122:112|122:112|110:168|110:168|102:177|102:177|88:234|88:234|173:265,1,587.250017921448,4|0,0:0|0:0,0:0:0:0:
381,354,94690,2,0,B|418:330|418:330|403:212|403:212|359:198,1,202.500007724762
183,166,94947,1,0,0:0:0:0:
201,147,95032,2,0,B|215:129|215:129|201:41,1,101.250003862381,8|0,0:0|0:0,0:0:0:0:
368,16,95204,2,0,B|382:34|382:34|368:122,1,101.250003862381
288,182,95375,1,4,0:0:0:0:
67,287,95547,1,0,0:0:0:0:
52,269,95632,6,0,B|34:246|34:246|57:167,1,101.250003862381
78,101,95890,2,0,L|95:34,1,50.6250019311906
221,124,96061,2,0,B|248:138|248:138|173:170,1,101.250003862381,4|0,0:0|0:0,0:0:0:0:
376,277,96232,2,0,B|350:293|350:293|360:212,1,101.250003862381
374,66,96404,1,8,0:0:0:0:
153,234,96575,2,0,B|167:266|167:266|233:276|233:276|261:249,2,135
374,66,97090,6,0,B|406:35|406:35|430:143|430:143|400:248|400:248|373:196,1,303.750011587143,4|0,0:0|0:0,0:0:0:0:
364,211,97432,2,0,B|319:196|319:196|246:228,1,101.250003862381
64,322,97604,2,0,B|109:337|109:337|182:305,1,101.250003862381
171,133,97775,2,0,L|165:216,1,67.5,8|0,0:0|0:0,0:0:0:0:
156,141,97947,2,0,L|150:224,1,67.5
272,248,98118,1,4,0:0:0:0:
300,79,98290,2,0,B|283:45|282:45|282:45|238:21|170:41,1,135
106,76,98632,6,0,P|80:101|44:110,1,67.5,4|0,0:0|0:0,0:0:0:0:
137,242,98804,2,0,P|116:197|205:220,1,202.500007724762,4|0,0:0|0:0,0:0:0:0:
202,320,99061,1,0,0:0:0:0:
171,348,99147,6,0,B|279:310|236:381|404:327,1,202.500007724762,8|0,0:0|0:0,0:0:0:0:
328,208,99490,2,0,P|282:244|339:235,1,151.875005793572
369,41,99832,6,0,B|405:59|424:171|451:199|482:148|480:99|533:56|533:56|477:41|422:111|340:139|261:141|221:73,1,587.250017921448,4|0,0:0|0:0,0:0:0:0:
36,201,100175,2,0,B|16:179|50:129|133:153|153:226,1,151.875005793572
166,225,100518,6,0,P|175:288|129:331,1,101.250003862381,8|0,0:0|0:0,0:0:0:0:
337,348,100690,2,0,P|301:295|300:238,1,101.250003862381,4|0,0:0|0:0,0:0:0:0:
330,129,100861,2,0,P|370:121|439:147,1,101.250003862381,4|0,0:0|0:0,0:0:0:0:
505,228,101032,1,0,0:0:0:0:
493,196,101118,2,0,B|435:197|435:128|354:113|294:170,1,202.500007724762
221,222,101375,2,0,P|182:251|110:237,1,101.250003862381,4|0,0:0|0:0,0:0:0:0:
54,168,101547,5,4,0:0:0:0:
50,145,101632,1,0,0:0:0:0:
83,107,101718,1,0,0:0:0:0:
82,85,101804,1,4,0:0:0:0:
36,42,101890,6,0,B|64:25|64:25|155:40,1,101.250003862381,8|0,0:0|0:0,0:0:0:0:
249,151,102061,2,0,B|221:168|221:168|130:153,1,101.250003862381
47,50,102232,6,0,B|69:36|69:36|142:48,1,67.5
236,147,102403,2,0,B|213:160|213:160|140:148,1,67.5
255,35,102575,5,0,0:0:0:0:
273,31,102661,1,0,0:0:0:0:
281,46,102747,1,0,0:0:0:0:
262,55,102832,1,0,0:0:0:0:
253,44,102918,6,0,P|310:78|416:98,1,135
446,109,103175,1,0,0:0:0:0:
483,88,103261,2,0,P|446:162|420:232,1,135
410,255,103518,1,0,0:0:0:0:
427,297,103604,2,0,B|413:254|413:254|366:234|283:263|279:352,1,202.5,4|0,0:0|0:0,0:0:0:0:
277,325,103947,6,0,L|194:317,1,67.5
6,338,104118,2,0,L|83:321,1,67.5,4|0,0:0|0:0,0:0:0:0:
190,191,104290,1,4,0:0:0:0:
184,211,104375,1,0,0:0:0:0:
121,228,104461,1,0,0:0:0:0:
105,212,104547,1,0,0:0:0:0:
56,138,104632,6,2,B|49:88|72:101|66:40,1,91.1249972190858
188,31,104975,2,2,B|195:80|214:61|226:121,1,91.1249972190858
184,211,105318,6,0,L|100:231,1,67.5
179,228,105490,2,0,L|95:248,1,67.5
253,267,105661,2,0,B|270:304|270:304|392:319|392:319|425:279,1,202.500007724762,8|0,0:0|0:0,0:0:0:0:
467,155,105918,2,0,B|395:146|395:146|362:170,1,101.250003862381,4|0,0:0|0:0,0:0:0:0:
280,164,106090,1,0,0:0:0:0:
272,152,106175,2,0,B|259:125|259:125|163:108,1,101.250003862381,4|0,0:0|0:0,0:0:0:0:
78,39,106347,1,8,0:0:0:0:
78,39,106432,1,0,0:0:0:0:
78,39,106518,2,0,B|47:68|47:68|67:237,1,202.500007724762
92,297,106775,6,0,P|73:263|117:213,1,101.250003862381,4|0,0:0|0:0,0:0:0:0:
356,225,107032,2,0,B|367:266|367:266|305:296|183:265|189:132,1,283.499991348267,8|0,0:0|0:0,0:0:0:0:
239,22,107290,2,0,P|289:43|292:96,1,101.250003862381
435,57,107461,2,0,P|411:114|369:130,1,101.250003862381,4|0,0:0|0:0,0:0:0:0:
228,246,107632,1,4,0:0:0:0:
200,213,107718,2,0,B|273:223|273:223|335:346|335:346|434:356,1,283.499991348267,8|0,0:0|0:0,0:0:0:0:
217,135,108061,5,4,0:0:0:0:
177,128,108147,1,4,0:0:0:0:
141,123,108232,1,4,0:0:0:0:
435,57,108404,2,0,B|493:56|493:56|507:131|446:227|330:219,1,283.499991348267,8|0,0:0|0:0,0:0:0:0:
252,216,108661,1,4,0:0:0:0:
237,236,108747,2,0,P|217:266|253:250,1,101.250003862381
413,357,108918,2,0,P|381:303|330:297,1,101.250003862381,4|0,0:0|0:0,0:0:0:0:
127,201,109090,2,0,P|109:256|147:317,1,101.250003862381,8|0,0:0|0:0,0:0:0:0:
278,123,109261,1,0,0:0:0:0:
290,154,109347,6,0,B|107:163|198:35|-8:83,1,283.499991348267,4|0,0:0|0:0,0:0:0:0:
76,196,109604,2,0,P|114:246|108:187,1,141.749995674133,4|0,0:0|0:0,0:0:0:0:
271,56,109775,2,0,B|263:122|296:92|288:181,1,101.250003862381
57,293,109947,2,0,B|49:227|82:257|74:168,1,101.250003862381
326,284,110118,6,0,B|264:277|238:237|238:237|230:286|163:315,1,202.500007724762,8|0,0:0|0:0,0:0:0:0:
173,300,110375,2,0,B|227:276|235:227|235:227|261:267|322:274,1,202.500007724762,8|0,0:0|0:0,0:0:0:0:
222,151,110632,1,8,0:0:0:0:
176,309,110804,6,0,P|170:250|158:196,1,101.250003862381
63,83,110975,1,4,0:0:0:0:
82,36,111061,1,0,0:0:0:0:
132,34,111147,1,0,0:0:0:0:
155,78,111232,1,4,0:0:0:0:
132,123,111318,5,4,0:0:0:0:
99,161,111404,1,0,0:0:0:0:
165,186,111490,1,4,0:0:0:0:
132,224,111576,1,0,0:0:0:0:
24,165,111661,6,0,B|-5:190|-5:190|18:277,1,101.250003862381
117,336,111832,2,0,L|1:325,1,101.250003862381,4|0,0:0|0:0,0:0:0:0:
132,224,112004,2,0,B|225:233|225:233|268:343|268:343|374:356,1,303.750011587143
423,232,112347,2,0,P|413:278|402:261,1,101.250003862381,4|0,0:0|0:0,0:0:0:0:
292,217,112518,5,4,0:0:0:0:
283,185,112604,1,0,0:0:0:0:
353,149,112690,1,0,0:0:0:0:
359,118,112775,1,4,0:0:0:0:
296,53,112861,1,8,0:0:0:0:
105,109,113032,6,0,B|157:98|157:98|201:124|201:124|175:168|175:168|119:180,2,202.500007724762
1,275,113547,6,0,B|-52:265|-52:265|-9:232|-9:232|81:252|81:252|133:354|133:354|243:321,1,425.2499870224,4|0,0:0|0:0,0:0:0:0:
310,270,113890,1,0,0:0:0:0:
324,286,113975,1,0,0:0:0:0:
342,306,114061,1,0,0:0:0:0:
359,327,114147,1,0,0:0:0:0:
377,348,114232,2,0,B|412:313|412:313|404:239,1,101.250003862381,8|0,0:0|0:0,0:0:0:0:
287,66,114403,2,0,B|259:86|259:86|352:109,1,101.250003862381,4|0,0:0|0:0,0:0:0:0:
484,83,114575,6,0,B|419:111|419:111|372:215|372:215|374:220|374:220|240:186|240:186|234:192|234:192|171:117|171:117|74:193|74:193|63:196|63:196|144:314|144:314|143:302|143:302|132:259|160:209,1,809.999975280763,4|2,0:0|0:0,0:0:0:0:
256,192,121775,12,0,125718,0:0:0:0:
184,58,125890,6,0,P|126:82|41:21,3,161.999995056153
184,58,127261,6,0,B|157:163|223:113|194:251,1,151.875005793572
115,302,127604,2,0,P|78:213|141:186,1,151.875005793572
200,204,127947,1,0,0:0:0:0:
115,302,128118,2,0,L|44:313,2,50.6250019311906
228,311,128461,2,0,L|345:329,1,101.250003862381
374,226,128804,6,0,L|318:233,1,50.6250019311906
333,314,128975,2,0,L|196:295,1,101.250003862381
182,158,129318,2,0,B|168:83|168:83|180:37,2,101.250003862381
308,31,129832,1,0,0:0:0:0:
308,31,129918,1,0,0:0:0:0:
308,31,130004,6,0,P|360:57|420:68,1,101.250003862381
229,120,130347,2,0,P|180:150|120:161,1,101.250003862381
117,162,130604,1,0,0:0:0:0:
94,162,130690,1,0,0:0:0:0:
306,191,130861,2,0,P|299:251|381:189,2,202.500007724762
306,191,131718,6,0,B|229:168|239:241|143:214,1,151.875005793572
177,138,132061,1,0,0:0:0:0:
29,296,132232,2,0,B|101:277|97:348|201:308,1,151.875005793572
252,287,132575,1,0,0:0:0:0:
347,322,132747,6,0,B|338:231|392:268|373:152,1,151.875005793572
273,64,133090,2,0,P|242:118|314:189,1,151.875005793572
376,176,133432,1,0,0:0:0:0:
287,185,133604,2,0,B|232:199|232:199|183:231,1,101.250003862381
113,334,133947,6,0,B|99:253|99:253|107:162,1,151.875005793572
114,106,134290,1,0,0:0:0:0:
201,20,134461,2,0,P|229:70|295:92,1,101.250003862381
295,94,134718,1,0,0:0:0:0:
326,87,134804,1,0,0:0:0:0:
278,190,134975,2,0,P|224:205|180:204,1,101.250003862381
359,173,135318,1,0,0:0:0:0:
359,173,135404,1,0,0:0:0:0:
359,173,135490,6,0,P|377:232|406:273,1,101.250003862381
366,330,135832,1,0,0:0:0:0:
458,206,136004,1,0,0:0:0:0:
296,254,136175,2,0,P|275:269|244:279,2,50.6250019311906
347,157,136518,1,0,0:0:0:0:
121,199,136690,2,0,P|195:205|232:215,1,101.250003862381
70,130,137032,1,0,0:0:0:0:
70,130,137118,1,0,0:0:0:0:
70,130,137204,6,0,L|56:25,1,101.250003862381
52,246,137547,2,0,L|37:348,2,101.250003862381
140,198,138061,1,0,0:0:0:0:
140,198,138147,1,0,0:0:0:0:
140,198,138232,6,0,P|187:226|283:207,1,151.875005793572
171,261,138575,2,0,P|124:289|28:270,1,151.875005793572
20,195,138918,1,0,0:0:0:0:
85,102,139090,2,0,L|91:31,2,50.6250019311906
187,150,139432,6,0,L|177:31,1,101.250003862381
309,43,139775,2,0,L|303:104,1,50.6250019311906
320,50,139947,2,0,L|307:174,1,101.250003862381
292,301,140290,1,0,0:0:0:0:
369,205,140461,1,0,0:0:0:0:
238,188,140632,1,0,0:0:0:0:
415,327,140804,1,0,0:0:0:0:
415,327,140890,1,0,0:0:0:0:
415,327,140975,6,0,P|451:268|453:216,1,101.250003862381
381,49,141318,2,0,P|348:120|313:145,1,101.250003862381
195,44,141661,1,0,0:0:0:0:
273,197,141832,2,0,B|217:274|257:349|257:349|282:292,2,202.500007724762
412,187,142690,6,0,B|360:174|360:174|343:116|274:102,1,151.875005793572
210,89,143032,1,0,0:0:0:0:
121,203,143204,6,0,B|139:152|139:152|100:106|127:41,1,151.875005793572
210,89,143547,1,0,0:0:0:0:
219,189,143718,6,0,B|163:207|163:207|108:201,1,101.250003862381
299,238,144061,2,0,B|274:291|274:291|233:328,1,101.250003862381
324,148,144404,1,0,0:0:0:0:
401,273,144575,2,0,L|410:173,1,101.250003862381
456,86,144918,6,0,B|370:76|370:76|265:33,1,151.875005793572
239,21,145261,1,0,0:0:0:0:
69,191,145432,2,0,B|78:149|78:149|164:124,1,101.250003862381
169,127,145690,1,0,0:0:0:0:
196,122,145775,1,0,0:0:0:0:
149,261,145947,1,0,0:0:0:0:
257,222,146118,1,0,0:0:0:0:
69,191,146290,1,0,0:0:0:0:
236,316,146461,6,0,P|178:337|136:357,1,101.250003862381
341,286,146804,1,0,0:0:0:0:
257,222,146975,1,0,0:0:0:0:
376,195,147147,2,0,P|341:183|322:171,2,50.6250019311906
260,122,147490,1,0,0:0:0:0:
376,195,147661,2,0,P|384:128|396:86,1,101.250003862381
274,23,148004,5,0,0:0:0:0:
274,23,148090,1,0,0:0:0:0:
274,23,148175,2,0,P|212:41|163:46,1,101.250003862381
59,88,148518,2,0,B|8:45|8:45|55:106|61:194,1,202.500007724762
59,193,149204,6,0,P|54:259|131:168,1,303.750011587143
92,106,149547,1,0,0:0:0:0:
453,193,151947,6,0,P|458:259|381:168,1,303.750011587143
420,106,152290,1,0,0:0:0:0:
467,78,154690,6,0,P|414:154|218:114,1,303.750011587143
187,48,155032,1,0,0:0:0:0:
14,171,156061,6,0,P|67:247|263:207,1,303.750011587143
294,141,156403,1,0,0:0:0:0:
396,337,157432,6,0,P|349:273|385:57,1,303.750011587143
379,63,157775,2,0,B|315:86|224:80|219:15|258:-3|279:43,1,202.5
258,142,158118,6,0,P|181:238|-8:228,1,303.750011587143
10,240,158461,2,0,B|-2:173|17:84|82:89|94:130|45:144,1,202.5
112,204,158804,5,0,0:0:0:0:
224,279,158975,2,0,P|238:301|229:327,4,50.6250019311906
281,190,159318,2,0,P|309:188|322:209,4,50.6250019311906
322,74,159661,2,0,L|332:50,8,25.3125009655953
347,91,159918,1,0,0:0:0:0:
376,107,160004,1,0,0:0:0:0:
256,192,160175,12,0,165490,0:0:0:0:
187,287,165661,5,0,0:0:0:0:
213,268,165747,1,0,0:0:0:0:
240,262,165832,1,0,0:0:0:0:
273,266,165918,1,0,0:0:0:0:
307,277,166004,1,0,0:0:0:0:
335,301,166090,1,0,0:0:0:0:
361,329,166175,1,0,0:0:0:0:
397,344,166261,1,0,0:0:0:0:
448,343,166347,1,0,0:0:0:0:
476,318,166432,1,0,0:0:0:0:
485,274,166518,1,0,0:0:0:0:
476,229,166604,1,0,0:0:0:0:
450,195,166690,1,0,0:0:0:0:
409,173,166775,1,0,0:0:0:0:
378,146,166861,1,0,0:0:0:0:
362,104,166947,1,0,0:0:0:0:
369,53,167032,5,0,0:0:0:0:
333,80,167118,1,0,0:0:0:0:
292,96,167204,1,0,0:0:0:0:
247,96,167290,1,0,0:0:0:0:
205,85,167375,1,0,0:0:0:0:
172,50,167461,1,0,0:0:0:0:
122,40,167547,1,0,0:0:0:0:
74,50,167632,1,0,0:0:0:0:
38,83,167718,1,0,0:0:0:0:
28,132,167804,1,0,0:0:0:0:
45,180,167890,1,0,0:0:0:0:
83,211,167975,1,0,0:0:0:0:
136,217,168061,1,0,0:0:0:0:
179,251,168147,1,0,0:0:0:0:
186,300,168232,1,0,0:0:0:0:
155,345,168318,1,0,0:0:0:0:
107,352,168404,6,0,L|85:250,1,101.250003862381
0,208,168575,2,0,B|13:174|13:174|103:131,1,101.250003862381
131,20,168747,2,0,L|153:122,1,101.250003862381
281,134,168918,2,0,B|268:168|268:168|178:211,1,101.250003862381
306,270,169090,6,0,P|332:306|335:271,1,101.250003862381
436,195,169261,2,0,P|476:177|443:166,1,101.250003862381
363,59,169432,2,0,P|337:23|334:58,1,101.250003862381
206,138,169604,2,0,P|168:162|203:166,1,101.250003862381
441,344,170118,6,0,P|427:267|439:184,1,151.875005793572
355,172,170461,2,0,P|328:255|255:321,1,151.875005793572
210,321,170804,2,0,L|116:299,1,67.5,8|0,0:0|0:0,0:0:0:0:
21,273,170975,1,4,0:0:0:0:
350,352,171147,6,0,B|343:235|424:162|424:162|395:247,1,283.499991348267,4|0,0:0|0:0,0:0:0:0:
270,242,171490,1,8,0:0:0:0:
244,222,171575,1,0,0:0:0:0:
227,204,171661,1,0,0:0:0:0:
215,178,171747,1,0,0:0:0:0:
211,148,171832,6,0,P|213:88|224:47,1,94.4999971160889,4|0,0:0|0:0,0:0:0:0:
29,23,172004,2,0,P|46:69|56:121,1,94.4999971160889
83,291,172175,1,8,0:0:0:0:
301,154,172347,1,0,0:0:0:0:
301,154,172433,1,0,0:0:0:0:
301,154,172518,6,0,P|353:176|396:186,1,94.4999971160889,4|0,0:0|0:0,0:0:0:0:
413,357,172690,2,0,P|385:306|348:270,1,94.4999971160889
204,213,172861,1,8,0:0:0:0:
512,65,173032,2,0,B|434:24|413:81|416:124|357:127|357:86|336:29|248:75,1,283.499991348267
289,247,173375,2,0,B|303:134,1,94.4999971160889
161,12,173547,2,0,L|178:130,1,94.4999971160889,8|0,0:0|0:0,0:0:0:0:
111,231,173718,2,0,L|224:208,1,94.4999971160889
374,290,173890,5,4,0:0:0:0:
374,290,173975,1,0,0:0:0:0:
374,290,174061,6,0,B|404:259|404:259|417:172,1,94.4999971160889
309,0,174232,2,0,B|258:64|258:64|276:194,1,188.999994232178,8|0,0:0|0:0,0:0:0:0:
239,290,174490,1,0,0:0:0:0:
231,314,174575,6,0,L|124:300,1,94.4999971160889,4|0,0:0|0:0,0:0:0:0:
31,213,174747,2,0,L|138:199,1,94.4999971160889
198,111,174918,1,8,0:0:0:0:
201,82,175004,1,0,0:0:0:0:
192,55,175090,1,0,0:0:0:0:
174,34,175175,1,0,0:0:0:0:
137,19,175261,6,0,B|256:72|217:13|346:50,1,188.999994232178,4|0,0:0|0:0,0:0:0:0:
437,136,175518,1,0,0:0:0:0:
437,136,175604,2,0,P|454:180|445:227,1,94.4999971160889,8|0,0:0|0:0,0:0:0:0:
293,290,175775,1,0,0:0:0:0:
293,290,175861,1,0,0:0:0:0:
293,290,175947,2,0,L|300:181,1,94.4999971160889,4|0,0:0|0:0,0:0:0:0:
201,82,176118,2,0,P|182:197|84:143,1,188.999994232178,0|8,0:0|0:0,0:0:0:0:
293,290,176461,1,0,0:0:0:0:
293,290,176547,1,0,0:0:0:0:
293,290,176632,6,0,B|374:349|494:327|494:327|410:301,1,283.499991348267,4|0,0:0|0:0,0:0:0:0:
349,164,176975,1,8,0:0:0:0:
354,130,177061,1,0,0:0:0:0:
363,97,177147,1,0,0:0:0:0:
377,61,177232,1,0,0:0:0:0:
398,25,177318,2,0,P|411:61|439:115,1,94.4999971160889,4|0,0:0|0:0,0:0:0:0:
495,259,177490,2,0,P|434:227|392:218,1,94.4999971160889
255,197,177661,1,8,0:0:0:0:
186,51,177832,1,0,0:0:0:0:
186,51,177918,1,0,0:0:0:0:
186,51,178004,6,0,B|149:69|149:69|137:146,1,94.4999971160889,4|0,0:0|0:0,0:0:0:0:
54,225,178175,2,0,B|85:250|85:250|160:229,1,94.4999971160889
255,197,178347,1,8,0:0:0:0:
36,132,178518,1,0,0:0:0:0:
36,132,178604,1,0,0:0:0:0:
36,132,178690,2,0,L|56:238,1,94.4999971160889,4|0,0:0|0:0,0:0:0:0:
145,279,178861,2,0,B|138:300|138:300|218:277,1,94.4999971160889
255,197,179032,2,0,L|233:100,1,94.4999971160889,8|0,0:0|0:0,0:0:0:0:
406,226,179204,2,0,B|413:247|413:247|333:224,1,94.4999971160889
382,36,179375,6,0,B|371:-16|371:-16|456:20|456:20|413:165,1,283.499991348267,4|0,0:0|0:0,0:0:0:0:
220,313,179718,2,0,B|209:365|209:365|294:329|294:329|251:184,1,283.499991348267,8|0,0:0|0:0,0:0:0:0:
179,34,180061,1,4,0:0:0:0:
157,59,180147,1,0,0:0:0:0:
136,86,180232,2,0,L|242:103,1,94.4999971160889
364,155,180404,1,8,0:0:0:0:
386,180,180490,1,0,0:0:0:0:
406,207,180575,2,0,L|300:224,1,94.4999971160889
220,313,180747,6,0,B|157:249|199:105|256:100|278:189|209:237,1,283.499991348267,4|0,0:0|0:0,0:0:0:0:
108,256,181090,2,0,L|8:270,1,94.4999971160889,8|0,0:0|0:0,0:0:0:0:
43,129,181261,1,0,0:0:0:0:
43,129,181347,1,0,0:0:0:0:
43,129,181432,2,0,L|62:24,1,94.4999971160889,4|0,0:0|0:0,0:0:0:0:
167,50,181604,2,0,B|192:38|192:38|286:74,1,94.4999971160889
357,117,181775,2,0,B|406:134|406:134|449:98,1,94.4999971160889,8|0,0:0|0:0,0:0:0:0:
359,124,181947,2,0,B|408:141|408:141|451:105,1,94.4999971160889,4|0,0:0|0:0,0:0:0:0:
362,132,182118,6,0,B|368:237|461:298|461:298|435:208,1,283.499991348267,4|0,0:0|0:0,0:0:0:0:
299,222,182461,2,0,B|179:233|285:330|97:349,1,188.999994232178,8|0,0:0|0:0,0:0:0:0:
34,274,182718,1,0,0:0:0:0:
34,274,182804,6,0,P|27:195|145:258,1,283.499991348267,4|0,0:0|0:0,0:0:0:0:
147,254,183147,6,0,L|134:151,1,94.4999971160889,8|0,0:0|0:0,0:0:0:0:
285,11,183318,2,0,L|277:122,1,94.4999971160889
121,52,183490,5,4,0:0:0:0:
281,220,183661,1,0,0:0:0:0:
281,220,183747,1,0,0:0:0:0:
281,220,183832,2,0,L|394:236,1,94.4999971160889,8|0,0:0|0:0,0:0:0:0:
438,144,184004,2,0,B|462:100|462:100|445:56,1,94.4999971160889
285,11,184175,6,0,B|246:53|246:53|268:206,1,188.999994232178,4|2,0:0|0:0,0:0:0:0:
373,384,184518,2,0,B|412:342|412:342|390:189,1,188.999994232178,8|2,0:0|0:0,0:0:0:0:
250,210,184775,1,0,0:0:0:0:
250,210,184861,6,0,L|151:201,1,94.4999971160889,4|0,0:0|0:0,0:0:0:0:
63,258,185032,2,0,B|36:206|36:206|53:164,1,94.4999971160889
105,38,185204,1,8,0:0:0:0:
273,114,185375,1,2,0:0:0:0:
252,114,185461,1,0,0:0:0:0:
228,114,185547,1,4,0:0:0:0:
392,188,185718,2,0,L|497:200,2,94.4999971160889,2|0|8,0:0|0:0|0:0,0:0:0:0:
344,84,186061,6,0,L|335:-19,2,94.4999971160889,2|0|4,0:0|0:0|0:0,0:0:0:0:
260,223,186404,2,0,L|245:328,2,94.4999971160889,2|0|8,0:0|0:0|0:0,0:0:0:0:
228,114,186747,2,0,L|140:68,2,94.4999971160889,2|0|4,0:0|0:0|0:0,0:0:0:0:
358,202,187090,2,0,L|461:177,1,94.4999971160889,2|0,0:0|0:0,0:0:0:0:
292,262,187261,1,8,0:0:0:0:
288,278,187347,1,0,0:0:0:0:
285,295,187432,1,0,0:0:0:0:
281,313,187518,1,0,0:0:0:0:
276,333,187604,6,0,B|216:276|139:225|47:258|85:318|139:331|169:303,1,283.499991348267,4|0,0:0|0:0,0:0:0:0:
202,199,187947,2,0,B|232:8|232:8|161:125,1,283.499991348267,8|0,0:0|0:0,0:0:0:0:
202,199,188290,2,0,B|371:252|311:129|485:168,1,283.499991348267,6|0,0:0|0:0,0:0:0:0:
433,258,188632,2,0,P|409:289|414:249,1,94.4999971160889,8|0,0:0|0:0,0:0:0:0:
251,100,188804,2,0,P|275:69|270:109,1,94.4999971160889,4|0,0:0|0:0,0:0:0:0:
194,293,188975,6,0,L|203:172,1,94.4999971160889,4|0,0:0|0:0,0:0:0:0:
83,33,189147,2,0,L|113:152,1,94.4999971160889
341,169,189318,2,0,B|433:148|433:148|218:91,1,283.499991348267,8|0,0:0|0:0,0:0:0:0:
111,118,189661,2,0,L|10:151,1,94.4999971160889,4|0,0:0|0:0,0:0:0:0:
106,135,189832,2,0,L|5:168,1,94.4999971160889,4|0,0:0|0:0,0:0:0:0:
42,264,190004,1,8,0:0:0:0:
177,329,190175,2,0,L|181:282,2,47.2499985580445
186,336,190347,6,0,B|195:212|195:212|222:116,1,188.999994232178,4|0,0:0|0:0,0:0:0:0:
361,273,190690,1,8,0:0:0:0:
312,52,190861,2,0,L|249:41,4,47.2499985580445,0|0|0|0|4,0:0|0:0|0:0|0:0|0:0,0:0:0:0:
409,121,191204,2,0,L|387:138,8,23.6249992790222,0|0|0|0|0|0|0|0|8,0:0|0:0|0:0|0:0|0:0|0:0|0:0|0:0|0:0,0:0:0:0:
361,273,191547,1,4,0:0:0:0:
152,32,191718,6,0,B|134:70|134:70|146:129,1,94.4999971160889,4|0,0:0|0:0,0:0:0:0:
69,204,191890,2,0,B|115:213|115:213|189:193,1,94.4999971160889
197,334,192061,2,0,B|227:292|227:292|232:235,3,94.4999971160889,8|0|0|0,0:0|0:0|0:0|0:0,0:0:0:0:
249,165,192404,5,8,0:0:0:0:
295,98,192490,1,0,0:0:0:0:
370,127,192575,1,0,0:0:0:0:
370,211,192661,1,0,0:0:0:0:
303,264,192747,1,8,0:0:0:0:
293,295,192832,1,0,0:0:0:0:
303,317,192918,1,4,0:0:0:0:
327,333,193004,1,0,0:0:0:0:
410,348,193090,6,0,B|449:313|449:313|459:209|459:209|421:165,1,188.999994232178,4|0,0:0|0:0,0:0:0:0:
224,57,193432,2,0,B|167:73|167:73|364:111,1,188.999994232178,8|0,0:0|0:0,0:0:0:0:
386,86,193690,1,0,0:0:0:0:
399,92,193775,6,0,B|434:103|434:103|396:102|355:153,1,94.4999971160889,4|0,0:0|0:0,0:0:0:0:
446,278,193947,2,0,L|436:162,1,94.4999971160889
417,13,194118,1,8,0:0:0:0:
287,175,194290,1,0,0:0:0:0:
287,175,194375,1,0,0:0:0:0:
287,175,194461,6,0,P|252:204|193:213,1,94.4999971160889,4|0,0:0|0:0,0:0:0:0:
116,311,194632,2,0,L|101:197,1,94.4999971160889
85,89,194804,1,8,0:0:0:0:
277,325,194975,2,0,B|290:284|335:250|335:250|291:225|284:156,1,188.999994232178,0|4,0:0|0:0,0:0:0:0:
186,55,195318,1,0,0:0:0:0:
186,55,195404,1,0,0:0:0:0:
186,55,195490,2,0,P|262:87|383:73,1,188.999994232178,8|0,0:0|0:0,0:0:0:0:
128,310,195832,6,0,P|111:247|80:230,1,94.4999971160889,4|0,0:0|0:0,0:0:0:0:
146,117,196004,2,0,P|104:155|62:151,1,94.4999971160889
214,247,196175,2,0,P|211:181|236:156,1,94.4999971160889,8|0,0:0|0:0,0:0:0:0:
314,89,196347,2,0,P|316:130|330:93,1,94.4999971160889
413,121,196518,2,0,P|395:172|361:198,1,94.4999971160889,4|0,0:0|0:0,0:0:0:0:
326,358,196690,2,0,L|300:248,2,94.4999971160889,0|0|8,0:0|0:0|0:0,0:0:0:0:
146,117,197032,2,0,B|135:191|135:191|144:233|144:233|127:343,1,188.999994232178,0|4,0:0|0:0,0:0:0:0:
353,38,197375,6,0,B|308:47|308:47|241:30,1,94.4999971160889
288,183,197547,2,0,B|235:108|235:108|338:133,1,188.999994232178,8|0,0:0|0:0,0:0:0:0:
475,320,197890,6,0,B|447:283|447:283|433:215,1,94.4999971160889,4|0,0:0|0:0,0:0:0:0:
303,323,198062,2,0,B|360:243|360:243|384:346,1,188.999994232178,0|8,0:0|0:0,0:0:0:0:
158,302,198404,1,0,0:0:0:0:
303,323,198575,6,0,B|108:246|108:246|185:334,1,283.499991348267,4|0,0:0|0:0,0:0:0:0:
230,214,198918,1,8,0:0:0:0:
243,189,199004,1,0,0:0:0:0:
258,167,199090,1,0,0:0:0:0:
272,143,199175,1,0,0:0:0:0:
286,116,199261,6,0,L|184:79,1,94.4999971160889,4|0,0:0|0:0,0:0:0:0:
90,19,199432,2,0,B|65:56|65:56|75:141,1,94.4999971160889
83,254,199604,1,8,0:0:0:0:
260,291,199775,1,0,0:0:0:0:
260,291,199861,1,0,0:0:0:0:
260,291,199947,6,0,L|368:315,1,94.4999971160889,4|0,0:0|0:0,0:0:0:0:
470,190,200118,2,0,L|368:218,1,94.4999971160889
361,87,200290,1,8,0:0:0:0:
469,189,200461,2,0,B|374:216|374:216|286:158,1,188.999994232178,0|4,0:0|0:0,0:0:0:0:
162,33,200804,1,0,0:0:0:0:
162,33,200890,1,0,0:0:0:0:
162,33,200975,2,0,B|149:163|149:163|198:100,1,188.999994232178,8|0,0:0|0:0,0:0:0:0:
454,76,201318,6,0,L|330:90,1,94.4999971160889,4|0,0:0|0:0,0:0:0:0:
268,172,201490,2,0,P|276:203|281:184,1,94.4999971160889
333,252,201661,2,0,P|357:206|353:156,1,94.4999971160889,8|0,0:0|0:0,0:0:0:0:
154,310,201832,2,0,B|117:275|117:275|282:302,1,188.999994232178,0|4,0:0|0:0,0:0:0:0:
116,168,202175,1,0,0:0:0:0:
116,168,202260,1,0,0:0:0:0:
116,168,202347,1,8,0:0:0:0:
288,98,202518,2,0,B|304:49|304:49|283:10,2,94.4999971160889,0|0|4,0:0|0:0|0:0,0:0:0:0:
235,217,202861,5,0,0:0:0:0:
299,101,203032,2,0,B|315:52|315:52|294:13,1,94.4999971160889,8|0,0:0|0:0,0:0:0:0:
244,217,203204,2,0,B|359:221|311:280|436:269,1,188.999994232178,0|4,0:0|0:0,0:0:0:0:
261,327,203547,1,0,0:0:0:0:
400,196,203718,1,8,0:0:0:0:
149,299,203890,1,4,0:0:0:0:
350,109,204061,6,0,B|304:82|304:82|292:230|395:300,1,283.499991348267,4|0,0:0|0:0,0:0:0:0:
400,196,204404,2,0,B|242:203|311:325|131:297,1,283.499991348267,8|0,0:0|0:0,0:0:0:0:
60,362,204747,2,0,P|84:213|88:54,1,283.499991348267,4|0,0:0|0:0,0:0:0:0:
86,57,205090,2,0,P|147:77|194:80,1,94.4999971160889,8|0,0:0|0:0,0:0:0:0:
340,96,205261,1,0,0:0:0:0:
186,220,205432,5,4,0:0:0:0:
299,18,205604,1,0,0:0:0:0:
366,370,205775,2,0,P|359:241|364:174,1,188.999994232178,8|0,0:0|0:0,0:0:0:0:
418,46,206032,1,0,0:0:0:0:
418,46,206118,6,0,P|373:83|311:99,1,94.4999971160889,4|0,0:0|0:0,0:0:0:0:
408,164,206289,2,0,P|349:172|292:165,1,94.4999971160889,2|0,0:0|0:0,0:0:0:0:
340,270,206461,2,0,P|278:242|253:218,1,94.4999971160889,8|0,0:0|0:0,0:0:0:0:
220,337,206632,2,0,P|189:280|179:237,1,94.4999971160889,2|0,0:0|0:0,0:0:0:0:
178,151,206804,6,0,B|77:175|127:216|-4:234,1,188.999994232178,4|0,0:0|0:0,0:0:0:0:
179,56,207147,1,8,0:0:0:0:
108,278,207318,1,2,0:0:0:0:
269,58,207490,1,4,0:0:0:0:
77,130,207661,2,0,L|-39:120,2,94.4999971160889,2|0|8,0:0|0:0|0:0,0:0:0:0:
204,266,208004,6,0,L|304:255,2,94.4999971160889,2|0|4,0:0|0:0|0:0,0:0:0:0:
356,51,208347,2,0,L|344:149,1,94.4999971160889,2|0,0:0|0:0,0:0:0:0:
376,305,208518,2,0,B|409:238|409:238|342:141,1,188.999994232178,8|0,0:0|0:0,0:0:0:0:
35,242,208861,2,0,L|130:218,1,94.4999971160889,4|0,0:0|0:0,0:0:0:0:
264,132,209032,2,0,B|189:125|189:125|123:222,1,188.999994232178,0|8,0:0|0:0,0:0:0:0:
281,51,209375,1,0,0:0:0:0:
276,297,209547,6,0,B|338:354|338:354|412:261|381:134,1,283.499991348267,4|0,0:0|0:0,0:0:0:0:
281,51,209890,2,0,P|243:124|397:153,1,283.499991348267,8|0,0:0|0:0,0:0:0:0:
281,51,210232,6,0,B|170:96|63:63|63:63|96:87|109:111,1,283.499991348267,4|0,0:0|0:0,0:0:0:0:
174,161,210575,2,0,L|160:280,1,94.4999971160889,8|0,0:0|0:0,0:0:0:0:
149,361,210747,1,4,0:0:0:0:
267,169,210918,6,0,B|201:154|201:154|174:138|174:138|137:143|137:143|64:132,1,188.999994232178,4|0,0:0|0:0,0:0:0:0:
421,310,211261,2,0,B|355:324|355:324|328:340|328:340|291:335|291:335|218:346,1,188.999994232178,8|0,0:0|0:0,0:0:0:0:
425,81,211604,2,0,L|416:188,1,94.4999971160889,4|0,0:0|0:0,0:0:0:0:
441,76,211775,2,0,L|432:183,1,94.4999971160889,4|0,0:0|0:0,0:0:0:0:
421,310,211947,1,8,0:0:0:0:
301,45,212118,2,0,L|240:52,2,47.2499985580445
306,60,212290,6,0,L|96:85,1,188.999994232178,4|0,0:0|0:0,0:0:0:0:
250,252,212632,1,8,0:0:0:0:
35,89,212804,2,0,L|32:165,4,47.2499985580445,0|0|0|0|4,0:0|0:0|0:0|0:0|0:0,0:0:0:0:
250,252,213147,2,0,L|252:286,8,23.6249992790222,0|0|0|0|0|0|0|0|8,0:0|0:0|0:0|0:0|0:0|0:0|0:0|0:0|0:0,0:0:0:0:
80,341,213490,2,0,L|88:228,1,94.4999971160889
152,107,213661,5,4,0:0:0:0:
202,51,213747,1,0,0:0:0:0:
272,81,213832,1,0,0:0:0:0:
271,157,213918,1,0,0:0:0:0:
221,216,214004,1,8,0:0:0:0:
247,285,214090,1,0,0:0:0:0:
322,297,214175,1,0,0:0:0:0:
372,237,214261,1,0,0:0:0:0:
381,157,214347,5,8,0:0:0:0:
379,136,214432,1,0,0:0:0:0:
377,117,214518,1,0,0:0:0:0:
375,97,214604,1,0,0:0:0:0:
395,108,214690,5,8,0:0:0:0:
397,87,214775,1,0,0:0:0:0:
398,67,214861,1,4,0:0:0:0:
400,47,214947,1,0,0:0:0:0:
324,14,215032,6,0,P|285:24|255:46,1,67.5,4|0,0:0|0:0,0:0:0:0:
118,69,215204,2,0,P|205:81|279:45,1,135,0|8,0:0|0:0,0:0:0:0:
274,106,215461,1,0,0:0:0:0:
280,124,215547,1,0,0:0:0:0:
285,146,215632,2,0,P|289:184|286:219,1,67.5,0|4,0:0|0:0,0:0:0:0:
279,335,215804,2,0,P|297:254|299:189,1,135
214,198,216061,1,8,0:0:0:0:
185,192,216147,1,0,0:0:0:0:
161,193,216232,1,0,0:0:0:0:
139,199,216318,1,0,0:0:0:0:
118,208,216404,6,0,P|101:170|96:139,1,67.5,4|0,0:0|0:0,0:0:0:0:
65,16,216575,2,0,P|63:100|87:165,1,135,0|8,0:0|0:0,0:0:0:0:
150,98,216832,1,0,0:0:0:0:
172,81,216918,1,0,0:0:0:0:
192,54,217004,6,0,P|228:66|266:65,1,67.5,0|4,0:0|0:0,0:0:0:0:
400,87,217175,2,0,P|331:104|261:92,1,135
273,173,217432,2,0,L|279:249,1,67.5,8|0,0:0|0:0,0:0:0:0:
290,317,217604,1,0,0:0:0:0:
379,191,217775,6,0,B|410:225|410:225|441:164|441:164|394:77,1,202.5,4|0,0:0|0:0,0:0:0:0:
330,27,218118,2,0,L|249:19,1,67.5,8|0,0:0|0:0,0:0:0:0:
108,104,218290,1,0,0:0:0:0:
119,118,218375,2,0,P|152:125|198:112,1,67.5,0|4,0:0|0:0,0:0:0:0:
273,173,218547,2,0,P|212:223|133:215,1,135
74,210,218804,2,0,L|85:286,1,67.5,8|0,0:0|0:0,0:0:0:0:
209,367,218975,2,0,L|213:300,1,67.5
308,57,219147,6,0,B|370:16|433:98|341:204,1,202.5,4|0,0:0|0:0,0:0:0:0:
288,256,219490,1,8,0:0:0:0:
274,293,219575,1,0,0:0:0:0:
292,332,219661,1,0,0:0:0:0:
333,348,219747,1,0,0:0:0:0:
376,326,219832,6,0,L|388:230,1,67.5,4|0,0:0|0:0,0:0:0:0:
459,224,220004,2,0,L|406:171,1,67.5
455,87,220175,2,0,L|364:103,1,67.5,8|0,0:0|0:0,0:0:0:0:
236,166,220347,6,0,L|337:179,1,67.5,4|0,0:0|0:0,0:0:0:0:
420,138,220518,6,0,P|391:165|343:173,1,67.5
236,166,220689,2,0,P|302:200|384:197,1,135,0|8,0:0|0:0,0:0:0:0:
474,204,220946,1,0,0:0:0:0:
487,217,221032,1,0,0:0:0:0:
487,234,221118,2,0,P|490:263|474:304,1,67.5,0|4,0:0|0:0,0:0:0:0:
375,292,221289,2,0,P|353:242|382:151,1,135
330,197,221546,5,8,0:0:0:0:
313,208,221632,1,0,0:0:0:0:
289,215,221718,1,0,0:0:0:0:
267,218,221803,1,0,0:0:0:0:
244,216,221889,6,0,P|212:210|179:195,1,67.5,4|0,0:0|0:0,0:0:0:0:
132,62,222060,2,0,P|134:137|167:197,1,135,0|8,0:0|0:0,0:0:0:0:
133,226,222318,1,0,0:0:0:0:
119,237,222403,1,0,0:0:0:0:
106,248,222489,2,0,P|92:277|93:324,1,67.5,0|4,0:0|0:0,0:0:0:0:
200,344,222660,2,0,P|231:274|214:200,1,135
176,146,222918,2,0,B|219:139|219:139|242:124,1,67.5,8|0,0:0|0:0,0:0:0:0:
325,60,223090,1,0,0:0:0:0:
371,300,223261,6,0,B|355:334|399:358|444:300|410:230|352:258|350:169,1,202.5,4|0,0:0|0:0,0:0:0:0:
398,107,223604,1,8,0:0:0:0:
379,81,223690,1,0,0:0:0:0:
353,67,223775,1,0,0:0:0:0:
325,60,223861,1,0,0:0:0:0:
269,77,223947,5,4,0:0:0:0:
245,92,224032,1,0,0:0:0:0:
221,104,224118,2,0,L|234:188,1,67.5,0|4,0:0|0:0,0:0:0:0:
309,328,224290,2,0,L|321:242,1,67.5,8|0,0:0|0:0,0:0:0:0:
425,157,224461,6,0,B|456:130|456:130|345:162,1,135,4|0,0:0|0:0,0:0:0:0:
176,246,224718,2,0,B|145:219|145:219|256:251,1,135,4|0,0:0|0:0,0:0:0:0:
309,328,224975,2,0,B|327:296|327:296|316:247,1,67.5,4|0,0:0|0:0,0:0:0:0:
149,69,225147,2,0,B|131:101|131:101|142:150,1,67.5,4|0,0:0|0:0,0:0:0:0:
372,71,225318,6,0,B|406:99|425:158|425:158|350:102|252:99,1,270,4|0,0:0|0:0,0:0:0:0:
93,252,225661,2,0,B|196:255|206:181|201:105|294:100|363:128,1,270,8|0,0:0|0:0,0:0:0:0:
284,313,226004,6,0,L|293:207,1,101.250003862381,4|0,0:0|0:0,0:0:0:0:
472,175,226175,2,0,B|443:197|443:197|371:182,1,101.250003862381,4|0,0:0|0:0,0:0:0:0:
273,29,226347,2,0,B|206:9|206:9|235:193,1,202.500007724762,8|0,0:0|0:0,0:0:0:0:
167,217,226604,1,0,0:0:0:0:
152,233,226690,6,0,L|48:221,1,101.250003862381,4|0,0:0|0:0,0:0:0:0:
41,40,226861,2,0,B|10:87|10:87|23:142,1,101.250003862381
147,239,227032,6,0,L|43:227,1,101.250003862381,8|0,0:0|0:0,0:0:0:0:
117,103,227204,2,0,B|258:118|258:118|232:195,1,202.500007724762,0|4,0:0|0:0,0:0:0:0:
194,308,227461,1,0,0:0:0:0:
192,318,227547,6,0,L|304:327,1,101.250003862381
359,245,227718,2,0,B|399:276|399:276|446:198|446:198|404:106|404:106|357:141,1,303.750011587143,8|0,0:0|0:0,0:0:0:0:
277,194,228061,5,4,0:0:0:0:
264,207,228147,1,0,0:0:0:0:
248,220,228232,1,0,0:0:0:0:
236,233,228318,1,0,0:0:0:0:
235,259,228404,1,0,0:0:0:0:
212,247,228490,1,0,0:0:0:0:
188,237,228575,1,0,0:0:0:0:
166,225,228661,1,0,0:0:0:0:
122,241,228747,6,0,B|96:169|96:169|131:98|131:98|107:19|107:19|80:83,1,303.750011587143,4|0,0:0|0:0,0:0:0:0:
208,111,229090,2,0,B|308:121|308:121|314:116|314:116|318:122|318:122|431:133,1,202.500007724762,8|0,0:0|0:0,0:0:0:0:
433,235,229347,1,0,0:0:0:0:
441,250,229432,6,0,B|452:289|452:289|424:345,1,101.250003862381,4|0,0:0|0:0,0:0:0:0:
341,296,229604,2,0,L|231:287,1,101.250003862381
212,205,229775,6,0,B|192:148|192:148|208:111,1,101.250003862381,8|0,0:0|0:0,0:0:0:0:
323,43,229947,2,0,B|381:5|381:5|428:91|388:178|331:226,1,303.750011587143
212,204,230290,2,0,P|204:245|176:215,1,101.250003862381
322,41,230461,2,0,B|238:72|203:129|203:129|139:77|55:77,1,303.750011587143,8|0,0:0|0:0,0:0:0:0:
69,194,230804,6,0,L|0:221,1,50.6250019311906,4|0,0:0|0:0,0:0:0:0:
97,267,230975,2,0,L|68:328,1,50.6250019311906
169,298,231147,2,8,L|168:368,1,50.6250019311906
171,209,231318,1,8,0:0:0:0:
171,209,231404,1,8,0:0:0:0:
171,209,231490,6,0,L|286:232,1,67.5,4|0,0:0|0:0,0:0:0:0:
177,199,231661,2,0,L|292:222,1,67.5,4|0,0:0|0:0,0:0:0:0:
444,156,231832,6,0,L|329:179,1,67.5,4|0,0:0|0:0,0:0:0:0:
438,146,232003,2,0,L|323:169,1,67.5,4|0,0:0|0:0,0:0:0:0:
275,40,232175,6,0,B|256:77|256:78|277:154,1,87.749995983124,4|0,0:0|0:0,0:0:0:0:
267,40,232347,2,0,B|248:77|248:78|269:154,1,87.749995983124,4|0,0:0|0:0,0:0:0:0:
385,328,232518,6,0,B|404:291|404:290|383:214,1,87.749995983124,4|0,0:0|0:0,0:0:0:0:
393,328,232690,2,0,B|412:291|412:290|391:214,1,87.749995983124,4|0,0:0|0:0,0:0:0:0:
358,87,232861,5,4,0:0:0:0:
328,135,232947,1,4,0:0:0:0:
283,162,233032,1,4,0:0:0:0:
234,165,233118,1,4,0:0:0:0:
189,151,233204,1,4,0:0:0:0:
154,118,233290,1,4,0:0:0:0:
108,103,233375,1,4,0:0:0:0:
60,102,233461,1,4,0:0:0:0:
18,136,233547,2,0,L|11:188,14,43.874997991562
3,257,234232,5,4,0:0:0:0:
256,192,234318,12,0,236632,0:0:0:0:
