osu file format v14

[General]
AudioFilename: audio.mp3
AudioLeadIn: 0
PreviewTime: 88233
Countdown: 0
SampleSet: None
StackLeniency: 0.7
Mode: 3
LetterboxInBreaks: 0
SpecialStyle: 0
WidescreenStoryboard: 1

[Editor]
Bookmarks: 23518,34489,39289,44089,49061,50946,55061,56432,67404,76661
DistanceSpacing: 1.4
BeatDivisor: 4
GridSize: 4
TimelineZoom: 2.999997

[Metadata]
Title:Carry Me Away
TitleUnicode:Carry Me Away
Artist:lapix
ArtistUnicode:lapix
Creator:arpia97
Version:Daybreak
Source:
Tags:
BeatmapID:1793444
BeatmapSetID:858142

[Difficulty]
HPDrainRate:8.5
CircleSize:4
OverallDifficulty:7.5
ApproachRate:7
SliderMultiplier:1.2
SliderTickRate:1

[Events]
//Background and Video events
0,0,"jpeg.jpg",0,0
//Break Periods
//Storyboard Layer 0 (Background)
//Storyboard Layer 1 (Fail)
//Storyboard Layer 2 (Pass)
//Storyboard Layer 3 (Foreground)
//Storyboard Sound Samples

[TimingPoints]
1575,342.857142857143,4,1,0,0,1,0

[Colours]
Combo1 : 255,232,162
Combo2 : 252,175,250
Combo3 : 121,182,255
Combo4 : 196,255,255

[HitObjects]
448,192,546,128,0,889:0:0:0:0:
64,192,889,128,0,1232:0:0:0:0:
192,192,1060,1,0,0:0:0:0:
320,192,1060,1,0,0:0:0:0:
448,192,1232,1,0,0:0:0:0:
320,192,1232,128,0,1575:0:0:0:0:
64,192,1575,1,0,0:0:0:0:
448,192,1575,1,0,0:0:0:0:
192,192,1575,128,0,1832:0:0:0:0:
448,192,1917,1,0,0:0:0:0:
192,192,1917,128,0,2175:0:0:0:0:
64,192,2003,1,0,0:0:0:0:
320,192,2089,1,0,0:0:0:0:
448,192,2175,1,0,0:0:0:0:
64,192,2260,128,0,2432:0:0:0:0:
320,192,2260,1,0,0:0:0:0:
192,192,2346,1,0,0:0:0:0:
448,192,2432,128,0,2603:0:0:0:0:
64,192,2517,1,0,0:0:0:0:
320,192,2603,1,0,0:0:0:0:
192,192,2603,1,0,0:0:0:0:
64,192,2775,128,0,2946:0:0:0:0:
448,192,2775,128,0,2946:0:0:0:0:
192,192,2775,128,0,2946:0:0:0:0:
320,192,2946,1,0,0:0:0:0:
192,192,3032,1,0,0:0:0:0:
64,192,3117,1,0,0:0:0:0:
448,192,3117,128,0,3289:0:0:0:0:
320,192,3203,1,0,0:0:0:0:
64,192,3289,1,0,0:0:0:0:
192,192,3375,1,0,0:0:0:0:
448,192,3460,128,0,3632:0:0:0:0:
64,192,3460,128,0,3632:0:0:0:0:
320,192,3460,128,0,3632:0:0:0:0:
192,192,3632,1,0,0:0:0:0:
320,192,3717,1,0,0:0:0:0:
64,192,3803,1,0,0:0:0:0:
448,192,3889,1,0,0:0:0:0:
192,192,3975,128,0,4146:0:0:0:0:
448,192,4146,128,0,4317:0:0:0:0:
320,192,4232,1,0,0:0:0:0:
192,192,4317,1,0,0:0:0:0:
64,192,4317,1,0,0:0:0:0:
320,192,4403,128,0,4575:0:0:0:0:
64,192,4489,1,0,0:0:0:0:
192,192,4660,128,0,4832:0:0:0:0:
448,192,4660,1,0,0:0:0:0:
64,192,4660,1,0,0:0:0:0:
320,192,4746,1,0,0:0:0:0:
448,192,4832,128,0,5003:0:0:0:0:
64,192,4917,128,0,5003:0:0:0:0:
192,192,5003,1,0,0:0:0:0:
320,192,5089,1,0,0:0:0:0:
448,192,5089,1,0,0:0:0:0:
64,192,5175,1,0,0:0:0:0:
192,192,5175,1,0,0:0:0:0:
64,192,5346,128,0,5517:0:0:0:0:
448,192,5346,128,0,5517:0:0:0:0:
320,192,5346,1,0,0:0:0:0:
192,192,5517,1,0,0:0:0:0:
320,192,5603,1,0,0:0:0:0:
64,192,5689,128,0,6032:0:0:0:0:
192,192,5689,128,0,6032:0:0:0:0:
448,192,5689,128,0,6032:0:0:0:0:
320,192,6032,1,0,0:0:0:0:
192,192,6117,1,0,0:0:0:0:
320,192,6203,128,0,6375:0:0:0:0:
448,192,6203,128,0,6375:0:0:0:0:
64,192,6203,128,0,6546:0:0:0:0:
320,192,6546,1,0,0:0:0:0:
448,192,6632,1,0,0:0:0:0:
64,192,6717,1,0,0:0:0:0:
320,192,6803,1,0,0:0:0:0:
192,192,6889,128,0,7060:0:0:0:0:
320,192,7060,128,0,7317:0:0:0:0:
64,192,7060,1,0,0:0:0:0:
448,192,7060,1,0,0:0:0:0:
192,192,7232,1,0,0:0:0:0:
64,192,7317,1,0,0:0:0:0:
320,192,7403,128,0,7660:0:0:0:0:
192,192,7403,1,0,0:0:0:0:
448,192,7489,1,0,0:0:0:0:
64,192,7575,1,0,0:0:0:0:
192,192,7660,1,0,0:0:0:0:
64,192,7746,1,0,0:0:0:0:
448,192,7746,128,0,7917:0:0:0:0:
320,192,7832,1,0,0:0:0:0:
192,192,7917,1,0,0:0:0:0:
64,192,8003,1,0,0:0:0:0:
320,192,8089,128,0,8260:0:0:0:0:
448,192,8260,1,0,0:0:0:0:
192,192,8260,128,0,8603:0:0:0:0:
64,192,8260,1,0,0:0:0:0:
320,192,8346,1,0,0:0:0:0:
64,192,8432,1,0,0:0:0:0:
320,192,8517,1,0,0:0:0:0:
448,192,8603,128,0,8775:0:0:0:0:
64,192,8689,1,0,0:0:0:0:
320,192,8775,1,0,0:0:0:0:
192,192,8860,1,0,0:0:0:0:
320,192,8946,128,0,9117:0:0:0:0:
448,192,8946,128,0,9117:0:0:0:0:
64,192,8946,128,0,9117:0:0:0:0:
192,192,9117,1,0,0:0:0:0:
320,192,9203,1,0,0:0:0:0:
64,192,9289,128,0,9460:0:0:0:0:
448,192,9375,1,0,0:0:0:0:
320,192,9460,128,0,9632:0:0:0:0:
192,192,9546,1,0,0:0:0:0:
448,192,9632,128,0,9803:0:0:0:0:
192,192,9717,1,0,0:0:0:0:
320,192,9803,1,0,0:0:0:0:
64,192,9803,1,0,0:0:0:0:
448,192,9889,1,0,0:0:0:0:
192,192,9975,1,0,0:0:0:0:
64,192,10017,1,0,0:0:0:0:
320,192,10060,1,0,0:0:0:0:
192,192,10103,1,0,0:0:0:0:
448,192,10146,128,0,10317:0:0:0:0:
192,192,10232,1,0,0:0:0:0:
320,192,10317,1,0,0:0:0:0:
64,192,10317,1,0,0:0:0:0:
192,192,10403,1,0,0:0:0:0:
448,192,10489,1,0,0:0:0:0:
320,192,10532,1,0,0:0:0:0:
64,192,10575,1,0,0:0:0:0:
448,192,10660,1,0,0:0:0:0:
192,192,10660,128,0,10832:0:0:0:0:
320,192,10746,1,0,0:0:0:0:
64,192,10832,1,0,0:0:0:0:
448,192,10832,128,0,10917:0:0:0:0:
192,192,10917,128,0,11003:0:0:0:0:
448,192,11003,128,0,11089:0:0:0:0:
64,192,11089,128,0,11175:0:0:0:0:
320,192,11175,128,0,11432:0:0:0:0:
448,192,11175,128,0,11432:0:0:0:0:
64,192,11346,128,0,11517:0:0:0:0:
448,192,11517,1,0,0:0:0:0:
192,192,11517,1,0,0:0:0:0:
320,192,11603,1,0,0:0:0:0:
192,192,11689,128,0,11775:0:0:0:0:
64,192,11689,128,0,11775:0:0:0:0:
320,192,11860,1,0,0:0:0:0:
64,192,11860,1,0,0:0:0:0:
192,192,11946,1,0,0:0:0:0:
320,192,12032,128,0,12117:0:0:0:0:
448,192,12032,128,0,12117:0:0:0:0:
64,192,12117,1,0,0:0:0:0:
192,192,12203,1,0,0:0:0:0:
320,192,12203,1,0,0:0:0:0:
192,192,12375,128,0,12546:0:0:0:0:
64,192,12546,1,0,0:0:0:0:
448,192,12546,128,0,12717:0:0:0:0:
320,192,12546,1,0,0:0:0:0:
192,192,12717,1,0,0:0:0:0:
320,192,12803,1,0,0:0:0:0:
64,192,12889,128,0,13060:0:0:0:0:
448,192,13060,1,0,0:0:0:0:
192,192,13146,1,0,0:0:0:0:
320,192,13232,128,0,13489:0:0:0:0:
448,192,13232,1,0,0:0:0:0:
64,192,13232,1,0,0:0:0:0:
64,192,13489,1,0,0:0:0:0:
192,192,13489,1,0,0:0:0:0:
448,192,13575,1,0,0:0:0:0:
320,192,13660,1,0,0:0:0:0:
64,192,13746,1,0,0:0:0:0:
192,192,13746,128,0,13917:0:0:0:0:
320,192,13917,1,0,0:0:0:0:
448,192,13917,1,0,0:0:0:0:
192,192,14089,1,0,0:0:0:0:
64,192,14089,1,0,0:0:0:0:
64,192,14260,1,0,0:0:0:0:
448,192,14260,128,0,14432:0:0:0:0:
320,192,14432,1,0,0:0:0:0:
192,192,14432,128,0,14775:0:0:0:0:
448,192,14603,1,0,0:0:0:0:
320,192,14689,1,0,0:0:0:0:
64,192,14775,1,0,0:0:0:0:
448,192,14860,1,0,0:0:0:0:
320,192,14860,1,0,0:0:0:0:
64,192,14946,1,0,0:0:0:0:
448,192,14946,1,0,0:0:0:0:
192,192,14946,128,0,15117:0:0:0:0:
320,192,15117,1,0,0:0:0:0:
64,192,15117,1,0,0:0:0:0:
448,192,15117,128,0,15289:0:0:0:0:
320,192,15289,1,0,0:0:0:0:
192,192,15289,1,0,0:0:0:0:
64,192,15289,1,0,0:0:0:0:
64,192,15460,128,0,15632:0:0:0:0:
192,192,15632,1,0,0:0:0:0:
448,192,15632,128,0,15803:0:0:0:0:
320,192,15717,1,0,0:0:0:0:
192,192,15803,128,0,15975:0:0:0:0:
64,192,15889,1,0,0:0:0:0:
320,192,15975,1,0,0:0:0:0:
448,192,15975,1,0,0:0:0:0:
320,192,16146,128,0,16232:0:0:0:0:
64,192,16232,1,0,0:0:0:0:
192,192,16232,1,0,0:0:0:0:
448,192,16317,128,0,16489:0:0:0:0:
192,192,16489,128,0,16660:0:0:0:0:
64,192,16489,1,0,0:0:0:0:
320,192,16489,1,0,0:0:0:0:
320,192,16660,128,0,16832:0:0:0:0:
192,192,16832,1,0,0:0:0:0:
64,192,16832,128,0,17003:0:0:0:0:
448,192,16832,1,0,0:0:0:0:
448,192,17003,128,0,17175:0:0:0:0:
192,192,17175,128,0,17346:0:0:0:0:
64,192,17175,1,0,0:0:0:0:
320,192,17175,1,0,0:0:0:0:
448,192,17346,1,0,0:0:0:0:
320,192,17432,1,0,0:0:0:0:
192,192,17517,1,0,0:0:0:0:
64,192,17517,128,0,17689:0:0:0:0:
448,192,17603,1,0,0:0:0:0:
320,192,17689,1,0,0:0:0:0:
448,192,17775,1,0,0:0:0:0:
192,192,17860,1,0,0:0:0:0:
64,192,17860,1,0,0:0:0:0:
320,192,18032,1,0,0:0:0:0:
448,192,18032,1,0,0:0:0:0:
64,192,18032,1,0,0:0:0:0:
64,192,18203,1,0,0:0:0:0:
192,192,18203,1,0,0:0:0:0:
448,192,18203,1,0,0:0:0:0:
320,192,18375,1,0,0:0:0:0:
192,192,18375,1,0,0:0:0:0:
64,192,18375,1,0,0:0:0:0:
448,192,18546,1,0,0:0:0:0:
320,192,18546,1,0,0:0:0:0:
64,192,18546,1,0,0:0:0:0:
320,192,18717,1,0,0:0:0:0:
192,192,18717,1,0,0:0:0:0:
448,192,18717,1,0,0:0:0:0:
320,192,18889,1,0,0:0:0:0:
192,192,18889,1,0,0:0:0:0:
64,192,18889,1,0,0:0:0:0:
192,192,19060,1,0,0:0:0:0:
64,192,19060,1,0,0:0:0:0:
448,192,19060,1,0,0:0:0:0:
320,192,19232,1,0,0:0:0:0:
448,192,19232,1,0,0:0:0:0:
192,192,19232,1,0,0:0:0:0:
192,192,19403,1,0,0:0:0:0:
64,192,19403,1,0,0:0:0:0:
448,192,19489,1,0,0:0:0:0:
192,192,19575,1,0,0:0:0:0:
320,192,19575,1,0,0:0:0:0:
64,192,19660,1,0,0:0:0:0:
448,192,19746,1,0,0:0:0:0:
320,192,19746,1,0,0:0:0:0:
64,192,19832,1,0,0:0:0:0:
192,192,19917,1,0,0:0:0:0:
320,192,19917,1,0,0:0:0:0:
448,192,20003,1,0,0:0:0:0:
64,192,20089,1,0,0:0:0:0:
192,192,20089,1,0,0:0:0:0:
448,192,20175,1,0,0:0:0:0:
320,192,20260,1,0,0:0:0:0:
192,192,20260,1,0,0:0:0:0:
64,192,20346,1,0,0:0:0:0:
320,192,20432,1,0,0:0:0:0:
448,192,20432,1,0,0:0:0:0:
192,192,20517,1,0,0:0:0:0:
64,192,20517,1,0,0:0:0:0:
320,192,20603,1,0,0:0:0:0:
448,192,20603,1,0,0:0:0:0:
192,192,20689,1,0,0:0:0:0:
64,192,20689,1,0,0:0:0:0:
448,192,20775,1,0,0:0:0:0:
320,192,20817,1,0,0:0:0:0:
192,192,20860,1,0,0:0:0:0:
64,192,20903,1,0,0:0:0:0:
448,192,20946,1,0,0:0:0:0:
320,192,20989,1,0,0:0:0:0:
192,192,21032,1,0,0:0:0:0:
64,192,21075,1,0,0:0:0:0:
448,192,21117,1,0,0:0:0:0:
192,192,21160,1,0,0:0:0:0:
320,192,21203,1,0,0:0:0:0:
448,192,21246,1,0,0:0:0:0:
64,192,21289,1,0,0:0:0:0:
192,192,21332,1,0,0:0:0:0:
320,192,21375,1,0,0:0:0:0:
448,192,21417,1,0,0:0:0:0:
64,192,21460,1,0,0:0:0:0:
320,192,21503,1,0,0:0:0:0:
192,192,21546,1,0,0:0:0:0:
64,192,21589,1,0,0:0:0:0:
448,192,21632,1,0,0:0:0:0:
320,192,21675,1,0,0:0:0:0:
192,192,21717,1,0,0:0:0:0:
64,192,21760,1,0,0:0:0:0:
448,192,21803,1,0,0:0:0:0:
192,192,21846,1,0,0:0:0:0:
320,192,21889,1,0,0:0:0:0:
448,192,21932,1,0,0:0:0:0:
64,192,21975,1,0,0:0:0:0:
192,192,22017,1,0,0:0:0:0:
320,192,22060,1,0,0:0:0:0:
448,192,22103,1,0,0:0:0:0:
192,192,22146,1,0,0:0:0:0:
64,192,22146,1,0,0:0:0:0:
192,192,22317,1,0,0:0:0:0:
448,192,22317,1,0,0:0:0:0:
64,192,22489,1,0,0:0:0:0:
448,192,22489,128,0,22660:0:0:0:0:
192,192,22660,1,0,0:0:0:0:
320,192,22832,128,0,23003:0:0:0:0:
64,192,23003,1,0,0:0:0:0:
192,192,23003,1,0,0:0:0:0:
64,192,23175,1,0,0:0:0:0:
320,192,23175,128,0,23432:0:0:0:0:
448,192,23175,128,0,23432:0:0:0:0:
192,192,23517,5,0,0:0:0:0:
64,192,23517,1,0,0:0:0:0:
448,192,23517,128,0,23603:0:0:0:0:
320,192,23560,128,0,23646:0:0:0:0:
192,192,23603,128,0,23689:0:0:0:0:
64,192,23646,128,0,23732:0:0:0:0:
448,192,23689,1,0,0:0:0:0:
320,192,23732,1,0,0:0:0:0:
192,192,23775,1,0,0:0:0:0:
64,192,23817,1,0,0:0:0:0:
448,192,23860,128,0,24032:0:0:0:0:
320,192,23860,1,0,0:0:0:0:
192,192,23946,128,0,24032:0:0:0:0:
320,192,24032,128,0,24203:0:0:0:0:
64,192,24117,128,0,24203:0:0:0:0:
448,192,24203,128,0,24289:0:0:0:0:
64,192,24289,1,0,0:0:0:0:
192,192,24289,1,0,0:0:0:0:
320,192,24375,1,0,0:0:0:0:
448,192,24375,1,0,0:0:0:0:
64,192,24375,1,0,0:0:0:0:
192,192,24460,1,0,0:0:0:0:
320,192,24546,128,0,24632:0:0:0:0:
448,192,24546,1,0,0:0:0:0:
64,192,24632,128,0,24717:0:0:0:0:
192,192,24632,1,0,0:0:0:0:
320,192,24717,128,0,24889:0:0:0:0:
448,192,24717,128,0,24889:0:0:0:0:
192,192,24803,128,0,24975:0:0:0:0:
320,192,24975,128,0,25146:0:0:0:0:
448,192,24975,128,0,25146:0:0:0:0:
64,192,25060,128,0,25232:0:0:0:0:
320,192,25232,128,0,25403:0:0:0:0:
448,192,25232,128,0,25403:0:0:0:0:
192,192,25317,128,0,25403:0:0:0:0:
64,192,25403,1,0,0:0:0:0:
320,192,25489,1,0,0:0:0:0:
448,192,25489,1,0,0:0:0:0:
64,192,25575,1,0,0:0:0:0:
192,192,25575,1,0,0:0:0:0:
448,192,25617,1,0,0:0:0:0:
320,192,25660,1,0,0:0:0:0:
192,192,25703,1,0,0:0:0:0:
64,192,25746,1,0,0:0:0:0:
448,192,25789,1,0,0:0:0:0:
320,192,25832,1,0,0:0:0:0:
192,192,25875,1,0,0:0:0:0:
64,192,25917,1,0,0:0:0:0:
448,192,25917,128,0,26003:0:0:0:0:
64,192,26089,128,0,26175:0:0:0:0:
448,192,26089,1,0,0:0:0:0:
64,192,26260,1,0,0:0:0:0:
448,192,26260,1,0,0:0:0:0:
192,192,26260,128,0,26432:0:0:0:0:
320,192,26346,128,0,26432:0:0:0:0:
448,192,26432,128,0,26603:0:0:0:0:
192,192,26517,1,0,0:0:0:0:
64,192,26603,1,0,0:0:0:0:
192,192,26646,1,0,0:0:0:0:
448,192,26689,1,0,0:0:0:0:
320,192,26732,1,0,0:0:0:0:
192,192,26775,1,0,0:0:0:0:
64,192,26817,1,0,0:0:0:0:
448,192,26860,128,0,26946:0:0:0:0:
64,192,26946,128,0,27203:0:0:0:0:
192,192,26946,128,0,27203:0:0:0:0:
320,192,26946,128,0,27117:0:0:0:0:
448,192,27117,128,0,27289:0:0:0:0:
320,192,27203,128,0,27289:0:0:0:0:
64,192,27289,128,0,27375:0:0:0:0:
192,192,27289,128,0,27375:0:0:0:0:
448,192,27375,128,0,27546:0:0:0:0:
320,192,27460,128,0,27546:0:0:0:0:
64,192,27460,128,0,27546:0:0:0:0:
192,192,27546,128,0,27632:0:0:0:0:
320,192,27632,128,0,27717:0:0:0:0:
448,192,27632,128,0,27803:0:0:0:0:
64,192,27632,128,0,27803:0:0:0:0:
192,192,27717,128,0,27803:0:0:0:0:
320,192,27803,128,0,27889:0:0:0:0:
64,192,27889,128,0,28060:0:0:0:0:
320,192,27975,128,0,28232:0:0:0:0:
448,192,27975,128,0,28232:0:0:0:0:
64,192,28146,128,0,28317:0:0:0:0:
192,192,28232,128,0,28317:0:0:0:0:
320,192,28317,1,0,0:0:0:0:
448,192,28317,1,0,0:0:0:0:
192,192,28375,1,0,0:0:0:0:
448,192,28432,1,0,0:0:0:0:
64,192,28489,1,0,0:0:0:0:
192,192,28546,1,0,0:0:0:0:
448,192,28603,1,0,0:0:0:0:
64,192,28660,128,0,28917:0:0:0:0:
192,192,28660,128,0,28832:0:0:0:0:
320,192,28660,1,0,0:0:0:0:
448,192,28746,128,0,28917:0:0:0:0:
320,192,28832,128,0,28917:0:0:0:0:
192,192,28917,128,0,29003:0:0:0:0:
64,192,29003,128,0,29346:0:0:0:0:
320,192,29003,128,0,29346:0:0:0:0:
448,192,29003,128,0,29346:0:0:0:0:
192,192,29346,1,0,0:0:0:0:
192,192,29432,1,0,0:0:0:0:
192,192,29517,1,0,0:0:0:0:
192,192,29603,1,0,0:0:0:0:
448,192,29689,128,0,29860:0:0:0:0:
64,192,29689,128,0,29775:0:0:0:0:
320,192,29775,128,0,29860:0:0:0:0:
192,192,29860,128,0,30032:0:0:0:0:
64,192,29860,128,0,30032:0:0:0:0:
320,192,30032,128,0,30203:0:0:0:0:
448,192,30032,128,0,30375:0:0:0:0:
64,192,30203,128,0,30375:0:0:0:0:
192,192,30375,128,0,30632:0:0:0:0:
320,192,30460,128,0,30546:0:0:0:0:
448,192,30546,1,0,0:0:0:0:
64,192,30632,1,0,0:0:0:0:
192,192,30717,1,0,0:0:0:0:
320,192,30717,1,0,0:0:0:0:
448,192,30717,128,0,30889:0:0:0:0:
64,192,30803,1,0,0:0:0:0:
320,192,30889,128,0,31060:0:0:0:0:
192,192,30889,1,0,0:0:0:0:
64,192,30975,128,0,31060:0:0:0:0:
192,192,31060,128,0,31232:0:0:0:0:
448,192,31060,1,0,0:0:0:0:
320,192,31146,1,0,0:0:0:0:
64,192,31232,128,0,31403:0:0:0:0:
448,192,31317,128,0,31403:0:0:0:0:
192,192,31403,1,0,0:0:0:0:
320,192,31403,128,0,31660:0:0:0:0:
64,192,31489,1,0,0:0:0:0:
448,192,31575,128,0,31660:0:0:0:0:
192,192,31660,1,0,0:0:0:0:
64,192,31746,128,0,32089:0:0:0:0:
320,192,31746,128,0,31832:0:0:0:0:
448,192,31746,128,0,31832:0:0:0:0:
320,192,31917,128,0,32003:0:0:0:0:
448,192,31917,128,0,32003:0:0:0:0:
192,192,31917,128,0,32089:0:0:0:0:
320,192,32089,128,0,32260:0:0:0:0:
448,192,32089,128,0,32260:0:0:0:0:
192,192,32260,128,0,32432:0:0:0:0:
64,192,32346,128,0,32432:0:0:0:0:
320,192,32432,128,0,32603:0:0:0:0:
448,192,32432,1,0,0:0:0:0:
192,192,32517,128,0,32603:0:0:0:0:
64,192,32603,128,0,32689:0:0:0:0:
448,192,32603,128,0,32689:0:0:0:0:
64,192,32775,1,0,0:0:0:0:
448,192,32775,1,0,0:0:0:0:
64,192,32946,128,0,33032:0:0:0:0:
448,192,32946,128,0,33032:0:0:0:0:
320,192,33117,1,0,0:0:0:0:
64,192,33117,1,0,0:0:0:0:
448,192,33117,1,0,0:0:0:0:
192,192,33203,1,0,0:0:0:0:
320,192,33246,1,0,0:0:0:0:
64,192,33289,1,0,0:0:0:0:
448,192,33332,1,0,0:0:0:0:
320,192,33375,1,0,0:0:0:0:
192,192,33417,1,0,0:0:0:0:
64,192,33460,1,0,0:0:0:0:
448,192,33503,1,0,0:0:0:0:
192,192,33546,1,0,0:0:0:0:
320,192,33589,1,0,0:0:0:0:
448,192,33632,1,0,0:0:0:0:
64,192,33675,1,0,0:0:0:0:
320,192,33717,1,0,0:0:0:0:
192,192,33760,1,0,0:0:0:0:
448,192,33803,1,0,0:0:0:0:
64,192,33846,1,0,0:0:0:0:
192,192,33889,1,0,0:0:0:0:
320,192,33932,1,0,0:0:0:0:
64,192,33975,1,0,0:0:0:0:
448,192,34017,1,0,0:0:0:0:
320,192,34060,1,0,0:0:0:0:
192,192,34103,1,0,0:0:0:0:
448,192,34146,128,0,34403:0:0:0:0:
64,192,34146,1,0,0:0:0:0:
192,192,34317,128,0,34403:0:0:0:0:
320,192,34489,1,0,0:0:0:0:
448,192,34489,1,0,0:0:0:0:
64,192,34489,128,0,35003:0:0:0:0:
192,192,34489,128,0,34832:0:0:0:0:
448,192,34832,1,0,0:0:0:0:
192,192,34917,128,0,35003:0:0:0:0:
320,192,35003,1,0,0:0:0:0:
448,192,35003,1,0,0:0:0:0:
64,192,35089,1,0,0:0:0:0:
192,192,35089,1,0,0:0:0:0:
64,192,35175,1,0,0:0:0:0:
320,192,35175,128,0,35260:0:0:0:0:
448,192,35175,128,0,35432:0:0:0:0:
192,192,35260,1,0,0:0:0:0:
320,192,35346,128,0,35432:0:0:0:0:
64,192,35432,128,0,35603:0:0:0:0:
192,192,35517,128,0,35603:0:0:0:0:
448,192,35603,128,0,35775:0:0:0:0:
320,192,35689,128,0,35775:0:0:0:0:
64,192,35689,128,0,35860:0:0:0:0:
192,192,35860,1,0,0:0:0:0:
320,192,35860,1,0,0:0:0:0:
448,192,35860,128,0,36117:0:0:0:0:
64,192,35946,128,0,36032:0:0:0:0:
192,192,36117,1,0,0:0:0:0:
320,192,36117,1,0,0:0:0:0:
64,192,36117,128,0,36375:0:0:0:0:
320,192,36289,1,0,0:0:0:0:
448,192,36289,1,0,0:0:0:0:
192,192,36375,1,0,0:0:0:0:
448,192,36375,1,0,0:0:0:0:
320,192,36460,1,0,0:0:0:0:
192,192,36546,1,0,0:0:0:0:
64,192,36546,1,0,0:0:0:0:
320,192,36632,1,0,0:0:0:0:
192,192,36717,128,0,36889:0:0:0:0:
320,192,36803,128,0,36975:0:0:0:0:
64,192,36889,128,0,36975:0:0:0:0:
448,192,36975,128,0,37060:0:0:0:0:
192,192,37060,128,0,37232:0:0:0:0:
320,192,37146,128,0,37232:0:0:0:0:
64,192,37232,1,0,0:0:0:0:
448,192,37232,1,0,0:0:0:0:
320,192,37317,1,0,0:0:0:0:
192,192,37317,128,0,37403:0:0:0:0:
448,192,37403,128,0,37489:0:0:0:0:
64,192,37489,128,0,37575:0:0:0:0:
320,192,37575,128,0,37746:0:0:0:0:
448,192,37660,128,0,37746:0:0:0:0:
192,192,37746,1,0,0:0:0:0:
64,192,37746,1,0,0:0:0:0:
320,192,37832,1,0,0:0:0:0:
448,192,37832,1,0,0:0:0:0:
192,192,37917,1,0,0:0:0:0:
64,192,37917,1,0,0:0:0:0:
448,192,37917,1,0,0:0:0:0:
320,192,38003,1,0,0:0:0:0:
64,192,38003,128,0,38089:0:0:0:0:
192,192,38003,128,0,38089:0:0:0:0:
448,192,38089,1,0,0:0:0:0:
320,192,38175,1,0,0:0:0:0:
192,192,38175,128,0,38260:0:0:0:0:
64,192,38175,128,0,38260:0:0:0:0:
448,192,38260,1,0,0:0:0:0:
320,192,38346,1,0,0:0:0:0:
64,192,38346,128,0,38517:0:0:0:0:
192,192,38346,128,0,38517:0:0:0:0:
448,192,38603,1,0,0:0:0:0:
192,192,38603,128,0,38689:0:0:0:0:
64,192,38603,128,0,38689:0:0:0:0:
192,192,38775,1,0,0:0:0:0:
64,192,38775,1,0,0:0:0:0:
320,192,38860,128,0,38946:0:0:0:0:
448,192,38860,128,0,38946:0:0:0:0:
64,192,38946,1,0,0:0:0:0:
448,192,39032,1,0,0:0:0:0:
320,192,39032,1,0,0:0:0:0:
192,192,39117,1,0,0:0:0:0:
64,192,39117,1,0,0:0:0:0:
320,192,39203,1,0,0:0:0:0:
192,192,39289,1,0,0:0:0:0:
448,192,39289,1,0,0:0:0:0:
64,192,39289,128,0,39632:0:0:0:0:
192,192,39460,128,0,39632:0:0:0:0:
448,192,39632,128,0,39889:0:0:0:0:
320,192,39803,128,0,39889:0:0:0:0:
64,192,39803,128,0,39889:0:0:0:0:
320,192,39975,1,0,0:0:0:0:
448,192,39975,1,0,0:0:0:0:
192,192,39975,128,0,40146:0:0:0:0:
64,192,39975,128,0,40317:0:0:0:0:
448,192,40146,128,0,40317:0:0:0:0:
320,192,40317,128,0,40403:0:0:0:0:
192,192,40403,1,0,0:0:0:0:
64,192,40403,1,0,0:0:0:0:
320,192,40489,1,0,0:0:0:0:
448,192,40489,1,0,0:0:0:0:
192,192,40575,1,0,0:0:0:0:
64,192,40575,1,0,0:0:0:0:
320,192,40660,1,0,0:0:0:0:
448,192,40660,1,0,0:0:0:0:
64,192,40660,128,0,40832:0:0:0:0:
192,192,40832,1,0,0:0:0:0:
448,192,40832,128,0,41089:0:0:0:0:
64,192,41003,1,0,0:0:0:0:
192,192,41089,1,0,0:0:0:0:
320,192,41089,1,0,0:0:0:0:
448,192,41175,1,0,0:0:0:0:
64,192,41175,128,0,41346:0:0:0:0:
448,192,41346,1,0,0:0:0:0:
320,192,41346,128,0,41517:0:0:0:0:
64,192,41517,1,0,0:0:0:0:
192,192,41517,1,0,0:0:0:0:
320,192,41603,1,0,0:0:0:0:
448,192,41603,1,0,0:0:0:0:
64,192,41689,1,0,0:0:0:0:
448,192,41689,1,0,0:0:0:0:
192,192,41775,1,0,0:0:0:0:
64,192,41775,1,0,0:0:0:0:
320,192,41860,128,0,41946:0:0:0:0:
448,192,41860,128,0,41946:0:0:0:0:
64,192,41946,1,0,0:0:0:0:
320,192,42032,128,0,42117:0:0:0:0:
448,192,42032,128,0,42117:0:0:0:0:
192,192,42032,1,0,0:0:0:0:
64,192,42117,1,0,0:0:0:0:
192,192,42203,128,0,42317:0:0:0:0:
448,192,42203,128,0,42432:0:0:0:0:
64,192,42375,1,0,0:0:0:0:
192,192,42432,1,0,0:0:0:0:
320,192,42489,1,0,0:0:0:0:
448,192,42546,1,0,0:0:0:0:
64,192,42546,128,0,42717:0:0:0:0:
192,192,42717,1,0,0:0:0:0:
320,192,42717,128,0,42889:0:0:0:0:
448,192,42717,128,0,42889:0:0:0:0:
64,192,42889,128,0,43060:0:0:0:0:
448,192,42975,128,0,43060:0:0:0:0:
192,192,43060,1,0,0:0:0:0:
320,192,43060,1,0,0:0:0:0:
448,192,43232,128,0,43403:0:0:0:0:
64,192,43317,128,0,43403:0:0:0:0:
192,192,43403,1,0,0:0:0:0:
320,192,43403,1,0,0:0:0:0:
448,192,43489,1,0,0:0:0:0:
64,192,43575,128,0,43660:0:0:0:0:
192,192,43575,1,0,0:0:0:0:
448,192,43660,128,0,43746:0:0:0:0:
64,192,43746,1,0,0:0:0:0:
192,192,43746,1,0,0:0:0:0:
320,192,43832,1,0,0:0:0:0:
192,192,43917,128,0,44089:0:0:0:0:
448,192,44089,5,0,0:0:0:0:
64,192,44089,1,0,0:0:0:0:
320,192,44089,1,0,0:0:0:0:
192,192,44175,1,0,0:0:0:0:
448,192,44260,1,0,0:0:0:0:
192,192,44346,1,0,0:0:0:0:
448,192,44432,1,0,0:0:0:0:
320,192,44517,1,0,0:0:0:0:
64,192,44603,1,0,0:0:0:0:
320,192,44689,1,0,0:0:0:0:
64,192,44775,1,0,0:0:0:0:
192,192,44860,1,0,0:0:0:0:
448,192,44946,1,0,0:0:0:0:
320,192,45032,1,0,0:0:0:0:
64,192,45117,128,0,45375:0:0:0:0:
192,192,45117,128,0,45375:0:0:0:0:
192,192,45460,5,0,0:0:0:0:
64,192,45460,1,0,0:0:0:0:
448,192,45460,1,0,0:0:0:0:
320,192,45546,1,0,0:0:0:0:
64,192,45632,1,0,0:0:0:0:
192,192,45717,1,0,0:0:0:0:
64,192,45803,1,0,0:0:0:0:
320,192,45803,1,0,0:0:0:0:
448,192,45803,1,0,0:0:0:0:
192,192,45889,1,0,0:0:0:0:
448,192,45975,1,0,0:0:0:0:
192,192,46060,1,0,0:0:0:0:
320,192,46146,1,0,0:0:0:0:
448,192,46146,1,0,0:0:0:0:
192,192,46232,1,0,0:0:0:0:
64,192,46317,1,0,0:0:0:0:
320,192,46403,1,0,0:0:0:0:
64,192,46489,1,0,0:0:0:0:
192,192,46489,1,0,0:0:0:0:
448,192,46489,1,0,0:0:0:0:
320,192,46660,1,0,0:0:0:0:
64,192,46832,1,0,0:0:0:0:
320,192,46832,1,0,0:0:0:0:
448,192,46832,1,0,0:0:0:0:
192,192,46917,1,0,0:0:0:0:
448,192,47003,1,0,0:0:0:0:
320,192,47089,1,0,0:0:0:0:
448,192,47175,1,0,0:0:0:0:
192,192,47175,1,0,0:0:0:0:
64,192,47175,1,0,0:0:0:0:
320,192,47260,1,0,0:0:0:0:
64,192,47346,1,0,0:0:0:0:
320,192,47432,1,0,0:0:0:0:
192,192,47517,1,0,0:0:0:0:
64,192,47517,1,0,0:0:0:0:
320,192,47603,1,0,0:0:0:0:
448,192,47689,1,0,0:0:0:0:
192,192,47775,1,0,0:0:0:0:
448,192,47860,1,0,0:0:0:0:
320,192,47860,1,0,0:0:0:0:
64,192,47860,1,0,0:0:0:0:
192,192,48032,1,0,0:0:0:0:
64,192,48203,1,0,0:0:0:0:
320,192,48203,1,0,0:0:0:0:
448,192,48203,1,0,0:0:0:0:
192,192,48375,1,0,0:0:0:0:
64,192,48375,1,0,0:0:0:0:
320,192,48375,1,0,0:0:0:0:
320,192,48546,1,0,0:0:0:0:
448,192,48546,1,0,0:0:0:0:
64,192,48546,1,0,0:0:0:0:
192,192,48632,1,0,0:0:0:0:
448,192,48717,1,0,0:0:0:0:
320,192,48803,1,0,0:0:0:0:
64,192,48889,1,0,0:0:0:0:
192,192,48889,1,0,0:0:0:0:
320,192,48975,1,0,0:0:0:0:
64,192,49060,1,0,0:0:0:0:
320,192,49146,1,0,0:0:0:0:
192,192,49232,1,0,0:0:0:0:
64,192,49232,1,0,0:0:0:0:
448,192,49232,1,0,0:0:0:0:
320,192,49403,1,0,0:0:0:0:
64,192,49489,1,0,0:0:0:0:
320,192,49575,1,0,0:0:0:0:
448,192,49575,1,0,0:0:0:0:
192,192,49575,128,0,49875:0:0:0:0:
320,192,49746,128,0,49960:0:0:0:0:
448,192,49875,128,0,49960:0:0:0:0:
192,192,49960,128,0,50175:0:0:0:0:
64,192,49960,128,0,50260:0:0:0:0:
448,192,50089,128,0,50260:0:0:0:0:
320,192,50175,128,0,50260:0:0:0:0:
192,192,50260,128,0,50603:0:0:0:0:
320,192,50432,128,0,50603:0:0:0:0:
448,192,50489,128,0,50603:0:0:0:0:
64,192,50603,1,0,0:0:0:0:
320,192,50946,5,0,0:0:0:0:
448,192,50946,1,0,0:0:0:0:
192,192,50946,1,0,0:0:0:0:
64,192,50946,1,0,0:0:0:0:
192,192,51289,1,0,0:0:0:0:
64,192,51289,1,0,0:0:0:0:
448,192,51289,1,0,0:0:0:0:
320,192,51375,1,0,0:0:0:0:
64,192,51460,1,0,0:0:0:0:
320,192,51546,1,0,0:0:0:0:
448,192,51632,1,0,0:0:0:0:
192,192,51632,1,0,0:0:0:0:
64,192,51632,1,0,0:0:0:0:
320,192,51717,1,0,0:0:0:0:
64,192,51803,1,0,0:0:0:0:
320,192,51889,1,0,0:0:0:0:
448,192,51975,1,0,0:0:0:0:
192,192,51975,1,0,0:0:0:0:
64,192,51975,1,0,0:0:0:0:
320,192,52060,1,0,0:0:0:0:
64,192,52146,1,0,0:0:0:0:
320,192,52232,1,0,0:0:0:0:
448,192,52317,1,0,0:0:0:0:
192,192,52317,1,0,0:0:0:0:
64,192,52317,1,0,0:0:0:0:
320,192,52403,1,0,0:0:0:0:
192,192,52489,1,0,0:0:0:0:
64,192,52489,1,0,0:0:0:0:
320,192,52575,1,0,0:0:0:0:
448,192,52660,1,0,0:0:0:0:
64,192,52660,1,0,0:0:0:0:
192,192,52746,1,0,0:0:0:0:
64,192,52832,5,0,0:0:0:0:
448,192,52832,1,0,0:0:0:0:
320,192,52917,1,0,0:0:0:0:
192,192,53003,1,0,0:0:0:0:
64,192,53003,1,0,0:0:0:0:
320,192,53089,1,0,0:0:0:0:
448,192,53175,1,0,0:0:0:0:
64,192,53175,1,0,0:0:0:0:
192,192,53260,1,0,0:0:0:0:
64,192,53346,1,0,0:0:0:0:
448,192,53346,1,0,0:0:0:0:
320,192,53432,1,0,0:0:0:0:
192,192,53517,1,0,0:0:0:0:
64,192,53517,1,0,0:0:0:0:
320,192,53603,1,0,0:0:0:0:
192,192,53689,5,0,0:0:0:0:
64,192,53689,1,0,0:0:0:0:
320,192,53775,1,0,0:0:0:0:
448,192,53775,1,0,0:0:0:0:
192,192,53860,1,0,0:0:0:0:
64,192,53860,1,0,0:0:0:0:
320,192,53946,1,0,0:0:0:0:
448,192,53946,1,0,0:0:0:0:
192,192,54032,1,0,0:0:0:0:
64,192,54032,1,0,0:0:0:0:
320,192,54117,1,0,0:0:0:0:
448,192,54117,1,0,0:0:0:0:
192,192,54203,5,0,0:0:0:0:
64,192,54203,1,0,0:0:0:0:
320,192,54289,1,0,0:0:0:0:
448,192,54289,1,0,0:0:0:0:
192,192,54375,1,0,0:0:0:0:
64,192,54375,1,0,0:0:0:0:
320,192,54460,1,0,0:0:0:0:
448,192,54460,1,0,0:0:0:0:
192,192,54546,1,0,0:0:0:0:
64,192,54546,1,0,0:0:0:0:
320,192,54632,1,0,0:0:0:0:
448,192,54632,1,0,0:0:0:0:
192,192,54717,1,0,0:0:0:0:
64,192,54717,1,0,0:0:0:0:
320,192,54803,1,0,0:0:0:0:
448,192,54803,1,0,0:0:0:0:
192,192,54889,1,0,0:0:0:0:
64,192,54889,1,0,0:0:0:0:
448,192,54975,1,0,0:0:0:0:
320,192,54975,1,0,0:0:0:0:
64,192,55060,128,0,56003:0:0:0:0:
192,192,55403,128,0,56003:0:0:0:0:
320,192,55746,128,0,56003:0:0:0:0:
448,192,55746,128,0,56003:0:0:0:0:
64,192,56089,128,0,56175:0:0:0:0:
192,192,56089,128,0,56175:0:0:0:0:
320,192,56089,128,0,56175:0:0:0:0:
448,192,56089,128,0,56175:0:0:0:0:
192,192,56260,1,0,0:0:0:0:
320,192,56260,1,0,0:0:0:0:
64,192,56432,128,0,56689:0:0:0:0:
192,192,56432,128,0,56689:0:0:0:0:
320,192,56432,128,0,56603:0:0:0:0:
448,192,56432,128,0,56775:0:0:0:0:
320,192,56689,128,0,56775:0:0:0:0:
192,192,56775,128,0,56860:0:0:0:0:
64,192,56775,128,0,56860:0:0:0:0:
64,192,56946,1,0,0:0:0:0:
192,192,56946,1,0,0:0:0:0:
448,192,56946,1,0,0:0:0:0:
64,192,57032,1,0,0:0:0:0:
192,192,57032,1,0,0:0:0:0:
320,192,57117,1,0,0:0:0:0:
448,192,57117,1,0,0:0:0:0:
64,192,57117,1,0,0:0:0:0:
320,192,57289,1,0,0:0:0:0:
192,192,57289,128,0,57460:0:0:0:0:
320,192,57460,128,0,57546:0:0:0:0:
448,192,57460,128,0,57546:0:0:0:0:
64,192,57460,128,0,57546:0:0:0:0:
64,192,57632,1,0,0:0:0:0:
448,192,57632,1,0,0:0:0:0:
192,192,57717,1,0,0:0:0:0:
448,192,57803,128,0,57975:0:0:0:0:
192,192,57889,128,0,57975:0:0:0:0:
320,192,57975,128,0,58146:0:0:0:0:
64,192,58060,128,0,58146:0:0:0:0:
192,192,58146,1,0,0:0:0:0:
448,192,58146,128,0,58317:0:0:0:0:
192,192,58317,1,0,0:0:0:0:
64,192,58317,1,0,0:0:0:0:
320,192,58403,1,0,0:0:0:0:
448,192,58403,1,0,0:0:0:0:
320,192,58489,1,0,0:0:0:0:
448,192,58489,1,0,0:0:0:0:
64,192,58489,128,0,58660:0:0:0:0:
192,192,58575,128,0,58660:0:0:0:0:
320,192,58660,128,0,58832:0:0:0:0:
64,192,58832,128,0,59003:0:0:0:0:
448,192,58832,1,0,0:0:0:0:
448,192,59003,128,0,59175:0:0:0:0:
192,192,59003,1,0,0:0:0:0:
320,192,59175,1,0,0:0:0:0:
64,192,59175,1,0,0:0:0:0:
192,192,59260,1,0,0:0:0:0:
64,192,59346,1,0,0:0:0:0:
320,192,59432,1,0,0:0:0:0:
448,192,59517,1,0,0:0:0:0:
192,192,59603,1,0,0:0:0:0:
64,192,59603,1,0,0:0:0:0:
320,192,59689,1,0,0:0:0:0:
448,192,59689,1,0,0:0:0:0:
320,192,59775,1,0,0:0:0:0:
64,192,59775,1,0,0:0:0:0:
64,192,59860,1,0,0:0:0:0:
192,192,59860,1,0,0:0:0:0:
448,192,59860,128,0,60117:0:0:0:0:
320,192,59946,128,0,60117:0:0:0:0:
192,192,60032,128,0,60203:0:0:0:0:
64,192,60117,128,0,60203:0:0:0:0:
320,192,60203,128,0,60460:0:0:0:0:
448,192,60203,128,0,60546:0:0:0:0:
64,192,60375,1,0,0:0:0:0:
192,192,60460,1,0,0:0:0:0:
320,192,60546,1,0,0:0:0:0:
64,192,60546,128,0,60717:0:0:0:0:
192,192,60717,1,0,0:0:0:0:
320,192,60717,1,0,0:0:0:0:
448,192,60717,1,0,0:0:0:0:
192,192,60889,1,0,0:0:0:0:
64,192,60889,1,0,0:0:0:0:
320,192,60889,1,0,0:0:0:0:
320,192,61060,1,0,0:0:0:0:
448,192,61060,1,0,0:0:0:0:
64,192,61060,1,0,0:0:0:0:
320,192,61146,1,0,0:0:0:0:
448,192,61146,1,0,0:0:0:0:
192,192,61232,1,0,0:0:0:0:
64,192,61232,1,0,0:0:0:0:
448,192,61232,128,0,61575:0:0:0:0:
64,192,61403,128,0,61575:0:0:0:0:
320,192,61575,128,0,61746:0:0:0:0:
192,192,61746,128,0,61917:0:0:0:0:
64,192,61917,1,0,0:0:0:0:
320,192,61917,1,0,0:0:0:0:
448,192,61917,128,0,62089:0:0:0:0:
192,192,62003,128,0,62260:0:0:0:0:
64,192,62089,128,0,62175:0:0:0:0:
320,192,62175,128,0,62260:0:0:0:0:
64,192,62260,128,0,62517:0:0:0:0:
448,192,62260,128,0,62517:0:0:0:0:
320,192,62603,1,0,0:0:0:0:
448,192,62603,1,0,0:0:0:0:
64,192,62603,1,0,0:0:0:0:
192,192,62689,128,0,62775:0:0:0:0:
64,192,62775,1,0,0:0:0:0:
448,192,62775,1,0,0:0:0:0:
320,192,62860,1,0,0:0:0:0:
64,192,62946,1,0,0:0:0:0:
192,192,62946,1,0,0:0:0:0:
448,192,62946,1,0,0:0:0:0:
320,192,63032,1,0,0:0:0:0:
64,192,63117,128,0,63289:0:0:0:0:
192,192,63117,1,0,0:0:0:0:
448,192,63203,1,0,0:0:0:0:
320,192,63289,128,0,63375:0:0:0:0:
192,192,63375,1,0,0:0:0:0:
64,192,63460,128,0,63546:0:0:0:0:
320,192,63460,1,0,0:0:0:0:
448,192,63546,128,0,63632:0:0:0:0:
64,192,63632,1,0,0:0:0:0:
192,192,63632,1,0,0:0:0:0:
320,192,63717,1,0,0:0:0:0:
64,192,63803,1,0,0:0:0:0:
192,192,63803,1,0,0:0:0:0:
448,192,63803,1,0,0:0:0:0:
64,192,63889,1,0,0:0:0:0:
192,192,63889,1,0,0:0:0:0:
320,192,63975,1,0,0:0:0:0:
448,192,63975,1,0,0:0:0:0:
64,192,63975,128,0,64146:0:0:0:0:
192,192,64060,128,0,64146:0:0:0:0:
320,192,64146,128,0,64317:0:0:0:0:
448,192,64317,1,0,0:0:0:0:
64,192,64317,128,0,64489:0:0:0:0:
192,192,64489,1,0,0:0:0:0:
448,192,64489,128,0,64660:0:0:0:0:
64,192,64660,1,0,0:0:0:0:
320,192,64746,1,0,0:0:0:0:
192,192,64832,1,0,0:0:0:0:
64,192,64917,1,0,0:0:0:0:
448,192,65003,1,0,0:0:0:0:
320,192,65003,1,0,0:0:0:0:
192,192,65089,128,0,65175:0:0:0:0:
448,192,65175,1,0,0:0:0:0:
64,192,65260,128,0,65346:0:0:0:0:
192,192,65346,1,0,0:0:0:0:
448,192,65346,128,0,65517:0:0:0:0:
320,192,65432,1,0,0:0:0:0:
64,192,65517,128,0,65603:0:0:0:0:
320,192,65603,128,0,65689:0:0:0:0:
448,192,65689,128,0,65946:0:0:0:0:
64,192,65689,128,0,66117:0:0:0:0:
192,192,65689,128,0,66117:0:0:0:0:
448,192,66032,128,0,66203:0:0:0:0:
64,192,66203,128,0,66289:0:0:0:0:
320,192,66203,128,0,66375:0:0:0:0:
64,192,66375,128,0,66460:0:0:0:0:
192,192,66375,128,0,66460:0:0:0:0:
448,192,66375,128,0,66546:0:0:0:0:
64,192,66546,1,0,0:0:0:0:
192,192,66546,1,0,0:0:0:0:
320,192,66632,1,0,0:0:0:0:
448,192,66632,1,0,0:0:0:0:
448,192,66717,1,0,0:0:0:0:
192,192,66717,128,0,66889:0:0:0:0:
320,192,66803,1,0,0:0:0:0:
64,192,66889,1,0,0:0:0:0:
192,192,66975,1,0,0:0:0:0:
448,192,67060,1,0,0:0:0:0:
320,192,67103,1,0,0:0:0:0:
192,192,67146,1,0,0:0:0:0:
64,192,67189,1,0,0:0:0:0:
448,192,67232,1,0,0:0:0:0:
320,192,67275,1,0,0:0:0:0:
192,192,67317,1,0,0:0:0:0:
64,192,67360,1,0,0:0:0:0:
448,192,67403,128,0,67446:0:0:0:0:
320,192,67403,128,0,67446:0:0:0:0:
320,192,67575,128,0,67617:0:0:0:0:
448,192,67575,128,0,67617:0:0:0:0:
64,192,67746,1,0,0:0:0:0:
192,192,67746,1,0,0:0:0:0:
448,192,67746,1,0,0:0:0:0:
320,192,67832,1,0,0:0:0:0:
448,192,67832,1,0,0:0:0:0:
64,192,67917,1,0,0:0:0:0:
192,192,67917,1,0,0:0:0:0:
192,192,68003,1,0,0:0:0:0:
448,192,68003,1,0,0:0:0:0:
320,192,68089,1,0,0:0:0:0:
64,192,68089,128,0,68260:0:0:0:0:
448,192,68260,128,0,68432:0:0:0:0:
192,192,68260,1,0,0:0:0:0:
320,192,68346,1,0,0:0:0:0:
192,192,68432,1,0,0:0:0:0:
64,192,68432,1,0,0:0:0:0:
320,192,68517,1,0,0:0:0:0:
448,192,68517,1,0,0:0:0:0:
192,192,68603,128,0,68775:0:0:0:0:
64,192,68603,1,0,0:0:0:0:
448,192,68689,1,0,0:0:0:0:
320,192,68775,1,0,0:0:0:0:
64,192,68860,1,0,0:0:0:0:
192,192,68860,1,0,0:0:0:0:
448,192,68946,1,0,0:0:0:0:
320,192,68946,128,0,69117:0:0:0:0:
192,192,69117,1,0,0:0:0:0:
64,192,69117,1,0,0:0:0:0:
448,192,69117,1,0,0:0:0:0:
320,192,69203,1,0,0:0:0:0:
64,192,69289,1,0,0:0:0:0:
192,192,69289,1,0,0:0:0:0:
320,192,69375,1,0,0:0:0:0:
448,192,69375,1,0,0:0:0:0:
192,192,69460,128,0,69632:0:0:0:0:
320,192,69546,1,0,0:0:0:0:
448,192,69546,1,0,0:0:0:0:
64,192,69632,1,0,0:0:0:0:
320,192,69717,1,0,0:0:0:0:
448,192,69717,1,0,0:0:0:0:
192,192,69803,1,0,0:0:0:0:
448,192,69803,1,0,0:0:0:0:
64,192,69803,128,0,69889:0:0:0:0:
320,192,69889,1,0,0:0:0:0:
64,192,69975,1,0,0:0:0:0:
192,192,69975,128,0,70060:0:0:0:0:
320,192,70060,1,0,0:0:0:0:
448,192,70060,1,0,0:0:0:0:
192,192,70146,128,0,70317:0:0:0:0:
64,192,70146,1,0,0:0:0:0:
320,192,70232,1,0,0:0:0:0:
448,192,70232,1,0,0:0:0:0:
64,192,70317,1,0,0:0:0:0:
448,192,70317,128,0,70489:0:0:0:0:
192,192,70489,1,0,0:0:0:0:
64,192,70489,128,0,70575:0:0:0:0:
320,192,70575,1,0,0:0:0:0:
448,192,70575,1,0,0:0:0:0:
64,192,70660,1,0,0:0:0:0:
192,192,70660,1,0,0:0:0:0:
320,192,70746,128,0,70832:0:0:0:0:
448,192,70746,1,0,0:0:0:0:
64,192,70832,1,0,0:0:0:0:
192,192,70917,1,0,0:0:0:0:
320,192,70960,1,0,0:0:0:0:
448,192,71003,1,0,0:0:0:0:
64,192,71003,1,0,0:0:0:0:
192,192,71089,1,0,0:0:0:0:
64,192,71175,1,0,0:0:0:0:
320,192,71175,1,0,0:0:0:0:
448,192,71175,1,0,0:0:0:0:
320,192,71260,1,0,0:0:0:0:
448,192,71260,1,0,0:0:0:0:
64,192,71346,1,0,0:0:0:0:
448,192,71346,1,0,0:0:0:0:
192,192,71346,128,0,71517:0:0:0:0:
320,192,71432,1,0,0:0:0:0:
448,192,71517,1,0,0:0:0:0:
192,192,71603,1,0,0:0:0:0:
64,192,71603,1,0,0:0:0:0:
320,192,71689,1,0,0:0:0:0:
448,192,71689,128,0,71775:0:0:0:0:
64,192,71775,1,0,0:0:0:0:
320,192,71860,1,0,0:0:0:0:
192,192,71860,128,0,72032:0:0:0:0:
448,192,71946,1,0,0:0:0:0:
320,192,72032,1,0,0:0:0:0:
64,192,72032,1,0,0:0:0:0:
192,192,72117,1,0,0:0:0:0:
320,192,72203,1,0,0:0:0:0:
448,192,72203,1,0,0:0:0:0:
64,192,72203,128,0,72375:0:0:0:0:
320,192,72375,1,0,0:0:0:0:
64,192,72460,128,0,72632:0:0:0:0:
192,192,72460,1,0,0:0:0:0:
448,192,72460,1,0,0:0:0:0:
320,192,72546,1,0,0:0:0:0:
64,192,72717,128,0,72889:0:0:0:0:
320,192,72717,1,0,0:0:0:0:
192,192,72717,1,0,0:0:0:0:
448,192,72803,1,0,0:0:0:0:
320,192,72889,128,0,73060:0:0:0:0:
448,192,72975,1,0,0:0:0:0:
64,192,73060,1,0,0:0:0:0:
192,192,73060,1,0,0:0:0:0:
320,192,73146,1,0,0:0:0:0:
64,192,73232,1,0,0:0:0:0:
448,192,73232,128,0,73317:0:0:0:0:
320,192,73317,1,0,0:0:0:0:
64,192,73403,128,0,73489:0:0:0:0:
192,192,73403,1,0,0:0:0:0:
320,192,73489,1,0,0:0:0:0:
448,192,73489,1,0,0:0:0:0:
64,192,73575,1,0,0:0:0:0:
192,192,73575,1,0,0:0:0:0:
448,192,73575,1,0,0:0:0:0:
320,192,73660,128,0,73746:0:0:0:0:
192,192,73746,1,0,0:0:0:0:
64,192,73832,128,0,73917:0:0:0:0:
192,192,73917,1,0,0:0:0:0:
448,192,73917,128,0,74346:0:0:0:0:
320,192,74003,128,0,74089:0:0:0:0:
64,192,74089,128,0,74346:0:0:0:0:
320,192,74346,1,0,0:0:0:0:
192,192,74346,1,0,0:0:0:0:
64,192,74432,1,0,0:0:0:0:
448,192,74432,1,0,0:0:0:0:
320,192,74603,1,0,0:0:0:0:
448,192,74603,1,0,0:0:0:0:
64,192,74603,128,0,74775:0:0:0:0:
448,192,74775,1,0,0:0:0:0:
320,192,74775,1,0,0:0:0:0:
192,192,74860,1,0,0:0:0:0:
64,192,74860,1,0,0:0:0:0:
64,192,74946,1,0,0:0:0:0:
192,192,74946,1,0,0:0:0:0:
448,192,74946,128,0,75117:0:0:0:0:
192,192,75117,128,0,75289:0:0:0:0:
64,192,75117,1,0,0:0:0:0:
320,192,75203,1,0,0:0:0:0:
448,192,75289,1,0,0:0:0:0:
64,192,75289,128,0,75460:0:0:0:0:
192,192,75460,5,0,0:0:0:0:
448,192,75460,128,0,75632:0:0:0:0:
320,192,75632,1,0,0:0:0:0:
64,192,75632,128,0,75975:0:0:0:0:
192,192,75717,1,0,0:0:0:0:
448,192,75803,1,0,0:0:0:0:
320,192,75889,1,0,0:0:0:0:
448,192,75975,1,0,0:0:0:0:
192,192,76060,1,0,0:0:0:0:
64,192,76060,1,0,0:0:0:0:
320,192,76146,1,0,0:0:0:0:
448,192,76146,1,0,0:0:0:0:
64,192,76232,1,0,0:0:0:0:
64,192,76317,128,0,76446:0:0:0:0:
192,192,76317,128,0,76446:0:0:0:0:
320,192,76317,128,0,76446:0:0:0:0:
448,192,76317,128,0,76446:0:0:0:0:
320,192,76489,1,0,0:0:0:0:
192,192,76489,1,0,0:0:0:0:
192,192,76660,128,0,77003:0:0:0:0:
320,192,76660,128,0,77003:0:0:0:0:
448,192,76660,128,0,77003:0:0:0:0:
64,192,76660,128,0,76917:0:0:0:0:
64,192,77003,128,0,78289:0:0:0:0:
448,192,77346,128,0,78289:0:0:0:0:
320,192,77689,128,0,78375:0:0:0:0:
192,192,78032,128,0,78375:0:0:0:0:
64,192,78375,1,0,0:0:0:0:
448,192,78375,1,0,0:0:0:0:
448,192,78546,1,0,0:0:0:0:
448,192,78717,1,0,0:0:0:0:
64,192,78717,1,0,0:0:0:0:
64,192,78889,1,0,0:0:0:0:
448,192,79060,1,0,0:0:0:0:
64,192,79060,1,0,0:0:0:0:
192,192,79232,1,0,0:0:0:0:
320,192,79317,1,0,0:0:0:0:
64,192,79403,1,0,0:0:0:0:
448,192,79489,1,0,0:0:0:0:
192,192,79575,1,0,0:0:0:0:
64,192,79575,1,0,0:0:0:0:
320,192,79660,1,0,0:0:0:0:
64,192,79746,1,0,0:0:0:0:
448,192,79832,1,0,0:0:0:0:
320,192,79917,1,0,0:0:0:0:
192,192,79917,1,0,0:0:0:0:
64,192,80003,1,0,0:0:0:0:
448,192,80089,1,0,0:0:0:0:
192,192,80175,1,0,0:0:0:0:
320,192,80260,1,0,0:0:0:0:
448,192,80260,1,0,0:0:0:0:
64,192,80346,1,0,0:0:0:0:
192,192,80432,1,0,0:0:0:0:
448,192,80517,1,0,0:0:0:0:
64,192,80603,1,0,0:0:0:0:
320,192,80689,1,0,0:0:0:0:
192,192,80775,1,0,0:0:0:0:
448,192,80775,1,0,0:0:0:0:
64,192,80860,1,0,0:0:0:0:
320,192,80946,1,0,0:0:0:0:
192,192,81032,1,0,0:0:0:0:
448,192,81117,1,0,0:0:0:0:
64,192,81203,1,0,0:0:0:0:
448,192,81289,1,0,0:0:0:0:
320,192,81375,1,0,0:0:0:0:
64,192,81460,1,0,0:0:0:0:
192,192,81546,1,0,0:0:0:0:
448,192,81632,1,0,0:0:0:0:
64,192,81717,1,0,0:0:0:0:
192,192,81803,1,0,0:0:0:0:
320,192,81889,1,0,0:0:0:0:
64,192,81975,1,0,0:0:0:0:
448,192,82060,1,0,0:0:0:0:
320,192,82146,1,0,0:0:0:0:
64,192,82232,1,0,0:0:0:0:
448,192,82317,1,0,0:0:0:0:
192,192,82403,1,0,0:0:0:0:
320,192,82489,1,0,0:0:0:0:
64,192,82575,1,0,0:0:0:0:
192,192,82660,128,0,82832:0:0:0:0:
320,192,82746,128,0,82832:0:0:0:0:
64,192,82832,128,0,82917:0:0:0:0:
448,192,82917,1,0,0:0:0:0:
192,192,83003,128,0,83089:0:0:0:0:
320,192,83089,1,0,0:0:0:0:
448,192,83175,128,0,83346:0:0:0:0:
64,192,83260,128,0,83346:0:0:0:0:
320,192,83346,128,0,83432:0:0:0:0:
192,192,83432,1,0,0:0:0:0:
64,192,83517,128,0,83603:0:0:0:0:
448,192,83517,1,0,0:0:0:0:
320,192,83560,1,0,0:0:0:0:
192,192,83603,1,0,0:0:0:0:
448,192,83646,1,0,0:0:0:0:
64,192,83689,1,0,0:0:0:0:
192,192,83732,1,0,0:0:0:0:
320,192,83775,1,0,0:0:0:0:
448,192,83817,1,0,0:0:0:0:
192,192,83860,5,0,0:0:0:0:
64,192,83860,1,0,0:0:0:0:
64,192,84032,1,0,0:0:0:0:
192,192,84203,1,0,0:0:0:0:
320,192,84203,1,0,0:0:0:0:
448,192,84203,1,0,0:0:0:0:
64,192,84375,5,0,0:0:0:0:
192,192,84546,5,0,0:0:0:0:
320,192,84546,1,0,0:0:0:0:
448,192,84546,1,0,0:0:0:0:
448,192,84717,1,0,0:0:0:0:
64,192,84889,1,0,0:0:0:0:
192,192,84889,1,0,0:0:0:0:
320,192,84889,1,0,0:0:0:0:
448,192,85060,1,0,0:0:0:0:
320,192,85232,5,0,0:0:0:0:
448,192,85232,1,0,0:0:0:0:
64,192,85232,1,0,0:0:0:0:
64,192,85403,1,0,0:0:0:0:
192,192,85403,1,0,0:0:0:0:
448,192,85403,1,0,0:0:0:0:
320,192,85575,1,0,0:0:0:0:
192,192,85575,1,0,0:0:0:0:
64,192,85575,1,0,0:0:0:0:
448,192,85746,5,0,0:0:0:0:
192,192,85746,1,0,0:0:0:0:
64,192,85746,1,0,0:0:0:0:
448,192,85917,1,0,0:0:0:0:
320,192,85917,1,0,0:0:0:0:
64,192,85917,1,0,0:0:0:0:
320,192,86089,1,0,0:0:0:0:
192,192,86089,1,0,0:0:0:0:
448,192,86089,1,0,0:0:0:0:
64,192,86260,1,0,0:0:0:0:
320,192,86260,1,0,0:0:0:0:
448,192,86260,1,0,0:0:0:0:
64,192,86432,1,0,0:0:0:0:
192,192,86432,1,0,0:0:0:0:
448,192,86432,1,0,0:0:0:0:
320,192,86603,5,0,0:0:0:0:
448,192,86603,1,0,0:0:0:0:
192,192,86689,1,0,0:0:0:0:
64,192,86689,1,0,0:0:0:0:
320,192,86775,1,0,0:0:0:0:
448,192,86775,1,0,0:0:0:0:
192,192,86860,1,0,0:0:0:0:
64,192,86860,1,0,0:0:0:0:
320,192,86946,1,0,0:0:0:0:
448,192,86946,1,0,0:0:0:0:
192,192,87032,1,0,0:0:0:0:
64,192,87032,1,0,0:0:0:0:
320,192,87117,1,0,0:0:0:0:
448,192,87117,1,0,0:0:0:0:
192,192,87203,1,0,0:0:0:0:
64,192,87203,1,0,0:0:0:0:
320,192,87289,1,0,0:0:0:0:
448,192,87289,1,0,0:0:0:0:
192,192,87375,1,0,0:0:0:0:
64,192,87375,1,0,0:0:0:0:
320,192,87460,1,0,0:0:0:0:
448,192,87460,1,0,0:0:0:0:
192,192,87546,1,0,0:0:0:0:
64,192,87546,1,0,0:0:0:0:
320,192,87632,1,0,0:0:0:0:
448,192,87632,1,0,0:0:0:0:
64,192,87717,1,0,0:0:0:0:
192,192,87717,1,0,0:0:0:0:
320,192,87803,1,0,0:0:0:0:
448,192,87803,1,0,0:0:0:0:
192,192,87889,1,0,0:0:0:0:
64,192,87889,1,0,0:0:0:0:
320,192,87975,128,0,88917:0:0:0:0:
64,192,88317,128,0,88917:0:0:0:0:
192,192,88660,128,0,88917:0:0:0:0:
448,192,88660,128,0,88917:0:0:0:0:
448,192,89003,128,0,89132:0:0:0:0:
320,192,89003,128,0,89132:0:0:0:0:
192,192,89003,128,0,89132:0:0:0:0:
64,192,89003,128,0,89132:0:0:0:0:
192,192,89175,1,0,0:0:0:0:
320,192,89175,1,0,0:0:0:0:
192,192,89346,5,0,0:0:0:0:
448,192,89346,128,0,89603:0:0:0:0:
320,192,89346,128,0,89603:0:0:0:0:
64,192,89346,1,0,0:0:0:0:
64,192,89517,1,0,0:0:0:0:
192,192,89603,1,0,0:0:0:0:
64,192,89689,1,0,0:0:0:0:
448,192,89689,128,0,89860:0:0:0:0:
320,192,89689,128,0,89860:0:0:0:0:
192,192,89860,1,0,0:0:0:0:
64,192,89946,1,0,0:0:0:0:
320,192,90032,1,0,0:0:0:0:
192,192,90032,128,0,90203:0:0:0:0:
448,192,90032,1,0,0:0:0:0:
448,192,90203,128,0,90375:0:0:0:0:
64,192,90289,128,0,90375:0:0:0:0:
320,192,90375,1,0,0:0:0:0:
192,192,90375,1,0,0:0:0:0:
448,192,90460,1,0,0:0:0:0:
320,192,90546,1,0,0:0:0:0:
192,192,90546,128,0,90717:0:0:0:0:
64,192,90632,1,0,0:0:0:0:
448,192,90717,1,0,0:0:0:0:
320,192,90717,1,0,0:0:0:0:
192,192,90803,1,0,0:0:0:0:
320,192,90889,128,0,91060:0:0:0:0:
64,192,90889,1,0,0:0:0:0:
448,192,90975,1,0,0:0:0:0:
192,192,91060,1,0,0:0:0:0:
64,192,91060,1,0,0:0:0:0:
320,192,91146,1,0,0:0:0:0:
64,192,91232,128,0,91403:0:0:0:0:
448,192,91317,128,0,91575:0:0:0:0:
320,192,91403,128,0,91489:0:0:0:0:
192,192,91403,1,0,0:0:0:0:
64,192,91489,128,0,91660:0:0:0:0:
192,192,91575,128,0,91660:0:0:0:0:
320,192,91660,1,0,0:0:0:0:
64,192,91746,1,0,0:0:0:0:
192,192,91746,1,0,0:0:0:0:
448,192,91746,1,0,0:0:0:0:
320,192,91832,128,0,92089:0:0:0:0:
64,192,91917,1,0,0:0:0:0:
448,192,92003,128,0,92346:0:0:0:0:
64,192,92089,1,0,0:0:0:0:
192,192,92089,1,0,0:0:0:0:
320,192,92260,128,0,92346:0:0:0:0:
64,192,92260,128,0,92346:0:0:0:0:
448,192,92432,1,0,0:0:0:0:
64,192,92432,128,0,92775:0:0:0:0:
192,192,92432,128,0,92603:0:0:0:0:
320,192,92517,1,0,0:0:0:0:
448,192,92603,1,0,0:0:0:0:
192,192,92689,1,0,0:0:0:0:
448,192,92775,1,0,0:0:0:0:
320,192,92775,1,0,0:0:0:0:
192,192,92860,1,0,0:0:0:0:
448,192,92946,1,0,0:0:0:0:
64,192,92946,1,0,0:0:0:0:
320,192,93032,1,0,0:0:0:0:
448,192,93117,1,0,0:0:0:0:
64,192,93117,1,0,0:0:0:0:
192,192,93117,1,0,0:0:0:0:
320,192,93203,1,0,0:0:0:0:
192,192,93289,1,0,0:0:0:0:
64,192,93289,1,0,0:0:0:0:
448,192,93375,1,0,0:0:0:0:
320,192,93375,1,0,0:0:0:0:
448,192,93460,128,0,93803:0:0:0:0:
320,192,93460,128,0,93632:0:0:0:0:
64,192,93460,1,0,0:0:0:0:
192,192,93546,1,0,0:0:0:0:
64,192,93632,1,0,0:0:0:0:
320,192,93717,1,0,0:0:0:0:
64,192,93803,1,0,0:0:0:0:
192,192,93803,1,0,0:0:0:0:
320,192,93889,1,0,0:0:0:0:
192,192,93975,128,0,94146:0:0:0:0:
448,192,94060,128,0,94146:0:0:0:0:
64,192,94146,1,0,0:0:0:0:
320,192,94146,128,0,94317:0:0:0:0:
192,192,94232,1,0,0:0:0:0:
64,192,94317,128,0,94489:0:0:0:0:
448,192,94317,1,0,0:0:0:0:
448,192,94489,1,0,0:0:0:0:
320,192,94489,1,0,0:0:0:0:
192,192,94575,1,0,0:0:0:0:
64,192,94660,1,0,0:0:0:0:
448,192,94660,1,0,0:0:0:0:
320,192,94746,1,0,0:0:0:0:
448,192,94832,1,0,0:0:0:0:
192,192,94832,128,0,95089:0:0:0:0:
64,192,94832,128,0,95089:0:0:0:0:
448,192,95003,1,0,0:0:0:0:
320,192,95089,1,0,0:0:0:0:
192,192,95175,128,0,95346:0:0:0:0:
64,192,95175,128,0,95346:0:0:0:0:
448,192,95175,1,0,0:0:0:0:
320,192,95346,1,0,0:0:0:0:
448,192,95432,1,0,0:0:0:0:
64,192,95517,1,0,0:0:0:0:
320,192,95517,128,0,95689:0:0:0:0:
192,192,95517,1,0,0:0:0:0:
64,192,95689,128,0,95860:0:0:0:0:
448,192,95775,128,0,95860:0:0:0:0:
320,192,95860,1,0,0:0:0:0:
192,192,95860,1,0,0:0:0:0:
64,192,95946,1,0,0:0:0:0:
320,192,96032,128,0,96203:0:0:0:0:
192,192,96032,1,0,0:0:0:0:
448,192,96117,1,0,0:0:0:0:
192,192,96203,1,0,0:0:0:0:
64,192,96203,1,0,0:0:0:0:
320,192,96289,1,0,0:0:0:0:
448,192,96375,1,0,0:0:0:0:
192,192,96375,128,0,96546:0:0:0:0:
64,192,96460,1,0,0:0:0:0:
448,192,96546,1,0,0:0:0:0:
320,192,96546,1,0,0:0:0:0:
192,192,96632,1,0,0:0:0:0:
448,192,96717,128,0,96889:0:0:0:0:
64,192,96803,128,0,97146:0:0:0:0:
320,192,96889,1,0,0:0:0:0:
192,192,96889,128,0,97060:0:0:0:0:
448,192,96975,128,0,97146:0:0:0:0:
320,192,97060,128,0,97146:0:0:0:0:
192,192,97146,1,0,0:0:0:0:
64,192,97232,128,0,97403:0:0:0:0:
448,192,97232,1,0,0:0:0:0:
320,192,97232,1,0,0:0:0:0:
192,192,97317,1,0,0:0:0:0:
320,192,97403,128,0,97575:0:0:0:0:
192,192,97489,1,0,0:0:0:0:
64,192,97575,128,0,97746:0:0:0:0:
448,192,97575,1,0,0:0:0:0:
320,192,97660,1,0,0:0:0:0:
448,192,97746,1,0,0:0:0:0:
192,192,97832,1,0,0:0:0:0:
448,192,97917,128,0,98175:0:0:0:0:
320,192,97917,1,0,0:0:0:0:
64,192,97917,1,0,0:0:0:0:
64,192,98089,128,0,98260:0:0:0:0:
192,192,98175,128,0,98260:0:0:0:0:
448,192,98260,1,0,0:0:0:0:
320,192,98260,128,0,98517:0:0:0:0:
192,192,98432,128,0,98603:0:0:0:0:
64,192,98517,128,0,98603:0:0:0:0:
448,192,98603,128,0,98946:0:0:0:0:
320,192,98603,1,0,0:0:0:0:
192,192,98689,1,0,0:0:0:0:
64,192,98775,1,0,0:0:0:0:
320,192,98860,1,0,0:0:0:0:
64,192,98946,128,0,99203:0:0:0:0:
192,192,98946,1,0,0:0:0:0:
448,192,99117,128,0,99289:0:0:0:0:
320,192,99203,128,0,99289:0:0:0:0:
192,192,99289,128,0,99546:0:0:0:0:
64,192,99289,1,0,0:0:0:0:
320,192,99460,128,0,99632:0:0:0:0:
448,192,99546,128,0,99632:0:0:0:0:
64,192,99632,128,0,99889:0:0:0:0:
192,192,99632,1,0,0:0:0:0:
320,192,99717,1,0,0:0:0:0:
448,192,99803,1,0,0:0:0:0:
192,192,99889,1,0,0:0:0:0:
64,192,99975,1,0,0:0:0:0:
448,192,99975,1,0,0:0:0:0:
320,192,99975,1,0,0:0:0:0:
448,192,100146,1,0,0:0:0:0:
192,192,100146,1,0,0:0:0:0:
64,192,100146,1,0,0:0:0:0:
192,192,100317,1,0,0:0:0:0:
64,192,100317,1,0,0:0:0:0:
320,192,100317,1,0,0:0:0:0:
448,192,100317,128,0,100489:0:0:0:0:
320,192,100403,128,0,100489:0:0:0:0:
64,192,100489,128,0,100660:0:0:0:0:
192,192,100575,128,0,100660:0:0:0:0:
448,192,100660,1,0,0:0:0:0:
320,192,100660,128,0,100832:0:0:0:0:
64,192,100746,1,0,0:0:0:0:
192,192,100832,128,0,101003:0:0:0:0:
448,192,100917,1,0,0:0:0:0:
320,192,101003,1,0,0:0:0:0:
64,192,101003,128,0,101346:0:0:0:0:
192,192,101089,1,0,0:0:0:0:
448,192,101175,128,0,101260:0:0:0:0:
320,192,101260,1,0,0:0:0:0:
192,192,101346,1,0,0:0:0:0:
448,192,101346,1,0,0:0:0:0:
64,192,101432,1,0,0:0:0:0:
320,192,101517,128,0,101689:0:0:0:0:
192,192,101603,1,0,0:0:0:0:
448,192,101689,1,0,0:0:0:0:
64,192,101689,128,0,101860:0:0:0:0:
320,192,101775,1,0,0:0:0:0:
192,192,101860,128,0,102032:0:0:0:0:
448,192,101860,128,0,101946:0:0:0:0:
320,192,101946,1,0,0:0:0:0:
64,192,102032,1,0,0:0:0:0:
448,192,102032,1,0,0:0:0:0:
192,192,102117,1,0,0:0:0:0:
448,192,102203,128,0,102289:0:0:0:0:
320,192,102203,1,0,0:0:0:0:
64,192,102289,128,0,102375:0:0:0:0:
192,192,102289,1,0,0:0:0:0:
448,192,102375,1,0,0:0:0:0:
320,192,102375,1,0,0:0:0:0:
64,192,102460,1,0,0:0:0:0:
320,192,102546,128,0,102632:0:0:0:0:
192,192,102546,1,0,0:0:0:0:
64,192,102632,128,0,102717:0:0:0:0:
448,192,102632,1,0,0:0:0:0:
192,192,102717,1,0,0:0:0:0:
320,192,102717,1,0,0:0:0:0:
448,192,102803,1,0,0:0:0:0:
64,192,102889,1,0,0:0:0:0:
192,192,102889,128,0,102975:0:0:0:0:
320,192,102975,1,0,0:0:0:0:
192,192,103060,1,0,0:0:0:0:
64,192,103060,1,0,0:0:0:0:
448,192,103060,1,0,0:0:0:0:
320,192,103146,1,0,0:0:0:0:
192,192,103232,128,0,103403:0:0:0:0:
448,192,103317,1,0,0:0:0:0:
320,192,103403,1,0,0:0:0:0:
64,192,103403,1,0,0:0:0:0:
192,192,103489,1,0,0:0:0:0:
448,192,103575,128,0,103746:0:0:0:0:
64,192,103660,1,0,0:0:0:0:
192,192,103746,1,0,0:0:0:0:
320,192,103746,1,0,0:0:0:0:
448,192,103832,1,0,0:0:0:0:
64,192,103917,128,0,104089:0:0:0:0:
320,192,104003,128,0,104089:0:0:0:0:
192,192,104089,1,0,0:0:0:0:
448,192,104089,1,0,0:0:0:0:
320,192,104175,1,0,0:0:0:0:
192,192,104260,128,0,104432:0:0:0:0:
448,192,104346,1,0,0:0:0:0:
320,192,104432,1,0,0:0:0:0:
64,192,104432,1,0,0:0:0:0:
192,192,104517,1,0,0:0:0:0:
64,192,104603,128,0,104775:0:0:0:0:
320,192,104603,128,0,104689:0:0:0:0:
448,192,104689,1,0,0:0:0:0:
320,192,104775,1,0,0:0:0:0:
192,192,104775,1,0,0:0:0:0:
64,192,104860,1,0,0:0:0:0:
320,192,104946,128,0,105117:0:0:0:0:
192,192,105032,1,0,0:0:0:0:
64,192,105117,1,0,0:0:0:0:
448,192,105117,1,0,0:0:0:0:
320,192,105203,1,0,0:0:0:0:
192,192,105289,128,0,105460:0:0:0:0:
448,192,105375,1,0,0:0:0:0:
64,192,105460,1,0,0:0:0:0:
320,192,105460,1,0,0:0:0:0:
448,192,105546,1,0,0:0:0:0:
192,192,105632,1,0,0:0:0:0:
64,192,105632,1,0,0:0:0:0:
320,192,105717,1,0,0:0:0:0:
192,192,105803,1,0,0:0:0:0:
64,192,105803,1,0,0:0:0:0:
448,192,105803,1,0,0:0:0:0:
320,192,105889,1,0,0:0:0:0:
448,192,105975,1,0,0:0:0:0:
64,192,105975,1,0,0:0:0:0:
192,192,106060,1,0,0:0:0:0:
64,192,106146,1,0,0:0:0:0:
448,192,106146,1,0,0:0:0:0:
320,192,106146,128,0,106317:0:0:0:0:
192,192,106232,1,0,0:0:0:0:
448,192,106317,1,0,0:0:0:0:
320,192,106403,1,0,0:0:0:0:
448,192,106489,1,0,0:0:0:0:
64,192,106489,1,0,0:0:0:0:
192,192,106489,128,0,106660:0:0:0:0:
448,192,106660,128,0,106832:0:0:0:0:
192,192,106746,1,0,0:0:0:0:
320,192,106832,1,0,0:0:0:0:
64,192,106832,1,0,0:0:0:0:
192,192,106917,1,0,0:0:0:0:
320,192,107003,1,0,0:0:0:0:
448,192,107003,1,0,0:0:0:0:
64,192,107003,128,0,107346:0:0:0:0:
320,192,107175,1,0,0:0:0:0:
448,192,107175,1,0,0:0:0:0:
192,192,107175,128,0,107346:0:0:0:0:
448,192,107346,128,0,107517:0:0:0:0:
64,192,107432,1,0,0:0:0:0:
192,192,107517,1,0,0:0:0:0:
320,192,107517,128,0,107689:0:0:0:0:
64,192,107603,1,0,0:0:0:0:
448,192,107689,1,0,0:0:0:0:
320,192,107775,1,0,0:0:0:0:
448,192,107860,1,0,0:0:0:0:
192,192,107860,1,0,0:0:0:0:
64,192,107860,1,0,0:0:0:0:
448,192,108032,1,0,0:0:0:0:
64,192,108032,1,0,0:0:0:0:
320,192,108032,1,0,0:0:0:0:
192,192,108203,1,0,0:0:0:0:
320,192,108203,1,0,0:0:0:0:
448,192,108203,1,0,0:0:0:0:
64,192,108375,1,0,0:0:0:0:
448,192,108375,1,0,0:0:0:0:
192,192,108417,1,0,0:0:0:0:
320,192,108460,1,0,0:0:0:0:
448,192,108503,1,0,0:0:0:0:
64,192,108546,1,0,0:0:0:0:
192,192,108546,128,0,108889:0:0:0:0:
320,192,108632,1,0,0:0:0:0:
448,192,108717,1,0,0:0:0:0:
320,192,108803,1,0,0:0:0:0:
64,192,108889,1,0,0:0:0:0:
448,192,108889,128,0,109060:0:0:0:0:
64,192,109060,1,0,0:0:0:0:
192,192,109103,1,0,0:0:0:0:
320,192,109146,1,0,0:0:0:0:
448,192,109189,1,0,0:0:0:0:
192,192,109232,1,0,0:0:0:0:
64,192,109232,128,0,109403:0:0:0:0:
320,192,109317,1,0,0:0:0:0:
448,192,109403,1,0,0:0:0:0:
320,192,109446,1,0,0:0:0:0:
192,192,109489,1,0,0:0:0:0:
64,192,109532,1,0,0:0:0:0:
448,192,109575,1,0,0:0:0:0:
320,192,109575,1,0,0:0:0:0:
192,192,109660,1,0,0:0:0:0:
448,192,109746,1,0,0:0:0:0:
320,192,109746,1,0,0:0:0:0:
192,192,109832,1,0,0:0:0:0:
320,192,109917,1,0,0:0:0:0:
64,192,109917,1,0,0:0:0:0:
448,192,109917,128,0,110089:0:0:0:0:
192,192,110003,1,0,0:0:0:0:
320,192,110089,128,0,110260:0:0:0:0:
192,192,110175,1,0,0:0:0:0:
64,192,110260,128,0,110603:0:0:0:0:
448,192,110260,1,0,0:0:0:0:
192,192,110346,1,0,0:0:0:0:
320,192,110346,1,0,0:0:0:0:
448,192,110432,1,0,0:0:0:0:
192,192,110517,1,0,0:0:0:0:
320,192,110603,1,0,0:0:0:0:
448,192,110603,128,0,110946:0:0:0:0:
192,192,110689,1,0,0:0:0:0:
64,192,110689,1,0,0:0:0:0:
320,192,110775,1,0,0:0:0:0:
64,192,110860,1,0,0:0:0:0:
320,192,110946,1,0,0:0:0:0:
192,192,110946,128,0,111117:0:0:0:0:
448,192,111117,1,0,0:0:0:0:
64,192,111117,1,0,0:0:0:0:
320,192,111117,128,0,111289:0:0:0:0:
192,192,111289,1,0,0:0:0:0:
64,192,111289,128,0,111632:0:0:0:0:
448,192,111289,128,0,111632:0:0:0:0:
320,192,111460,128,0,111632:0:0:0:0:
192,192,111632,128,0,111717:0:0:0:0:
448,192,111717,128,0,111803:0:0:0:0:
64,192,111803,1,0,0:0:0:0:
192,192,111803,1,0,0:0:0:0:
320,192,111889,1,0,0:0:0:0:
448,192,111889,1,0,0:0:0:0:
448,192,111975,1,0,0:0:0:0:
64,192,111975,128,0,112060:0:0:0:0:
192,192,112060,1,0,0:0:0:0:
320,192,112146,1,0,0:0:0:0:
64,192,112232,1,0,0:0:0:0:
448,192,112232,128,0,112403:0:0:0:0:
192,192,112317,128,0,112489:0:0:0:0:
320,192,112403,1,0,0:0:0:0:
64,192,112489,1,0,0:0:0:0:
320,192,112575,1,0,0:0:0:0:
448,192,112660,1,0,0:0:0:0:
192,192,112660,1,0,0:0:0:0:
64,192,112660,1,0,0:0:0:0:
320,192,112746,128,0,112917:0:0:0:0:
64,192,112832,128,0,112917:0:0:0:0:
448,192,112917,1,0,0:0:0:0:
192,192,112917,1,0,0:0:0:0:
320,192,113003,1,0,0:0:0:0:
192,192,113089,1,0,0:0:0:0:
64,192,113089,1,0,0:0:0:0:
320,192,113175,1,0,0:0:0:0:
448,192,113175,128,0,113346:0:0:0:0:
64,192,113260,1,0,0:0:0:0:
192,192,113346,1,0,0:0:0:0:
320,192,113346,1,0,0:0:0:0:
448,192,113432,1,0,0:0:0:0:
192,192,113517,128,0,113603:0:0:0:0:
64,192,113517,1,0,0:0:0:0:
320,192,113603,128,0,113775:0:0:0:0:
448,192,113603,1,0,0:0:0:0:
64,192,113689,1,0,0:0:0:0:
192,192,113775,1,0,0:0:0:0:
448,192,113860,1,0,0:0:0:0:
192,192,113946,1,0,0:0:0:0:
320,192,114032,1,0,0:0:0:0:
448,192,114032,1,0,0:0:0:0:
64,192,114032,1,0,0:0:0:0:
192,192,114117,1,0,0:0:0:0:
448,192,114203,1,0,0:0:0:0:
192,192,114289,1,0,0:0:0:0:
64,192,114375,1,0,0:0:0:0:
320,192,114375,1,0,0:0:0:0:
448,192,114460,1,0,0:0:0:0:
192,192,114546,1,0,0:0:0:0:
64,192,114546,1,0,0:0:0:0:
320,192,114632,1,0,0:0:0:0:
448,192,114632,1,0,0:0:0:0:
64,192,114717,1,0,0:0:0:0:
448,192,114717,1,0,0:0:0:0:
320,192,114803,128,0,114889:0:0:0:0:
192,192,114803,128,0,114889:0:0:0:0:
320,192,114975,128,0,115060:0:0:0:0:
192,192,114975,128,0,115060:0:0:0:0:
64,192,115146,128,0,115317:0:0:0:0:
192,192,115146,128,0,115317:0:0:0:0:
320,192,115146,128,0,115317:0:0:0:0:
448,192,115146,128,0,115317:0:0:0:0:
192,192,115403,1,0,0:0:0:0:
64,192,115403,1,0,0:0:0:0:
448,192,115403,1,0,0:0:0:0:
320,192,115489,1,0,0:0:0:0:
64,192,115575,1,0,0:0:0:0:
192,192,115575,1,0,0:0:0:0:
320,192,115660,1,0,0:0:0:0:
448,192,115660,1,0,0:0:0:0:
192,192,115746,1,0,0:0:0:0:
448,192,115832,1,0,0:0:0:0:
320,192,115832,1,0,0:0:0:0:
192,192,115917,1,0,0:0:0:0:
64,192,115917,1,0,0:0:0:0:
320,192,116003,1,0,0:0:0:0:
448,192,116089,128,0,116175:0:0:0:0:
192,192,116089,128,0,116175:0:0:0:0:
64,192,116089,128,0,116175:0:0:0:0:
192,192,116260,1,0,0:0:0:0:
64,192,116260,1,0,0:0:0:0:
448,192,116346,1,0,0:0:0:0:
320,192,116346,1,0,0:0:0:0:
64,192,116432,128,0,116517:0:0:0:0:
448,192,116432,128,0,116775:0:0:0:0:
320,192,116432,128,0,116603:0:0:0:0:
192,192,116517,1,0,0:0:0:0:
64,192,116603,1,0,0:0:0:0:
320,192,116689,1,0,0:0:0:0:
192,192,116775,1,0,0:0:0:0:
448,192,116860,1,0,0:0:0:0:
64,192,116946,1,0,0:0:0:0:
192,192,117032,1,0,0:0:0:0:
448,192,117117,1,0,0:0:0:0:
64,192,117203,1,0,0:0:0:0:
320,192,117289,1,0,0:0:0:0:
448,192,117375,1,0,0:0:0:0:
64,192,117460,1,0,0:0:0:0:
448,192,117546,1,0,0:0:0:0:
192,192,117632,1,0,0:0:0:0:
64,192,117717,1,0,0:0:0:0:
448,192,117803,1,0,0:0:0:0:
64,192,117889,1,0,0:0:0:0:
320,192,117975,1,0,0:0:0:0:
448,192,118060,1,0,0:0:0:0:
64,192,118146,1,0,0:0:0:0:
448,192,118232,1,0,0:0:0:0:
192,192,118317,1,0,0:0:0:0:
64,192,118403,1,0,0:0:0:0:
448,192,118489,1,0,0:0:0:0:
64,192,118575,1,0,0:0:0:0:
320,192,118660,1,0,0:0:0:0:
448,192,118746,1,0,0:0:0:0:
64,192,118832,1,0,0:0:0:0:
448,192,118917,1,0,0:0:0:0:
192,192,119003,1,0,0:0:0:0:
64,192,119089,1,0,0:0:0:0:
448,192,119175,1,0,0:0:0:0:
64,192,119260,1,0,0:0:0:0:
320,192,119346,128,0,119517:0:0:0:0:
192,192,119432,128,0,119517:0:0:0:0:
