osu file format v14

[General]
AudioFilename: audio.mp3
AudioLeadIn: 0
PreviewTime: 88239
Countdown: 0
SampleSet: Soft
StackLeniency: 0.7
Mode: 2
LetterboxInBreaks: 0
WidescreenStoryboard: 1

[Editor]
Bookmarks: 48896
DistanceSpacing: 0.5
BeatDivisor: 4
GridSize: 32
TimelineZoom: 1.7

[Metadata]
Title:Carry Me Away
TitleUnicode:Carry Me Away
Artist:lapix
ArtistUnicode:lapix
Creator:Minato Yukina
Version:Cup
Source:SOUND VOLTEX IV HEAVENLY HAVEN
Tags:SDVX MEGAREX Kanata.N Crystal CLSW Crystality Spectator Sorcerer JBHyperion JBH Rocma _Asriel alienflybot AFB -Luminate chickenbible Secre Xetopia Imai Lisa Rhythm Game Instrumental Electronic
BeatmapID:2131967
BeatmapSetID:1018810

[Difficulty]
HPDrainRate:3
CircleSize:2.5
OverallDifficulty:6
ApproachRate:6
SliderMultiplier:1.25999999999999
SliderTickRate:1

[Events]
//Background and Video events
0,0,"jpeg.jpg",0,0
//Break Periods
2,78388,80080
//Storyboard Layer 0 (Background)
//Storyboard Layer 1 (Fail)
//Storyboard Layer 2 (Pass)
//Storyboard Layer 3 (Foreground)
//Storyboard Layer 4 (Overlay)
//Storyboard Sound Samples

[TimingPoints]
217,342.857142857143,4,2,1,80,1,0
23188,-50,4,2,1,80,0,0
23530,-100,4,2,1,80,0,0
53702,-100,4,2,1,60,0,0
55073,-100,4,2,1,80,0,0
84902,-66.6666666666667,4,2,1,80,0,0
85245,-100,4,2,1,80,0,0
89359,-100,4,2,1,80,0,1
111302,-100,4,2,1,80,0,0

[Colours]
Combo1 : 158,244,106
Combo2 : 109,218,233
Combo3 : 251,138,223
Combo4 : 105,233,188

[HitObjects]
355,67,1588,6,0,P|423:83|377:222,1,251.999999999998,0|0,1:0|2:0,0:0:0:0:
232,145,2788,2,0,L|369:148,1,125.999999999999,4|0,1:2|3:0,0:0:0:0:
203,75,3473,2,0,P|138:104|190:193,1,188.999999999998,4|2,1:2|0:0,0:0:0:0:
358,197,4330,5,4,1:2:0:0:
178,191,4673,1,4,1:2:0:0:
328,119,5016,2,0,L|180:113,1,125.999999999999,0|4,0:0|1:2,0:0:0:0:
353,183,5702,2,0,P|400:208|361:327,1,188.999999999999,4|4,1:2|0:0,0:0:0:0:
214,231,6559,2,0,L|405:231,1,188.999999999999,2|4,3:0|0:0,0:0:0:0:
148,134,7759,6,0,P|109:157|162:268,1,188.999999999999,2|4,0:0|1:2,0:0:0:0:
294,263,8616,1,2,2:2:0:0:
142,158,8959,2,0,P|88:173|110:283,1,188.999999999999,4|2,1:2|0:0,0:0:0:0:
275,188,9816,6,0,L|80:189,1,188.999999999999,4|4,1:2|3:2,0:0:0:0:
222,101,10673,1,4,3:2:0:0:
51,94,11188,2,0,P|36:144|154:213,1,188.999999999999,4|4,0:0|0:0,0:0:0:0:
283,152,12045,2,0,L|149:153,1,125.999999999999,2|0,3:0|0:0,0:0:0:0:
136,63,12559,5,4,1:0:0:0:
292,62,12902,1,4,1:0:0:0:
146,167,13245,2,0,L|241:165,1,94.4999999999993,4|0,1:0|1:0,0:0:0:0:
361,234,13759,2,0,L|171:234,1,188.999999999999,0|0,1:0|1:0,0:0:0:0:
165,151,14445,2,0,L|366:152,1,188.999999999999,4|0,1:2|1:0,0:0:0:0:
194,109,15302,6,0,P|166:166|186:228,1,125.999999999999,4|2,1:0|1:2,0:0:0:0:
241,263,15816,2,0,L|109:261,1,125.999999999999,2|0,2:0|2:0,0:0:0:0:
265,187,16502,2,0,L|395:188,2,125.999999999999,4|4|4,1:2|1:0|1:0,0:0:0:0:
425,287,17531,2,0,P|451:257|431:163,1,125.999999999999,4|0,1:0|1:0,0:0:0:0:
390,111,18045,6,0,L|251:113,2,125.999999999999,4|0|4,1:0|1:0|1:0,0:0:0:0:
241,114,19073,1,0,1:0:0:0:
231,184,19245,2,0,L|366:185,1,125.999999999999,0|4,3:0|1:0,0:0:0:0:
353,261,19759,2,0,L|209:258,2,125.999999999999,4|0|0,1:0|3:0|3:0,0:0:0:0:
196,229,20788,6,0,P|188:161|204:101,1,125.999999999999,2|0,0:0|0:0,0:0:0:0:
318,170,21474,2,0,P|326:102|310:42,1,125.999999999999,2|0,0:0|0:0,0:0:0:0:
147,44,22159,1,0,1:0:0:0:
324,117,22502,2,0,L|455:120,2,125.999999999999,0|0|4,1:0|1:0|1:2,0:0:0:0:
158,114,23531,6,0,P|87:132|174:229,1,251.999999999998,4|8,1:2|1:0,0:0:0:0:
330,278,24730,2,0,L|212:277,2,94.4999999999993,4|4|4,1:2|1:2|1:2,0:0:0:0:
259,234,25416,2,0,L|250:154,1,62.9999999999995,2|4,3:0|3:0,0:0:0:0:
419,112,25930,2,0,L|336:112,1,62.9999999999995,4|0,1:2|1:0,0:0:0:0:
286,112,26273,6,0,P|221:128|138:303,1,251.999999999998,4|4,1:2|1:2,0:0:0:0:
293,272,27302,2,0,L|303:349,1,62.9999999999995,2|4,3:0|1:2,0:0:0:0:
142,341,27816,2,0,L|132:264,1,62.9999999999995,2|4,3:3|1:2,0:0:0:0:
277,195,28331,2,0,L|121:193,1,125.999999999999,0|8,1:0|1:0,0:0:0:0:
320,247,29016,6,0,P|374:229|305:96,1,251.999999999998,4|4,1:2|1:2,0:0:0:0:
240,94,29873,2,0,L|235:167,1,62.9999999999995,0|8,1:2|1:0,0:0:0:0:
387,157,30388,2,0,L|242:154,1,125.999999999999,0|8,1:0|1:0,0:0:0:0:
424,169,31074,2,0,L|434:300,1,125.999999999999,0|8,1:0|1:0,0:0:0:0:
267,293,31759,6,0,P|219:283|236:209,1,125.999999999999,0|8,1:0|1:0,0:0:0:0:
295,211,32273,2,0,P|343:201|306:89,1,188.999999999999,2|2,0:0|1:3,0:0:0:0:
160,87,33130,1,4,0:2:0:0:
256,192,33473,12,0,34159,1:0:0:0:
336,87,34502,6,0,L|187:92,1,125.999999999999,4|8,1:2|1:0,0:0:0:0:
370,143,35188,2,0,P|416:156|364:305,1,251.999999999998,8|0,1:0|1:0,0:0:0:0:
278,252,36130,1,0,1:0:0:0:
381,218,36388,1,0,0:0:0:0:
310,211,36559,2,0,P|241:192|295:60,1,251.999999999998,8|0,1:0|1:0,0:0:0:0:
453,60,37759,6,0,L|459:136,1,62.9999999999995,0|8,1:0|1:0,0:0:0:0:
326,131,38188,2,0,L|321:193,1,62.9999999999995,0|0,1:0|1:0,0:0:0:0:
473,229,38616,2,0,P|397:235|339:336,1,188.999999999999,0|0,1:0|1:0,0:0:0:0:
413,327,39302,2,0,P|457:305|468:227,1,125.999999999999,8|2,1:0|0:0,0:0:0:0:
302,188,39988,6,0,L|155:191,1,125.999999999999,4|0,1:2|0:0,0:0:0:0:
334,277,40673,2,0,P|381:263|333:112,1,251.999999999998,8|0,1:0|1:0,0:0:0:0:
203,125,41616,1,0,1:0:0:0:
329,191,41873,1,4,3:0:0:0:
253,194,42045,2,0,P|181:219|211:317,1,188.999999999999,4|0,1:2|3:0,0:0:0:0:
277,312,42731,6,0,L|417:315,1,125.999999999999,0|8,1:0|1:0,0:0:0:0:
238,232,43416,2,0,L|98:235,1,125.999999999999,0|0,0:0|0:0,0:0:0:0:
271,309,44102,2,0,P|321:287|322:7,1,377.999999999997,0|2,1:0|0:0,0:0:0:0:
160,77,45474,6,0,L|293:79,1,125.999999999999,4|8,1:0|1:0,0:0:0:0:
121,117,46159,2,0,L|113:252,1,125.999999999999,0|8,1:0|1:0,0:0:0:0:
281,291,46845,2,0,L|148:289,1,125.999999999999,0|8,1:0|1:0,0:0:0:0:
307,217,47530,1,0,1:0:0:0:
138,214,47873,1,8,1:0:0:0:
307,217,48216,6,0,L|315:82,1,125.999999999999,0|8,1:0|1:0,0:0:0:0:
160,77,48902,2,0,L|293:79,1,125.999999999999,0|8,1:0|1:0,0:0:0:0:
452,87,49588,2,0,P|381:94|286:250,1,251.999999999998,0|2,1:0|2:0,0:0:0:0:
389,232,50616,1,2,0:0:0:0:
224,229,50959,6,0,L|80:230,1,125.999999999999,4|8,1:2|1:0,0:0:0:0:
261,155,51645,2,0,L|387:156,1,125.999999999999,8|8,1:0|1:0,0:0:0:0:
220,85,52331,2,0,L|206:167,2,62.9999999999995,8|0|8,1:0|1:0|1:0,0:0:0:0:
389,88,53016,2,0,L|403:170,2,62.9999999999995,8|0|8,1:0|1:0|1:0,0:0:0:0:
220,87,53702,6,0,L|211:223,1,125.999999999999,0|0,1:0|1:0,0:0:0:0:
47,209,54388,2,0,L|56:345,1,125.999999999999,0|0,1:0|1:0,0:0:0:0:
228,261,55074,2,0,L|77:261,3,125.999999999999,2|2|2|8,0:0|0:0|0:0|1:0,0:0:0:0:
276,253,56445,6,0,P|306:219|284:129,1,125.999999999999,4|8,1:2|1:0,0:0:0:0:
141,135,57130,2,0,L|133:202,1,62.9999999999995,0|0,1:0|1:0,0:0:0:0:
290,241,57645,2,0,L|90:237,1,188.999999999999,0|8,1:0|1:0,0:0:0:0:
266,239,58502,2,0,P|300:210|308:127,1,125.999999999999,8|2,0:0|0:0,0:0:0:0:
142,121,59188,6,0,P|112:155|134:245,1,125.999999999999,4|8,1:2|1:0,0:0:0:0:
284,232,59874,2,0,P|314:266|292:356,1,125.999999999999,8|0,1:0|1:0,0:0:0:0:
144,342,60730,2,0,L|135:273,1,62.9999999999995,0|8,1:0|1:0,0:0:0:0:
309,221,61245,2,0,L|161:222,1,125.999999999999,8|2,1:0|0:0,0:0:0:0:
16,154,61930,5,4,1:2:0:0:
189,111,62273,1,2,0:0:0:0:
56,106,62616,2,0,L|53:193,1,62.9999999999995,8|0,1:0|1:0,0:0:0:0:
228,238,63130,2,0,P|269:221|236:107,1,188.999999999999,2|0,0:0|0:0,0:0:0:0:
73,73,63988,2,0,L|223:74,1,125.999999999999,8|2,1:0|0:0,0:0:0:0:
364,71,64673,5,2,0:0:0:0:
367,133,64845,1,0,0:0:0:0:
370,196,65017,1,2,0:0:0:0:
202,193,65359,2,0,P|161:206|199:273,1,125.999999999999,2|4,0:0|1:2,0:0:0:0:
345,307,66045,2,0,L|194:307,3,125.999999999999,0|8|8|2,0:0|1:0|1:0|0:0,0:0:0:0:
388,294,67416,6,0,L|391:226,1,62.9999999999995,2|2,1:3|1:3,0:0:0:0:
321,223,67759,1,0,1:0:0:0:
148,160,68102,2,0,L|300:164,1,125.999999999999,2|8,0:0|1:0,0:0:0:0:
106,268,68788,2,0,P|63:242|68:154,1,125.999999999999,0|8,0:0|1:0,0:0:0:0:
226,120,69473,1,0,0:0:0:0:
59,113,69816,1,8,1:0:0:0:
222,180,70159,6,0,L|364:180,1,125.999999999999,8|0,1:0|1:0,0:0:0:0:
185,217,70845,2,0,P|148:187|191:116,1,125.999999999999,0|8,0:0|1:0,0:0:0:0:
347,156,71531,2,0,P|384:126|341:55,1,125.999999999999,0|0,0:0|1:0,0:0:0:0:
192,47,72216,1,8,1:0:0:0:
315,105,72473,1,8,1:0:0:0:
190,112,72730,1,8,1:0:0:0:
118,114,72902,6,0,L|115:259,1,125.999999999999,8|0,1:0|1:0,0:0:0:0:
283,258,73588,2,0,L|146:260,1,125.999999999999,8|0,0:0|1:0,0:0:0:0:
222,239,74102,2,0,P|277:215|256:92,1,188.999999999999,0|0,1:0|1:0,0:0:0:0:
106,61,74959,2,0,L|253:61,1,125.999999999999,8|2,1:0|2:0,0:0:0:0:
401,61,75645,6,0,P|409:156|410:196,1,125.999999999999,2|8,1:2|1:2,0:0:0:0:
314,212,76330,1,8,1:0:0:0:
482,247,76673,1,4,0:2:0:0:
256,192,81130,12,2,83530,0:0:0:0:
289,133,83874,6,0,L|158:133,1,125.999999999999,0|4,1:0|1:2,0:0:0:0:
325,200,84559,2,0,L|194:200,1,125.999999999999,0|0,1:0|1:2,0:0:0:0:
23,203,85245,2,0,L|34:332,1,125.999999999999,0|0,1:0|1:0,0:0:0:0:
198,328,85931,2,0,L|187:199,1,125.999999999999,0|0,1:0|1:0,0:0:0:0:
34,97,86616,6,0,L|27:176,2,62.9999999999995,0|0|0,1:0|1:0|1:0,0:0:0:0:
194,96,87302,1,0,1:0:0:0:
203,158,87473,1,0,1:0:0:0:
212,220,87644,1,0,1:0:0:0:
109,227,87988,2,0,B|-110:53|232:37,1,377.999999999997,2|8,0:0|1:0,0:0:0:0:
69,35,89359,6,0,P|51:93|56:176,1,125.999999999999,0|8,1:0|1:0,0:0:0:0:
223,207,90045,1,0,1:0:0:0:
53,217,90388,1,8,1:0:0:0:
222,135,90731,2,0,L|368:134,1,125.999999999999,0|8,1:0|0:0,0:0:0:0:
191,85,91416,2,0,L|53:85,1,125.999999999999,0|8,1:0|1:0,0:0:0:0:
231,157,92102,6,0,P|271:174|280:262,1,125.999999999999,0|8,1:0|1:0,0:0:0:0:
134,228,92788,2,0,P|108:275|140:358,1,125.999999999999,0|8,1:0|1:0,0:0:0:0:
293,334,93474,2,0,L|435:333,1,125.999999999999,0|8,1:0|1:0,0:0:0:0:
265,235,94159,1,0,1:0:0:0:
431,210,94502,1,8,1:0:0:0:
263,134,94845,6,0,L|109:132,1,125.999999999999,0|8,1:0|1:0,0:0:0:0:
314,167,95531,2,0,P|369:192|361:268,1,125.999999999999,0|8,1:0|1:0,0:0:0:0:
206,281,96216,2,0,L|351:283,1,125.999999999999,0|8,1:0|1:0,0:0:0:0:
172,195,96902,1,0,1:0:0:0:
340,146,97245,1,8,1:0:0:0:
174,97,97588,6,0,L|45:97,1,125.999999999999,0|8,1:0|1:0,0:0:0:0:
208,139,98274,2,0,L|218:264,1,125.999999999999,0|8,1:0|1:0,0:0:0:0:
46,279,98959,2,0,L|311:289,1,251.999999999998,0|0,1:0|1:0,0:0:0:0:
131,202,99988,2,0,L|118:283,1,62.9999999999995,8|0,1:0|1:0,0:0:0:0:
194,263,100330,5,4,1:2:0:0:
353,198,100674,2,0,L|482:201,2,125.999999999999,8|0|8,1:0|1:0|1:0,0:0:0:0:
186,118,101702,2,0,L|340:120,1,125.999999999999,0|8,1:0|1:0,0:0:0:0:
151,67,102388,2,0,L|21:67,1,125.999999999999,0|8,1:0|1:0,0:0:0:0:
194,246,103073,6,0,P|246:229|190:79,1,251.999999999998,0|0,1:0|1:0,0:0:0:0:
46,82,104102,1,8,1:0:0:0:
209,132,104445,2,0,L|334:134,1,125.999999999999,0|8,1:0|1:0,0:0:0:0:
171,209,105131,2,0,L|32:208,1,125.999999999999,0|8,1:0|1:0,0:0:0:0:
212,311,105816,6,0,L|217:177,1,125.999999999999,6|8,0:2|1:0,0:0:0:0:
384,176,106502,1,0,1:0:0:0:
218,109,106845,1,8,1:0:0:0:
390,112,107188,2,0,L|385:246,1,125.999999999999,4|8,1:2|1:0,0:0:0:0:
218,247,107874,1,0,1:0:0:0:
384,314,108216,1,8,1:0:0:0:
216,303,108559,6,0,L|65:300,3,125.999999999999,0|8|0|8,1:0|1:0|1:0|1:0,0:0:0:0:
260,304,109931,2,0,L|263:163,1,125.999999999999,4|8,1:2|1:0,0:0:0:0:
97,133,110616,1,8,1:0:0:0:
263,101,110959,1,8,1:0:0:0:
98,97,111302,6,0,P|60:117|101:244,1,188.999999999999,4|2,1:2|0:3,0:0:0:0:
151,242,111988,2,0,L|292:246,1,125.999999999999,8|0,1:0|0:0,0:0:0:0:
112,237,112674,2,0,L|99:370,1,125.999999999999,0|0,1:0|3:0,0:0:0:0:
264,369,113359,2,0,L|277:236,1,125.999999999999,8|0,1:0|0:0,0:0:0:0:
109,139,114045,6,0,L|251:140,1,125.999999999999,0|0,1:0|1:0,0:0:0:0:
401,107,114730,1,8,1:0:0:0:
236,93,115073,1,0,0:0:0:0:
398,298,115416,2,0,P|448:278|397:130,1,251.999999999998,0|8,1:0|1:0,0:0:0:0:
239,129,116445,1,4,0:0:0:0:
256,192,116788,12,0,119445,0:0:0:0:
