osu file format v14

[General]
AudioFilename: audio.mp3
AudioLeadIn: 0
PreviewTime: 170008
Countdown: 0
SampleSet: Normal
StackLeniency: 0.2
Mode: 0
LetterboxInBreaks: 0
WidescreenStoryboard: 0

[Editor]
Bookmarks: 980,17437,22922,33894,44865,55837,66808,94237,116180,127151,149094,171037,214922,231379,236865
DistanceSpacing: 1
BeatDivisor: 4
GridSize: 16
TimelineZoom: 2.5

[Metadata]
Title:Carry Me Away (Extended Mix)
TitleUnicode:Carry Me Away (Extended Mix)
Artist:lapix
ArtistUnicode:lapix
Creator:UrbanBeat
Version:Bright Lights
Source:SOUND VOLTEX IV HEAVENLY HEAVEN
Tags:electronic english kanata.n
BeatmapID:2124919
BeatmapSetID:1015335

[Difficulty]
HPDrainRate:5
CircleSize:4
OverallDifficulty:9
ApproachRate:9.6
SliderMultiplier:1.8
SliderTickRate:1

[Events]
//Background and Video events
0,0,"65706791_p0(CUnet)(noise_scale)(Level3)(x2.000000).jpg",0,0
//Break Periods
2,149636,151327
2,152379,154070
//Storyboard Layer 0 (Background)
//Storyboard Layer 1 (Fail)
//Storyboard Layer 2 (Pass)
//Storyboard Layer 3 (Foreground)
//Storyboard Layer 4 (Overlay)
//Storyboard Sound Samples

[TimingPoints]
980,342.857142857143,4,1,0,70,1,0
980,-66.6666666666667,4,1,0,70,0,0
17780,-62.5,4,1,0,70,0,0
18122,-58.8235294117647,4,1,0,70,0,0
18465,-55.5555555555556,4,1,0,70,0,0
18808,-66.6666666666667,4,1,0,70,0,0
19494,-33.3333333333333,4,1,0,70,0,0
22580,-500,4,1,0,70,0,0
22837,-500,4,1,0,5,0,0
22922,-66.6666666666667,4,1,0,70,0,0
23608,-125,4,1,0,70,0,0
24122,-66.6666666666667,4,1,0,70,0,0
25151,-125,4,1,0,70,0,0
25665,-66.6666666666667,4,1,0,70,0,0
29094,-125,4,1,0,70,0,0
29608,-66.6666666666667,4,1,0,70,0,0
30637,-125,4,1,0,70,0,0
31151,-83.3333333333333,4,1,0,70,0,0
33551,-250,4,1,0,70,0,0
33851,-250,4,1,0,5,0,0
33894,-66.6666666666667,4,1,0,70,0,0
34237,-83.3333333333333,4,1,0,70,0,0
44522,-58.8235294117647,4,1,0,70,0,0
46065,-100,4,1,0,70,0,0
46922,-66.6666666666667,4,1,0,70,0,0
47265,-55.5555555555556,4,1,0,70,0,0
47608,-66.6666666666667,4,1,0,70,0,0
48294,-50,4,1,0,70,0,0
50008,-100,4,1,0,70,0,0
50351,-66.6666666666667,4,1,0,70,0,0
54465,-200,4,1,0,70,0,0
55837,-83.3333333333333,4,1,0,70,0,0
64065,-66.6666666666667,4,1,0,70,0,0
66722,-83.3333333333333,4,1,0,5,0,0
66808,-83.3333333333333,4,1,0,70,0,0
87380,348.837209302326,4,1,0,70,1,0
87380,-83.3333333333333,4,1,0,70,0,0
88751,342.857142857143,4,1,0,70,1,0
88751,-125,4,1,0,70,0,0
90122,-66.6666666666667,4,1,0,70,0,0
94236,-50,4,1,0,70,0,0
94579,-66.6666666666667,4,1,0,70,0,0
95608,-125,4,1,0,70,0,0
95951,-66.6666666666667,4,1,0,70,0,0
99379,-100,4,1,0,70,0,0
99722,-50,4,1,0,70,0,0
100065,-100,4,1,0,70,0,0
100922,-66.6666666666667,4,1,0,70,0,0
102465,-125,4,1,0,70,0,0
104179,-83.3333333333333,4,1,0,70,0,0
105208,-66.6666666666667,4,1,0,70,0,0
110008,-58.8235294117647,4,1,0,70,0,0
110693,-66.6666666666667,4,1,0,70,0,0
113436,-100,4,1,0,70,0,0
114465,-83.3333333333333,4,1,0,70,0,0
121579,-83.3333333333333,4,1,0,5,0,0
121665,-125,4,1,0,50,0,0
124408,-125,4,1,0,60,0,0
126465,-83.3333333333333,4,1,0,70,0,0
127151,-100,4,1,0,70,0,0
149093,-83.3333333333333,4,1,0,70,0,0
149351,-83.3333333333333,4,1,0,5,0,0
149436,-83.3333333333333,4,1,0,70,0,0
152093,-83.3333333333333,4,1,0,5,0,0
152179,-83.3333333333333,4,1,0,70,0,0
154836,-83.3333333333333,4,1,0,5,0,0
154922,-83.3333333333333,4,1,0,70,0,0
156208,-83.3333333333333,4,1,0,5,0,0
156293,-83.3333333333333,4,1,0,70,0,0
157579,-83.3333333333333,4,1,0,5,0,0
157665,-83.3333333333333,4,1,0,70,0,0
158265,-83.3333333333333,4,1,0,5,0,0
158351,-83.3333333333333,4,1,0,70,0,0
168293,-25,4,1,0,70,0,0
170008,-66.6666666666667,4,1,0,70,0,0
170351,-125,4,1,0,70,0,0
171037,-66.6666666666667,4,1,0,70,0,1
191608,-66.6666666666667,4,1,0,70,0,0
192980,-66.6666666666667,4,1,0,70,0,1
213551,-66.6666666666667,4,1,0,70,0,0
214922,-66.6666666666667,4,1,0,70,0,0
231722,-62.5,4,1,0,70,0,0
232065,-58.8235294117647,4,1,0,70,0,0
232408,-55.5555555555556,4,1,0,70,0,0
232751,-66.6666666666667,4,1,0,70,0,0
233436,-33.3333333333333,4,1,0,70,0,0
234122,-100,4,1,0,50,0,0

[HitObjects]
120,227,980,6,0,P|153:227|186:218,1,67.5000025749208,4|0,0:0|0:0,0:0:0:0:
360,259,1151,1,0,0:0:0:0:
360,259,1237,1,0,0:0:0:0:
360,259,1322,2,0,P|327:250|298:233,1,67.5000025749208,8|0,0:0|0:0,0:0:0:0:
217,102,1494,5,0,0:0:0:0:
217,102,1580,2,0,L|225:34,1,67.5000025749208
308,49,1751,2,0,L|299:116,1,67.5000025749208
248,189,1922,1,0,0:0:0:0:
237,202,2008,5,8,0:0:0:0:
289,210,2094,1,0,0:0:0:0:
342,218,2180,1,0,0:0:0:0:
395,227,2265,1,0,0:0:0:0:
447,234,2351,6,0,P|446:201|453:168,1,67.5000025749208,4|0,0:0|0:0,0:0:0:0:
286,297,2522,1,0,0:0:0:0:
283,304,2608,1,0,0:0:0:0:
281,311,2694,2,0,P|279:344|286:377,1,67.5000025749208,8|0,0:0|0:0,0:0:0:0:
449,331,2865,5,0,0:0:0:0:
440,324,2951,2,0,P|407:324|374:330,1,67.5000025749208
362,216,3122,2,0,P|328:216|295:210,1,67.5000025749208
203,249,3294,1,0,0:0:0:0:
191,254,3380,5,8,0:0:0:0:
143,228,3465,1,0,0:0:0:0:
122,177,3551,1,0,0:0:0:0:
131,123,3637,1,0,0:0:0:0:
169,85,3722,6,0,L|237:91,1,67.5000025749208,4|0,0:0|0:0,0:0:0:0:
422,109,3894,1,0,0:0:0:0:
422,109,3980,1,0,0:0:0:0:
422,109,4065,2,0,L|490:115,1,67.5000025749208,8|0,0:0|0:0,0:0:0:0:
336,57,4237,5,0,0:0:0:0:
330,65,4322,2,0,P|322:97|323:131,1,67.5000025749208
396,192,4494,2,0,P|403:224|402:258,1,67.5000025749208
342,329,4665,1,0,0:0:0:0:
331,334,4751,5,8,0:0:0:0:
270,302,4837,1,0,0:0:0:0:
245,239,4922,1,0,0:0:0:0:
188,276,5008,1,0,0:0:0:0:
120,269,5094,2,0,B|86:273|57:289|57:289|44:254|12:238,1,135.000005149842
12,145,5351,1,0,0:0:0:0:
11,132,5437,5,8,0:0:0:0:
50,77,5522,1,0,0:0:0:0:
116,64,5608,1,0,0:0:0:0:
177,91,5694,1,0,0:0:0:0:
205,152,5780,6,0,L|197:219,1,67.5000025749208
287,228,5951,2,0,L|294:160,1,67.5000025749208
265,42,6122,1,8,0:0:0:0:
229,322,6294,1,8,0:0:0:0:
293,160,6465,6,0,P|327:153|360:157,1,67.5000025749208,4|0,0:0|0:0,0:0:0:0:
509,126,6637,1,0,0:0:0:0:
509,126,6722,1,0,0:0:0:0:
509,126,6808,2,0,P|475:128|443:140,1,67.5000025749208,8|0,0:0|0:0,0:0:0:0:
333,248,6980,5,0,0:0:0:0:
334,254,7065,2,0,L|346:320,1,67.5000025749208
512,289,7237,2,0,L|499:222,1,67.5000025749208
410,148,7408,1,0,0:0:0:0:
403,157,7494,5,8,0:0:0:0:
414,210,7580,1,0,0:0:0:0:
422,262,7665,1,0,0:0:0:0:
430,315,7751,1,0,0:0:0:0:
439,367,7837,6,0,P|407:379|373:380,1,67.5000025749208,4|0,0:0|0:0,0:0:0:0:
281,232,8008,1,0,0:0:0:0:
281,232,8094,1,0,0:0:0:0:
281,232,8180,2,0,P|249:220|215:219,1,67.5000025749208,8|0,0:0|0:0,0:0:0:0:
117,328,8351,5,0,0:0:0:0:
117,328,8437,2,0,L|122:260,1,67.5000025749208
35,185,8608,2,0,L|29:252,1,67.5000025749208
129,140,8780,1,0,0:0:0:0:
131,126,8865,5,8,0:0:0:0:
172,161,8951,1,0,0:0:0:0:
226,160,9037,1,0,0:0:0:0:
268,127,9122,1,0,0:0:0:0:
286,75,9208,6,0,P|285:42|293:9,1,67.5000025749208,4|0,0:0|0:0,0:0:0:0:
377,195,9380,1,0,0:0:0:0:
377,195,9465,1,0,0:0:0:0:
377,195,9551,2,0,P|348:213|316:222,1,67.5000025749208,8|0,0:0|0:0,0:0:0:0:
435,57,9722,5,0,0:0:0:0:
435,57,9808,1,0,0:0:0:0:
435,57,9894,2,0,P|465:72|489:95,1,67.5000025749208,4|0,0:0|0:0,0:0:0:0:
490,188,10065,1,0,0:0:0:0:
487,195,10151,2,0,P|481:228|482:261,1,67.5000025749208,4|8,0:0|0:0,0:0:0:0:
392,301,10322,5,0,0:0:0:0:
392,294,10408,2,0,P|393:260|387:227,1,67.5000025749208,4|0,0:0|0:0,0:0:0:0:
323,159,10580,1,0,0:0:0:0:
317,157,10665,2,0,L|249:148,1,67.5000025749208,4|0,0:0|0:0,0:0:0:0:
198,227,10837,1,0,0:0:0:0:
192,229,10922,2,0,L|124:238,1,67.5000025749208,12|0,0:0|0:0,0:0:0:0:
45,196,11094,2,0,P|40:162|46:129,1,67.5000025749208,4|0,0:0|0:0,0:0:0:0:
170,5,11265,5,0,0:0:0:0:
176,3,11608,1,0,0:0:0:0:
250,148,11951,6,0,L|317:141,1,67.5000025749208,4|0,0:0|0:0,0:0:0:0:
330,226,12122,2,0,L|262:232,1,67.5000025749208
142,216,12294,1,8,0:0:0:0:
116,264,12380,1,0,0:0:0:0:
123,318,12465,1,0,0:0:0:0:
163,354,12551,2,0,L|247:361,1,67.5000025749208
320,300,12722,1,0,0:0:0:0:
323,292,12808,2,0,P|332:259|330:225,1,67.5000025749208
244,118,12980,5,8,0:0:0:0:
271,72,13065,1,0,0:0:0:0:
321,51,13151,1,0,0:0:0:0:
372,67,13237,1,0,0:0:0:0:
403,108,13322,6,0,P|434:122|468:123,1,67.5000025749208
512,252,13494,1,0,0:0:0:0:
454,215,13580,1,0,0:0:0:0:
389,218,13665,1,8,0:0:0:0:
341,265,13751,1,0,0:0:0:0:
291,305,13837,1,0,0:0:0:0:
224,299,13922,1,0,0:0:0:0:
190,240,14008,6,0,P|187:206|193:173,1,67.5000025749208
85,60,14180,2,0,P|90:93|88:126,1,67.5000025749208
195,105,14351,6,0,P|197:138|191:171,1,67.5000025749208,8|0,0:0|0:0,0:0:0:0:
84,192,14522,2,0,P|81:158|87:125,1,67.5000025749208
170,18,14694,6,0,P|203:14|236:22,1,67.5000025749208,4|0,0:0|0:0,0:0:0:0:
295,155,14865,1,0,0:0:0:0:
295,155,14951,1,0,0:0:0:0:
295,155,15037,2,0,P|328:158|361:150,1,67.5000025749208,8|0,0:0|0:0,0:0:0:0:
453,190,15208,5,0,0:0:0:0:
453,182,15294,2,0,L|460:105,1,67.5000025749208
319,61,15465,2,0,L|326:138,1,67.5000025749208
333,236,15637,1,0,0:0:0:0:
331,245,15722,6,0,P|299:257|266:256,1,67.5000025749208,8|0,0:0|0:0,0:0:0:0:
148,181,15894,1,0,0:0:0:0:
146,113,15980,1,0,0:0:0:0:
188,61,16065,2,0,B|253:37|252:88|319:61,1,135.000005149842,4|0,0:0|0:0,0:0:0:0:
408,12,16322,1,0,0:0:0:0:
400,22,16408,5,8,0:0:0:0:
403,89,16494,1,0,0:0:0:0:
410,156,16580,1,0,0:0:0:0:
416,222,16665,1,0,0:0:0:0:
420,288,16751,6,0,P|454:290|486:280,1,67.5000025749208
332,143,16922,2,0,P|365:141|397:151,1,67.5000025749208
286,267,17094,5,8,0:0:0:0:
502,189,17265,1,0,0:0:0:0:
338,75,17437,6,0,L|332:143,1,67.5000025749208
423,87,17608,2,0,L|416:154,1,67.5000025749208
255,227,17780,6,0,L|249:156,1,72
339,214,17951,2,0,L|332:143,1,72
171,67,18122,6,0,L|164:143,1,76.5000014591217
256,79,18293,2,0,L|249:155,1,76.5000014591217
88,237,18465,6,0,L|81:156,1,80.9999975280763
172,224,18636,2,0,L|165:143,1,80.9999975280763
20,66,18808,5,0,0:0:0:0:
64,15,18894,1,0,0:0:0:0:
131,5,18980,1,0,0:0:0:0:
192,32,19065,1,0,0:0:0:0:
213,96,19151,1,0,0:0:0:0:
254,149,19237,1,0,0:0:0:0:
320,156,19322,1,0,0:0:0:0:
374,115,19408,1,0,0:0:0:0:
321,73,19494,6,0,L|373:115,1,67.5000025749208
308,99,19580,2,0,L|373:114,1,67.5000025749208
308,129,19665,2,0,L|374:115,1,67.5000025749208
320,156,19751,2,0,L|374:115,1,67.5000025749208
402,208,19837,6,0,L|347:248,1,67.5000025749208
414,235,19922,2,0,L|347:248,1,67.5000025749208
413,264,20008,2,0,L|347:248,1,67.5000025749208
400,290,20094,2,0,L|347:247,1,67.5000025749208
314,334,20180,5,0,0:0:0:0:
256,192,20222,12,0,21551,0:0:0:0:
345,112,22408,5,0,0:0:0:0:
164,251,22580,2,0,L|166:219,1,31.5,8|0,0:0|0:0,0:0:0:0:
169,192,22922,6,0,B|230:164|233:217|300:187,1,135.000005149842,2|0,0:0|0:0,0:0:0:0:
429,82,23265,1,2,0:0:0:0:
426,71,23351,1,0,0:0:0:0:
346,45,23437,1,0,0:0:0:0:
349,34,23523,1,0,0:0:0:0:
263,65,23608,2,0,L|267:100,1,36,2|0,0:0|0:0,0:0:0:0:
349,172,23780,2,0,L|353:136,1,36,2|0,0:0|0:0,0:0:0:0:
183,132,23951,1,0,0:0:0:0:
322,332,24122,6,0,B|363:318|363:318|413:330|413:330|451:318,1,135.000005149842,2|0,0:0|0:0,0:0:0:0:
139,260,24465,1,2,0:0:0:0:
139,260,24551,1,0,0:0:0:0:
139,260,24637,1,0,0:0:0:0:
348,172,24808,2,0,P|372:110|345:50,1,135.000005149842,2|0,0:0|0:0,0:0:0:0:
123,115,25151,6,0,L|126:79,1,36
283,117,25322,2,0,L|211:111,1,72,2|2,0:0|0:0,0:0:0:0:
10,297,25665,6,0,B|43:294|43:294|73:308|73:308|102:289|102:289|135:285,1,135.000005149842,2|2,0:0|0:0,0:0:0:0:
427,325,26008,2,0,B|434:290|434:290|428:258,1,67.5000025749208,2|0,0:0|0:0,0:0:0:0:
238,269,26180,2,0,B|231:234|231:234|236:202,1,67.5000025749208
392,89,26351,1,0,0:0:0:0:
394,82,26437,1,0,0:0:0:0:
397,75,26522,1,0,0:0:0:0:
323,315,26694,2,0,B|260:289|259:339|191:312,1,135.000005149842
91,151,27037,6,0,P|90:83|75:18,1,135.000005149842,2|0,0:0|0:0,0:0:0:0:
12,246,27380,1,2,0:0:0:0:
184,127,27551,2,0,P|185:93|193:60,1,67.5000025749208,2|0,0:0|0:0,0:0:0:0:
309,185,27894,6,0,P|275:187|243:198,1,67.5000025749208,2|0,0:0|0:0,0:0:0:0:
176,286,28065,1,0,0:0:0:0:
177,297,28151,1,0,0:0:0:0:
179,308,28237,1,2,0:0:0:0:
180,317,28322,1,0,0:0:0:0:
182,326,28408,6,0,B|220:321|245:298|245:298|262:323|299:333,1,135.000005149842,2|0,0:0|0:0,0:0:0:0:
487,292,28751,1,2,0:0:0:0:
487,285,28837,1,0,0:0:0:0:
406,247,28922,1,0,0:0:0:0:
406,240,29008,1,0,0:0:0:0:
480,197,29094,2,0,L|476:160,1,36,2|0,0:0|0:0,0:0:0:0:
381,332,29265,2,0,L|377:371,1,36,2|0,0:0|0:0,0:0:0:0:
347,169,29437,1,0,0:0:0:0:
146,336,29608,6,0,B|46:341|46:341|75:322,1,135.000005149842,2|0,0:0|0:0,0:0:0:0:
255,112,29951,1,2,0:0:0:0:
255,103,30037,1,0,0:0:0:0:
255,94,30122,1,0,0:0:0:0:
405,304,30294,2,0,B|364:290|364:290|314:302|314:302|276:290,1,135.000005149842,2|0,0:0|0:0,0:0:0:0:
124,116,30637,2,0,L|159:111,1,36,2|0,0:0|0:0,0:0:0:0:
299,190,30808,2,0,P|264:200|229:196,1,72,2|2,0:0|0:0,0:0:0:0:
361,43,31151,6,0,P|372:34|384:28,1,26.9999991760254,2|0,0:0|0:0,0:0:0:0:
392,43,31237,2,0,P|405:38|419:37,1,26.9999991760254
422,56,31322,2,0,P|436:58|446:66,1,26.9999991760254
441,83,31408,2,0,P|450:92|457:104,1,26.9999991760254
446,115,31494,2,0,L|439:168,1,53.9999983520508,2|0,0:0|0:0,0:0:0:0:
305,269,31665,2,0,P|299:242|298:215,3,53.9999983520508
506,295,32008,2,0,P|505:322|500:349,5,53.9999983520508
350,349,32522,6,0,P|297:358|247:339,1,107.999996704102,2|0,0:0|0:0,0:0:0:0:
48,251,32865,5,0,0:0:0:0:
111,266,32951,1,0,0:0:0:0:
172,245,33037,1,2,0:0:0:0:
205,190,33122,1,0,0:0:0:0:
205,124,33208,5,0,0:0:0:0:
215,142,33294,1,0,0:0:0:0:
231,155,33380,1,2,0:0:0:0:
251,161,33465,1,0,0:0:0:0:
270,159,33551,6,0,B|301:150|301:150|331:149,1,63,8|0,0:0|0:0,0:0:0:0:
347,159,33894,6,0,B|333:200|333:200|345:250|345:250|333:288,1,135.000005149842,6|0,0:0|0:0,0:0:0:0:
82,199,34237,2,0,P|132:180|183:193,1,107.999996704102,2|0,0:0|0:0,0:0:0:0:
286,366,34580,2,0,P|337:378|387:360,1,107.999996704102,2|0,0:0|0:0,0:0:0:0:
507,343,34837,2,0,P|455:355|405:337,1,107.999996704102,2|0,0:0|0:0,0:0:0:0:
332,288,35094,2,0,L|338:230,1,53.9999983520508,2|0,0:0|0:0,0:0:0:0:
353,65,35265,5,0,0:0:0:0:
464,268,35437,1,2,0:0:0:0:
194,226,35608,1,2,0:0:0:0:
444,106,35780,2,0,B|459:58|459:58|436:5,1,107.999996704102
238,85,36122,1,0,0:0:0:0:
238,85,36208,1,0,0:0:0:0:
238,85,36294,1,0,0:0:0:0:
353,65,36465,1,0,0:0:0:0:
179,274,36637,6,0,B|126:266|127:292|73:274,1,107.999996704102,0|2,0:0|0:0,0:0:0:0:
368,182,36980,2,0,B|421:174|420:200|473:182,1,107.999996704102,2|2,0:0|0:0,0:0:0:0:
184,175,37322,2,0,P|160:127|170:74,1,107.999996704102
327,54,37580,2,0,P|350:101|339:154,1,107.999996704102,2|0,0:0|0:0,0:0:0:0:
276,263,37837,2,0,L|268:207,1,53.9999983520508,2|0,0:0|0:0,0:0:0:0:
256,115,38008,5,0,0:0:0:0:
289,355,38180,1,2,0:0:0:0:
339,153,38351,1,0,0:0:0:0:
194,321,38522,2,0,P|142:333|93:312,1,107.999996704102,2|0,0:0|0:0,0:0:0:0:
42,91,38865,2,0,P|68:86|95:90,1,53.9999983520508,2|0,0:0|0:0,0:0:0:0:
155,154,39037,5,0,0:0:0:0:
166,157,39122,1,0,0:0:0:0:
245,118,39208,5,0,0:0:0:0:
256,115,39293,1,0,0:0:0:0:
339,153,39380,6,0,P|365:155|391:149,3,53.9999983520508
185,250,39722,2,0,P|170:271|162:297,1,53.9999983520508,2|0,0:0|0:0,0:0:0:0:
178,67,39894,2,0,P|166:42|147:23,1,53.9999983520508
306,260,40065,6,0,L|336:306,3,53.9999983520508,2|0|2|0,0:0|0:0|0:0|0:0,0:0:0:0:
120,163,40408,2,0,L|66:165,1,53.9999983520508,2|0,0:0|0:0,0:0:0:0:
297,50,40580,2,0,L|321:1,1,53.9999983520508,2|0,0:0|0:0,0:0:0:0:
185,250,40751,5,0,0:0:0:0:
201,312,40837,1,0,0:0:0:0:
256,343,40922,1,2,0:0:0:0:
317,322,41008,1,0,0:0:0:0:
346,263,41094,1,2,0:0:0:0:
388,213,41180,1,0,0:0:0:0:
452,210,41265,1,0,0:0:0:0:
498,254,41351,1,0,0:0:0:0:
495,318,41437,5,0,0:0:0:0:
466,260,41522,1,0,0:0:0:0:
406,234,41608,1,0,0:0:0:0:
346,263,41694,1,0,0:0:0:0:
294,302,41780,1,0,0:0:0:0:
229,299,41865,1,0,0:0:0:0:
185,250,41951,1,0,0:0:0:0:
187,185,42037,1,0,0:0:0:0:
229,136,42122,6,0,L|255:132,7,26.9999991760254,2|0|0|0|0|0|0|0,0:0|0:0|0:0|0:0|0:0|0:0|0:0|0:0,0:0:0:0:
321,67,42465,2,0,L|337:88,7,26.9999991760254,2|0|0|0|0|0|0|0,0:0|0:0|0:0|0:0|0:0|0:0|0:0|0:0,0:0:0:0:
426,112,42808,2,0,L|415:136,7,26.9999991760254,2|0|0|0|0|0|0|0,0:0|0:0|0:0|0:0|0:0|0:0|0:0|0:0,0:0:0:0:
439,226,43151,2,0,L|412:229,7,26.9999991760254,2|0|0|0|0|0|0|0,0:0|0:0|0:0|0:0|0:0|0:0|0:0|0:0,0:0:0:0:
369,311,43494,6,2,B|336:293|336:293|266:304,1,107.999996704102
12,266,43837,2,0,B|48:257|48:257|112:286,1,107.999996704102,2|0,0:0|0:0,0:0:0:0:
213,106,44180,1,0,0:0:0:0:
212,114,44265,1,0,0:0:0:0:
195,250,44351,2,0,L|202:197,1,53.9999983520508
111,47,44522,6,0,B|161:45|161:45|214:80|214:80|273:59|273:59|325:72,1,229.500004377365
500,218,44865,6,0,L|503:259,7,26.9999991760254
422,88,45208,5,8,0:0:0:0:
418,116,45294,1,0,0:0:0:0:
414,144,45380,1,0,0:0:0:0:
410,172,45465,1,0,0:0:0:0:
406,200,45551,5,0,0:0:0:0:
307,161,45637,1,0,0:0:0:0:
208,196,45722,2,0,P|207:234|218:270,1,76.5000014591217
326,337,45894,6,0,P|342:349|360:353,1,38.2500007295609
345,337,45980,2,0,P|362:345|380:348,1,38.2500007295609
363,336,46065,2,0,P|407:343|449:327,1,90
491,190,46322,2,0,P|447:183|405:199,1,90
218,270,46580,2,0,L|221:225,1,45
88,105,46751,5,0,0:0:0:0:
195,95,46837,1,0,0:0:0:0:
302,85,46922,2,0,L|313:219,1,135.000005149842,8|0,0:0|0:0,0:0:0:0:
402,265,47180,5,0,0:0:0:0:
405,249,47265,2,0,B|416:186|416:186|405:199,1,80.9999975280763
122,206,47437,2,0,B|111:143|111:143|121:156,1,80.9999975280763
405,78,47608,6,0,B|438:69|438:69|471:71,2,67.5000025749208
153,297,47951,2,0,L|102:303,4,33.7500012874604
219,376,48208,5,0,0:0:0:0:
230,363,48294,2,0,P|253:278|201:205,1,180,8|0,0:0|0:0,0:0:0:0:
41,278,48551,1,0,0:0:0:0:
30,312,48637,2,0,L|119:300,1,90
293,197,48808,2,0,L|204:207,1,90,8|0,0:0|0:0,0:0:0:0:
406,358,48980,6,0,P|422:316|417:272,1,90
215,121,49151,2,0,P|198:162|203:206,1,90,8|0,0:0|0:0,0:0:0:0:
424,173,49322,2,0,P|429:128|412:87,1,90
193,121,49494,2,0,P|187:165|204:206,1,90,8|0,0:0|0:0,0:0:0:0:
417,272,49665,5,8,0:0:0:0:
422,272,49751,1,0,0:0:0:0:
427,272,49837,1,0,0:0:0:0:
432,272,49922,1,0,0:0:0:0:
345,349,50008,6,0,L|300:352,3,45,8|0|0|0,0:0|0:0|0:0|0:0,0:0:0:0:
254,184,50351,6,0,B|158:135|159:227|61:186,1,202.500007724762
26,106,50694,5,0,0:0:0:0:
26,101,50780,1,0,0:0:0:0:
27,96,50866,1,0,0:0:0:0:
28,91,50951,1,0,0:0:0:0:
29,86,51037,5,0,0:0:0:0:
83,36,51122,1,0,0:0:0:0:
157,36,51208,1,0,0:0:0:0:
203,93,51294,1,0,0:0:0:0:
216,165,51380,1,8,0:0:0:0:
263,221,51465,1,0,0:0:0:0:
336,229,51551,1,0,0:0:0:0:
399,188,51637,1,0,0:0:0:0:
431,121,51722,6,0,L|424:49,1,67.5000025749208
446,267,51894,2,0,L|453:339,1,67.5000025749208
326,94,52065,6,0,L|320:162,1,67.5000025749208,8|0,0:0|0:0,0:0:0:0:
298,375,52237,2,0,L|305:308,1,67.5000025749208
177,142,52408,6,0,L|183:209,1,67.5000025749208
394,281,52580,2,0,L|401:209,1,67.5000025749208
138,290,52751,6,0,P|169:300|203:299,1,67.5000025749208,8|0,0:0|0:0,0:0:0:0:
277,150,52922,2,0,P|308:139|342:140,1,67.5000025749208
488,256,53094,5,0,0:0:0:0:
177,142,53265,1,0,0:0:0:0:
452,19,53437,2,0,L|437:153,1,135.000005149842,8|0,0:0|0:0,0:0:0:0:
382,228,53694,1,0,0:0:0:0:
382,237,53780,1,0,0:0:0:0:
154,46,53951,2,0,L|220:55,1,67.5000025749208
351,74,54122,5,2,0:0:0:0:
357,75,54294,1,2,0:0:0:0:
113,298,54465,6,0,P|112:241|100:186,1,112.5
261,73,54980,2,0,P|249:127|248:184,1,112.5
348,330,55494,1,0,0:0:0:0:
260,315,55665,1,0,0:0:0:0:
497,129,55837,6,0,B|463:128|463:128|443:121|443:121|426:130|426:130|392:133,1,107.999996704102
266,178,56180,1,0,0:0:0:0:
268,190,56265,1,0,0:0:0:0:
206,101,56351,1,0,0:0:0:0:
204,113,56436,1,0,0:0:0:0:
282,47,56522,6,0,B|333:28|333:28|385:39,1,107.999996704102,8|0,0:0|0:0,0:0:0:0:
451,222,56780,2,0,B|400:241|400:241|347:229,1,107.999996704102
168,259,57037,5,0,0:0:0:0:
152,299,57122,1,0,0:0:0:0:
159,343,57208,2,0,L|266:332,1,107.999996704102
341,269,57465,1,0,0:0:0:0:
348,230,57551,1,0,0:0:0:0:
331,196,57637,1,0,0:0:0:0:
355,167,57722,1,0,0:0:0:0:
319,154,57808,1,0,0:0:0:0:
350,132,57894,6,0,P|341:106|339:79,1,53.9999983520508,8|0,0:0|0:0,0:0:0:0:
195,14,58065,2,0,P|192:40|184:66,1,53.9999983520508
428,85,58237,2,0,P|430:58|425:31,1,53.9999983520508
229,143,58408,2,0,P|229:169|236:195,1,53.9999983520508
348,230,58580,5,0,0:0:0:0:
385,225,58665,1,0,0:0:0:0:
422,219,58751,1,0,0:0:0:0:
459,213,58837,1,0,0:0:0:0:
502,145,58922,5,0,0:0:0:0:
447,169,59008,1,0,0:0:0:0:
384,162,59094,1,0,0:0:0:0:
338,117,59180,1,0,0:0:0:0:
301,67,59265,6,0,P|253:50|198:61,1,107.999996704102,8|0,0:0|0:0,0:0:0:0:
29,162,59522,6,0,L|82:166,1,53.9999983520508
240,202,59694,2,0,L|244:148,2,53.9999983520508
132,298,59951,5,0,0:0:0:0:
95,293,60036,1,0,0:0:0:0:
58,287,60122,1,0,0:0:0:0:
21,281,60208,1,0,0:0:0:0:
126,350,60294,5,0,0:0:0:0:
169,304,60380,1,0,0:0:0:0:
176,239,60465,1,0,0:0:0:0:
145,183,60551,1,0,0:0:0:0:
82,166,60637,6,0,L|29:162,1,53.9999983520508,12|0,0:0|0:0,0:0:0:0:
149,8,60808,2,0,L|202:3,1,53.9999983520508
288,113,60980,1,0,0:0:0:0:
193,99,61151,1,0,0:0:0:0:
408,331,61322,6,0,P|405:304|407:277,1,53.9999983520508,4|0,0:0|0:0,0:0:0:0:
482,167,61494,2,0,P|484:193|481:220,1,53.9999983520508
310,308,61665,5,0,0:0:0:0:
298,312,61751,1,0,0:0:0:0:
266,231,61837,1,0,0:0:0:0:
254,227,61923,1,0,0:0:0:0:
207,304,62008,6,0,P|156:318|107:297,1,107.999996704102,8|0,0:0|0:0,0:0:0:0:
121,113,62265,2,0,P|158:150|165:202,1,107.999996704102
15,342,62522,5,0,0:0:0:0:
7,314,62608,1,0,0:0:0:0:
0,283,62694,2,0,P|13:231|55:199,1,107.999996704102
165,203,62951,1,0,0:0:0:0:
182,198,63037,5,0,0:0:0:0:
213,154,63122,1,0,0:0:0:0:
209,99,63208,1,0,0:0:0:0:
170,61,63294,1,0,0:0:0:0:
88,136,63380,5,8,0:0:0:0:
141,131,63465,1,0,0:0:0:0:
195,129,63551,1,0,0:0:0:0:
248,123,63637,1,0,0:0:0:0:
304,116,63722,6,0,L|301:142,3,26.9999991760254
375,218,63894,2,0,L|377:244,3,26.9999991760254
292,325,64065,6,0,B|226:296|227:350|161:324,1,135.000005149842
65,356,64322,1,0,0:0:0:0:
66,344,64408,2,0,L|71:276,1,67.5000025749208
83,132,64580,1,0,0:0:0:0:
319,210,64751,6,0,P|344:149|326:85,1,135.000005149842,8|0,0:0|0:0,0:0:0:0:
173,129,65008,1,0,0:0:0:0:
179,139,65094,2,0,L|247:144,1,67.5000025749208
438,159,65266,1,0,0:0:0:0:
110,268,65437,5,4,0:0:0:0:
256,192,65480,12,0,66722,0:0:0:0:
355,76,66808,5,0,0:0:0:0:
323,55,66894,1,0,0:0:0:0:
285,52,66980,1,0,0:0:0:0:
252,70,67065,1,0,0:0:0:0:
234,103,67151,5,0,0:0:0:0:
244,102,67237,1,0,0:0:0:0:
254,102,67323,1,0,0:0:0:0:
264,102,67408,1,0,0:0:0:0:
274,101,67494,5,0,0:0:0:0:
291,134,67580,1,0,0:0:0:0:
287,171,67666,1,0,0:0:0:0:
261,198,67751,1,0,0:0:0:0:
223,204,67837,5,0,0:0:0:0:
212,201,67923,1,0,0:0:0:0:
201,197,68009,1,0,0:0:0:0:
190,193,68094,1,0,0:0:0:0:
179,189,68180,5,0,0:0:0:0:
165,154,68265,1,0,0:0:0:0:
132,133,68351,1,0,0:0:0:0:
94,135,68437,1,0,0:0:0:0:
60,151,68522,5,0,0:0:0:0:
65,160,68607,1,0,0:0:0:0:
66,170,68693,1,0,0:0:0:0:
64,180,68779,1,0,0:0:0:0:
60,190,68865,5,0,0:0:0:0:
90,227,68950,1,0,0:0:0:0:
138,235,69036,1,0,0:0:0:0:
184,220,69122,1,0,0:0:0:0:
220,188,69208,2,0,B|206:151|206:151|221:74,1,107.999996704102
456,196,69551,5,0,0:0:0:0:
412,216,69637,1,0,0:0:0:0:
387,258,69723,1,0,0:0:0:0:
383,306,69808,1,0,0:0:0:0:
403,351,69894,5,2,0:0:0:0:
381,346,69980,1,2,0:0:0:0:
359,343,70066,1,2,0:0:0:0:
337,339,70151,1,2,0:0:0:0:
315,335,70237,5,0,0:0:0:0:
276,365,70323,1,0,0:0:0:0:
227,368,70409,1,2,0:0:0:0:
184,344,70494,1,0,0:0:0:0:
170,297,70580,5,0,0:0:0:0:
181,278,70666,1,0,0:0:0:0:
185,256,70752,1,0,0:0:0:0:
183,234,70837,1,0,0:0:0:0:
174,214,70923,5,0,0:0:0:0:
221,219,71008,1,0,0:0:0:0:
266,201,71094,1,0,0:0:0:0:
298,164,71180,1,0,0:0:0:0:
304,116,71265,5,2,0:0:0:0:
287,102,71350,1,0,0:0:0:0:
265,96,71436,1,0,0:0:0:0:
243,99,71522,1,2,0:0:0:0:
223,108,71608,5,0,0:0:0:0:
228,155,71693,1,0,0:0:0:0:
237,202,71779,1,2,0:0:0:0:
245,249,71865,1,0,0:0:0:0:
253,296,71951,5,0,0:0:0:0:
390,149,72122,1,4,0:0:0:0:
127,192,72294,5,4,0:0:0:0:
166,148,72379,1,0,0:0:0:0:
224,138,72465,1,0,0:0:0:0:
278,162,72551,1,0,0:0:0:0:
299,217,72637,5,12,0:0:0:0:
275,203,72722,1,0,0:0:0:0:
247,201,72808,1,0,0:0:0:0:
222,212,72894,1,0,0:0:0:0:
206,233,72980,5,0,0:0:0:0:
227,287,73065,1,0,0:0:0:0:
277,316,73151,1,0,0:0:0:0:
337,312,73237,1,0,0:0:0:0:
375,267,73322,5,8,0:0:0:0:
348,272,73408,1,0,0:0:0:0:
321,265,73494,1,0,0:0:0:0:
301,246,73580,1,0,0:0:0:0:
293,220,73665,5,0,0:0:0:0:
345,248,73751,1,0,0:0:0:0:
403,243,73836,1,0,0:0:0:0:
452,209,73922,1,0,0:0:0:0:
462,150,74008,5,8,0:0:0:0:
441,132,74093,1,0,0:0:0:0:
432,106,74179,1,0,0:0:0:0:
436,79,74265,1,0,0:0:0:0:
453,58,74351,5,0,0:0:0:0:
409,18,74436,1,0,0:0:0:0:
349,21,74522,1,0,0:0:0:0:
302,58,74608,1,0,0:0:0:0:
288,115,74693,5,8,0:0:0:0:
345,163,74778,1,8,0:0:0:0:
358,237,74864,1,8,0:0:0:0:
321,303,74950,1,8,0:0:0:0:
251,336,75037,5,0,0:0:0:0:
223,283,75122,1,0,0:0:0:0:
230,223,75208,1,0,0:0:0:0:
274,183,75294,1,0,0:0:0:0:
333,184,75380,5,8,0:0:0:0:
336,210,75465,1,0,0:0:0:0:
338,237,75551,1,0,0:0:0:0:
341,263,75637,1,0,0:0:0:0:
345,289,75722,5,0,0:0:0:0:
402,274,75808,1,0,0:0:0:0:
434,224,75894,1,0,0:0:0:0:
425,164,75980,1,0,0:0:0:0:
385,121,76065,5,8,0:0:0:0:
364,138,76151,1,0,0:0:0:0:
341,146,76237,1,0,0:0:0:0:
313,147,76323,1,0,0:0:0:0:
288,135,76408,6,0,L|280:71,2,53.9999983520508
167,275,76665,2,0,L|156:333,2,53.9999983520508,0|4|0,0:0|0:0|0:0,0:0:0:0:
124,139,76922,5,0,0:0:0:0:
134,133,77008,2,0,P|160:127|187:128,1,53.9999983520508
241,217,77180,1,0,0:0:0:0:
251,223,77265,2,0,P|277:228|304:227,1,53.9999983520508
400,121,77437,2,8,P|399:67|412:14,1,107.999996704102
453,248,77780,5,4,0:0:0:0:
409,216,77865,1,0,0:0:0:0:
355,208,77951,1,0,0:0:0:0:
304,227,78037,1,0,0:0:0:0:
270,269,78122,1,8,0:0:0:0:
233,308,78208,1,0,0:0:0:0:
179,317,78294,1,0,0:0:0:0:
131,290,78380,1,0,0:0:0:0:
107,241,78465,5,0,0:0:0:0:
160,249,78551,1,0,0:0:0:0:
214,259,78637,1,0,0:0:0:0:
270,269,78722,1,0,0:0:0:0:
323,277,78808,1,8,0:0:0:0:
120,383,78980,1,0,0:0:0:0:
43,139,79151,5,0,0:0:0:0:
105,95,79237,1,0,0:0:0:0:
180,95,79322,1,0,0:0:0:0:
241,139,79408,1,0,0:0:0:0:
265,211,79494,1,8,0:0:0:0:
241,283,79580,1,0,0:0:0:0:
180,328,79665,1,0,0:0:0:0:
105,328,79751,1,0,0:0:0:0:
43,283,79837,5,0,0:0:0:0:
78,217,79922,1,0,0:0:0:0:
150,193,80008,1,0,0:0:0:0:
219,223,80094,1,0,0:0:0:0:
257,288,80180,6,0,L|252:356,1,53.9999983520508
273,73,80351,1,0,0:0:0:0:
150,193,80522,5,4,0:0:0:0:
203,190,80607,1,0,0:0:0:0:
256,184,80693,1,0,0:0:0:0:
309,179,80779,1,0,0:0:0:0:
362,172,80864,1,8,0:0:0:0:
407,201,80950,1,0,0:0:0:0:
426,251,81036,1,0,0:0:0:0:
413,303,81122,1,0,0:0:0:0:
369,334,81208,5,0,0:0:0:0:
324,305,81294,1,0,0:0:0:0:
305,255,81380,1,0,0:0:0:0:
318,203,81465,1,0,0:0:0:0:
362,172,81551,5,8,0:0:0:0:
165,257,81722,1,0,0:0:0:0:
390,253,81894,5,0,0:0:0:0:
444,200,81980,1,0,0:0:0:0:
436,125,82065,1,0,0:0:0:0:
371,85,82151,1,0,0:0:0:0:
298,106,82237,1,8,0:0:0:0:
257,168,82322,1,0,0:0:0:0:
187,198,82408,1,0,0:0:0:0:
112,185,82494,1,0,0:0:0:0:
60,129,82580,5,0,0:0:0:0:
120,85,82665,1,0,0:0:0:0:
195,85,82751,1,0,0:0:0:0:
255,130,82837,1,0,0:0:0:0:
273,202,82922,5,0,0:0:0:0:
77,300,83094,1,0,0:0:0:0:
315,358,83265,5,4,0:0:0:0:
352,320,83350,1,0,0:0:0:0:
354,265,83436,1,0,0:0:0:0:
325,218,83522,1,0,0:0:0:0:
273,202,83607,1,8,0:0:0:0:
219,209,83693,1,0,0:0:0:0:
171,182,83779,1,0,0:0:0:0:
156,130,83865,1,0,0:0:0:0:
175,80,83950,5,0,0:0:0:0:
223,106,84037,1,0,0:0:0:0:
238,159,84122,1,0,0:0:0:0:
219,209,84208,1,0,0:0:0:0:
171,234,84294,1,8,0:0:0:0:
326,103,84465,1,0,0:0:0:0:
83,198,84637,5,0,0:0:0:0:
83,273,84723,1,0,0:0:0:0:
138,323,84808,1,0,0:0:0:0:
213,319,84894,1,0,0:0:0:0:
265,264,84980,1,8,0:0:0:0:
297,196,85065,1,0,0:0:0:0:
365,164,85151,1,0,0:0:0:0:
437,184,85237,1,0,0:0:0:0:
476,248,85323,5,0,0:0:0:0:
265,264,85494,1,0,0:0:0:0:
373,258,85665,5,0,0:0:0:0:
171,234,85837,1,0,0:0:0:0:
376,334,86008,6,0,P|380:307|382:280,1,53.9999983520508,4|0,0:0|0:0,0:0:0:0:
321,123,86180,2,0,P|316:149|314:176,1,53.9999983520508
198,323,86351,5,8,0:0:0:0:
143,319,86437,1,0,0:0:0:0:
99,287,86522,1,0,0:0:0:0:
80,235,86608,1,0,0:0:0:0:
95,183,86694,5,0,0:0:0:0:
146,167,86780,1,0,0:0:0:0:
179,125,86865,1,0,0:0:0:0:
192,72,86951,1,0,0:0:0:0:
171,22,87037,1,8,0:0:0:0:
42,177,87208,2,0,P|68:184|95:183,1,53.9999983520508
277,119,87380,6,0,B|341:66|423:99|423:99|394:110|376:136,1,215.999993408203,0|8,0:0|0:0,0:0:0:0:
460,305,88751,6,0,B|429:298|409:270|409:270|401:292|383:307,1,108,4|0,0:0|0:0,0:0:0:0:
323,239,89093,5,0,0:0:0:0:
329,225,89179,1,0,0:0:0:0:
330,210,89265,1,0,0:0:0:0:
328,195,89351,1,0,0:0:0:0:
238,168,89436,5,0,0:0:0:0:
240,189,89522,1,0,0:0:0:0:
238,210,89608,1,0,0:0:0:0:
231,229,89693,1,0,0:0:0:0:
153,287,89779,5,0,0:0:0:0:
94,235,89864,1,0,0:0:0:0:
83,161,89950,1,0,0:0:0:0:
121,98,90036,1,0,0:0:0:0:
190,64,90122,6,0,P|222:72|256:73,1,67.5000025749208,0|0,0:0|0:0,0:0:0:0:
394,185,90293,2,0,P|360:186|328:195,1,67.5000025749208,0|0,0:0|0:0,0:0:0:0:
238,168,90465,6,0,P|205:176|171:177,1,67.5000025749208,0|0,0:0|0:0,0:0:0:0:
38,276,90636,2,0,P|71:277|104:285,1,67.5000025749208,0|0,0:0|0:0,0:0:0:0:
312,287,90808,6,0,P|318:253|312:220,1,67.5000025749208,0|0,0:0|0:0,0:0:0:0:
119,128,90979,2,0,P|112:161|118:194,1,67.5000025749208,0|0,0:0|0:0,0:0:0:0:
392,126,91151,6,0,L|324:132,1,67.5000025749208,0|0,0:0|0:0,0:0:0:0:
120,296,91322,2,0,L|187:302,1,67.5000025749208,0|0,0:0|0:0,0:0:0:0:
407,262,91493,5,0,0:0:0:0:
429,189,91579,1,0,0:0:0:0:
392,126,91665,1,0,0:0:0:0:
323,97,91751,1,0,0:0:0:0:
253,123,91836,1,0,0:0:0:0:
207,181,91922,1,0,0:0:0:0:
136,205,92008,1,0,0:0:0:0:
66,179,92093,1,0,0:0:0:0:
0,239,92179,5,0,0:0:0:0:
74,245,92264,1,0,0:0:0:0:
136,205,92350,1,0,0:0:0:0:
165,137,92436,1,0,0:0:0:0:
224,93,92521,1,0,0:0:0:0:
298,91,92607,1,0,0:0:0:0:
354,139,92693,1,0,0:0:0:0:
368,212,92779,1,0,0:0:0:0:
333,277,92865,5,2,0:0:0:0:
333,277,93893,5,8,0:0:0:0:
46,134,94065,1,0,0:0:0:0:
301,109,94236,6,0,B|337:119|341:167|294:197|239:170|216:119|216:119|203:131|203:131|174:110|142:111,1,270,4|0,0:0|0:0,0:0:0:0:
45,134,94579,6,0,P|41:167|47:200,1,67.5000025749208
125,294,94751,1,0,0:0:0:0:
125,294,94836,2,0,L|191:280,1,67.5000025749208,0|8,0:0|0:0,0:0:0:0:
253,189,95008,1,0,0:0:0:0:
253,189,95093,2,0,L|319:202,1,67.5000025749208
373,298,95265,5,0,0:0:0:0:
144,188,95436,1,0,0:0:0:0:
330,47,95608,6,0,P|365:43|398:55,1,72
421,75,95865,1,0,0:0:0:0:
421,75,95951,6,0,B|407:119|407:119|426:153|426:153|411:201,1,135.000005149842,4|0,0:0|0:0,0:0:0:0:
369,310,96207,1,0,0:0:0:0:
369,310,96293,2,0,P|401:319|434:315,1,67.5000025749208,8|0,0:0|0:0,0:0:0:0:
267,171,96465,2,0,P|233:166|201:176,1,67.5000025749208
151,313,96636,6,0,B|135:276|135:276|141:249,1,67.5000025749208
346,217,96808,2,0,B|362:180|362:180|355:153,1,67.5000025749208
243,59,96979,6,0,B|146:100|147:9|48:55,1,202.500007724762
30,75,97322,2,0,L|32:142,1,67.5000025749208
108,237,97493,1,0,0:0:0:0:
108,237,97579,1,0,0:0:0:0:
108,237,97665,5,8,0:0:0:0:
137,176,97751,1,0,0:0:0:0:
200,153,97836,1,0,0:0:0:0:
264,172,97922,1,0,0:0:0:0:
303,227,98008,2,0,B|348:240|348:240|391:225|391:225|432:235,1,135.000005149842
292,362,98351,5,0,0:0:0:0:
348,133,98522,1,0,0:0:0:0:
208,257,98693,1,0,0:0:0:0:
194,260,98779,1,0,0:0:0:0:
180,262,98865,1,0,0:0:0:0:
166,261,98951,1,0,0:0:0:0:
153,254,99036,6,0,L|142:188,1,67.5000025749208,8|0,0:0|0:0,0:0:0:0:
126,65,99208,1,0,0:0:0:0:
218,144,99379,2,0,P|184:173|142:187,1,90
118,191,99636,1,0,0:0:0:0:
112,192,99722,6,0,B|163:195|163:195|205:218|205:218|261:177|261:177|307:203|307:203|355:204,1,270,4|0,0:0|0:0,0:0:0:0:
431,141,100065,6,0,P|455:203|431:265,1,135
347,292,100408,1,8,0:0:0:0:
335,111,100579,1,0,0:0:0:0:
502,193,100751,1,0,0:0:0:0:
273,238,100922,6,0,P|265:205|269:171,1,67.5000025749208
407,165,101093,2,0,P|414:197|410:231,1,67.5000025749208
257,328,101265,5,0,0:0:0:0:
229,322,101351,1,0,0:0:0:0:
200,314,101436,2,0,P|179:287|171:254,1,67.5000025749208
52,201,101608,5,0,0:0:0:0:
80,195,101694,1,0,0:0:0:0:
108,187,101779,2,0,P|128:160|136:127,1,67.5000025749208,8|0,0:0|0:0,0:0:0:0:
45,37,101951,2,0,L|50:104,1,67.5000025749208
210,204,102122,2,0,B|276:181|274:232|340:207,1,135.000005149842
447,104,102465,6,0,L|411:95,3,36
448,201,102808,2,0,L|484:193,3,36
416,287,103151,1,0,0:0:0:0:
349,168,103322,1,0,0:0:0:0:
170,309,103493,2,0,P|221:296|272:312,1,108,4|0,0:0|0:0,0:0:0:0:
286,329,103836,5,0,0:0:0:0:
448,201,104008,1,0,0:0:0:0:
260,141,104179,2,0,P|256:167|260:194,1,53.9999983520508
354,255,104351,1,0,0:0:0:0:
364,258,104436,1,0,0:0:0:0:
375,260,104522,5,8,0:0:0:0:
413,194,104608,1,0,0:0:0:0:
407,129,104693,1,0,0:0:0:0:
371,87,104779,1,0,0:0:0:0:
328,78,104865,1,0,0:0:0:0:
297,89,104951,1,0,0:0:0:0:
284,106,105036,1,0,0:0:0:0:
281,116,105122,1,0,0:0:0:0:
281,121,105208,6,0,P|258:138|282:153,1,67.5000025749208
457,54,105379,2,0,P|477:33|450:21,1,67.5000025749208
383,154,105551,5,12,0:0:0:0:
381,161,105636,2,0,P|376:194|384:227,1,67.5000025749208
493,341,105808,1,0,0:0:0:0:
486,336,105893,2,0,P|459:315|427:305,1,67.5000025749208
336,303,106065,2,0,P|311:325|281:339,1,67.5000025749208
167,250,106236,5,8,0:0:0:0:
175,248,106322,1,0,0:0:0:0:
182,247,106408,2,0,L|250:232,1,67.5000025749208
335,45,106579,1,0,0:0:0:0:
327,43,106665,1,0,0:0:0:0:
320,42,106751,2,0,L|251:28,1,67.5000025749208
68,142,106922,2,0,L|139:132,1,67.5000025749208,8|0,0:0|0:0,0:0:0:0:
227,116,107093,5,0,0:0:0:0:
235,114,107179,1,0,0:0:0:0:
108,307,107351,2,0,P|163:341|227:327,1,135.000005149842
296,237,107608,5,8,0:0:0:0:
337,213,107693,1,0,0:0:0:0:
385,212,107779,1,0,0:0:0:0:
420,245,107865,1,0,0:0:0:0:
432,292,107951,5,0,0:0:0:0:
447,207,108036,1,0,0:0:0:0:
460,121,108122,1,0,0:0:0:0:
345,318,108293,5,8,0:0:0:0:
342,323,108379,2,0,L|270:332,1,67.5000025749208
132,238,108551,1,0,0:0:0:0:
136,234,108636,2,0,L|202:225,1,67.5000025749208
318,170,108808,2,0,P|323:136|319:103,1,67.5000025749208
155,49,108979,5,8,0:0:0:0:
146,47,109065,1,0,0:0:0:0:
138,44,109151,2,0,P|127:76|128:111,1,67.5000025749208
291,231,109322,1,0,0:0:0:0:
300,233,109408,1,0,0:0:0:0:
307,235,109493,2,0,P|317:203|317:168,1,67.5000025749208
226,114,109665,1,0,0:0:0:0:
151,317,109836,5,0,0:0:0:0:
152,330,109922,1,0,0:0:0:0:
152,344,110008,6,0,B|187:330|187:330|226:335,1,76.5000014591217,8|0,0:0|0:0,0:0:0:0:
453,246,110265,6,0,B|423:222|423:222|408:185,1,76.5000014591217,8|0,0:0|0:0,0:0:0:0:
218,35,110522,6,0,B|212:72|212:72|188:103,1,76.5000014591217,8|0,0:0|0:0,0:0:0:0:
69,202,110693,6,0,P|102:196|135:201,1,67.5000025749208
204,273,110865,1,0,0:0:0:0:
220,288,110951,1,0,0:0:0:0:
255,279,111036,1,0,0:0:0:0:
278,283,111122,1,0,0:0:0:0:
302,258,111208,1,0,0:0:0:0:
324,249,111293,1,0,0:0:0:0:
332,217,111379,5,8,0:0:0:0:
346,197,111465,2,0,P|340:165|347:132,1,67.5000025749208
481,122,111636,2,0,L|347:132,1,135.000005149842
211,14,111893,2,0,L|345:4,1,135.000005149842
443,26,112151,1,0,0:0:0:0:
443,26,112236,1,0,0:0:0:0:
184,144,112408,5,0,0:0:0:0:
362,294,112579,1,0,0:0:0:0:
362,294,112665,1,0,0:0:0:0:
362,294,112751,2,0,B|365:229|365:229|346:191|346:191|370:154|370:154|373:103,1,202.500007724762,8|0,0:0|0:0,0:0:0:0:
337,14,113093,1,0,0:0:0:0:
477,200,113265,1,0,0:0:0:0:
246,181,113436,6,0,L|152:175,1,90
379,98,113779,1,0,0:0:0:0:
393,263,113951,1,0,0:0:0:0:
393,263,114036,1,0,0:0:0:0:
393,263,114122,1,8,0:0:0:0:
338,177,114293,1,0,0:0:0:0:
112,253,114465,6,0,B|54:201|66:122|66:122|35:246|35:246|23:308|85:372|168:338|189:280|189:280|288:265|288:265|274:173|254:77|137:99|151:160|151:160|161:201|208:196|251:190|251:190|337:177,1,1079.99996704102,4|4,0:0|0:0,0:0:0:0:
256,192,116265,12,0,121579,0:0:0:0:
133,197,121665,6,0,B|199:166|199:166|268:181,1,144
268,181,122179,2,0,P|303:184|337:172,1,72
373,92,122522,2,0,L|385:249,1,144
456,291,123036,6,0,P|395:325|328:304,1,144
328,304,123551,2,0,P|267:269|200:290,1,144
85,366,124065,2,0,L|79:290,1,72
25,197,124408,6,0,B|95:172|94:228|163:201,1,144
163,200,125265,2,0,P|156:165|161:130,1,72
225,33,125608,1,0,0:0:0:0:
342,157,125779,6,0,B|369:161|403:131|403:131|420:146|437:149,1,108
459,144,126122,1,0,0:0:0:0:
339,62,126293,1,0,0:0:0:0:
133,194,126465,6,0,L|25:180,1,107.999996704102,4|0,0:0|0:0,0:0:0:0:
353,328,126808,2,0,L|460:314,1,107.999996704102,4|0,0:0|0:0,0:0:0:0:
123,318,127151,6,0,P|106:254|133:194,1,135,2|0,0:0|0:0,0:0:0:0:
210,155,127493,2,0,P|177:185|134:194,1,90,2|0,0:0|0:0,0:0:0:0:
46,166,127751,1,0,0:0:0:0:
37,160,127836,6,0,L|10:143,2,22.5,10|0|0,0:0|0:0|0:0,0:0:0:0:
203,269,128008,1,2,0:0:0:0:
127,96,128179,1,0,0:0:0:0:
43,322,128351,1,2,0:0:0:0:
43,322,128693,5,2,0:0:0:0:
203,269,128865,2,0,B|269:297|270:244|334:273,1,135
340,357,129208,6,0,B|329:377|329:377|321:357,1,45,8|0,0:0|0:0,0:0:0:0:
352,184,129379,2,0,B|344:164|344:164|333:184,1,45
422,323,129551,2,0,L|466:326,1,45
472,241,129722,2,0,L|427:237,1,45
251,262,129893,6,0,P|221:202|222:167,1,90,2|2,0:0|0:0,0:0:0:0:
341,91,130236,1,2,0:0:0:0:
166,100,130408,1,2,0:0:0:0:
166,100,130493,1,0,0:0:0:0:
166,100,130579,6,0,L|139:125,2,22.5,10|0|0,0:0|0:0|0:0,0:0:0:0:
247,34,130751,1,2,0:0:0:0:
270,200,130922,1,0,0:0:0:0:
43,47,131093,1,2,0:0:0:0:
43,47,131436,5,2,0:0:0:0:
8,227,131608,2,0,P|47:248|94:248,1,90,2|0,0:0|0:0,0:0:0:0:
157,77,131951,5,10,0:0:0:0:
185,44,132036,1,0,0:0:0:0:
226,31,132122,1,2,0:0:0:0:
267,44,132208,1,0,0:0:0:0:
293,77,132293,1,0,0:0:0:0:
325,105,132379,1,0,0:0:0:0:
368,106,132465,1,2,0:0:0:0:
405,83,132551,1,0,0:0:0:0:
421,42,132636,6,0,P|380:94|389:159,1,135,2|0,0:0|0:0,0:0:0:0:
443,235,132979,2,0,P|401:250|357:244,1,90,2|0,0:0|0:0,0:0:0:0:
292,178,133236,1,0,0:0:0:0:
293,167,133322,6,0,L|296:125,2,22.5,10|0|0,0:0|0:0|0:0,0:0:0:0:
283,293,133493,1,2,0:0:0:0:
443,235,133665,1,0,0:0:0:0:
182,221,133836,1,2,0:0:0:0:
182,221,134179,5,2,0:0:0:0:
295,126,134351,2,0,B|337:116|337:116|381:140|381:140|421:131,1,135
477,56,134693,6,0,L|481:9,1,45,8|0,0:0|0:0,0:0:0:0:
393,44,134865,2,0,L|397:-3,1,45,2|0,0:0|0:0,0:0:0:0:
327,212,135036,6,0,L|331:259,1,45,2|0,0:0|0:0,0:0:0:0:
243,224,135208,2,0,L|247:271,1,45,2|0,0:0|0:0,0:0:0:0:
168,94,135379,6,0,P|125:81|81:87,1,90,0|2,0:0|0:0,0:0:0:0:
0,223,135722,1,2,0:0:0:0:
146,315,135893,1,2,0:0:0:0:
146,315,135979,1,0,0:0:0:0:
146,315,136065,6,0,L|179:309,2,22.5,8|0|0,0:0|0:0|0:0,0:0:0:0:
29,341,136236,1,2,0:0:0:0:
117,170,136408,1,0,0:0:0:0:
245,376,136579,1,2,0:0:0:0:
352,239,136751,5,0,0:0:0:0:
331,189,136836,1,0,0:0:0:0:
280,168,136922,1,2,0:0:0:0:
227,180,137008,1,0,0:0:0:0:
192,220,137093,1,2,0:0:0:0:
157,262,137179,1,0,0:0:0:0:
103,266,137265,1,0,0:0:0:0:
57,236,137351,1,0,0:0:0:0:
47,183,137436,5,10,0:0:0:0:
63,168,137522,1,0,0:0:0:0:
77,150,137608,1,2,0:0:0:0:
85,129,137693,1,0,0:0:0:0:
89,106,137779,1,2,0:0:0:0:
87,83,137865,1,0,0:0:0:0:
80,61,137951,1,0,0:0:0:0:
67,42,138036,1,0,0:0:0:0:
48,28,138122,6,0,B|92:39|92:39|137:24|137:24|178:30,1,135,6|0,0:0|0:0,0:0:0:0:
265,0,138465,2,0,P|269:44|251:84,1,90,2|0,0:0|0:0,0:0:0:0:
183,145,138722,1,0,0:0:0:0:
173,141,138808,6,0,L|140:134,2,22.5,10|0|0,0:0|0:0|0:0,0:0:0:0:
290,168,138979,1,2,0:0:0:0:
122,247,139151,1,0,0:0:0:0:
317,70,139322,1,2,0:0:0:0:
317,70,139665,5,2,0:0:0:0:
452,225,139836,2,0,P|393:256|327:248,1,135
289,167,140179,6,0,P|266:166|244:169,1,45,8|0,0:0|0:0,0:0:0:0:
193,274,140351,2,0,P|215:274|237:271,1,45
371,251,140522,6,0,P|349:248|327:249,1,45
275,362,140694,2,0,P|252:362|230:359,1,45
106,309,140865,6,0,P|99:264|113:223,1,90,2|2,0:0|0:0,0:0:0:0:
209,109,141208,1,2,0:0:0:0:
287,262,141379,1,2,0:0:0:0:
287,262,141465,1,0,0:0:0:0:
287,262,141551,6,0,L|317:258,2,22.5,10|0|0,0:0|0:0|0:0,0:0:0:0:
193,274,141722,1,2,0:0:0:0:
331,157,141893,1,0,0:0:0:0:
367,346,142065,1,2,0:0:0:0:
367,346,142408,5,2,0:0:0:0:
478,243,142579,2,0,L|485:141,1,90,2|0,0:0|0:0,0:0:0:0:
186,215,142922,5,10,0:0:0:0:
213,248,143008,1,0,0:0:0:0:
253,264,143093,1,2,0:0:0:0:
296,259,143179,1,0,0:0:0:0:
331,233,143265,1,0,0:0:0:0:
366,206,143351,1,0,0:0:0:0:
408,196,143436,1,2,0:0:0:0:
449,210,143522,1,0,0:0:0:0:
478,243,143608,6,0,L|471:380,1,135,2|0,0:0|0:0,0:0:0:0:
385,325,143951,2,0,L|390:235,1,90,2|0,0:0|0:0,0:0:0:0:
443,154,144208,1,0,0:0:0:0:
439,146,144293,6,0,L|430:125,2,22.5,10|0|0,0:0|0:0|0:0,0:0:0:0:
478,243,144465,1,2,0:0:0:0:
291,249,144636,1,0,0:0:0:0:
382,36,144808,1,2,0:0:0:0:
382,36,145151,5,2,0:0:0:0:
245,120,145322,2,0,B|211:109|194:83|194:83|172:113|134:118,1,135
54,76,145665,6,0,P|46:97|44:121,1,45,8|0,0:0|0:0,0:0:0:0:
184,238,145836,2,0,P|191:216|194:193,1,45,2|0,0:0|0:0,0:0:0:0:
204,40,146008,2,0,P|196:61|194:85,1,45,2|0,0:0|0:0,0:0:0:0:
334,202,146179,2,0,P|341:180|344:157,1,45,2|0,0:0|0:0,0:0:0:0:
380,74,146351,6,0,P|336:66|293:79,1,90,0|2,0:0|0:0,0:0:0:0:
295,285,146693,2,0,P|338:292|381:279,1,90,2|2,0:0|0:0,0:0:0:0:
447,196,146951,1,0,0:0:0:0:
449,185,147036,6,0,L|451:152,2,22.5,8|0|0,0:0|0:0|0:0,0:0:0:0:
437,345,147208,1,2,0:0:0:0:
334,145,147379,1,0,0:0:0:0:
311,353,147551,1,2,0:0:0:0:
173,173,147722,5,0,0:0:0:0:
119,184,147808,1,0,0:0:0:0:
79,221,147893,1,0,0:0:0:0:
68,273,147979,1,0,0:0:0:0:
86,324,148065,1,2,0:0:0:0:
128,357,148150,1,0,0:0:0:0:
182,362,148236,1,0,0:0:0:0:
230,337,148322,1,0,0:0:0:0:
296,270,148408,5,10,0:0:0:0:
265,263,148493,1,0,0:0:0:0:
234,255,148579,1,0,0:0:0:0:
202,249,148665,1,0,0:0:0:0:
105,237,148751,5,2,0:0:0:0:
161,222,148836,1,0,0:0:0:0:
218,208,148922,1,0,0:0:0:0:
276,196,149008,1,0,0:0:0:0:
344,124,149093,6,0,B|357:11|357:11|326:52,1,161.999995056153,6|0,0:0|0:0,0:0:0:0:
314,57,149436,1,6,0:0:0:0:
302,280,151836,6,4,B|415:294|415:294|374:263,1,161.999995056153,4|0,0:0|0:0,0:0:0:0:
369,250,152179,1,4,0:0:0:0:
146,238,154579,6,0,B|131:351|131:351|163:310,1,161.999995056153,4|0,0:0|0:0,0:0:0:0:
176,305,154922,1,4,0:0:0:0:
188,82,155951,6,0,B|75:68|75:68|116:99,1,161.999995056153,4|0,0:0|0:0,0:0:0:0:
121,112,156294,1,4,0:0:0:0:
382,110,157322,6,0,P|360:187|352:268,1,161.999995056153,4|0,0:0|0:0,0:0:0:0:
355,287,157665,1,4,0:0:0:0:
130,110,158008,6,0,P|151:187|159:268,1,161.999995056153,4|0,0:0|0:0,0:0:0:0:
157,287,158351,1,4,0:0:0:0:
256,122,158693,5,4,0:0:0:0:
157,287,158865,2,0,L|143:310,3,26.9999991760254
207,204,159036,5,4,0:0:0:0:
398,207,159208,2,0,L|424:207,3,26.9999991760254
303,207,159379,5,4,0:0:0:0:
210,37,159551,2,0,L|196:13,3,26.9999991760254
256,122,159722,5,0,0:0:0:0:
254,121,159808,1,0,0:0:0:0:
256,124,159893,1,0,0:0:0:0:
104,259,160065,5,0,0:0:0:0:
171,203,160236,1,0,0:0:0:0:
90,174,160408,5,0,0:0:0:0:
202,123,160579,1,0,0:0:0:0:
121,93,160751,5,0,0:0:0:0:
288,110,160923,1,0,0:0:0:0:
188,39,161093,5,0,0:0:0:0:
341,179,161266,1,0,0:0:0:0:
274,26,161435,5,0,0:0:0:0:
310,260,161607,1,0,0:0:0:0:
354,56,161778,5,0,0:0:0:0:
224,272,161951,1,0,0:0:0:0:
408,123,162122,5,0,0:0:0:0:
171,203,162293,1,0,0:0:0:0:
422,209,162465,5,0,0:0:0:0:
202,123,162636,1,0,0:0:0:0:
391,289,162808,5,0,0:0:0:0:
288,110,162979,1,0,0:0:0:0:
324,343,163151,5,0,0:0:0:0:
341,179,163322,1,0,0:0:0:0:
238,357,163493,5,0,0:0:0:0:
310,260,163665,1,0,0:0:0:0:
158,326,163836,5,0,0:0:0:0:
224,272,164008,1,0,0:0:0:0:
90,174,164179,5,0,0:0:0:0:
238,357,164351,1,0,0:0:0:0:
288,110,164522,5,0,0:0:0:0:
103,260,164693,1,0,0:0:0:0:
309,259,164865,5,0,0:0:0:0:
121,93,165036,1,0,0:0:0:0:
158,326,165208,5,0,0:0:0:0:
341,179,165379,1,0,0:0:0:0:
87,172,165551,5,0,0:0:0:0:
140,178,165636,1,0,0:0:0:0:
187,151,165722,1,0,0:0:0:0:
213,103,165808,1,0,0:0:0:0:
239,56,165893,1,0,0:0:0:0:
286,29,165979,1,0,0:0:0:0:
339,37,166065,1,0,0:0:0:0:
375,77,166151,1,0,0:0:0:0:
380,130,166236,5,0,0:0:0:0:
352,176,166322,1,0,0:0:0:0:
302,198,166408,1,0,0:0:0:0:
261,233,166493,1,0,0:0:0:0:
245,285,166579,1,0,0:0:0:0:
264,335,166665,1,0,0:0:0:0:
312,358,166751,1,0,0:0:0:0:
365,351,166836,1,0,0:0:0:0:
404,315,166922,5,0,0:0:0:0:
361,275,167008,1,0,0:0:0:0:
303,270,167093,1,0,0:0:0:0:
255,303,167179,1,0,0:0:0:0:
227,353,167265,1,0,0:0:0:0:
176,382,167351,1,0,0:0:0:0:
120,368,167436,1,0,0:0:0:0:
83,323,167522,1,0,0:0:0:0:
82,264,167608,5,0,0:0:0:0:
115,217,167693,1,0,0:0:0:0:
167,194,167779,1,0,0:0:0:0:
219,170,167865,1,0,0:0:0:0:
247,119,167951,1,0,0:0:0:0:
241,61,168036,1,0,0:0:0:0:
196,24,168122,1,0,0:0:0:0:
138,25,168208,1,0,0:0:0:0:
60,71,168293,6,0,L|137:24,1,90
87,99,168379,2,0,L|134:23,1,90
123,112,168464,2,0,L|135:21,1,90
163,109,168550,2,0,L|135:21,1,90
241,61,168636,6,0,L|268:146,1,90
281,58,168722,2,0,L|268:147,1,90
317,71,168807,2,0,L|269:146,1,90
346,100,168893,2,0,L|268:146,1,90
329,188,168979,6,0,L|348:86,1,90
389,177,169065,2,0,L|338:87,1,90
430,130,169151,2,0,L|333:93,1,90
431,68,169236,2,0,L|346:97,1,90
393,20,169322,2,0,L|340:108,1,90
332,9,169408,2,0,L|348:110,1,90
278,39,169493,2,0,L|355:106,1,90
257,97,169579,2,0,L|359:98,1,90
226,197,169665,5,0,0:0:0:0:
226,197,170008,6,0,B|182:183|182:183|131:200|131:200|96:192,1,135.000005149842,2|0,0:0|0:0,0:0:0:0:
19,141,170351,2,0,P|6:193|21:245,1,108,2|0,0:0|0:0,0:0:0:0:
99,286,170693,1,10,0:0:0:0:
202,43,170865,1,0,0:0:0:0:
19,141,171037,5,6,0:0:0:0:
73,101,171122,1,0,0:0:0:0:
140,106,171208,1,0,0:0:0:0:
183,157,171294,1,0,0:0:0:0:
190,223,171379,5,10,0:0:0:0:
244,263,171464,1,0,0:0:0:0:
311,258,171550,1,0,0:0:0:0:
354,207,171636,1,0,0:0:0:0:
357,138,171722,6,0,P|339:111|312:90,1,67.5000025749208,2|0,0:0|0:0,0:0:0:0:
100,193,171893,1,2,0:0:0:0:
103,231,171979,1,0,0:0:0:0:
106,269,172065,2,0,L|110:336,1,67.5000025749208,8|0,0:0|0:0,0:0:0:0:
270,178,172236,5,2,0:0:0:0:
253,106,172321,1,0,0:0:0:0:
200,63,172407,1,0,0:0:0:0:
132,65,172493,1,0,0:0:0:0:
80,108,172579,5,2,0:0:0:0:
143,83,172665,1,0,0:0:0:0:
208,100,172751,1,8,0:0:0:0:
242,157,172836,1,0,0:0:0:0:
245,224,172922,5,2,0:0:0:0:
222,257,173008,1,0,0:0:0:0:
215,297,173093,1,0,0:0:0:0:
224,336,173179,1,0,0:0:0:0:
253,363,173265,1,0,0:0:0:0:
290,377,173351,1,0,0:0:0:0:
331,376,173437,6,0,B|326:345|326:345|330:310,1,67.5000025749208,10|0,0:0|0:0,0:0:0:0:
506,339,173608,2,0,B|511:307|511:307|506:272,1,67.5000025749208,2|0,0:0|0:0,0:0:0:0:
247,211,173779,6,0,B|241:242|241:242|246:277,1,67.5000025749208,2|0,0:0|0:0,0:0:0:0:
415,208,173951,2,0,B|420:239|420:239|415:274,1,67.5000025749208,2|0,0:0|0:0,0:0:0:0:
225,366,174122,5,10,0:0:0:0:
171,353,174208,1,0,0:0:0:0:
117,340,174293,1,0,0:0:0:0:
63,327,174379,1,0,0:0:0:0:
9,314,174465,5,0,0:0:0:0:
47,273,174551,1,0,0:0:0:0:
85,233,174636,1,0,0:0:0:0:
123,193,174722,1,0,0:0:0:0:
162,152,174808,5,8,0:0:0:0:
170,178,174894,1,0,0:0:0:0:
178,205,174979,1,0,0:0:0:0:
185,231,175065,1,0,0:0:0:0:
193,258,175151,5,2,0:0:0:0:
219,195,175237,1,0,0:0:0:0:
277,162,175322,1,0,0:0:0:0:
344,170,175408,1,0,0:0:0:0:
389,219,175494,5,10,0:0:0:0:
401,230,175580,1,0,0:0:0:0:
414,232,175665,5,2,0:0:0:0:
453,176,175751,1,0,0:0:0:0:
447,108,175837,1,0,0:0:0:0:
395,65,175922,1,0,0:0:0:0:
327,64,176008,1,2,0:0:0:0:
278,110,176094,1,0,0:0:0:0:
260,175,176180,1,8,0:0:0:0:
238,238,176265,1,0,0:0:0:0:
180,273,176351,1,2,0:0:0:0:
114,257,176437,1,0,0:0:0:0:
74,205,176522,5,2,0:0:0:0:
122,157,176608,1,0,0:0:0:0:
188,149,176693,1,0,0:0:0:0:
247,181,176779,1,0,0:0:0:0:
266,245,176865,5,10,0:0:0:0:
208,209,176951,1,0,0:0:0:0:
142,221,177036,1,0,0:0:0:0:
101,275,177122,1,0,0:0:0:0:
93,342,177208,6,0,L|170:336,1,67.5000025749208,2|0,0:0|0:0,0:0:0:0:
360,320,177379,1,2,0:0:0:0:
378,301,177465,1,0,0:0:0:0:
387,276,177551,2,0,P|390:242|384:209,1,67.5000025749208,8|0,0:0|0:0,0:0:0:0:
142,221,177722,5,2,0:0:0:0:
79,194,177808,1,0,0:0:0:0:
49,133,177893,1,0,0:0:0:0:
69,68,177979,1,0,0:0:0:0:
120,24,178065,5,2,0:0:0:0:
146,86,178151,1,0,0:0:0:0:
131,151,178236,1,8,0:0:0:0:
79,194,178322,1,0,0:0:0:0:
20,228,178408,5,2,0:0:0:0:
9,254,178493,1,0,0:0:0:0:
10,281,178579,1,0,0:0:0:0:
19,306,178665,1,0,0:0:0:0:
40,322,178751,6,0,L|107:316,1,67.5000025749208,2|0,0:0|0:0,0:0:0:0:
305,265,178922,2,0,P|314:297|308:330,1,67.5000025749208,10|0,0:0|0:0,0:0:0:0:
153,345,179093,2,0,P|143:312|149:279,1,67.5000025749208,2|0,0:0|0:0,0:0:0:0:
250,74,179265,5,2,0:0:0:0:
309,41,179351,1,0,0:0:0:0:
375,50,179436,1,0,0:0:0:0:
420,100,179522,1,0,0:0:0:0:
423,167,179608,5,10,0:0:0:0:
420,186,179693,1,0,0:0:0:0:
418,206,179779,1,0,0:0:0:0:
416,226,179865,1,0,0:0:0:0:
414,246,179951,5,0,0:0:0:0:
383,202,180036,1,0,0:0:0:0:
334,178,180122,1,0,0:0:0:0:
280,184,180208,1,0,0:0:0:0:
239,219,180293,1,8,0:0:0:0:
209,264,180379,1,0,0:0:0:0:
159,285,180465,1,0,0:0:0:0:
104,281,180551,1,0,0:0:0:0:
66,242,180636,5,2,0:0:0:0:
91,319,180722,1,0,0:0:0:0:
167,345,180808,1,0,0:0:0:0:
235,302,180893,1,0,0:0:0:0:
239,219,180979,1,8,0:0:0:0:
265,142,181065,1,0,0:0:0:0:
342,117,181151,1,2,0:0:0:0:
406,164,181236,1,0,0:0:0:0:
414,246,181322,5,0,0:0:0:0:
352,298,181408,1,0,0:0:0:0:
272,289,181493,1,2,0:0:0:0:
214,231,181579,1,0,0:0:0:0:
141,194,181665,6,0,L|73:186,1,67.5000025749208,8|0,0:0|0:0,0:0:0:0:
229,10,181836,2,0,P|261:3|294:8,1,67.5000025749208,2|0,0:0|0:0,0:0:0:0:
329,211,182008,5,4,0:0:0:0:
392,230,182093,1,0,0:0:0:0:
452,199,182179,1,0,0:0:0:0:
472,135,182265,1,0,0:0:0:0:
441,75,182351,1,10,0:0:0:0:
377,55,182436,1,0,0:0:0:0:
318,86,182522,1,0,0:0:0:0:
297,150,182608,1,0,0:0:0:0:
275,213,182693,5,2,0:0:0:0:
219,252,182779,1,0,0:0:0:0:
151,243,182865,1,2,0:0:0:0:
113,186,182951,1,0,0:0:0:0:
126,120,183036,1,8,0:0:0:0:
181,81,183122,1,0,0:0:0:0:
248,82,183208,1,2,0:0:0:0:
318,86,183293,1,0,0:0:0:0:
385,88,183379,5,0,0:0:0:0:
351,146,183465,1,0,0:0:0:0:
353,213,183551,1,2,0:0:0:0:
397,262,183636,1,0,0:0:0:0:
464,271,183722,5,10,0:0:0:0:
440,207,183808,1,0,0:0:0:0:
373,196,183893,1,0,0:0:0:0:
328,247,183979,1,0,0:0:0:0:
340,312,184065,6,0,P|368:331|401:337,1,67.5000025749208,2|0,0:0|0:0,0:0:0:0:
432,130,184236,2,0,P|404:111|371:105,1,67.5000025749208,2|0,0:0|0:0,0:0:0:0:
228,241,184408,2,0,P|261:243|293:232,1,67.5000025749208,10|0,0:0|0:0,0:0:0:0:
240,37,184579,2,0,P|206:34|174:45,1,67.5000025749208,2|0,0:0|0:0,0:0:0:0:
50,170,184751,5,0,0:0:0:0:
103,163,184836,1,2,0:0:0:0:
156,153,184922,1,2,0:0:0:0:
209,144,185008,1,0,0:0:0:0:
261,135,185093,1,8,0:0:0:0:
314,127,185179,1,0,0:0:0:0:
355,92,185265,5,2,0:0:0:0:
333,156,185351,1,0,0:0:0:0:
311,220,185436,1,0,0:0:0:0:
289,284,185522,1,0,0:0:0:0:
263,346,185608,5,2,0:0:0:0:
252,321,185693,1,0,0:0:0:0:
233,301,185779,1,8,0:0:0:0:
207,290,185865,1,0,0:0:0:0:
179,290,185951,5,2,0:0:0:0:
219,237,186036,1,0,0:0:0:0:
284,219,186122,1,0,0:0:0:0:
348,239,186208,1,0,0:0:0:0:
388,291,186293,5,2,0:0:0:0:
415,260,186379,1,0,0:0:0:0:
425,220,186465,1,8,0:0:0:0:
414,180,186551,1,0,0:0:0:0:
389,148,186636,5,2,0:0:0:0:
349,201,186721,1,0,0:0:0:0:
284,219,186807,1,0,0:0:0:0:
220,199,186893,1,0,0:0:0:0:
180,147,186978,5,2,0:0:0:0:
214,148,187065,1,0,0:0:0:0:
246,137,187151,1,8,0:0:0:0:
271,115,187236,1,0,0:0:0:0:
289,86,187322,1,0,0:0:0:0:
294,52,187408,1,0,0:0:0:0:
285,19,187493,5,4,0:0:0:0:
230,22,187579,1,0,0:0:0:0:
192,60,187665,1,0,0:0:0:0:
179,112,187751,1,0,0:0:0:0:
199,161,187836,1,10,0:0:0:0:
242,193,187922,1,0,0:0:0:0:
285,225,188008,1,0,0:0:0:0:
328,257,188093,1,0,0:0:0:0:
371,289,188179,5,2,0:0:0:0:
319,272,188265,1,0,0:0:0:0:
265,278,188351,1,2,0:0:0:0:
224,312,188436,1,0,0:0:0:0:
204,362,188522,6,0,P|236:372|269:372,1,67.5000025749208,10|0,0:0|0:0,0:0:0:0:
367,193,188693,2,0,P|334:182|301:182,1,67.5000025749208,2|0,0:0|0:0,0:0:0:0:
129,237,188865,5,6,0:0:0:0:
71,201,188951,1,0,0:0:0:0:
58,134,189036,1,2,0:0:0:0:
97,79,189122,1,0,0:0:0:0:
161,57,189208,1,10,0:0:0:0:
221,87,189293,1,0,0:0:0:0:
252,146,189379,1,0,0:0:0:0:
301,191,189465,1,0,0:0:0:0:
367,193,189551,6,0,P|369:159|359:127,1,67.5000025749208
154,153,189722,2,0,P|151:186|161:218,1,67.5000025749208
284,346,189893,2,0,L|274:279,1,67.5000025749208,8|0,0:0|0:0,0:0:0:0:
252,146,190065,2,0,L|248:109,3,33.7500012874604
80,186,190236,5,6,0:0:0:0:
154,153,190322,1,0,0:0:0:0:
234,163,190408,1,0,0:0:0:0:
293,216,190493,1,0,0:0:0:0:
316,293,190579,6,0,L|248:299,1,67.5000025749208,10|0,0:0|0:0,0:0:0:0:
95,300,190751,2,0,L|97:333,3,33.7500012874604
237,201,190922,6,0,L|170:192,1,67.5000025749208,6|0,0:0|0:0,0:0:0:0:
21,158,191094,2,0,L|16:191,3,33.7500012874604,2|0|0|0,0:0|0:0|0:0|0:0,0:0:0:0:
120,93,191265,6,0,P|153:87|186:92,1,67.5000025749208,8|0,0:0|0:0,0:0:0:0:
161,299,191436,2,0,P|128:305|94:299,1,67.5000025749208
237,201,191608,5,6,0:0:0:0:
316,189,191693,1,0,0:0:0:0:
385,230,191779,1,2,0:0:0:0:
395,310,191865,1,0,0:0:0:0:
451,368,191951,5,10,0:0:0:0:
417,310,192036,1,0,0:0:0:0:
352,290,192122,1,0,0:0:0:0:
291,320,192208,1,0,0:0:0:0:
227,339,192293,5,10,0:0:0:0:
258,294,192379,1,0,0:0:0:0:
263,240,192465,1,0,0:0:0:0:
245,188,192551,1,0,0:0:0:0:
203,154,192636,5,10,0:0:0:0:
210,193,192722,1,0,0:0:0:0:
218,232,192808,1,0,0:0:0:0:
226,271,192893,1,0,0:0:0:0:
234,310,192979,5,6,0:0:0:0:
167,298,193064,1,0,0:0:0:0:
101,281,193150,1,0,0:0:0:0:
35,264,193236,1,0,0:0:0:0:
16,198,193322,5,10,0:0:0:0:
82,207,193407,1,0,0:0:0:0:
116,265,193493,1,0,0:0:0:0:
121,332,193579,1,0,0:0:0:0:
75,382,193665,6,0,L|6:373,1,67.5000025749208,2|0,0:0|0:0,0:0:0:0:
174,196,193836,1,2,0:0:0:0:
200,190,193922,1,0,0:0:0:0:
227,190,194008,2,0,L|296:199,1,67.5000025749208,8|0,0:0|0:0,0:0:0:0:
413,337,194178,5,2,0:0:0:0:
422,270,194263,1,0,0:0:0:0:
428,202,194349,1,0,0:0:0:0:
434,134,194435,1,0,0:0:0:0:
467,75,194521,5,2,0:0:0:0:
420,122,194606,1,0,0:0:0:0:
353,134,194692,1,8,0:0:0:0:
292,103,194778,1,0,0:0:0:0:
250,50,194863,5,2,0:0:0:0:
215,29,194949,1,0,0:0:0:0:
173,27,195036,1,0,0:0:0:0:
135,42,195121,1,0,0:0:0:0:
110,74,195206,1,0,0:0:0:0:
103,114,195292,1,0,0:0:0:0:
82,149,195379,5,10,0:0:0:0:
133,132,195465,1,0,0:0:0:0:
186,137,195551,1,2,0:0:0:0:
232,163,195636,1,0,0:0:0:0:
259,209,195722,6,0,L|251:277,1,67.5000025749208,6|0,0:0|0:0,0:0:0:0:
110,334,195893,2,0,L|101:266,1,67.5000025749208,2|0,0:0|0:0,0:0:0:0:
349,256,196065,6,0,L|358:189,1,67.5000025749208,10|0,0:0|0:0,0:0:0:0:
159,131,196236,2,0,L|167:198,1,67.5000025749208,2|0,0:0|0:0,0:0:0:0:
327,349,196408,6,0,P|360:350|392:340,1,67.5000025749208,2|0,0:0|0:0,0:0:0:0:
470,196,196579,1,2,0:0:0:0:
471,155,196664,1,0,0:0:0:0:
457,116,196751,1,8,0:0:0:0:
428,87,196836,1,0,0:0:0:0:
390,70,196922,1,2,0:0:0:0:
349,70,197007,1,0,0:0:0:0:
314,84,197093,5,0,0:0:0:0:
335,148,197179,1,0,0:0:0:0:
322,213,197264,1,2,0:0:0:0:
272,259,197350,1,0,0:0:0:0:
204,262,197436,5,10,0:0:0:0:
191,237,197522,1,0,0:0:0:0:
187,210,197608,1,0,0:0:0:0:
189,183,197693,1,0,0:0:0:0:
200,158,197779,5,2,0:0:0:0:
133,167,197864,1,0,0:0:0:0:
94,222,197950,1,2,0:0:0:0:
99,289,198036,1,0,0:0:0:0:
146,337,198122,1,8,0:0:0:0:
212,339,198207,1,0,0:0:0:0:
267,299,198293,1,2,0:0:0:0:
319,255,198379,1,0,0:0:0:0:
369,210,198464,5,6,0:0:0:0:
301,204,198550,1,0,0:0:0:0:
234,197,198635,1,0,0:0:0:0:
166,190,198721,1,0,0:0:0:0:
127,246,198808,5,10,0:0:0:0:
190,222,198893,1,0,0:0:0:0:
218,161,198979,1,0,0:0:0:0:
202,95,199065,1,0,0:0:0:0:
155,44,199151,6,0,P|122:40|89:44,1,67.5000025749208,2|0,0:0|0:0,0:0:0:0:
24,206,199322,1,2,0:0:0:0:
39,229,199408,1,0,0:0:0:0:
60,245,199493,2,0,P|93:249|127:246,1,67.5000025749208,8|0,0:0|0:0,0:0:0:0:
227,124,199665,5,2,0:0:0:0:
293,111,199750,1,0,0:0:0:0:
359,120,199836,1,0,0:0:0:0:
415,157,199922,1,0,0:0:0:0:
440,219,200008,5,2,0:0:0:0:
376,196,200093,1,0,0:0:0:0:
310,208,200179,1,8,0:0:0:0:
259,253,200265,1,0,0:0:0:0:
236,316,200351,5,2,0:0:0:0:
257,331,200436,1,0,0:0:0:0:
283,338,200522,1,0,0:0:0:0:
310,337,200608,1,0,0:0:0:0:
336,330,200693,6,0,P|332:296|337:263,1,67.5000025749208,2|0,0:0|0:0,0:0:0:0:
498,186,200865,2,0,P|470:205|439:218,1,67.5000025749208,10|0,0:0|0:0,0:0:0:0:
293,118,201036,2,0,P|323:132|350:152,1,67.5000025749208,2|0,0:0|0:0,0:0:0:0:
236,316,201207,5,6,0:0:0:0:
178,352,201293,1,0,0:0:0:0:
111,352,201378,1,2,0:0:0:0:
64,302,201464,1,0,0:0:0:0:
63,234,201551,5,10,0:0:0:0:
76,210,201635,1,0,0:0:0:0:
82,183,201722,1,2,0:0:0:0:
79,156,201808,1,0,0:0:0:0:
65,132,201893,5,0,0:0:0:0:
96,88,201979,1,0,0:0:0:0:
147,72,202065,1,2,0:0:0:0:
199,84,202151,1,0,0:0:0:0:
236,122,202236,1,8,0:0:0:0:
267,166,202322,1,0,0:0:0:0:
316,188,202407,1,2,0:0:0:0:
370,185,202493,1,0,0:0:0:0:
412,152,202579,5,2,0:0:0:0:
389,73,202665,1,0,0:0:0:0:
311,47,202751,1,0,0:0:0:0:
239,83,202836,1,0,0:0:0:0:
217,161,202922,5,10,0:0:0:0:
174,230,203008,1,0,0:0:0:0:
94,244,203093,1,2,0:0:0:0:
28,197,203179,1,0,0:0:0:0:
19,116,203265,5,2,0:0:0:0:
45,108,203351,1,0,0:0:0:0:
70,101,203435,1,2,0:0:0:0:
95,93,203521,1,0,0:0:0:0:
120,84,203607,6,0,L|125:151,1,67.5000025749208,8|0,0:0|0:0,0:0:0:0:
246,360,203779,2,0,L|251:292,1,67.5000025749208,2|0,0:0|0:0,0:0:0:0:
450,200,203951,5,6,0:0:0:0:
404,150,204035,1,0,0:0:0:0:
336,140,204122,1,0,0:0:0:0:
273,167,204208,1,0,0:0:0:0:
232,220,204293,1,10,0:0:0:0:
176,256,204379,1,0,0:0:0:0:
108,248,204464,1,0,0:0:0:0:
54,205,204551,1,0,0:0:0:0:
41,139,204636,5,2,0:0:0:0:
69,77,204722,1,0,0:0:0:0:
127,43,204808,1,2,0:0:0:0:
194,50,204893,1,0,0:0:0:0:
239,98,204979,1,8,0:0:0:0:
264,160,205065,1,0,0:0:0:0:
289,222,205151,1,2,0:0:0:0:
314,284,205236,1,0,0:0:0:0:
339,346,205322,5,0,0:0:0:0:
380,293,205408,1,0,0:0:0:0:
421,240,205493,1,2,0:0:0:0:
462,188,205579,1,0,0:0:0:0:
503,135,205665,5,10,0:0:0:0:
437,126,205750,1,0,0:0:0:0:
371,117,205837,1,0,0:0:0:0:
305,108,205922,1,0,0:0:0:0:
239,98,206007,6,0,P|248:130|263:160,1,67.5000025749208,2|0,0:0|0:0,0:0:0:0:
421,240,206179,2,0,P|454:242|488:238,1,67.5000025749208,2|0,0:0|0:0,0:0:0:0:
207,292,206351,2,0,P|234:310|265:324,1,67.5000025749208,10|0,0:0|0:0,0:0:0:0:
437,283,206523,2,0,P|464:263|487:238,1,67.5000025749208,2|0,0:0|0:0,0:0:0:0:
414,39,206693,5,6,0:0:0:0:
363,19,206779,1,0,0:0:0:0:
308,19,206865,1,2,0:0:0:0:
263,50,206951,1,0,0:0:0:0:
239,98,207036,1,10,0:0:0:0:
212,144,207122,1,0,0:0:0:0:
162,165,207208,1,2,0:0:0:0:
108,159,207293,1,0,0:0:0:0:
70,120,207379,5,2,0:0:0:0:
65,66,207465,1,0,0:0:0:0:
92,19,207551,1,2,0:0:0:0:
143,2,207636,1,0,0:0:0:0:
195,15,207722,1,8,0:0:0:0:
230,55,207807,1,0,0:0:0:0:
265,95,207893,1,2,0:0:0:0:
300,135,207979,1,0,0:0:0:0:
335,175,208065,5,0,0:0:0:0:
344,108,208151,1,0,0:0:0:0:
303,54,208236,1,2,0:0:0:0:
235,45,208322,1,0,0:0:0:0:
182,87,208408,1,8,0:0:0:0:
173,153,208493,1,0,0:0:0:0:
214,207,208579,1,0,0:0:0:0:
281,216,208665,1,0,0:0:0:0:
349,214,208751,5,2,0:0:0:0:
398,259,208837,1,0,0:0:0:0:
401,327,208923,1,2,0:0:0:0:
355,375,209008,1,0,0:0:0:0:
288,380,209094,1,8,0:0:0:0:
237,333,209180,1,0,0:0:0:0:
235,265,209265,1,2,0:0:0:0:
281,216,209351,1,0,0:0:0:0:
323,165,209435,5,6,0:0:0:0:
285,125,209522,1,0,0:0:0:0:
232,115,209607,1,0,0:0:0:0:
183,138,209693,1,0,0:0:0:0:
152,182,209778,1,10,0:0:0:0:
156,236,209864,1,0,0:0:0:0:
189,278,209950,1,0,0:0:0:0:
237,300,210035,1,0,0:0:0:0:
289,287,210121,5,2,0:0:0:0:
237,271,210207,1,0,0:0:0:0:
185,255,210293,1,2,0:0:0:0:
133,239,210379,1,0,0:0:0:0:
81,222,210465,6,0,P|76:256|81:289,1,67.5000025749208,10|0,0:0|0:0,0:0:0:0:
232,115,210636,2,0,P|236:81|231:48,1,67.5000025749208,2|0,0:0|0:0,0:0:0:0:
289,287,210807,5,0,0:0:0:0:
353,306,210893,1,0,0:0:0:0:
417,287,210978,1,2,0:0:0:0:
447,226,211064,1,0,0:0:0:0:
496,179,211150,5,10,0:0:0:0:
435,208,211235,1,0,0:0:0:0:
367,201,211321,1,0,0:0:0:0:
317,154,211407,1,0,0:0:0:0:
317,86,211493,6,0,L|315:153,1,67.5000025749208
138,347,211665,2,0,L|196:314,1,67.5000025749208
453,371,211836,2,0,L|395:336,1,67.5000025749208,8|0,0:0|0:0,0:0:0:0:
214,204,212007,2,0,L|186:185,3,33.7500012874604
296,351,212178,5,6,0:0:0:0:
303,270,212264,1,0,0:0:0:0:
308,189,212350,1,2,0:0:0:0:
313,108,212435,1,0,0:0:0:0:
319,26,212521,6,0,P|352:20|385:23,1,67.5000025749208,10|0,0:0|0:0,0:0:0:0:
496,101,212693,2,0,L|496:134,3,33.7500012874604,2|0|0|0,0:0|0:0|0:0|0:0,0:0:0:0:
374,185,212865,2,0,P|341:191|308:189,1,67.5000025749208
197,110,213037,2,0,L|196:76,3,33.7500012874604,2|0|0|0,0:0|0:0|0:0|0:0,0:0:0:0:
319,27,213208,6,0,P|322:60|318:93,1,67.5000025749208,8|0,0:0|0:0,0:0:0:0:
77,99,213379,2,0,P|70:66|71:33,1,67.5000025749208,2|0,0:0|0:0,0:0:0:0:
277,180,213551,5,6,0:0:0:0:
277,260,213636,1,0,0:0:0:0:
225,323,213722,1,0,0:0:0:0:
144,335,213808,1,0,0:0:0:0:
70,300,213893,5,10,0:0:0:0:
120,256,213979,1,0,0:0:0:0:
188,265,214065,1,0,0:0:0:0:
225,323,214151,1,0,0:0:0:0:
282,356,214236,5,10,0:0:0:0:
255,308,214322,1,2,0:0:0:0:
260,254,214408,1,0,0:0:0:0:
292,210,214493,1,0,0:0:0:0:
388,262,214579,5,8,0:0:0:0:
414,231,214665,1,0,0:0:0:0:
417,190,214751,1,0,0:0:0:0:
400,152,214836,1,0,0:0:0:0:
364,134,214922,6,0,L|297:122,1,67.5000025749208,4|0,0:0|0:0,0:0:0:0:
137,90,215093,1,0,0:0:0:0:
137,90,215179,1,0,0:0:0:0:
137,90,215265,2,0,L|203:101,1,67.5000025749208,8|0,0:0|0:0,0:0:0:0:
361,56,215436,5,0,0:0:0:0:
365,67,215522,2,0,P|369:100|364:134,1,67.5000025749208
206,169,215693,2,0,P|200:135|204:102,1,67.5000025749208
321,211,215864,1,0,0:0:0:0:
329,223,215950,5,8,0:0:0:0:
310,273,216036,1,0,0:0:0:0:
260,295,216122,1,0,0:0:0:0:
206,288,216207,1,0,0:0:0:0:
164,252,216293,6,0,P|131:243|97:243,1,67.5000025749208,4|0,0:0|0:0,0:0:0:0:
260,130,216464,1,0,0:0:0:0:
267,125,216550,1,0,0:0:0:0:
273,122,216636,2,0,P|305:113|339:113,1,67.5000025749208,8|0,0:0|0:0,0:0:0:0:
479,172,216807,5,0,0:0:0:0:
483,180,216893,2,0,L|412:175,1,67.5000025749208
408,263,217065,2,0,L|475:267,1,67.5000025749208
327,340,217236,1,0,0:0:0:0:
313,336,217322,5,8,0:0:0:0:
302,283,217407,1,0,0:0:0:0:
293,229,217493,1,0,0:0:0:0:
282,175,217579,1,0,0:0:0:0:
272,121,217664,6,0,P|239:117|206:119,1,67.5000025749208,4|0,0:0|0:0,0:0:0:0:
25,95,217836,1,0,0:0:0:0:
32,91,217922,1,0,0:0:0:0:
39,87,218008,2,0,P|72:90|104:101,1,67.5000025749208,8|0,0:0|0:0,0:0:0:0:
180,209,218179,5,0,0:0:0:0:
171,202,218265,2,0,P|138:193|104:191,1,67.5000025749208
82,282,218436,2,0,P|114:290|148:292,1,67.5000025749208
301,288,218607,1,0,0:0:0:0:
317,287,218693,5,8,0:0:0:0:
363,238,218779,1,0,0:0:0:0:
362,171,218864,1,0,0:0:0:0:
324,114,218950,1,0,0:0:0:0:
258,96,219036,2,0,L|124:107,1,135.000005149842
61,204,219293,1,0,0:0:0:0:
70,213,219379,5,8,0:0:0:0:
136,208,219465,1,0,0:0:0:0:
200,202,219551,1,0,0:0:0:0:
267,195,219636,1,0,0:0:0:0:
334,190,219722,6,0,B|344:222|344:222|343:255,1,67.5000025749208
253,343,219893,2,0,B|242:310|242:310|243:277,1,67.5000025749208
295,104,220065,1,8,0:0:0:0:
398,334,220236,1,8,0:0:0:0:
200,202,220408,6,0,L|273:194,1,67.5000025749208,4|0,0:0|0:0,0:0:0:0:
442,215,220579,1,0,0:0:0:0:
448,208,220665,1,0,0:0:0:0:
453,202,220751,2,0,P|452:168|443:136,1,67.5000025749208,8|0,0:0|0:0,0:0:0:0:
337,55,220922,5,0,0:0:0:0:
333,65,221008,2,0,P|333:98|342:130,1,67.5000025749208
267,194,221179,2,0,P|296:210|329:218,1,67.5000025749208
415,302,221351,1,0,0:0:0:0:
422,315,221436,5,8,0:0:0:0:
372,292,221522,1,0,0:0:0:0:
317,292,221608,1,0,0:0:0:0:
271,320,221693,1,0,0:0:0:0:
244,367,221779,6,0,P|211:367|178:362,1,67.5000025749208,4|0,0:0|0:0,0:0:0:0:
42,288,221951,1,0,0:0:0:0:
45,277,222036,1,0,0:0:0:0:
52,267,222122,2,0,P|85:267|118:262,1,67.5000025749208,8|0,0:0|0:0,0:0:0:0:
258,178,222293,5,0,0:0:0:0:
251,171,222379,2,0,P|217:171|184:166,1,67.5000025749208
47,93,222551,2,0,P|80:93|113:88,1,67.5000025749208
230,34,222723,1,0,0:0:0:0:
240,27,222808,5,8,0:0:0:0:
230,80,222894,1,0,0:0:0:0:
247,131,222980,1,0,0:0:0:0:
291,160,223065,1,0,0:0:0:0:
345,162,223151,6,0,L|433:150,1,67.5000025749208,4|0,0:0|0:0,0:0:0:0:
240,306,223322,1,0,0:0:0:0:
228,308,223408,1,0,0:0:0:0:
218,309,223493,2,0,L|130:321,1,67.5000025749208,8|0,0:0|0:0,0:0:0:0:
51,268,223665,5,0,0:0:0:0:
46,256,223751,1,0,0:0:0:0:
44,245,223836,2,0,P|45:211|56:179,1,67.5000025749208,4|0,0:0|0:0,0:0:0:0:
137,113,224008,1,0,0:0:0:0:
142,123,224093,2,0,P|152:154|154:188,1,67.5000025749208,4|8,0:0|0:0,0:0:0:0:
248,215,224265,5,0,0:0:0:0:
259,217,224351,2,0,L|347:229,1,67.5000025749208,4|0,0:0|0:0,0:0:0:0:
432,241,224522,1,0,0:0:0:0:
428,230,224608,2,0,L|394:147,1,67.5000025749208,4|0,0:0|0:0,0:0:0:0:
363,69,224779,1,0,0:0:0:0:
355,77,224865,2,0,L|300:147,1,67.5000025749208,12|0,0:0|0:0,0:0:0:0:
159,196,225036,2,0,P|158:229|168:262,1,67.5000025749208,4|0,0:0|0:0,0:0:0:0:
335,356,225208,5,2,0:0:0:0:
343,353,225551,1,2,0:0:0:0:
368,176,225893,6,0,P|335:168|301:171,1,67.5000025749208,4|0,0:0|0:0,0:0:0:0:
263,250,226065,2,0,P|295:257|329:254,1,67.5000025749208
335,81,226236,1,8,0:0:0:0:
287,54,226322,1,0,0:0:0:0:
232,56,226408,1,0,0:0:0:0:
188,85,226493,2,0,P|185:119|191:152,1,67.5000025749208
113,211,226665,1,0,0:0:0:0:
120,219,226751,2,0,P|148:237|179:249,1,67.5000025749208
255,329,226922,5,8,0:0:0:0:
295,293,227008,1,0,0:0:0:0:
347,280,227093,1,0,0:0:0:0:
398,297,227179,1,0,0:0:0:0:
438,330,227265,6,0,P|456:302|462:269,1,67.5000025749208
445,165,227436,1,0,0:0:0:0:
393,120,227522,1,0,0:0:0:0:
325,114,227608,1,8,0:0:0:0:
273,156,227693,1,0,0:0:0:0:
216,193,227779,1,0,0:0:0:0:
149,181,227865,1,0,0:0:0:0:
99,134,227951,6,0,P|96:100|104:67,1,67.5000025749208
291,246,228122,2,0,P|293:279|285:312,1,67.5000025749208
89,126,228293,6,0,P|86:92|94:59,1,67.5000025749208,8|0,0:0|0:0,0:0:0:0:
301,256,228465,2,0,P|303:289|295:322,1,67.5000025749208
70,248,228636,6,0,L|137:240,1,67.5000025749208,4|0,0:0|0:0,0:0:0:0:
222,149,228808,1,0,0:0:0:0:
232,149,228893,1,0,0:0:0:0:
242,150,228979,2,0,L|309:157,1,67.5000025749208,8|0,0:0|0:0,0:0:0:0:
377,255,229151,5,0,0:0:0:0:
367,257,229236,2,0,P|334:261|301:256,1,67.5000025749208
321,63,229408,2,0,P|354:64|386:76,1,67.5000025749208
453,10,229579,1,0,0:0:0:0:
461,19,229665,2,0,P|476:48|481:82,1,67.5000025749208,8|0,0:0|0:0,0:0:0:0:
476,196,229836,5,0,0:0:0:0:
467,263,229922,1,0,0:0:0:0:
453,329,230008,2,0,B|416:336|416:336|368:316|368:316|323:322,1,135.000005149842,4|0,0:0|0:0,0:0:0:0:
225,375,230265,1,0,0:0:0:0:
212,367,230351,5,8,0:0:0:0:
174,311,230436,1,0,0:0:0:0:
179,243,230522,1,0,0:0:0:0:
223,192,230608,1,0,0:0:0:0:
289,184,230693,2,0,L|373:200,1,67.5000025749208
338,297,230865,2,0,L|254:281,1,67.5000025749208
84,250,231036,5,0,0:0:0:0:
75,249,231122,1,0,0:0:0:0:
67,248,231208,1,0,0:0:0:0:
59,247,231293,1,0,0:0:0:0:
51,245,231379,6,0,P|59:213|62:179,1,67.5000025749208,2|0,0:0|0:0,0:0:0:0:
225,244,231551,2,0,P|216:211|213:177,1,67.5000025749208
126,46,231722,6,0,P|134:78|140:116,1,72,2|0,0:0|0:0,0:0:0:0:
299,47,231894,2,0,P|290:79|288:117,1,72
197,252,232065,6,0,P|208:215|213:177,1,76.5000014591217,2|0,0:0|0:0,0:0:0:0:
373,251,232237,2,0,P|363:214|361:176,1,76.5000014591217
271,39,232408,6,0,P|282:77|287:117,1,80.9999975280763,2|0,0:0|0:0,0:0:0:0:
449,39,232580,2,0,P|438:77|435:117,1,80.9999975280763
373,251,232751,5,2,0:0:0:0:
325,298,232836,1,0,0:0:0:0:
260,316,232922,1,2,0:0:0:0:
194,298,233007,1,0,0:0:0:0:
147,250,233093,1,2,0:0:0:0:
129,185,233179,1,0,0:0:0:0:
147,120,233265,1,0,0:0:0:0:
194,72,233350,1,0,0:0:0:0:
259,55,233436,6,0,L|259:123,1,67.5000025749208
194,72,233522,2,0,L|227:130,1,67.5000025749208
147,120,233608,2,0,L|205:153,1,67.5000025749208
129,185,233693,2,0,L|196:185,1,67.5000025749208
147,250,233779,2,0,L|205:215,1,67.5000025749208,2|0,0:0|0:0,0:0:0:0:
194,298,233865,2,0,L|228:239,1,67.5000025749208
260,316,233951,2,0,L|259:248,1,67.5000025749208
325,298,234036,2,0,L|290:240,1,67.5000025749208
379,223,234122,6,0,L|384:170,3,45
301,155,234465,2,0,L|296:110,3,45,2|0|0|0,0:0|0:0|0:0|0:0,0:0:0:0:
292,65,234808,6,0,L|297:118,3,45
214,133,235151,2,0,L|209:177,3,45,2|0|0|0,0:0|0:0|0:0|0:0,0:0:0:0:
205,222,235493,6,0,L|210:169,3,45
127,154,235836,2,0,L|122:109,3,45,2|0|0|0,0:0|0:0|0:0|0:0,0:0:0:0:
118,64,236179,6,0,L|123:117,3,45
40,132,236522,2,0,L|35:176,3,45,2|0|0|0,0:0|0:0|0:0|0:0,0:0:0:0:
