osu file format v14

[General]
AudioFilename: audio.mp3
AudioLeadIn: 0
PreviewTime: 169715
Countdown: 0
SampleSet: Soft
StackLeniency: 0.2
Mode: 0
LetterboxInBreaks: 0
WidescreenStoryboard: 1

[Editor]
Bookmarks: 969,11254,11940,17426,18797,19140,19654,19826,19997,20169,20254,21541,22912,44855,54454,55826,66798,72284,77769,88741,94227,116170,127141,149083,151826,154569,155940,157311,157997,158683,159026,159369,159711,160054,160740,161426,162111,162797,163483,164169,164854,165540,165883,166226,166569,166911,167254,167597,167940,168283,168454,168626,168797,168969,169140,169311,169483,169654,171026,191597,192969,214912,231369,236855
DistanceSpacing: 0.7
BeatDivisor: 4
GridSize: 8
TimelineZoom: 2.7

[Metadata]
Title:Carry Me Away (Extended Mix)
TitleUnicode:Carry Me Away (Extended Mix)
Artist:lapix
ArtistUnicode:lapix
Creator:Typ4
Version:Towards The Imaginary Horizon
Source:SOUND VOLTEX IV HEAVENLY HAVEN
Tags:sdvx iv kanata.n future core fugene2 beatmania iidx 26 rootage
BeatmapID:1966086
BeatmapSetID:941510

[Difficulty]
HPDrainRate:5
CircleSize:4
OverallDifficulty:8
ApproachRate:9.6
SliderMultiplier:2
SliderTickRate:1

[Events]
//Background and Video events
0,0,"uwu.jpg",0,0
//Break Periods
2,66996,71386
2,116369,123888
2,149625,151317
2,152368,154060
//Storyboard Layer 0 (Background)
//Storyboard Layer 1 (Fail)
//Storyboard Layer 2 (Pass)
//Storyboard Layer 3 (Foreground)
//Storyboard Sound Samples

[TimingPoints]
969,342.857142857143,4,2,0,50,1,0
969,-100,4,2,0,50,0,0
1311,-50,4,2,0,50,0,0
1569,-66.6666666666667,4,2,0,50,0,0
1997,-80,4,2,0,50,0,0
2340,-100,4,2,0,50,0,0
2683,-50,4,2,0,50,0,0
2940,-66.6666666666667,4,2,0,50,0,0
3369,-80,4,2,0,50,0,0
3540,-100,4,2,0,50,0,0
3711,-100,4,2,0,50,0,0
4054,-50,4,2,0,50,0,0
4311,-66.6666666666667,4,2,0,50,0,0
4740,-80,4,2,0,50,0,0
4911,-50,4,2,0,50,0,0
5254,-100,4,2,0,50,0,0
6797,-50,4,2,0,50,0,0
7054,-66.6666666666667,4,2,0,50,0,0
7483,-80,4,2,0,50,0,0
7826,-100,4,2,0,50,0,0
8169,-50,4,2,0,50,0,0
8426,-66.6666666666667,4,2,0,50,0,0
8854,-80,4,2,0,50,0,0
9026,-100,4,2,0,50,0,0
9197,-100,4,2,0,50,0,0
9540,-50,4,2,0,50,0,0
9883,-80,4,2,0,50,0,0
10226,-66.6666666666667,4,2,0,50,0,0
10397,-33.3333333333333,4,2,0,50,0,0
10911,-80,4,2,0,50,0,0
11083,-66.6666666666667,4,2,0,50,0,0
11254,-133.333333333333,4,2,0,50,0,0
11597,-200,4,2,0,50,0,0
11940,-100,4,2,0,50,0,0
12283,-50,4,2,0,50,0,0
12626,-100,4,2,0,50,0,0
12797,-66.6666666666667,4,2,0,50,0,0
14169,-100,4,2,0,50,0,0
14683,-100,4,2,0,50,0,0
15026,-50,4,2,0,50,0,0
15369,-66.6666666666667,4,2,0,50,0,0
16226,-100,4,2,0,50,0,0
16397,-100,4,2,0,50,0,0
16740,-133.333333333333,4,2,0,50,0,0
17426,-133.333333333333,4,2,0,50,0,0
19483,-133.333333333333,4,2,0,50,0,0
19826,-66.6666666666667,4,2,0,50,0,0
20169,-133.333333333333,4,2,0,50,0,0
20254,-1000,4,2,0,5,0,0
21540,-500,4,2,0,50,0,0
22911,-33.3333333333333,4,2,0,50,0,0
23083,-33.3333333333333,4,2,0,50,0,0
23254,-133.333333333333,4,2,0,50,0,0
23769,-100,4,2,0,50,0,0
24111,-33.3333333333333,4,2,0,50,0,0
24283,-33.3333333333333,4,2,0,50,0,0
24454,-100,4,2,0,50,0,0
24797,-50,4,2,0,50,0,0
25140,-50,4,2,0,50,0,0
25311,-100,4,2,0,50,0,0
25483,-133.333333333333,4,2,0,50,0,0
25654,-25,4,2,0,50,0,0
25997,-50,4,2,0,50,0,0
26511,-133.333333333333,4,2,0,50,0,0
26683,-83.3333333333333,4,2,0,50,0,0
27026,-100,4,2,0,50,0,0
28226,-200,4,2,0,50,0,0
28397,-50,4,2,0,50,0,0
28569,-50,4,2,0,50,0,0
28740,-133.333333333333,4,2,0,50,0,0
29254,-100,4,2,0,50,0,0
29597,-33.3333333333333,4,2,0,50,0,0
29769,-33.3333333333333,4,2,0,50,0,0
29940,-100,4,2,0,50,0,0
30283,-50,4,2,0,50,0,0
30626,-133.333333333333,4,2,0,50,0,0
31140,-25,4,2,0,50,0,0
31483,-50,4,2,0,50,0,0
31911,-133.333333333333,4,2,0,50,0,0
32169,-100,4,2,0,50,0,0
32511,-83.3333333333333,4,2,0,50,0,0
32854,-100,4,2,0,50,0,0
33883,-100,4,2,0,50,0,0
35769,-133.333333333333,4,2,0,50,0,0
36111,-100,4,2,0,50,0,0
37311,-83.3333333333333,4,2,0,50,0,0
39369,-133.333333333333,4,2,0,50,0,0
42111,-50,4,2,0,50,0,0
42454,-66.6666666666667,4,2,0,50,0,0
42797,-100,4,2,0,50,0,0
43140,-133.333333333333,4,2,0,50,0,0
43483,-100,4,2,0,50,0,0
44511,-33.3333333333333,4,2,0,50,0,0
44854,-33.3333333333333,4,2,0,50,0,1
44940,-40,4,2,0,50,0,1
45026,-50,4,2,0,50,0,1
45111,-66.6666666666667,4,2,0,50,0,1
45197,-40,4,2,0,50,0,0
45369,-100,4,2,0,50,0,0
46054,-50,4,2,0,50,0,0
46911,-100,4,2,0,50,0,0
47254,-50,4,2,0,50,0,0
47940,-100,4,2,0,50,0,0
48283,-33.3333333333333,4,2,0,50,0,0
48540,-28.5714285714286,4,2,0,50,0,0
48797,-25,4,2,0,50,0,0
48969,-28.5714285714286,4,2,0,50,0,0
49311,-33.3333333333333,4,2,0,50,0,0
49654,-400,4,2,0,50,0,0
50340,-66.6666666666667,4,2,0,50,0,0
50683,-133.333333333333,4,2,0,50,0,0
51026,-66.6666666666667,4,2,0,50,0,0
51026,-50,4,2,0,50,0,0
51369,-50,4,2,0,50,0,0
52054,-66.6666666666667,4,2,0,50,0,0
52654,-100,4,2,0,50,0,0
53083,-66.6666666666667,4,2,0,50,0,0
53254,-80,4,2,0,50,0,0
53426,-66.6666666666667,4,2,0,50,0,0
53683,-100,4,2,0,50,0,0
53940,-33.3333333333333,4,2,0,50,0,0
54111,-66.6666666666667,4,2,0,50,0,0
55826,-40,4,2,0,50,0,1
56169,-100,4,2,0,50,0,0
56511,-66.6666666666667,4,2,0,50,0,0
56683,-50,4,2,0,50,0,0
57883,-66.6666666666667,4,2,0,50,0,0
58054,-100,4,2,0,50,0,0
58226,-66.6666666666667,4,2,0,50,0,0
59083,-100,4,2,0,50,0,0
59254,-66.6666666666667,4,2,0,50,0,0
59683,-50,4,2,0,50,0,0
60111,-66.6666666666667,4,2,0,50,0,0
60369,-100,4,2,0,50,0,0
60626,-133.333333333333,4,2,0,50,0,0
61140,-80,4,2,0,50,0,0
61311,-40,4,2,0,50,0,0
61654,-100,4,2,0,50,0,0
61997,-66.6666666666667,4,2,0,50,0,0
62169,-50,4,2,0,50,0,0
62426,-66.6666666666667,4,2,0,50,0,0
62683,-100,4,2,0,50,0,0
62854,-80,4,2,0,50,0,0
63111,-66.6666666666667,4,2,0,50,0,0
63711,-40,4,2,0,50,0,0
63797,-50,4,2,0,50,0,0
63883,-66.6666666666667,4,2,0,50,0,0
63969,-100,4,2,0,50,0,0
64054,-66.6666666666667,4,2,0,50,0,0
64311,-100,4,2,0,50,0,0
64569,-66.6666666666667,4,2,0,50,0,0
64826,-100,4,2,0,50,0,0
65254,-133.333333333333,4,2,0,50,0,0
65426,-80,4,2,0,50,0,0
65769,-100,4,2,0,50,0,0
66111,-133.333333333333,4,2,0,50,0,0
66283,-200,4,2,0,50,0,0
66454,-400,4,2,0,50,0,0
71940,-100,4,2,0,50,0,0
72111,-33.3333333333333,4,2,0,50,0,0
72283,-66.6666666666667,4,2,0,50,0,0
72626,-100,4,2,0,50,0,0
76397,-100,4,2,0,50,0,0
76569,-111.111111111111,4,2,0,50,0,0
76826,-125,4,2,0,50,0,0
77083,-142.857142857143,4,2,0,50,0,0
77426,-100,4,2,0,50,0,0
77597,-66.6666666666667,4,2,0,50,0,0
78111,-50,4,2,0,50,0,0
79826,-66.6666666666667,4,2,0,50,0,0
79997,-100,4,2,0,50,0,0
80511,-66.6666666666667,4,2,0,50,0,0
82911,-133.333333333333,4,2,0,50,0,0
83254,-66.6666666666667,4,2,0,50,0,0
85311,-100,4,2,0,50,0,0
85483,-133.333333333333,4,2,0,50,0,0
85654,-100,4,2,0,50,0,0
85826,-133.333333333333,4,2,0,50,0,0
85997,-80,4,2,0,50,0,0
86169,-66.6666666666667,4,2,0,50,0,0
87197,-100,4,2,0,50,0,0
87369,-100,4,2,0,50,0,0
88740,-50,4,2,0,50,0,0
89083,-50,4,2,0,50,0,0
89426,-66.6666666666667,4,2,0,50,0,0
89769,-100,4,2,0,50,0,0
90111,-100,4,2,0,50,0,0
90454,-80,4,2,0,50,0,0
90797,-66.6666666666667,4,2,0,50,0,0
91483,-66.6666666666667,4,2,0,50,0,0
93883,-100,4,2,0,50,0,0
94054,-133.333333333333,4,2,0,50,0,0
94226,-33.3333333333333,4,2,0,50,0,1
94569,-100,4,2,0,50,0,0
94997,-66.6666666666667,4,2,0,50,0,0
95940,-50,4,2,0,50,0,0
96626,-66.6666666666667,4,2,0,50,0,0
96797,-100,4,2,0,50,0,0
96969,-50,4,2,0,50,0,0
97311,-100,4,2,0,50,0,0
97654,-66.6666666666667,4,2,0,50,0,0
98169,-50,4,2,0,50,0,0
98511,-100,4,2,0,50,0,0
98683,-66.6666666666667,4,2,0,50,0,0
99026,-50,4,2,0,50,0,0
99197,-40,4,2,0,50,0,0
99369,-200,4,2,0,50,0,0
99540,-66.6666666666667,4,2,0,50,0,0
99711,-33.3333333333333,4,2,0,50,0,0
100054,-400,4,2,0,50,0,0
100397,-66.6666666666667,4,2,0,50,0,0
100569,-50,4,2,0,50,0,0
101083,-100,4,2,0,50,0,0
105197,-133.333333333333,4,2,0,50,0,0
105540,-50,4,2,0,50,0,0
107597,-66.6666666666667,4,2,0,50,0,0
107769,-100,4,2,0,50,0,0
107940,-66.6666666666667,4,2,0,50,0,0
108283,-100,4,2,0,50,0,0
109140,-50,4,2,0,50,0,0
109997,-80,4,2,0,50,0,0
110683,-66.6666666666667,4,2,0,50,0,0
110854,-100,4,2,0,50,0,0
111454,-66.6666666666667,4,2,0,50,0,0
111626,-50,4,2,0,50,0,0
112740,-66.6666666666667,4,2,0,50,0,0
113254,-100,4,2,0,50,0,0
114540,-200,4,2,0,5,0,0
127140,-100,4,2,0,50,0,0
127826,-133.333333333333,4,2,0,50,0,0
128683,-100,4,2,0,50,0,0
131083,-133.333333333333,4,2,0,50,0,0
132626,-100,4,2,0,50,0,0
133311,-133.333333333333,4,2,0,50,0,0
133826,-100,4,2,0,50,0,0
136226,-133.333333333333,4,2,0,50,0,0
138111,-100,4,2,0,50,0,0
138797,-133.333333333333,4,2,0,50,0,0
139311,-100,4,2,0,50,0,0
140854,-133.333333333333,4,2,0,50,0,0
141369,-100,4,2,0,50,0,0
146340,-133.333333333333,4,2,0,50,0,0
147540,-100,4,2,0,50,0,0
148054,-100,4,2,0,50,0,0
148397,-133.333333333333,4,2,0,50,0,0
148740,-200,4,2,0,50,0,0
149083,-100,4,2,0,50,0,0
151826,-133.333333333333,4,2,0,50,0,0
154569,-200,4,2,0,50,0,0
157311,-133.333333333333,4,2,0,50,0,0
157654,-200,4,2,0,50,0,0
157997,-133.333333333333,4,2,0,50,0,0
158340,-200,4,2,0,50,0,0
158683,-133.333333333333,4,2,0,50,0,0
159369,-100,4,2,0,50,0,0
165540,-66.6666666666667,4,2,0,50,0,0
168283,-50,4,2,0,50,0,0
168626,-66.6666666666667,4,2,0,50,0,0
168969,-100,4,2,0,50,0,0
169311,-133.333333333333,4,2,0,50,0,0
170683,-33.3333333333333,4,2,0,50,0,0
170854,-133.333333333333,4,2,0,50,0,0
171026,-40,4,2,0,50,0,1
171369,-50,4,2,0,50,0,1
172226,-100,4,2,0,50,0,1
172397,-50,4,2,0,50,0,1
172911,-66.6666666666667,4,2,0,50,0,1
173083,-50,4,2,0,50,0,1
173426,-66.6666666666667,4,2,0,50,0,1
173597,-80,4,2,0,50,0,1
173769,-50,4,2,0,50,0,1
174454,-66.6666666666667,4,2,0,50,0,1
174626,-100,4,2,0,50,0,1
174797,-50,4,2,0,50,0,1
175483,-66.6666666666667,4,2,0,50,0,1
176511,-50,4,2,0,50,0,1
177197,-50,4,2,0,50,0,1
177711,-66.6666666666667,4,2,0,50,0,1
177883,-50,4,2,0,50,0,1
178226,-66.6666666666667,4,2,0,50,0,1
179254,-50,4,2,0,50,0,1
179597,-66.6666666666667,4,2,0,50,0,1
180626,-50,4,2,0,50,0,1
180969,-66.6666666666667,4,2,0,50,0,1
181654,-100,4,2,0,50,0,1
181997,-50,4,2,0,50,0,1
182683,-66.6666666666667,4,2,0,50,0,1
183711,-50,4,2,0,50,0,1
184911,-66.6666666666667,4,2,0,50,0,1
185083,-100,4,2,0,50,0,1
185254,-50,4,2,0,50,0,1
185597,-66.6666666666667,4,2,0,50,0,1
185940,-50,4,2,0,50,0,1
186283,-66.6666666666667,4,2,0,50,0,1
187483,-50,4,2,0,50,0,1
188169,-66.6666666666667,4,2,0,50,0,1
188854,-50,4,2,0,50,0,1
189540,-66.6666666666667,4,2,0,50,0,1
190226,-50,4,2,0,50,0,1
190569,-100,4,2,0,50,0,1
190740,-50,4,2,0,50,0,1
190911,-100,4,2,0,50,0,1
191083,-25,4,2,0,50,0,1
191254,-100,4,2,0,50,0,1
191597,-100,4,2,0,50,0,0
192969,-50,4,2,0,50,0,1
193654,-100,4,2,0,50,0,1
193826,-66.6666666666667,4,2,0,50,0,1
194683,-50,4,2,0,50,0,1
195026,-66.6666666666667,4,2,0,50,0,1
195369,-100,4,2,0,50,0,1
195711,-66.6666666666667,4,2,0,50,0,1
197254,-100,4,2,0,50,0,1
197426,-66.6666666666667,4,2,0,50,0,1
199140,-100,4,2,0,50,0,1
199311,-66.6666666666667,4,2,0,50,0,1
200683,-100,4,2,0,50,0,1
201197,-66.6666666666667,4,2,0,50,0,1
202569,-50,4,2,0,50,0,1
202911,-66.6666666666667,4,2,0,50,0,1
203940,-50,4,2,0,50,0,1
204626,-66.6666666666667,4,2,0,50,0,1
205483,-100,4,2,0,50,0,1
205654,-66.6666666666667,4,2,0,50,0,1
208226,-100,4,2,0,50,0,1
208397,-66.6666666666667,4,2,0,50,0,1
209083,-100,4,2,0,50,0,1
209426,-50,4,2,0,50,0,1
209769,-66.6666666666667,4,2,0,50,0,1
210454,-100,4,2,0,50,0,1
210797,-50,4,2,0,50,0,1
211140,-66.6666666666667,4,2,0,50,0,1
211997,-100,4,2,0,50,0,1
212169,-66.6666666666667,4,2,0,50,0,1
213026,-33.3333333333333,4,2,0,50,0,1
213197,-100,4,2,0,50,0,1
213540,-66.6666666666667,4,2,0,50,0,1
214911,-66.6666666666667,4,2,0,50,0,0
215254,-50,4,2,0,50,0,0
215511,-66.6666666666667,4,2,0,50,0,0
215940,-80,4,2,0,50,0,0
216283,-66.6666666666667,4,2,0,50,0,0
216626,-50,4,2,0,50,0,0
216883,-66.6666666666667,4,2,0,50,0,0
217311,-100,4,2,0,50,0,0
217654,-66.6666666666667,4,2,0,50,0,0
217997,-50,4,2,0,50,0,0
218254,-66.6666666666667,4,2,0,50,0,0
218683,-100,4,2,0,50,0,0
218854,-66.6666666666667,4,2,0,50,0,0
219197,-100,4,2,0,50,0,0
220397,-66.6666666666667,4,2,0,50,0,0
220740,-50,4,2,0,50,0,0
220997,-66.6666666666667,4,2,0,50,0,0
221426,-80,4,2,0,50,0,0
221769,-66.6666666666667,4,2,0,50,0,0
222111,-50,4,2,0,50,0,0
222369,-66.6666666666667,4,2,0,50,0,0
222797,-100,4,2,0,50,0,0
223140,-66.6666666666667,4,2,0,50,0,0
223483,-50,4,2,0,50,0,0
223826,-66.6666666666667,4,2,0,50,0,0
224854,-33.3333333333333,4,2,0,50,0,0
225197,-133.333333333333,4,2,0,50,0,0
225883,-66.6666666666667,4,2,0,50,0,0
226226,-50,4,2,0,50,0,0
226569,-100,4,2,0,50,0,0
226740,-66.6666666666667,4,2,0,50,0,0
227083,-50,4,2,0,50,0,0
227426,-66.6666666666667,4,2,0,50,0,0
228626,-66.6666666666667,4,2,0,50,0,0
228969,-50,4,2,0,50,0,0
229311,-66.6666666666667,4,2,0,50,0,0
230683,-100,4,2,0,50,0,0
231369,-100,4,2,0,50,0,0
234197,-200,4,2,0,5,0,0

[Colours]
Combo1 : 51,153,255
Combo2 : 151,216,255
Combo3 : 172,242,255
Combo4 : 19,107,255

[HitObjects]
69,68,968,5,4,0:0:0:0:
150,29,1140,2,0,P|161:55|158:99,1,50
52,172,1311,2,0,B|122:165|122:165|191:208|191:208|301:200,1,200,8|0,0:0|0:0,0:0:0:0:
330,113,1569,2,0,P|290:103|247:108,1,75.0000028610231
275,293,1741,2,0,P|312:300|293:189,1,150.000005722046
348,175,1997,2,0,P|326:159|277:152,1,62.5,8|0,0:0|0:0,0:0:0:0:
196,257,2169,2,0,P|190:278|199:329,1,62.5
373,225,2340,5,0,0:0:0:0:
453,275,2511,2,0,P|451:304|441:344,1,50
243,172,2683,2,0,B|276:125|276:125|364:110|364:110|416:144,1,200,8|0,0:0|0:0,0:0:0:0:
316,331,2940,2,0,P|298:310|297:243,1,75.0000028610231
465,239,3111,2,0,B|507:269|507:269|362:260,1,150.000005722046
175,173,3369,2,0,L|185:252,1,62.5,8|0,0:0|0:0,0:0:0:0:
268,223,3540,2,0,L|257:151,1,50
146,48,3711,37,2,0:0:0:0:
32,192,3883,2,0,L|107:187,1,50
258,250,4054,2,0,B|246:183|246:183|255:140|255:140|237:91|237:91|241:32,1,200,8|0,0:0|0:0,0:0:0:0:
383,205,4311,2,0,B|405:186|405:186|334:183,1,75.0000028610231
131,184,4483,2,0,P|154:258|229:262,1,150.000005722046
260,110,4740,6,0,B|250:140|250:140|254:180,1,62.5,8|0,0:0|0:0,0:0:0:0:
454,299,4911,2,0,B|373:304|373:304|326:348|326:348|186:359,1,200
101,345,5254,2,0,P|84:315|77:270,1,50
210,193,5426,2,0,P|203:222|183:257,1,50,8|0,0:0|0:0,0:0:0:0:
36,187,5597,2,0,P|69:194|105:193,1,50
279,34,5769,37,0,0:0:0:0:
140,113,5940,1,0,0:0:0:0:
390,192,6111,5,0,0:0:0:0:
148,116,6283,1,0,0:0:0:0:
294,294,6454,37,0,0:0:0:0:
186,194,6626,2,0,P|207:205|264:202,1,50
356,46,6797,2,0,P|353:150|445:78,1,200,8|0,0:0|0:0,0:0:0:0:
371,37,7054,2,0,P|326:40|287:68,1,75.0000028610231
354,193,7225,2,0,B|288:158|288:158|212:226,1,150.000005722046
317,329,7483,2,0,B|318:289|318:289|310:245,1,62.5,8|0,0:0|0:0,0:0:0:0:
159,174,7654,2,0,B|153:208|153:208|153:248,1,62.5
228,344,7826,5,0,0:0:0:0:
141,100,7997,2,0,L|144:169,1,50
98,321,8169,2,0,B|122:316|147:326|147:326|185:312|185:312|216:327|216:327|257:314|257:314|278:319|310:323,1,200,8|0,0:0|0:0,0:0:0:0:
309,169,8426,2,0,P|273:191|251:252,1,75.0000028610231
400,321,8597,2,0,B|393:256|393:256|406:223|406:223|398:150,1,150.000005722046
281,76,8854,2,0,L|203:73,1,62.5,8|0,0:0|0:0,0:0:0:0:
400,174,9026,2,0,L|463:166,1,50
405,66,9197,37,0,0:0:0:0:
208,169,9369,2,0,P|238:170|273:180,1,50
370,327,9540,2,0,B|315:337|315:337|286:338|286:338|265:354|265:354|225:355|225:355|170:369|170:369|189:328|189:328|201:312|201:312|208:293|208:293|233:243,1,300,8|0,0:0|0:0,0:0:0:0:
404,243,9883,1,2,0:0:0:0:
390,242,9969,1,0,0:0:0:0:
376,241,10054,2,0,B|352:238|352:238|345:234|345:234|345:241|345:241|340:237|340:237|303:234,1,62.5,0|2,0:0|0:0,0:0:0:0:
67,207,10226,2,0,L|149:198,1,75.0000028610231
323,66,10397,6,0,B|347:22|313:-19|266:-19|211:3|193:53|222:80|265:103|273:138|275:174|236:206|236:206,1,300.000011444092,2|0,0:0|0:0,0:0:0:0:
186,289,10654,2,0,B|165:310|128:333|73:324|73:324|82:289|127:266|167:293|186:335|231:343|268:324,1,300.000011444092,2|0,0:0|0:0,0:0:0:0:
317,236,10911,2,0,P|344:194|345:146,1,62.5,2|0,0:0|0:0,0:0:0:0:
423,242,11083,2,0,P|403:276|371:300,1,75.0000028610231,2|0,0:0|0:0,0:0:0:0:
66,159,11254,38,0,L|113:150,1,37.5000014305115,8|0,0:0|0:0,0:0:0:0:
259,176,11597,2,0,L|213:168,3,25
141,302,11940,5,0,0:0:0:0:
141,302,12111,2,0,B|128:271|128:271|133:216,1,50
209,35,12283,2,0,B|200:108|200:108|233:155|233:155|219:271,1,200,8|0,0:0|0:0,0:0:0:0:
225,327,12540,1,0,0:0:0:0:
233,340,12626,2,0,L|310:332,1,50
478,249,12797,2,0,B|416:242|416:242|379:252|379:252|283:239,1,150.000005722046,0|8,0:0|0:0,0:0:0:0:
185,232,13054,1,0,0:0:0:0:
187,216,13140,38,0,B|221:183|221:183|218:218|218:218|212:230|212:230|216:243|216:243|207:318,1,150.000005722046
38,293,13483,2,0,P|87:260|121:260,1,75.0000028610231
264,286,13654,2,0,B|232:343|232:343|218:135,1,225.000008583069,8|0,0:0|0:0,0:0:0:0:
299,48,13997,2,0,P|330:81|333:129,1,75.0000028610231
140,142,14169,1,0,0:0:0:0:
132,130,14254,1,0,0:0:0:0:
124,117,14340,2,0,L|118:61,1,50,8|0,0:0|0:0,0:0:0:0:
211,52,14511,2,0,L|217:116,1,50
172,245,14683,5,0,0:0:0:0:
381,287,14854,2,0,L|312:276,1,50
141,249,15026,2,0,P|214:264|209:145,1,200,8|0,0:0|0:0,0:0:0:0:
142,129,15283,1,0,0:0:0:0:
123,129,15369,2,0,B|60:133|60:133|85:162,1,75.0000028610231
235,162,15540,2,0,B|293:167|293:167|271:185,1,75.0000028610231
129,273,15711,1,8,0:0:0:0:
102,282,15797,1,0,0:0:0:0:
77,294,15883,38,0,B|169:256|141:331|237:289,1,150.000005722046
121,92,16226,2,0,L|113:168,1,50
221,296,16397,2,0,B|227:226|227:226|230:220|230:220|226:213|226:213|229:205|229:205|235:136,1,150,8|0,0:0|0:0,0:0:0:0:
234,149,16740,6,0,P|242:168|245:193,1,37.5000014305115
354,348,16911,2,0,P|347:323|344:285,1,37.5000014305115
355,152,17083,38,0,P|344:173|342:206,1,37.5000014305115
234,349,17254,2,0,P|240:319|241:291,1,37.5000014305115
107,58,17426,5,10,0:0:0:0:
288,86,17597,1,8,0:0:0:0:
69,142,17769,37,8,0:0:0:0:
302,161,17940,1,8,0:0:0:0:
54,237,18111,5,10,0:0:0:0:
335,239,18283,1,8,0:0:0:0:
40,328,18454,37,8,0:0:0:0:
412,321,18626,2,0,P|383:315|356:302,1,37.5000014305115,8|0,0:0|0:0,0:0:0:0:
101,195,18797,5,10,0:0:0:0:
138,179,18883,1,0,0:0:0:0:
178,181,18969,1,8,0:0:0:0:
212,200,19054,1,0,0:0:0:0:
234,234,19140,37,10,0:0:0:0:
268,254,19226,1,0,0:0:0:0:
307,250,19311,1,8,0:0:0:0:
339,224,19397,1,0,0:0:0:0:
336,186,19483,6,0,P|328:181|311:178,1,18.7500007152558
333,170,19569,2,0,P|318:166|301:168,1,18.7500007152558
319,157,19654,2,0,P|306:153|294:152,1,18.7500007152558
308,147,19740,2,0,P|294:146|284:146,1,18.7500007152558
246,148,19826,38,0,B|248:168|248:168|244:190,1,37.5000014305115
216,118,19911,2,0,B|201:132|201:132|182:143,1,37.5000014305115
223,77,19997,2,0,B|202:75|202:75|181:67,1,37.5000014305115
253,59,20083,2,0,B|241:42|241:42|233:21,1,37.5000014305115
289,63,20169,1,0,0:0:0:0:
256,192,20254,12,0,21454,0:0:0:0:
225,216,21540,6,0,L|218:263,2,40
205,341,22397,1,0,0:0:0:0:
238,133,22569,1,0,0:0:0:0:
238,133,22911,38,0,B|303:152|304:70|350:69|409:97|432:138|419:196|373:231|304:236|300:149,1,300.000011444092,10|0,0:0|0:0,0:0:0:0:
93,120,23254,1,0,0:0:0:0:
98,117,23340,1,0,0:0:0:0:
102,116,23426,1,0,0:0:0:0:
106,116,23511,1,0,0:0:0:0:
111,118,23597,2,0,P|126:136|131:161,1,37.5000014305115
86,261,23769,2,0,B|173:244|173:244|159:273,1,100
347,328,24111,6,0,B|284:292|284:292|287:234|287:234|285:209|285:209|288:199|288:199|286:189|286:189|290:170|290:170|294:109|294:109|359:84,1,300.000011444092,8|0,0:0|0:0,0:0:0:0:
434,197,24454,2,0,B|470:213|470:213|400:207,1,100
160,164,24797,38,0,B|136:194|69:189|46:147|58:93|102:66|149:76|165:115|165:115|167:181|169:243|169:243|169:286|215:282|215:282,1,400,8|0,0:0|0:0,0:0:0:0:
306,94,25311,2,0,P|281:104|261:127,1,50
288,227,25483,2,0,P|311:254|334:262,1,37.5000014305115
421,290,25654,6,0,B|431:237|412:198|412:198|427:157|427:157|405:117|416:76|416:76,1,200,8|0,0:0|0:0,0:0:0:0:
413,97,25997,2,0,P|431:145|409:202,1,100
169,154,26169,2,0,B|325:142|325:142|262:171,1,200
219,234,26426,1,0,0:0:0:0:
207,237,26511,2,0,L|133:243,1,37.5000014305115
37,205,26683,2,0,B|81:165|81:165|80:216|80:216|77:229|77:229|78:240|78:240|74:314,1,179.999994506836
75,324,27026,38,0,L|244:338,1,150,8|0,0:0|0:0,0:0:0:0:
245,340,27369,2,0,P|256:317|261:288,1,50
181,186,27540,6,0,B|211:201|211:201|297:207,1,100,8|0,0:0|0:0,0:0:0:0:
391,85,27883,1,0,0:0:0:0:
378,126,27969,1,0,0:0:0:0:
381,157,28054,1,0,0:0:0:0:
388,176,28140,1,0,0:0:0:0:
395,182,28226,1,0,0:0:0:0:
481,214,28397,38,0,B|411:201|411:201|335:212|335:212|250:195,1,200,10|0,0:0|0:0,0:0:0:0:
112,127,28740,1,0,0:0:0:0:
121,122,28826,1,0,0:0:0:0:
131,120,28911,1,0,0:0:0:0:
142,119,28997,1,0,0:0:0:0:
152,120,29083,2,0,P|170:122|206:138,1,37.5000014305115
161,322,29254,2,0,B|158:276|158:276|151:256|151:256|149:211,1,100
306,180,29597,6,0,B|372:244|372:244|306:236|306:236|293:225|293:225|227:217|227:217|203:224|203:224|161:219|161:219|124:204,1,300.000011444092,8|0,0:0|0:0,0:0:0:0:
201,84,29940,2,0,B|185:47|185:47|190:146,1,100
324,334,30283,2,0,B|380:290|380:290|383:209|383:209|324:151|324:151,1,200,8|0,0:0|0:0,0:0:0:0:
108,277,30626,38,0,P|128:278|152:267,1,37.5000014305115
259,268,30797,2,0,P|264:236|260:215,1,37.5000014305115
103,148,30969,2,0,P|122:159|141:159,1,37.5000014305115
250,27,31140,6,0,B|213:56|213:56|213:100|213:100|243:127|243:127|245:198,1,200,8|0,0:0|0:0,0:0:0:0:
245,197,31483,2,0,P|242:141|279:110,1,100
434,223,31654,2,0,B|327:210|360:310|234:294,1,200
166,251,31911,1,0,0:0:0:0:
164,241,31997,2,0,P|161:212|161:188,1,37.5000014305115
76,130,32169,38,0,P|76:159|69:196,3,50
155,66,32511,2,0,B|123:47|123:47|239:54,1,119.999996337891,8|0,0:0|0:0,0:0:0:0:
327,60,32854,5,8,0:0:0:0:
330,114,32940,1,0,0:0:0:0:
285,161,33026,37,8,0:0:0:0:
282,193,33111,1,0,0:0:0:0:
322,246,33197,5,8,0:0:0:0:
322,254,33283,1,0,0:0:0:0:
322,264,33369,1,8,0:0:0:0:
322,274,33454,1,0,0:0:0:0:
262,331,33540,5,8,0:0:0:0:
262,331,33883,38,0,L|136:336,1,100,10|0,0:0|0:0,0:0:0:0:
255,242,34226,2,0,L|148:247,1,100
49,142,34569,2,0,L|168:150,1,100
52,52,34826,2,0,L|171:60,1,100
251,139,35083,2,0,L|255:41,1,50
457,114,35254,38,0,L|464:180,1,50,8|0,0:0|0:0,0:0:0:0:
272,131,35426,2,0,L|279:197,1,50
366,151,35597,1,0,0:0:0:0:
270,319,35769,2,0,B|275:272|275:272|267:235|267:235|274:163,1,150.000005722046
362,265,36197,1,0,0:0:0:0:
374,282,36283,2,0,L|368:334,1,50
266,344,36454,1,0,0:0:0:0:
75,262,36626,5,8,0:0:0:0:
198,201,36797,1,0,0:0:0:0:
173,348,36969,1,0,0:0:0:0:
202,192,37140,2,0,P|202:156|194:126,1,50
17,88,37311,38,0,B|69:113|90:46|152:70,1,119.999996337891
232,12,37569,2,0,P|250:55|324:69,1,119.999996337891
434,75,37826,2,0,B|387:133|404:228,1,119.999996337891
488,303,38169,6,0,B|428:297|428:297|412:306|412:306|341:300,1,119.999996337891
130,265,38511,2,0,B|186:257|186:257|205:265|205:265|260:258,1,119.999996337891
241,105,38854,2,0,P|230:144|230:175,1,59.9999981689454
333,193,39026,1,0,0:0:0:0:
335,178,39111,1,0,0:0:0:0:
322,185,39197,1,0,0:0:0:0:
444,101,39369,37,8,0:0:0:0:
430,267,39540,1,8,0:0:0:0:
305,67,39711,5,8,0:0:0:0:
304,276,39883,1,8,0:0:0:0:
180,57,40054,21,8,0:0:0:0:
179,305,40226,1,8,0:0:0:0:
53,47,40397,37,8,0:0:0:0:
65,324,40569,2,0,P|84:314|103:309,1,37.5000014305115,8|0,0:0|0:0,0:0:0:0:
414,203,40740,37,8,0:0:0:0:
394,205,40826,1,0,0:0:0:0:
373,206,40911,1,8,0:0:0:0:
353,207,40997,1,0,0:0:0:0:
332,208,41083,2,0,L|283:204,3,37.5000014305115,8|0|8|0,0:0|0:0|0:0|0:0,0:0:0:0:
206,161,41426,37,8,0:0:0:0:
173,165,41511,1,0,0:0:0:0:
141,169,41597,1,8,0:0:0:0:
108,173,41683,1,0,0:0:0:0:
76,178,41769,5,8,0:0:0:0:
81,209,41854,1,0,0:0:0:0:
87,240,41940,1,8,0:0:0:0:
92,272,42026,1,0,0:0:0:0:
107,297,42111,6,0,P|108:326|98:359,1,50,8|0,0:0|0:0,0:0:0:0:
116,295,42197,2,0,P|120:313|119:351,1,50
124,292,42283,2,0,P|134:315|134:350,1,50
127,284,42369,2,0,P|141:303|151:333,1,50
171,250,42454,6,0,P|168:226|163:209,1,37.5000014305115
181,252,42540,2,0,P|186:229|184:210,1,37.5000014305115
196,254,42626,2,0,P|204:229|207:214,1,37.5000014305115
211,259,42711,2,0,P|219:247|230:223,1,37.5000014305115
235,288,42797,38,0,P|233:301|235:316,1,25
242,288,42883,2,0,P|243:301|249:313,1,25
248,286,42969,2,0,P|251:299|258:310,1,25
253,281,43054,2,0,P|260:287|273:297,1,25
306,247,43140,6,0,L|328:252,1,18.7500007152558
312,246,43226,2,0,L|332:248,1,18.7500007152558
318,243,43311,2,0,L|339:243,1,18.7500007152558
323,237,43397,2,0,L|343:235,1,18.7500007152558
398,152,43483,37,0,0:0:0:0:
398,152,43826,1,0,0:0:0:0:
398,152,44169,1,0,0:0:0:0:
387,149,44254,1,0,0:0:0:0:
376,147,44340,2,0,L|304:142,1,50
127,89,44511,38,0,B|108:82|108:82|85:83|85:83|204:65|204:65|211:112|211:112|211:135|211:135|214:155|214:155|220:177|220:177|231:246|231:246,1,300.000011444092
54,275,44854,6,0,P|72:264|137:274,1,75.0000028610231,14|0,0:0|0:0,0:0:0:0:
72,278,44940,2,0,P|93:273|137:291,1,62.5
87,285,45026,2,0,P|111:287|143:306,1,50
105,295,45111,2,0,P|124:302|139:315,1,37.5000014305115
103,321,45197,2,0,B|205:336|205:336|249:309,1,125
196,131,45369,5,0,0:0:0:0:
177,156,45454,1,0,0:0:0:0:
157,173,45540,1,0,0:0:0:0:
177,191,45626,1,0,0:0:0:0:
196,213,45711,1,0,0:0:0:0:
375,180,45883,2,0,L|303:175,1,50
81,86,46054,5,0,0:0:0:0:
80,75,46140,2,0,B|150:70|150:70|231:81|231:81,1,100
87,178,46311,5,0,0:0:0:0:
86,167,46397,2,0,B|156:162|156:162|122:188|122:188,1,100
86,261,46569,37,0,0:0:0:0:
132,270,46654,1,0,0:0:0:0:
186,336,46740,1,0,0:0:0:0:
239,331,46826,1,0,0:0:0:0:
312,286,46911,2,0,L|357:282,6,25
267,130,47254,2,0,P|246:179|311:205,1,100,8|0,0:0|0:0,0:0:0:0:
309,206,47426,2,0,P|329:156|264:129,1,100,8|0,0:0|0:0,0:0:0:0:
85,64,47597,5,0,0:0:0:0:
59,64,47683,1,0,0:0:0:0:
92,60,47769,2,0,L|223:54,1,100
453,71,47940,2,0,P|480:55|499:50,3,50
429,209,48283,6,0,B|443:206|443:206|513:157|513:157|444:164|444:164|429:160|429:160|414:161|414:161|403:169|403:169|306:179|306:179|287:177,1,300.000011444092,2|0,0:0|0:0,0:0:0:0:
172,176,48540,1,0,0:0:0:0:
165,149,48626,2,0,B|202:106|202:106|198:149|198:149|193:160|192:173|194:183|194:183|186:266,1,175.00000166893,8|0,0:0|0:0,0:0:0:0:
306,351,48797,6,0,B|336:355|336:355|383:359|405:340|409:309|394:278|351:273|351:273|318:268,1,200,2|0,0:0|0:0,0:0:0:0:
83,272,48969,2,0,B|126:243|125:190|125:190|139:243|203:260,1,175.00000166893
396,153,49140,2,0,B|351:172|351:172|310:156|310:156|262:178|262:178|198:155,1,175.00000166893
58,114,49311,2,0,B|49:69|70:35|120:33|120:33|95:40|76:71,1,150.000005722046
124,358,49483,2,0,B|120:296|120:296|131:261|131:261|126:180,1,150.000005722046
210,26,49654,6,0,L|207:74,1,37.5,8|0,0:0|0:0,0:0:0:0:
289,72,49997,2,0,L|290:30,1,37.5,8|0,0:0|0:0,0:0:0:0:
482,158,50340,38,0,B|424:185|379:159|379:159|330:180|330:180|274:154|214:169,1,225.000008583069,10|0,0:0|0:0,0:0:0:0:
191,92,50683,2,0,P|171:94|140:109,3,37.5000014305115
78,167,51026,2,0,P|111:174|145:200,1,75.0000028610231
229,356,51197,1,0,0:0:0:0:
61,292,51369,6,0,B|177:335|145:230|269:273,1,200,8|0,0:0|0:0,0:0:0:0:
375,291,51626,1,0,0:0:0:0:
371,315,51711,2,0,B|349:290|349:290|355:198,1,100,8|0,0:0|0:0,0:0:0:0:
266,17,51883,2,0,B|269:54|269:54|278:87|278:87|283:136,1,100
177,169,52054,2,0,P|168:130|184:82,1,75.0000028610231,8|0,0:0|0:0,0:0:0:0:
372,100,52226,2,0,P|380:139|365:188,1,75.0000028610231
207,254,52397,6,0,B|271:212|271:212|349:268,1,150.000005722046,8|0,0:0|0:0,0:0:0:0:
302,340,52654,1,0,0:0:0:0:
290,337,52740,2,0,L|223:337,1,50,8|0,0:0|0:0,0:0:0:0:
77,333,52911,1,0,0:0:0:0:
77,126,53083,38,0,P|98:159|95:209,1,75.0000028610231,8|0,0:0|0:0,0:0:0:0:
207,254,53254,2,0,P|200:222|211:180,1,62.5
436,129,53426,2,0,B|410:147|410:147|376:145|376:145|362:141|362:141|347:143|347:143|311:140|311:140|288:112,1,150.000005722046,8|0,0:0|0:0,0:0:0:0:
372,32,53683,1,0,0:0:0:0:
386,31,53769,2,0,L|464:25,1,50,8|0,0:0|0:0,0:0:0:0:
437,254,53940,2,0,B|360:246|360:246|356:241|356:241|354:251|354:251|351:244|351:244|269:235,1,150.000005722046
104,220,54111,6,0,L|94:299,1,75.0000028610231
86,309,54283,38,0,L|94:228,1,75.0000028610231
123,32,54454,37,8,0:0:0:0:
303,174,55483,5,2,0:0:0:0:
83,319,55654,1,0,0:0:0:0:
334,281,55826,22,0,B|381:285|381:285|409:328|409:328|359:323|359:323|352:325|352:325|342:322|342:322|301:318|301:318|282:332|282:332|267:330|267:330|260:333|260:333|257:328|257:328|241:325|241:325|230:311|230:311|208:304|208:304|202:300|202:300|199:308|199:308|193:301|193:301|168:296|168:296|102:316|102:316,1,375,14|0,0:0|0:0,0:0:0:0:
61,337,56169,1,0,0:0:0:0:
54,331,56254,1,0,0:0:0:0:
49,322,56340,2,0,L|44:249,1,50
229,26,56511,2,0,L|226:118,1,75.0000028610231,8|0,0:0|0:0,0:0:0:0:
40,181,56683,1,0,0:0:0:0:
71,179,56769,2,0,B|136:172|136:172|154:184|154:184|162:193|162:193|172:191|172:191|181:200|181:200|203:215|203:215|343:203,1,200
418,81,57026,1,0,0:0:0:0:
423,75,57111,1,0,0:0:0:0:
425,66,57197,6,0,P|340:71|396:153,1,200,8|0,0:0|0:0,0:0:0:0:
404,290,57454,2,0,B|409:253|437:234|470:244|470:244|450:256,1,100,8|0,0:0|0:0,0:0:0:0:
278,317,57626,1,8,0:0:0:0:
268,316,57711,2,0,B|241:316|241:316|220:343|220:343|251:343|251:343|286:316,1,100,8|0,0:0|0:0,0:0:0:0:
292,76,57883,2,0,P|296:132|329:166,1,75.0000028610231,8|0,0:0|0:0,0:0:0:0:
465,235,58054,2,0,L|396:237,1,50
92,180,58226,1,0,0:0:0:0:
127,160,58311,1,0,0:0:0:0:
167,166,58397,1,0,0:0:0:0:
192,197,58483,1,0,0:0:0:0:
210,265,58569,38,0,B|205:198|205:198|211:169|211:169|205:93,1,150.000005722046,8|0,0:0|0:0,0:0:0:0:
105,21,58826,1,0,0:0:0:0:
94,21,58911,2,0,P|86:56|105:105,1,75.0000028610231
256,13,59083,2,0,L|171:18,1,50
104,189,59254,1,8,0:0:0:0:
85,223,59340,2,0,B|97:260|97:260|119:226,1,75.0000028610231
245,125,59511,2,0,B|205:113|205:113|224:194,1,75.0000028610231
356,215,59683,2,0,B|299:222|299:222|268:249|268:249|206:242|206:242|263:294,1,200
455,338,59940,6,0,B|442:273|442:273|465:203|465:203,1,100,8|0,0:0|0:0,0:0:0:0:
475,100,60111,1,0,0:0:0:0:
471,132,60197,2,0,P|431:134|388:75,1,75.0000028610231
268,67,60369,1,0,0:0:0:0:
263,50,60454,2,0,P|283:66|290:99,1,50
185,246,60626,6,0,B|181:209|181:209|182:203|182:203|179:203|179:203|180:199|180:199|177:155,2,75.0000028610231,8|0|8,0:0|0:0|0:0,0:0:0:0:
290,88,61140,2,0,L|286:177,1,62.5
194,343,61311,22,0,B|321:363|321:363|411:265|411:265|362:98,1,375,10|0,0:0|0:0,0:0:0:0:
161,73,61654,1,0,0:0:0:0:
150,76,61740,1,0,0:0:0:0:
140,80,61826,2,0,B|158:82|158:82|172:80|172:80|195:84,1,50
166,199,61997,2,0,B|144:204|144:204|114:196|114:196|87:202,1,75.0000028610231,8|0,0:0|0:0,0:0:0:0:
395,200,62169,2,0,B|386:139|341:103|285:107|285:107|300:129|304:157,1,200
184,302,62426,1,0,0:0:0:0:
206,306,62511,2,0,B|239:289|239:289|250:234,1,75.0000028610231
152,79,62683,6,0,L|157:155,1,50,8|0,0:0|0:0,0:0:0:0:
265,151,62854,1,0,0:0:0:0:
264,107,62940,2,0,L|262:15,1,62.5
377,29,63111,1,0,0:0:0:0:
371,97,63197,2,0,L|361:196,1,75.0000028610231
346,304,63369,2,0,P|319:288|269:288,1,75.0000028610231,8|0,0:0|0:0,0:0:0:0:
110,319,63540,2,0,P|148:335|199:324,1,75.0000028610231
164,117,63711,2,0,P|134:125|104:117,1,62.5
175,148,63797,2,0,P|152:157|124:157,1,50
190,172,63883,2,0,P|171:177|149:175,1,37.5000014305115
203,186,63969,2,0,P|184:195|162:197,1,25
226,205,64054,38,0,P|271:161|366:183,1,150.000005722046,8|0,0:0|0:0,0:0:0:0:
326,354,64311,1,0,0:0:0:0:
318,333,64397,2,0,L|314:257,1,50
490,172,64569,2,0,P|477:235|388:257,1,150.000005722046,8|0,0:0|0:0,0:0:0:0:
394,72,64826,1,0,0:0:0:0:
401,92,64911,2,0,L|403:154,1,50
195,138,65083,2,0,P|231:138|265:159,1,50,8|0,0:0|0:0,0:0:0:0:
316,183,65254,2,0,P|337:202|349:226,1,37.5000014305115,8|0,0:0|0:0,0:0:0:0:
236,301,65426,6,0,L|232:205,3,62.5,10|0|0|0,0:0|0:0|0:0|0:0,0:0:0:0:
144,207,65769,2,0,L|146:273,3,50
81,341,66111,2,0,L|77:284,1,37.5000014305115
58,131,66283,2,0,L|60:177,1,25
0,237,66454,6,0,B|18:230|18:230|36:233|36:233|53:227,1,50
412,77,71940,6,0,L|348:84,1,50
194,153,72111,2,0,B|244:166|244:166|285:150|285:150|355:168,1,150.000005722046
507,192,72283,22,0,P|450:157|492:244,1,225.000008583069,2|0,0:0|0:0,0:0:0:0:
470,343,72626,5,8,0:0:0:0:
443,348,72711,1,0,0:0:0:0:
416,355,72797,1,0,0:0:0:0:
389,361,72883,2,0,L|329:355,4,50,0|8|0|0|0,0:0|0:0|0:0|0:0|0:0,0:0:0:0:
255,246,73311,2,0,L|186:250,1,50,8|0,0:0|0:0,0:0:0:0:
128,324,73483,2,0,L|58:314,1,50
20,144,73654,6,0,L|28:207,3,50,8|0|0|0,0:0|0:0|0:0|0:0,0:0:0:0:
144,120,73997,2,0,P|154:95|156:55,1,50,8|0,0:0|0:0,0:0:0:0:
207,194,74169,1,0,0:0:0:0:
246,175,74254,2,0,P|264:154|282:117,1,50,0|8,0:0|0:0,0:0:0:0:
295,278,74426,1,0,0:0:0:0:
336,293,74511,2,0,P|360:311|381:341,1,50
476,243,74683,1,8,0:0:0:0:
476,215,74769,1,0,0:0:0:0:
438,180,74854,1,0,0:0:0:0:
436,152,74940,1,0,0:0:0:0:
468,108,75026,6,0,L|470:50,3,50,8|0|0|0,0:0|0:0|0:0|0:0,0:0:0:0:
346,49,75369,1,8,0:0:0:0:
319,52,75454,1,0,0:0:0:0:
292,55,75540,1,0,0:0:0:0:
265,59,75626,2,0,L|263:115,4,50,0|8|0|0|0,0:0|0:0|0:0|0:0|0:0,0:0:0:0:
350,183,76054,2,0,L|353:242,1,50,8|0,0:0|0:0,0:0:0:0:
174,235,76226,2,0,L|177:161,1,50
419,343,76397,6,0,P|441:333|480:324,1,50,10|0,0:0|0:0,0:0:0:0:
321,325,76569,1,0,0:0:0:0:
324,306,76654,2,0,P|342:279|359:259,1,44.999998626709,8|0,0:0|0:0,0:0:0:0:
208,316,76826,1,0,0:0:0:0:
199,309,76911,2,0,P|191:285|188:257,1,40,8|0,0:0|0:0,0:0:0:0:
86,338,77083,1,0,0:0:0:0:
73,335,77169,2,0,P|54:332|31:333,1,34.9999989318848,8|0,0:0|0:0,0:0:0:0:
21,334,77426,2,0,P|46:300|63:261,1,50
17,87,77597,2,0,P|27:122|75:153,1,75.0000028610231
456,54,77769,37,14,0:0:0:0:
417,146,77940,2,0,P|376:127|359:92,1,75.0000028610231
295,27,78111,2,0,B|266:39|266:39|254:90|254:90|276:142|276:142|283:143|283:143|309:205|309:205|291:254|291:254|236:280,1,300
129,334,78454,2,0,B|195:327|195:327|258:361|258:361|343:349,1,200
432,212,78711,1,0,0:0:0:0:
441,198,78797,2,0,B|444:173|444:173|433:154|433:154|423:175|423:175|436:203,1,100,8|0,0:0|0:0,0:0:0:0:
431,327,78969,1,0,0:0:0:0:
185,188,79140,5,0,0:0:0:0:
185,206,79226,2,0,P|269:233|236:132,1,200
49,156,79483,2,0,B|25:91|25:91|169:114,1,200,8|0,0:0|0:0,0:0:0:0:
233,277,79826,2,0,P|207:256|188:205,1,75.0000028610231
346,49,79997,37,0,0:0:0:0:
348,75,80083,1,0,0:0:0:0:
319,127,80169,1,8,0:0:0:0:
317,169,80254,1,0,0:0:0:0:
354,211,80340,2,0,L|357:270,1,50
217,337,80511,5,0,0:0:0:0:
194,235,80683,2,0,L|200:138,1,75.0000028610231
320,33,80854,2,0,B|330:206|330:206|266:272,1,225.000008583069,8|0,0:0|0:0,0:0:0:0:
0,258,81197,2,0,B|24:292|24:292|173:298,1,150.000005722046
243,141,81454,1,0,0:0:0:0:
212,144,81540,2,0,L|127:151,1,75.0000028610231,8|0,0:0|0:0,0:0:0:0:
230,300,81711,1,0,0:0:0:0:
430,291,81883,37,0,0:0:0:0:
451,285,81968,2,0,P|460:222|385:278,1,150.000005722046
308,342,82226,2,0,B|328:285|259:258|292:192,1,150.000005722046,8|0,0:0|0:0,0:0:0:0:
345,71,82569,2,0,B|295:96|295:96|177:75,1,150.000005722046
33,32,82911,6,0,P|44:49|52:73,1,37.5000014305115
151,147,83083,2,0,P|148:171|141:191,1,37.5000014305115
29,254,83254,37,0,0:0:0:0:
127,351,83426,2,0,L|229:347,1,75.0000028610231
455,283,83597,2,0,B|393:293|393:293|345:274|345:274|289:287|289:287|214:256,1,225.000008583069,8|0,0:0|0:0,0:0:0:0:
117,103,83940,2,0,B|198:114|198:114|230:223,1,150.000005722046
61,240,84197,1,0,0:0:0:0:
45,228,84283,2,0,P|81:211|131:217,1,75.0000028610231,8|0,0:0|0:0,0:0:0:0:
214,275,84454,1,0,0:0:0:0:
313,119,84626,5,0,0:0:0:0:
335,113,84711,2,0,P|355:195|253:213,1,150.000005722046
45,228,84969,2,0,B|151:219|151:219|205:239,1,150.000005722046,8|0,0:0|0:0,0:0:0:0:
360,321,85311,38,0,P|322:317|296:317,1,50
135,321,85483,2,0,P|162:317|193:317,1,37.5000014305115
396,220,85654,6,0,P|373:224|321:228,1,50
98,222,85826,2,0,P|125:228|159:229,1,37.5000014305115
393,100,85997,38,0,P|343:111|321:141,1,62.5,10|0,0:0|0:0,0:0:0:0:
177,144,86169,2,0,P|140:142|91:117,1,75.0000028610231,8|0,0:0|0:0,0:0:0:0:
229,39,86340,2,0,P|258:117|236:229,1,150.000005722046,8|0,0:0|0:0,0:0:0:0:
96,313,86683,2,0,P|138:288|258:322,1,150.000005722046
312,347,86940,1,0,0:0:0:0:
324,344,87026,2,0,P|347:319|356:260,1,75.0000028610231,8|0,0:0|0:0,0:0:0:0:
157,155,87197,2,0,P|174:178|211:198,1,50
401,140,87369,6,0,B|366:144|366:144|340:165|340:165|280:172,1,100
276,77,87754,1,0,0:0:0:0:
276,77,88740,2,0,B|311:146|373:154|418:113|405:67|360:52|313:62|313:104|297:145|257:164|202:150,1,300
113,107,89083,6,0,B|106:82|106:82|125:60|125:60|135:83|135:83|117:130,3,100,8|0|0|0,0:0|0:0|0:0|0:0,0:0:0:0:
165,242,89426,6,0,B|172:259|172:259|163:279|163:279|152:263|152:263|155:226,3,75.0000028610231,8|0|0|0,0:0|0:0|0:0|0:0,0:0:0:0:
316,229,89769,6,0,B|312:216|312:216|321:204|321:204|326:216|326:216|319:238,3,50,8|0|0|0,0:0|0:0|0:0|0:0,0:0:0:0:
219,61,90111,5,8,0:0:0:0:
228,64,90197,1,0,0:0:0:0:
236,72,90283,2,0,P|241:99|216:150,1,50
100,165,90454,37,8,0:0:0:0:
93,187,90540,1,0,0:0:0:0:
87,210,90626,2,0,P|119:232|179:242,1,62.5
236,72,90797,37,8,0:0:0:0:
205,110,90883,1,0,0:0:0:0:
202,158,90969,2,0,P|216:183|267:207,1,75.0000028610231
461,31,91140,6,0,P|446:52|464:129,1,75.0000028610231
340,88,91311,2,0,P|349:136|386:177,1,75.0000028610231
461,260,91483,21,8,0:0:0:0:
398,246,91569,1,0,0:0:0:0:
336,264,91654,1,8,0:0:0:0:
291,305,91740,1,0,0:0:0:0:
213,260,91826,5,8,0:0:0:0:
151,275,91911,1,0,0:0:0:0:
87,257,91997,1,8,0:0:0:0:
52,201,92083,1,0,0:0:0:0:
92,130,92169,5,8,0:0:0:0:
91,154,92254,1,0,0:0:0:0:
90,178,92340,1,8,0:0:0:0:
90,201,92426,1,0,0:0:0:0:
173,184,92511,5,8,0:0:0:0:
172,175,92597,1,0,0:0:0:0:
171,167,92683,1,8,0:0:0:0:
171,158,92769,1,0,0:0:0:0:
184,113,92854,21,8,0:0:0:0:
106,336,93197,5,8,0:0:0:0:
383,215,93540,5,8,0:0:0:0:
77,106,93883,6,0,P|107:118|161:113,1,50,8|0,0:0|0:0,0:0:0:0:
235,60,94054,2,0,P|214:64|195:77,1,37.5000014305115
259,318,94226,6,0,B|220:170|124:171|50:245|112:291|160:285|228:282|255:259|304:194|381:214,1,450.000017166138,14|0,0:0|0:0,0:0:0:0:
426,303,94569,2,0,P|422:325|409:362,1,50
382,214,94740,1,0,0:0:0:0:
367,203,94826,1,0,0:0:0:0:
357,185,94911,2,0,P|348:163|345:127,1,50,8|0,0:0|0:0,0:0:0:0:
507,78,95083,2,0,P|471:88|417:88,1,75.0000028610231
268,68,95255,1,0,0:0:0:0:
501,117,95426,2,0,P|477:120|411:99,1,75.0000028610231
259,55,95597,37,0,0:0:0:0:
289,70,95683,1,0,0:0:0:0:
255,74,95769,1,0,0:0:0:0:
285,52,95854,1,0,0:0:0:0:
272,80,95940,2,0,B|275:125|275:125|278:131|278:131|274:136|274:136|276:142|276:142|279:208,1,100,8|0,0:0|0:0,0:0:0:0:
285,332,96111,1,0,0:0:0:0:
229,335,96197,1,0,0:0:0:0:
175,340,96283,6,0,B|256:271|256:271|340:330|340:330|436:249,1,300,10|0,0:0|0:0,0:0:0:0:
358,92,96626,2,0,L|362:177,1,75.0000028610231
450,160,96797,2,0,L|446:94,1,50
86,124,96969,6,0,B|205:94|169:196|293:161,1,200,8|0,0:0|0:0,0:0:0:0:
309,23,97311,1,0,0:0:0:0:
300,28,97397,1,0,0:0:0:0:
291,35,97483,2,0,P|271:68|270:116,1,50
453,229,97654,1,8,0:0:0:0:
404,234,97740,1,0,0:0:0:0:
350,215,97826,1,0,0:0:0:0:
295,246,97911,1,0,0:0:0:0:
224,213,97997,2,0,B|232:170|232:170|284:176,1,75.0000028610231
329,358,98169,38,0,B|325:284|325:284|357:224|357:224|350:97,1,200
225,289,98511,2,0,P|226:314|222:341,1,50
142,184,98683,1,0,0:0:0:0:
140,168,98769,1,0,0:0:0:0:
135,152,98854,2,0,P|124:189|141:236,1,75.0000028610231
389,141,99026,22,0,P|339:124|265:143,1,100,8|0,0:0|0:0,0:0:0:0:
263,357,99197,2,0,P|319:305|325:231,1,125
145,92,99369,2,0,L|147:136,1,25
155,131,99540,2,0,B|153:165|153:165|159:180|159:180|157:233,1,75.0000028610231
31,340,99711,22,0,B|73:292|73:292|131:291|131:291|162:302|162:302|192:288|192:288|246:288|246:288|311:368,1,300.000011444092,10|0,0:0|0:0,0:0:0:0:
251,198,100054,2,0,L|252:146,1,50
261,63,100397,6,0,P|299:77|335:136,1,75.0000028610231,8|0,0:0|0:0,0:0:0:0:
177,265,100569,2,0,P|152:217|169:148,1,100
449,236,100740,2,0,B|305:244|305:244|238:186,1,200
261,74,100997,1,0,0:0:0:0:
261,63,101083,2,0,L|265:8,1,50,8|0,0:0|0:0,0:0:0:0:
385,76,101254,2,0,L|388:128,1,50
176,147,101426,2,0,L|260:140,1,50
394,251,101597,2,0,L|320:244,1,50
60,246,101769,37,8,0:0:0:0:
85,236,101854,1,0,0:0:0:0:
112,235,101940,1,0,0:0:0:0:
138,242,102026,1,0,0:0:0:0:
159,257,102111,5,0,0:0:0:0:
173,280,102197,1,0,0:0:0:0:
193,299,102283,1,0,0:0:0:0:
219,305,102369,1,0,0:0:0:0:
245,301,102454,6,0,L|248:242,3,50
333,142,102797,2,0,L|338:267,1,100
131,118,103140,2,0,L|261:130,1,100
329,69,103397,1,0,0:0:0:0:
346,92,103483,2,0,L|336:255,1,150
274,313,103826,6,0,L|202:301,3,50
385,327,104169,2,0,L|450:327,3,50
252,220,104511,2,0,P|229:208|204:186,3,50
424,239,104854,2,0,P|455:227|476:209,3,50
347,22,105197,38,0,L|342:61,1,37.5000014305115,8|0,0:0|0:0,0:0:0:0:
329,36,105369,2,0,L|332:75,1,37.5000014305115
408,155,105540,22,0,B|347:142|368:196|283:178,1,100,10|0,0:0|0:0,0:0:0:0:
167,140,105711,1,0,0:0:0:0:
178,143,105797,2,0,B|192:189|202:233|192:290|159:311|124:281|134:240|169:216|228:202,1,200
301,332,106054,2,0,B|285:329|248:346|248:346|268:314|251:266,1,100
264,47,106226,1,8,0:0:0:0:
265,57,106311,1,0,0:0:0:0:
266,66,106397,6,0,B|264:182|330:115|334:246,1,200
196,230,106740,2,0,B|165:205|165:205|252:214,1,100
263,350,106911,1,8,0:0:0:0:
273,346,106997,1,0,0:0:0:0:
282,342,107083,2,0,B|317:337|317:337|352:327|352:327|387:323,1,100
166,232,107254,1,8,0:0:0:0:
155,235,107340,1,0,0:0:0:0:
144,237,107426,2,0,B|178:242|178:242|215:242|215:242|250:248,1,100
409,161,107597,2,0,L|305:178,1,75.0000028610231,8|0,0:0|0:0,0:0:0:0:
357,260,107769,2,0,L|420:248,1,50
411,71,107940,37,8,0:0:0:0:
371,61,108026,1,0,0:0:0:0:
333,76,108111,2,0,P|309:115|317:173,1,75.0000028610231
489,251,108283,1,0,0:0:0:0:
472,247,108369,2,0,L|397:240,1,50
294,322,108540,6,0,L|217:338,1,50
198,319,108797,2,0,L|250:308,1,50
436,294,108969,1,8,0:0:0:0:
435,309,109054,1,0,0:0:0:0:
435,326,109140,2,0,B|365:287|365:287|348:133,1,200
504,48,109483,2,0,B|459:82|459:82|380:72,1,100
211,67,109654,1,0,0:0:0:0:
189,63,109740,1,0,0:0:0:0:
168,59,109826,2,0,B|218:40|218:40|268:73,1,100
222,346,109997,6,8,B|159:234|289:272|196:126,2,187.5
51,114,110683,2,0,B|82:135|82:135|104:174,1,75.0000028610231
73,302,110854,37,0,0:0:0:0:
82,298,110940,1,0,0:0:0:0:
92,295,111026,1,0,0:0:0:0:
102,292,111111,1,0,0:0:0:0:
113,291,111197,1,0,0:0:0:0:
124,291,111283,1,0,0:0:0:0:
133,295,111369,1,0,0:0:0:0:
141,299,111454,38,0,P|164:279|217:277,1,75.0000028610231
301,329,111626,2,0,B|305:281|305:281|303:268|303:268|309:189,1,100
332,87,111797,1,0,0:0:0:0:
328,62,111883,2,0,B|274:90|274:90|267:173|267:173|344:248,1,200
466,269,112226,2,0,B|428:271|428:271|421:264|421:264|421:279|421:279|416:272|416:272|335:276,1,100
97,252,112397,2,0,P|184:227|263:304,1,200
199,355,112654,1,0,0:0:0:0:
191,342,112740,6,0,B|162:295|162:295|201:184|201:184|171:116,1,225.000008583069,8|0,0:0|0:0,0:0:0:0:
30,172,113083,2,0,P|61:187|117:189,1,75.0000028610231
178,31,113254,2,0,P|146:35|114:50,1,50
100,191,113426,6,0,B|149:187|149:187|175:193|175:193|199:183|199:183|255:179,1,150
416,245,113769,1,0,0:0:0:0:
393,252,113854,2,0,L|316:242,1,50
170,103,114026,1,0,0:0:0:0:
169,94,114112,1,0,0:0:0:0:
184,292,114283,1,0,0:0:0:0:
434,173,114454,1,0,0:0:0:0:
256,192,114540,12,0,116169,0:0:0:0:
256,192,124397,12,0,126969,0:0:0:0:
197,135,127140,6,0,L|57:128,1,100
97,269,127483,2,0,L|210:264,1,100
382,158,127826,1,8,0:0:0:0:
299,105,127997,2,0,P|289:140|299:200,1,75.0000028610231
454,301,128340,38,0,P|397:305|348:294,1,75.0000028610231
287,336,128683,2,0,P|241:330|176:350,1,100
78,221,129026,2,0,B|22:265|22:265|181:249,1,200
313,236,129540,1,0,0:0:0:0:
299,238,129711,1,0,0:0:0:0:
340,119,129883,6,0,L|454:110,1,100,8|0,0:0|0:0,0:0:0:0:
403,227,130226,1,0,0:0:0:0:
236,130,130397,2,0,P|183:114|144:48,1,100
256,22,130740,1,0,0:0:0:0:
262,33,130911,1,0,0:0:0:0:
243,142,131083,38,0,L|252:235,1,75.0000028610231
360,107,131426,1,0,0:0:0:0:
373,209,131597,2,0,L|366:301,1,75.0000028610231
241,341,131940,1,0,0:0:0:0:
144,332,132111,1,0,0:0:0:0:
91,245,132283,2,0,P|92:210|106:180,1,37.5000014305115
161,141,132455,2,0,P|188:132|218:134,1,37.5000014305115
296,223,132626,6,0,L|287:109,1,100,2|0,0:0|0:0,0:0:0:0:
418,191,132969,2,0,L|409:316,1,100
406,300,133226,1,0,0:0:0:0:
401,309,133311,1,8,0:0:0:0:
160,251,133483,2,0,L|274:240,1,112.500004291535
130,342,133826,38,0,P|85:316|68:251,1,100
285,238,134169,2,0,L|160:225,1,100
42,133,134511,2,0,B|117:116|117:116|178:143|178:143|259:124,1,200
200,35,135026,1,0,0:0:0:0:
199,45,135197,1,0,0:0:0:0:
327,37,135369,5,8,0:0:0:0:
303,158,135540,1,0,0:0:0:0:
335,44,135711,1,0,0:0:0:0:
348,200,135883,2,0,L|358:322,1,100
137,265,136226,2,0,L|240:255,1,75.0000028610231
360,342,136569,38,0,L|279:335,1,75.0000028610231,0|8,0:0|0:0,0:0:0:0:
154,175,136911,1,0,0:0:0:0:
184,168,137083,2,0,L|280:175,1,75.0000028610231
391,256,137426,1,0,0:0:0:0:
388,117,137597,1,0,0:0:0:0:
375,267,137769,2,0,P|346:282|324:288,1,37.5000014305115
399,110,137940,2,0,P|420:102|460:99,1,37.5000014305115
482,234,138111,6,0,L|361:224,1,100,2|0,0:0|0:0,0:0:0:0:
146,176,138454,2,0,L|272:163,1,100
256,168,138711,1,0,0:0:0:0:
267,173,138797,1,0,0:0:0:0:
164,346,138969,2,0,P|147:301|149:259,1,75.0000028610231
245,165,139311,38,0,L|127:153,1,100
99,279,139654,2,0,L|209:269,1,100
387,236,139997,1,0,0:0:0:0:
395,119,140169,2,0,P|306:135|278:259,1,200
289,268,140597,1,0,0:0:0:0:
308,286,140683,1,0,0:0:0:0:
333,294,140769,1,0,0:0:0:0:
359,294,140854,6,0,L|446:289,2,75.0000028610231,8|0|0,0:0|0:0|0:0,0:0:0:0:
148,266,141369,2,0,B|219:270|219:270|255:299,1,100
57,333,141711,2,0,L|44:205,1,100
158,85,142054,38,0,L|148:204,1,100
59,110,142397,1,0,0:0:0:0:
170,64,142569,2,0,P|208:60|270:103,1,100
254,250,142911,1,8,0:0:0:0:
194,149,143083,1,0,0:0:0:0:
358,101,143254,1,0,0:0:0:0:
361,127,143340,1,0,0:0:0:0:
366,153,143426,1,0,0:0:0:0:
370,179,143511,1,0,0:0:0:0:
374,205,143597,6,0,B|263:182|308:289|166:259,2,200,2|0|0,0:0|0:0|0:0,0:0:0:0:
481,335,144454,2,0,P|459:283|479:216,1,100
493,97,144797,38,0,L|386:117,1,100
188,51,145140,2,0,L|307:66,1,100
194,353,145483,2,0,B|190:256|190:256|195:248|195:248|185:243|185:243|190:236|190:236|188:141,1,200
335,185,145997,1,0,0:0:0:0:
282,281,146169,1,0,0:0:0:0:
162,145,146340,6,0,B|118:140|118:140|76:121,2,75.0000028610231,8|0|0,0:0|0:0|0:0,0:0:0:0:
283,45,146854,2,0,P|274:92|295:146,1,75.0000028610231
408,184,147197,2,0,P|420:226|413:276,1,75.0000028610231
103,252,147540,38,0,B|173:241|173:241|240:257|240:257|317:240,1,200
432,189,148054,2,0,P|453:167|466:133,3,50
441,290,148397,2,0,P|464:288|496:272,3,37.5000014305115
355,127,148740,2,0,P|360:110|355:81,3,25,0|0|0|0,3:0|3:0|3:0|3:0,0:0:0:0:
328,233,149083,6,0,B|288:204|237:195|208:237|208:237|231:262|290:178,1,200,2|0,0:0|0:0,0:0:0:0:
79,306,151826,54,0,P|130:249|134:303,1,150.000005722046,2|0,0:0|0:0,0:0:0:0:
343,120,154569,38,0,B|306:117|306:117|273:127|273:127|236:124,1,100,2|8,0:0|0:0,0:0:0:0:
158,227,155940,2,0,B|193:229|193:229|226:219|226:219|263:223,1,100,2|8,0:0|0:0,0:0:0:0:
178,156,157311,6,0,L|112:161,1,37.5000014305115,2|0,0:0|0:0,0:0:0:0:
53,174,157654,2,0,L|145:165,1,75,8|0,0:0|0:0,0:0:0:0:
234,261,157997,38,0,L|167:255,1,37.5000014305115,2|0,0:0|0:0,0:0:0:0:
107,259,158340,2,0,L|199:264,1,75,8|0,0:0|0:0,0:0:0:0:
324,132,158683,6,0,L|262:136,1,37.5000014305115,2|0,0:0|0:0,0:0:0:0:
187,147,158854,2,0,L|220:144,2,18.7500007152558,2|0|0,0:0|0:0|0:0,0:0:0:0:
377,303,159026,38,0,L|315:297,1,37.5000014305115,2|0,0:0|0:0,0:0:0:0:
238,290,159197,2,0,L|268:292,2,18.7500007152558,2|0|0,0:0|0:0|0:0,0:0:0:0:
469,196,159369,6,0,B|449:194|449:194|430:200|430:200|400:199,1,50,2|0,0:0|0:0,0:0:0:0:
327,205,159540,2,0,L|348:203,4,12.5,2|0|0|0|0,0:0|0:0|0:0|0:0|0:0,0:0:0:0:
387,326,159711,37,2,0:0:0:0:
385,300,159797,1,0,0:0:0:0:
383,274,159883,1,8,0:0:0:0:
140,236,160054,5,8,0:0:0:0:
142,256,160226,1,8,0:0:0:0:
144,277,160397,1,8,0:0:0:0:
146,297,160569,1,8,0:0:0:0:
239,196,160740,37,8,0:0:0:0:
238,216,160911,1,8,0:0:0:0:
237,238,161083,1,8,0:0:0:0:
236,259,161254,1,8,0:0:0:0:
427,315,161426,5,8,0:0:0:0:
405,311,161597,1,8,0:0:0:0:
384,308,161769,1,8,0:0:0:0:
362,305,161940,1,8,0:0:0:0:
180,294,162111,37,8,0:0:0:0:
200,290,162283,1,8,0:0:0:0:
221,286,162454,1,8,0:0:0:0:
241,281,162626,1,8,0:0:0:0:
411,147,162797,5,8,0:0:0:0:
368,142,162969,1,8,0:0:0:0:
324,137,163140,1,8,0:0:0:0:
281,131,163311,1,8,0:0:0:0:
58,232,163483,37,8,0:0:0:0:
120,243,163654,1,8,0:0:0:0:
178,212,163826,1,8,0:0:0:0:
193,148,163997,1,8,0:0:0:0:
56,60,164169,5,8,0:0:0:0:
63,145,164340,1,8,0:0:0:0:
129,215,164511,1,8,0:0:0:0:
237,207,164683,1,8,0:0:0:0:
348,151,164854,37,8,0:0:0:0:
426,187,165026,1,8,0:0:0:0:
439,239,165197,1,8,0:0:0:0:
429,259,165369,1,8,0:0:0:0:
421,265,165540,5,8,0:0:0:0:
403,264,165626,1,0,0:0:0:0:
387,265,165711,1,8,0:0:0:0:
371,270,165797,1,0,0:0:0:0:
357,278,165883,1,8,0:0:0:0:
344,288,165969,1,0,0:0:0:0:
334,301,166054,1,8,0:0:0:0:
331,316,166140,1,0,0:0:0:0:
332,332,166226,37,8,0:0:0:0:
307,334,166311,1,0,0:0:0:0:
283,326,166397,1,8,0:0:0:0:
264,309,166483,1,0,0:0:0:0:
256,286,166569,1,8,0:0:0:0:
260,261,166654,1,0,0:0:0:0:
270,239,166740,1,8,0:0:0:0:
286,220,166826,1,0,0:0:0:0:
307,210,166911,5,8,0:0:0:0:
347,207,166997,1,0,0:0:0:0:
383,188,167083,1,8,0:0:0:0:
400,152,167169,1,0,0:0:0:0:
390,112,167254,1,8,0:0:0:0:
363,80,167340,1,0,0:0:0:0:
324,67,167426,1,8,0:0:0:0:
285,74,167511,1,0,0:0:0:0:
255,102,167597,21,8,0:0:0:0:
248,166,167683,1,0,0:0:0:0:
265,228,167769,1,8,0:0:0:0:
237,286,167854,1,0,0:0:0:0:
178,310,167940,1,8,0:0:0:0:
114,287,168026,1,0,0:0:0:0:
88,212,168111,1,8,0:0:0:0:
141,144,168197,1,0,0:0:0:0:
228,123,168283,6,0,L|298:118,6,50
332,200,168626,6,0,L|381:204,6,37.5000014305115
297,278,168969,38,0,P|289:286|261:301,6,25
223,349,169311,6,0,P|208:347|197:338,6,18.7500007152558
145,293,169654,5,0,0:0:0:0:
233,218,169997,1,0,0:0:0:0:
354,232,170340,1,0,0:0:0:0:
455,342,170683,2,0,B|451:281|451:281|449:271|449:271|452:234|452:234|448:224|448:224|445:165,1,150.000005722046,8|0,0:0|0:0,0:0:0:0:
312,130,170854,2,0,B|294:130|294:130|281:125|281:125|260:125,1,37.5000014305115
134,211,171026,22,0,B|75:229|75:229|37:207|37:207|75:186|75:186|134:211|134:211|193:220|244:214,1,312.5,14|0,1:0|1:0,1:0:0:0:
328,220,171283,1,0,1:0:0:0:
347,219,171369,2,0,B|302:275|302:275|313:114,1,200,8|0,1:0|1:0,1:0:0:0:
353,13,171626,1,0,1:0:0:0:
354,26,171711,2,0,B|331:57|331:57|298:68|298:68|237:37,1,100,0|0,1:0|1:0,1:0:0:0:
31,132,171883,2,0,B|67:82|67:82|100:80|100:80|117:82|117:82|133:77|133:77|163:76|163:76|210:130,1,200,0|8,1:0|1:0,1:0:0:0:
122,230,172226,2,0,B|120:220|120:220|122:212|122:212|118:207|118:207|120:200|120:200|119:177,1,50,0|0,1:0|1:0,1:0:0:0:
260,149,172397,6,0,B|257:228|257:228|268:241|268:241|270:247|270:247|279:248|279:248|279:253|279:253|293:269|293:269|288:387,1,200,0|0,1:0|1:0,1:0:0:0:
167,344,172654,1,0,1:0:0:0:
150,340,172740,2,0,B|126:323|126:323|209:327,1,100,8|0,1:0|1:0,1:0:0:0:
389,288,172911,2,0,B|390:240|390:240|346:187,1,75.0000028610231,0|0,1:0|1:0,1:0:0:0:
58,179,173083,2,0,B|130:183|130:183|137:179|137:179|205:194|205:194|212:188|212:188|278:191,1,200,0|0,1:0|1:0,1:0:0:0:
340,60,173340,1,0,1:0:0:0:
340,32,173426,2,0,P|310:74|315:128,1,75.0000028610231,8|0,1:0|1:0,1:0:0:0:
435,222,173597,2,0,P|418:211|370:201,1,62.5,0|0,1:0|1:0,1:0:0:0:
58,179,173769,38,0,B|83:161|83:161|126:162|126:162|162:200,1,100,0|0,1:0|1:0,1:0:0:0:
95,351,173940,2,0,B|97:301|97:301|100:294|100:294|93:289|93:289|97:285|97:285|99:234,1,100,0|0,1:0|1:0,1:0:0:0:
276,219,174111,2,0,B|321:290|321:290|260:279|260:279|251:274|251:274|238:275|238:275|145:255,1,200,8|0,1:0|1:0,1:0:0:0:
202,147,174369,1,0,1:0:0:0:
222,138,174454,2,0,L|331:123,1,75.0000028610231,0|0,1:0|1:0,1:0:0:0:
463,113,174626,2,0,B|453:141|453:141|464:189,1,50,0|0,1:0|1:0,1:0:0:0:
208,268,174797,2,0,B|247:269|247:269|292:259|292:259|327:289|327:289|375:277|375:277|432:280,1,200,8|0,1:0|1:0,1:0:0:0:
425,111,175140,6,0,P|337:95|406:161,1,200,0|0,1:0|1:0,1:0:0:0:
475,233,175397,1,0,1:0:0:0:
489,252,175483,2,0,L|374:263,1,75.0000028610231,8|0,1:0|1:0,1:0:0:0:
241,80,175654,2,0,B|232:127|232:127|239:167|239:167|244:175|244:175|244:184|244:184|262:263,1,150.000005722046,0|0,1:0|1:0,1:0:0:0:
157,317,175997,1,0,1:0:0:0:
150,309,176083,1,0,1:0:0:0:
142,299,176169,2,0,B|147:255|147:255|175:198,1,75.0000028610231,8|0,1:0|1:0,1:0:0:0:
428,344,176340,2,0,L|325:336,1,75.0000028610231,0|0,1:0|1:0,1:0:0:0:
160,227,176511,38,0,B|114:278|114:278|301:250,1,200,0|0,1:0|1:0,1:0:0:0:
490,192,176769,1,0,1:0:0:0:
502,190,176854,2,0,B|506:142|462:123|412:134|408:188|408:188|392:326,1,200,8|0,1:0|1:0,1:0:0:0:
471,309,177111,1,0,1:0:0:0:
494,315,177197,2,0,B|468:317|468:317|425:327|425:327|377:329,1,100,0|0,1:0|1:0,1:0:0:0:
266,253,177369,2,0,B|320:245|320:245|335:315,1,100,0|0,1:0|1:0,1:0:0:0:
157,355,177540,1,8,1:0:0:0:
209,152,177711,2,0,B|236:167|236:167|138:182,1,75.0000028610231,0|0,1:0|1:0,1:0:0:0:
0,231,177883,6,0,B|111:178|85:308|240:247,1,200,0|0,1:0|1:0,1:0:0:0:
319,216,178140,1,0,1:0:0:0:
328,205,178226,2,0,P|337:160|312:116,1,75.0000028610231,8|0,1:0|1:0,1:0:0:0:
157,145,178397,2,0,L|253:133,1,75.0000028610231,0|0,1:0|1:0,1:0:0:0:
425,170,178569,1,0,1:0:0:0:
94,341,178740,2,0,L|82:247,1,75.0000028610231,0|0,1:0|1:0,1:0:0:0:
313,204,178912,2,0,L|306:295,1,75.0000028610231,8|0,1:0|1:0,1:0:0:0:
192,349,179083,2,0,L|180:255,1,75.0000028610231,0|0,1:0|1:0,1:0:0:0:
425,170,179254,38,0,B|431:224|431:224|430:238|430:238|440:272|440:272|437:286|437:286|441:319|441:319|355:393,1,200,0|0,1:0|1:0,1:0:0:0:
192,194,179511,1,0,1:0:0:0:
189,171,179597,2,0,B|226:150|226:150|289:167,1,75.0000028610231,8|0,1:0|1:0,1:0:0:0:
353,257,179769,2,0,B|313:274|313:274|251:253,1,75.0000028610231,0|0,1:0|1:0,1:0:0:0:
97,233,179940,1,0,1:0:0:0:
80,237,180026,1,0,1:0:0:0:
63,241,180111,2,0,L|187:231,1,75.0000028610231,0|0,1:0|1:0,1:0:0:0:
222,336,180283,2,0,B|186:334|186:334|182:332|182:332|177:336|177:336|174:333|174:333|124:330,1,75.0000028610231,8|0,1:0|1:0,1:0:0:0:
3,322,180454,1,0,1:0:0:0:
149,122,180626,6,0,B|96:83|96:83|94:152|94:152|90:164|90:164|95:172|95:172|90:186|90:186|86:258|86:258|163:222,1,300,0|0,1:0|1:0,1:0:0:0:
296,192,180969,2,0,B|305:175|305:175|243:181,1,75.0000028610231,8|0,1:0|1:0,1:0:0:0:
172,320,181140,2,0,B|228:326|228:326|276:310|276:310|384:322,1,150.000005722046,0|0,1:0|1:0,1:0:0:0:
477,226,181483,2,0,L|377:233,1,75.0000028610231,0|0,1:0|1:0,1:0:0:0:
278,120,181654,2,0,L|284:186,1,50,8|0,1:0|1:0,1:0:0:0:
301,336,181826,2,0,L|295:282,1,50,0|0,1:0|1:0,1:0:0:0:
152,180,181997,38,0,B|171:117|171:117|190:319,1,200,0|0,1:0|1:0,1:0:0:0:
88,344,182340,2,0,B|58:291|58:291|62:244|62:244|69:217|69:217|67:187|67:187|71:124,1,200,8|0,1:0|1:0,1:0:0:0:
256,71,182683,2,0,B|281:185|281:185|195:169,1,150.000005722046,0|0,1:0|1:0,1:0:0:0:
72,135,182940,1,0,1:0:0:0:
48,138,183026,2,0,B|82:116|82:116|149:147,1,75.0000028610231,8|0,1:0|1:0,1:0:0:0:
174,262,183197,2,0,B|154:286|154:286|159:225,1,75.0000028610231,0|0,1:0|1:0,1:0:0:0:
167,45,183369,5,0,1:0:0:0:
268,277,183540,2,0,B|287:297|287:297|280:223,1,75.0000028610231,0|0,1:0|1:0,1:0:0:0:
256,71,183711,2,0,B|263:155|263:155|408:145,1,200,8|0,1:0|1:0,1:0:0:0:
491,153,183969,1,0,1:0:0:0:
479,153,184054,2,0,P|452:182|444:261,1,100,0|0,1:0|1:0,1:0:0:0:
495,340,184226,2,0,P|447:322|375:336,1,100,0|0,1:0|1:0,1:0:0:0:
234,309,184397,2,0,P|234:346|283:300,1,100,8|0,1:0|1:0,1:0:0:0:
439,239,184569,2,0,P|347:194|402:289,1,200,0|0,1:0|1:0,1:0:0:0:
452,349,184911,38,0,P|484:328|509:273,1,75.0000028610231,0|0,1:0|1:0,1:0:0:0:
303,94,185083,2,0,P|313:121|339:144,1,50,8|0,1:0|1:0,1:0:0:0:
506,179,185254,2,0,B|385:158|431:278|269:238,1,200,0|0,1:0|1:0,1:0:0:0:
177,120,185597,1,0,1:0:0:0:
169,114,185683,1,0,1:0:0:0:
164,109,185769,2,0,B|161:141|161:141|158:145|158:145|160:152|160:152|159:157|159:157|155:212,1,75.0000028610231,8|0,1:0|1:0,1:0:0:0:
139,338,185940,6,0,P|55:348|110:244,1,200,0|0,1:0|1:0,1:0:0:0:
320,272,186283,2,0,B|282:287|282:287|230:263,1,75.0000028610231,0|0,1:0|1:0,1:0:0:0:
273,36,186454,2,0,B|312:65|312:65|323:213,1,150.000005722046,8|0,1:0|1:0,1:0:0:0:
303,186,186711,1,0,1:0:0:0:
288,196,186797,1,0,1:0:0:0:
172,118,186969,1,0,1:0:0:0:
405,140,187140,2,0,B|401:177|401:177|402:183|402:183|400:186|400:186|396:248,1,75.0000028610231,8|0,1:0|1:0,1:0:0:0:
212,335,187311,2,0,B|207:299|207:299|205:296|205:296|205:290|205:290|201:237,1,75.0000028610231,0|0,1:0|1:0,1:0:0:0:
478,288,187483,38,0,B|442:323|442:323|404:320|404:320|388:321|388:321|372:317|372:317|333:312|333:312|300:245,1,200,2|0,1:0|1:0,1:0:0:0:
211,47,187826,2,0,B|217:117|217:117|177:162|177:162|187:263,1,200,8|0,1:0|1:0,1:0:0:0:
142,333,188083,1,0,1:0:0:0:
119,331,188169,2,0,P|92:305|85:234,1,75.0000028610231,0|0,1:0|1:0,1:0:0:0:
335,171,188340,2,0,P|291:198|237:194,1,75.0000028610231,0|0,1:0|1:0,1:0:0:0:
87,63,188511,1,8,1:0:0:0:
207,41,188683,2,0,B|202:80|202:80|205:86|205:86|201:88|201:88|198:128,1,75.0000028610231,0|0,1:0|1:0,1:0:0:0:
39,179,188854,6,0,B|109:171|109:171|170:217|170:217|275:201,1,200,2|0,1:0|1:0,1:0:0:0:
408,186,189111,1,0,1:0:0:0:
402,165,189197,2,0,B|395:127|395:127|389:85|346:69|303:98|311:138|311:138|339:305,1,300,8|0,1:0|1:0,1:0:0:0:
427,324,189540,2,0,B|421:374|421:374|391:325,1,75.0000028610231,8|0,1:0|1:0,1:0:0:0:
481,239,189711,2,0,B|532:249|532:249|490:262,1,75.0000028610231,8|0,1:0|1:0,1:0:0:0:
229,295,189883,2,0,B|248:298|248:298|310:287,1,75.0000028610231,2|0,1:0|1:0,1:0:0:0:
455,106,190054,2,0,L|449:148,2,37.5000014305115
438,91,190226,6,0,B|247:78|247:78|295:156,1,250,2|0,1:0|1:0,1:0:0:0:
387,289,190569,38,0,L|381:213,1,50,8|0,1:0|1:0,1:0:0:0:
301,244,190740,2,2,L|304:293,2,50,10|2|2,1:0|1:0|1:0,1:0:0:0:
333,76,190911,6,0,L|329:138,1,50,8|0,1:0|1:0,1:0:0:0:
248,116,191083,2,2,L|252:67,4,50,10|2|2|2|2,1:0|1:0|1:0|1:0|1:0,1:0:0:0:
123,278,191254,38,0,L|125:330,1,50,8|0,1:0|1:0,1:0:0:0:
208,326,191426,2,0,L|204:272,1,50,8|0,1:0|1:0,1:0:0:0:
154,73,191597,37,8,1:0:0:0:
132,104,191683,1,0,1:0:0:0:
131,131,191769,1,0,1:0:0:0:
134,141,191854,1,0,1:0:0:0:
139,88,191940,37,0,1:0:0:0:
140,126,192026,1,0,1:0:0:0:
155,147,192112,1,0,1:0:0:0:
164,154,192197,1,0,1:0:0:0:
118,189,192283,5,0,1:0:0:0:
150,219,192369,1,0,1:0:0:0:
192,223,192454,1,0,1:0:0:0:
233,209,192540,1,0,1:0:0:0:
273,130,192626,21,0,1:0:0:0:
324,116,192711,1,0,1:0:0:0:
385,128,192797,1,0,1:0:0:0:
425,183,192883,1,0,1:0:0:0:
432,261,192969,38,0,B|348:265|348:265|321:313|321:313|210:325,1,200,4|0,1:0|1:0,1:0:0:0:
138,186,193226,1,0,1:0:0:0:
118,188,193311,2,0,B|79:247|79:247|249:226,1,200,8|0,1:0|1:0,1:0:0:0:
269,76,193654,2,0,P|265:103|278:144,1,50,0|0,1:0|1:0,1:0:0:0:
443,152,193826,2,0,B|482:125|482:125|342:114,1,150.000005722046,0|8,1:0|1:0,1:0:0:0:
245,276,194169,1,0,1:0:0:0:
247,291,194255,1,0,1:0:0:0:
249,306,194340,6,0,L|257:192,1,75.0000028610231,0|0,1:0|1:0,1:0:0:0:
138,65,194511,2,0,L|143:156,1,75.0000028610231,0|0,1:0|1:0,1:0:0:0:
15,255,194683,2,0,B|43:322|43:322|209:311,1,200,8|0,1:0|1:0,1:0:0:0:
425,232,194940,1,0,1:0:0:0:
422,213,195026,2,0,L|323:220,1,75.0000028610231,0|0,1:0|1:0,1:0:0:0:
276,336,195197,2,0,L|377:340,1,75.0000028610231,0|0,1:0|1:0,1:0:0:0:
346,154,195369,2,0,P|336:183|335:215,1,50,8|0,1:0|1:0,1:0:0:0:
470,356,195540,2,0,P|460:323|441:291,1,50,0|0,1:0|1:0,1:0:0:0:
293,49,195711,37,0,1:0:0:0:
355,232,195883,2,0,B|322:234|322:234|302:232|302:232|250:236,1,75.0000028610231,0|0,1:0|1:0,1:0:0:0:
194,96,196054,1,8,1:0:0:0:
212,301,196226,2,0,B|180:340|180:340|189:223,1,150.000005722046,0|0,1:0|1:0,1:0:0:0:
276,65,196569,2,0,P|286:112|272:157,1,75.0000028610231,0|0,1:0|1:0,1:0:0:0:
94,133,196740,1,8,1:0:0:0:
276,65,196911,2,0,B|324:85|324:85|192:98,1,150.000005722046,0|0,1:0|1:0,1:0:0:0:
36,55,197254,6,0,L|94:66,1,50,0|0,1:0|1:0,1:0:0:0:
55,299,197426,2,0,B|51:241|51:241|55:220|55:220|48:197|48:197|44:140,1,150.000005722046,8|0,1:0|1:0,1:0:0:0:
227,163,197769,2,0,P|205:188|144:202,1,75.0000028610231,0|0,1:0|1:0,1:0:0:0:
85,64,197940,2,0,P|131:94|148:139,1,75.0000028610231,0|0,1:0|1:0,1:0:0:0:
55,299,198111,2,0,P|123:293|200:383,1,150.000005722046,8|0,1:0|1:0,1:0:0:0:
302,332,198369,1,0,1:0:0:0:
297,347,198454,38,0,B|291:285|291:285|287:273|287:273|286:255|286:255|288:244|288:244|285:174,1,150.000005722046,0|0,1:0|1:0,1:0:0:0:
480,127,198797,2,0,B|475:228|475:228|431:309,1,150.000005722046,8|0,1:0|1:0,1:0:0:0:
277,183,199054,1,0,1:0:0:0:
263,173,199140,2,0,L|258:85,1,50,0|0,1:0|1:0,1:0:0:0:
376,264,199311,2,0,B|317:258|317:258|281:271|281:271|183:261,1,150.000005722046,0|8,1:0|1:0,1:0:0:0:
52,320,199654,2,0,B|87:315|87:315|94:318|94:318|99:315|99:315|158:311,1,75.0000028610231,0|0,1:0|1:0,1:0:0:0:
127,53,199826,6,0,B|81:86|81:86|92:223,1,150.000005722046,0|0,1:0|1:0,1:0:0:0:
112,210,200083,1,0,1:0:0:0:
137,227,200169,1,8,1:0:0:0:
348,140,200340,2,0,L|168:133,1,150.000005722046,0|0,1:0|1:0,1:0:0:0:
306,309,200683,2,0,P|316:279|317:251,1,50,0|0,1:0|1:0,1:0:0:0:
198,134,200854,2,0,P|212:165|242:183,1,50,8|0,1:0|1:0,1:0:0:0:
399,127,201026,2,0,P|369:129|335:150,1,50,0|0,1:0|1:0,1:0:0:0:
437,305,201197,37,2,1:0:0:0:
223,175,201369,2,0,P|257:173|306:196,1,75.0000028610231,0|0,1:0|1:0,1:0:0:0:
430,321,201540,1,8,1:0:0:0:
154,318,201711,2,0,L|326:298,1,150.000005722046,0|0,1:0|1:0,1:0:0:0:
479,193,202054,1,0,1:0:0:0:
465,200,202140,1,0,1:0:0:0:
451,208,202226,2,0,P|413:218|359:216,1,75.0000028610231,8|0,1:0|1:0,1:0:0:0:
198,115,202397,2,0,P|242:115|289:127,1,75.0000028610231,0|0,1:0|1:0,1:0:0:0:
315,300,202569,6,0,B|271:346|271:346|294:156,1,200,0|0,1:0|1:0,1:0:0:0:
388,75,202826,1,0,1:0:0:0:
399,86,202911,2,0,P|399:134|378:171,1,75.0000028610231,8|0,1:0|1:0,1:0:0:0:
172,94,203083,2,0,B|238:50|238:50|316:121,1,150.000005722046,0|0,1:0|1:0,1:0:0:0:
112,348,203597,2,0,L|97:259,1,75.0000028610231,0|0,1:0|1:0,1:0:0:0:
248,203,203768,2,0,L|232:289,1,75.0000028610231,0|0,1:0|1:0,1:0:0:0:
59,179,203940,38,0,B|181:147|133:247|273:195,1,200,2|0,1:0|1:0,1:0:0:0:
424,138,204283,2,0,B|379:85|379:85|402:241,1,200,8|0,1:0|1:0,1:0:0:0:
448,340,204626,2,0,B|468:322|468:322|388:316,1,75.0000028610231,0|0,1:0|1:0,1:0:0:0:
226,325,204797,1,0,1:0:0:0:
210,328,204883,1,0,1:0:0:0:
193,332,204969,2,0,L|307:325,1,75.0000028610231,8|0,1:0|1:0,1:0:0:0:
424,138,205140,2,0,P|358:168|400:270,1,150.000005722046,0|0,1:0|1:0,1:0:0:0:
511,232,205483,6,0,L|430:225,1,50,0|0,1:0|1:0,1:0:0:0:
211,249,205654,2,0,B|253:254|253:254|289:239|289:239|325:246|325:246|380:230|380:230,1,150.000005722046,8|0,1:0|1:0,1:0:0:0:
339,74,205911,1,0,1:0:0:0:
335,47,205997,2,0,B|298:70|298:70|304:134,1,75.0000028610231,0|0,1:0|1:0,1:0:0:0:
457,227,206169,2,0,B|446:187|446:187|400:166,1,75.0000028610231,0|0,1:0|1:0,1:0:0:0:
235,182,206340,1,8,1:0:0:0:
181,161,206426,1,0,1:0:0:0:
151,113,206511,1,0,1:0:0:0:
132,167,206597,1,0,1:0:0:0:
89,203,206683,1,0,1:0:0:0:
249,351,206854,38,0,B|253:314|253:314|256:308|256:308|255:302|255:302|265:245,1,75.0000028610231,0|0,1:0|1:0,1:0:0:0:
89,203,207026,2,0,B|94:237|94:237|94:244|94:244|96:248|96:248|105:289,1,75.0000028610231,8|0,1:0|1:0,1:0:0:0:
336,182,207197,2,0,B|282:185|282:185|266:182|266:182|239:184|239:184|224:189|224:189|167:194,1,150.000005722046,0|0,1:0|1:0,1:0:0:0:
359,342,207540,2,0,P|378:302|368:244,1,75.0000028610231,0|0,1:0|1:0,1:0:0:0:
249,283,207711,1,8,1:0:0:0:
385,104,207883,6,0,B|359:149|359:149|376:260,1,150.000005722046,0|0,1:0|1:0,1:0:0:0:
505,180,208226,2,0,L|419:171,1,50,0|0,1:0|1:0,1:0:0:0:
154,178,208397,2,0,B|274:159|274:159|238:216,1,150.000005722046,8|0,1:0|1:0,1:0:0:0:
87,301,208740,2,0,P|68:263|68:218,1,75.0000028610231,0|0,1:0|1:0,1:0:0:0:
154,178,208911,2,0,P|183:142|235:131,1,75.0000028610231,0|0,1:0|1:0,1:0:0:0:
219,283,209083,2,0,P|189:277|159:257,1,50,8|0,1:0|1:0,1:0:0:0:
310,108,209254,2,0,P|305:140|293:167,1,50,0|0,1:0|1:0,1:0:0:0:
73,75,209426,38,0,B|18:114|18:114|200:124,1,200,2|0,1:0|1:0,1:0:0:0:
372,85,209769,2,0,P|319:77|334:176,1,150.000005722046,8|0,1:0|1:0,1:0:0:0:
483,248,210111,2,0,B|399:196|412:279|319:243,1,150.000005722046,0|0,1:0|1:0,1:0:0:0:
326,122,210369,1,0,1:0:0:0:
342,108,210454,2,0,L|357:194,1,50,8|0,1:0|1:0,1:0:0:0:
208,272,210626,2,0,L|215:210,1,50,0|0,1:0|1:0,1:0:0:0:
342,108,210797,6,0,B|374:149|374:149|306:138|306:138|292:133|292:133|281:136|281:136|268:132|268:132|180:120,1,200,2|0,1:0|1:0,1:0:0:0:
65,206,211054,1,0,1:0:0:0:
54,223,211140,2,0,B|88:258|88:258|155:256|155:256|204:190,1,150.000005722046,8|0,1:0|1:0,1:0:0:0:
118,45,211483,2,0,B|102:78|102:78|110:133,1,75.0000028610231,8|0,1:0|1:0,1:0:0:0:
309,167,211654,2,0,B|294:129|294:129|250:100,1,75.0000028610231,8|0,1:0|1:0,1:0:0:0:
54,223,211826,2,0,L|181:219,1,75.0000028610231,2|0,1:0|1:0,1:0:0:0:
209,219,211997,2,0,L|241:218,2,25
72,317,212169,38,0,B|131:327|131:327|187:310|187:310|279:330,1,187.500007152558,8|0,1:0|1:0,1:0:0:0:
335,351,212426,1,0,1:0:0:0:
348,358,212511,2,0,P|344:331|353:274,1,75.0000028610231,8|0,1:0|1:0,1:0:0:0:
393,191,212683,2,0,P|412:189|440:172,2,37.5000014305115
304,187,212854,2,0,P|258:167|233:133,1,75.0000028610231,8|0,1:0|1:0,1:0:0:0:
356,56,213026,2,0,L|348:104,4,37.5000014305115
207,57,213197,2,0,L|293:53,1,50,8|8,1:0|1:0,1:0:0:0:
304,187,213369,2,0,L|231:189,1,50,8|0,1:0|1:0,1:0:0:0:
96,143,213540,5,8,0:0:0:0:
119,141,213626,1,0,0:0:0:0:
143,139,213711,1,0,0:0:0:0:
167,137,213797,1,0,0:0:0:0:
234,85,213883,5,0,0:0:0:0:
258,86,213969,1,0,0:0:0:0:
281,87,214054,1,0,0:0:0:0:
305,88,214140,1,0,0:0:0:0:
333,170,214226,5,0,0:0:0:0:
330,201,214311,1,0,0:0:0:0:
327,234,214397,1,0,0:0:0:0:
324,266,214483,1,0,0:0:0:0:
276,264,214569,1,0,2:0:0:0:
220,257,214654,1,0,2:0:0:0:
162,250,214740,1,0,2:0:0:0:
105,245,214826,1,0,2:0:0:0:
57,240,214911,6,0,L|153:232,1,75.0000028610231,8|0,0:0|0:0,0:0:0:0:
343,314,215083,2,0,L|257:299,1,75.0000028610231
62,143,215254,2,0,B|102:110|102:110|203:116|203:116|246:175,1,200,8|0,0:0|0:0,0:0:0:0:
140,330,215511,2,0,B|110:322|110:322|190:312,1,75.0000028610231
346,261,215683,2,0,B|384:291|384:291|243:269,1,150.000005722046
140,330,215940,2,0,P|124:292|135:251,1,62.5,8|0,0:0|0:0,0:0:0:0:
239,162,216111,2,0,P|241:189|230:238,1,62.5
44,182,216283,38,0,L|144:174,1,75.0000028610231
313,170,216454,2,0,L|222:160,1,75.0000028610231
34,58,216626,2,0,B|89:43|89:43|135:63|135:63|193:51|193:51|259:77,1,200,8|0,0:0|0:0,0:0:0:0:
416,60,216883,2,0,P|394:54|409:88,1,75.0000028610231
468,239,217054,2,0,B|380:203|406:284|303:257,1,150.000005722046
152,194,217311,2,0,L|143:124,1,50,8|0,0:0|0:0,0:0:0:0:
235,125,217483,2,0,L|242:198,1,50
83,310,217654,6,0,P|121:288|171:287,1,75.0000028610231
287,364,217826,2,0,P|251:374|203:368,1,75.0000028610231
70,319,217997,2,0,P|171:248|243:310,1,200,8|0,0:0|0:0,0:0:0:0:
372,353,218254,2,0,B|327:334|332:272,1,75.0000028610231
465,186,218426,2,0,P|422:211|335:146,1,150.000005722046
443,43,218683,38,0,P|445:74|459:115,1,50,8|0,0:0|0:0,0:0:0:0:
336,49,218854,2,0,B|299:36|243:24|199:23|156:51|156:51|171:84|224:87,1,225.000008583069
291,188,219197,2,0,P|311:181|345:164,1,50
326,332,219369,2,0,P|280:315|241:312,1,50,8|0,0:0|0:0,0:0:0:0:
161,181,219540,2,0,P|171:204|175:252,1,50
87,335,219711,5,8,0:0:0:0:
67,153,219883,1,0,0:0:0:0:
83,351,220054,37,8,0:0:0:0:
254,171,220226,1,0,0:0:0:0:
80,361,220397,6,0,L|181:349,1,75.0000028610231,8|0,0:0|0:0,0:0:0:0:
335,305,220569,2,0,L|251:292,1,75.0000028610231
129,245,220740,2,0,B|178:202|178:202|172:251|172:251|164:269|164:269|166:294|166:294|158:375,1,200,8|0,0:0|0:0,0:0:0:0:
53,293,220997,2,0,P|41:248|54:193,1,75.0000028610231
260,110,221169,2,0,B|263:171|263:171|266:181|266:181|267:194|267:194|265:205|265:205|269:283,1,150.000005722046
43,220,221426,2,0,L|126:228,1,62.5,8|0,0:0|0:0,0:0:0:0:
260,110,221597,2,0,L|180:125,1,62.5
199,270,221769,38,0,P|240:286|324:264,1,75.0000028610231
371,159,221940,2,0,P|329:168|297:206,1,75.0000028610231
397,319,222111,2,0,B|447:273|447:273|454:220|454:220|457:213|457:213|453:206|453:206|456:200|456:200|468:83,1,200,8|0,0:0|0:0,0:0:0:0:
461,21,222369,2,0,B|486:37|486:37|389:47,1,75.0000028610231
213,72,222540,2,0,B|286:35|286:35|353:83,1,150.000005722046
205,225,222797,2,0,L|195:166,1,50,8|0,0:0|0:0,0:0:0:0:
283,153,222969,2,0,L|291:205,1,50
205,225,223140,6,0,P|254:225|315:276,1,75.0000028610231
262,354,223311,2,0,P|212:354|151:302,1,75.0000028610231
79,247,223483,2,0,B|153:236|153:236|219:242|219:242|314:229,1,200,8|0,0:0|0:0,0:0:0:0:
492,216,223826,1,8,0:0:0:0:
479,206,223911,1,0,0:0:0:0:
466,195,223997,2,0,L|478:291,1,75.0000028610231
349,158,224169,21,8,0:0:0:0:
360,146,224254,1,0,0:0:0:0:
371,134,224340,2,0,L|362:328,1,150.000005722046
271,279,224597,2,0,L|277:129,1,150.000005722046
186,122,224854,2,0,L|179:271,1,150.000005722046
84,266,225026,2,0,L|90:116,1,150.000005722046
134,22,225197,38,0,L|197:19,1,37.5000014305115,8|8,0:0|0:0,0:0:0:0:
200,34,225540,2,0,L|257:37,3,37.5000014305115
375,45,225883,38,0,P|357:86|385:142,1,75.0000028610231,8|0,0:0|0:0,0:0:0:0:
481,165,226054,2,0,P|435:190|411:249,1,75.0000028610231
491,327,226226,2,0,B|388:260|364:385|249:302,1,200,8|0,0:0|0:0,0:0:0:0:
208,291,226483,1,0,0:0:0:0:
202,280,226569,2,0,L|198:205,1,50
264,64,226740,2,0,B|261:106|261:106|264:110|264:110|257:110|257:110|260:114|260:114|259:161,1,75.0000028610231
101,120,226911,1,8,0:0:0:0:
77,126,226997,1,0,0:0:0:0:
53,132,227083,2,0,B|128:150|128:150|188:124|188:124|305:144,1,200
444,173,227426,38,0,P|406:177|365:201,1,75.0000028610231
310,330,227597,2,0,P|299:292|178:240,1,150.000005722046,8|0,0:0|0:0,0:0:0:0:
80,347,227940,21,10,0:0:0:0:
128,351,228026,1,0,0:0:0:0:
187,330,228111,1,0,0:0:0:0:
247,275,228197,1,0,0:0:0:0:
280,183,228283,5,8,0:0:0:0:
349,140,228369,1,0,0:0:0:0:
413,137,228454,1,0,0:0:0:0:
456,157,228540,1,0,0:0:0:0:
477,200,228626,6,0,P|438:218|383:227,1,75.0000028610231,10|0,0:0|0:0,0:0:0:0:
328,47,228797,2,0,P|357:59|371:135,1,75.0000028610231
280,297,228969,2,0,B|289:131|289:131|319:217,1,200,8|0,0:0|0:0,0:0:0:0:
439,249,229226,1,0,0:0:0:0:
451,259,229311,2,0,L|340:248,1,75.0000028610231
186,238,229483,2,0,L|192:144,1,75.0000028610231
309,84,229654,1,8,0:0:0:0:
324,85,229740,1,0,0:0:0:0:
340,87,229826,2,0,B|297:129|297:129|139:115,1,150.000005722046
75,90,230083,5,0,0:0:0:0:
62,85,230169,2,0,L|74:185,1,75.0000028610231
48,310,230340,2,0,B|189:257|135:357|299:306,1,225.000008583069,8|0,0:0|0:0,0:0:0:0:
356,260,230683,38,0,P|366:237|359:189,1,50
286,77,230854,2,0,P|256:75|223:91,1,50
274,228,231026,2,8,P|266:181|228:154,1,50
108,155,231197,2,8,P|143:159|195:148,1,50
377,122,231369,5,10,0:0:0:0:
367,208,231540,1,0,0:0:0:0:
452,219,231711,1,0,0:0:0:0:
463,132,231883,2,8,L|470:63,1,50
323,60,232054,37,2,0:0:0:0:
237,74,232226,1,0,0:0:0:0:
188,145,232397,1,0,0:0:0:0:
101,140,232569,2,8,L|26:132,1,50
142,233,232740,21,10,0:0:0:0:
143,248,232826,1,0,0:0:0:0:
144,257,232911,1,8,0:0:0:0:
145,268,232997,1,0,0:0:0:0:
216,329,233083,5,10,0:0:0:0:
216,323,233169,1,0,0:0:0:0:
216,318,233254,1,8,0:0:0:0:
216,313,233340,1,0,0:0:0:0:
250,237,233426,6,0,L|248:207,16,25,10|0|0|0|0|0|0|0|0|0|0|0|0|0|0|0|0,0:0|0:0|0:0|0:0|0:0|0:0|0:0|0:0|0:0|0:0|0:0|0:0|0:0|0:0|0:0|0:0|0:0,0:0:0:0:
256,192,234197,12,0,236854,0:0:0:0:
