osu file format v14

[General]
AudioFilename: audio.mp3
AudioLeadIn: 0
PreviewTime: 169715
Countdown: 0
SampleSet: Soft
StackLeniency: 0.4
Mode: 0
LetterboxInBreaks: 0
WidescreenStoryboard: 1

[Editor]
Bookmarks: 969,11254,11940,17426,18797,19140,19654,19826,19997,20169,20254,21541,22912,44855,54454,55826,66798,72284,77769,88741,94227,116170,127141,149083,151826,154569,155940,157311,157997,158683,159026,159369,159711,160054,160740,161426,162111,162797,163483,164169,164854,165540,165883,166226,166569,166911,167254,167597,167940,168283,168454,168626,168797,168969,169140,169311,169483,169654,171026,191597,192969,214912,231369,236855
DistanceSpacing: 0.8
BeatDivisor: 4
GridSize: 8
TimelineZoom: 2.7

[Metadata]
Title:Carry Me Away (Extended Mix)
TitleUnicode:Carry Me Away (Extended Mix)
Artist:lapix
ArtistUnicode:lapix
Creator:Typ4
Version:Insane **WIP**
Source:SOUND VOLTEX IV HEAVENLY HAVEN
Tags:sdvx iv kanata.n future core fugene2 beatmania iidx 26 rootage
BeatmapID:2010377
BeatmapSetID:941510

[Difficulty]
HPDrainRate:5
CircleSize:3.8
OverallDifficulty:7.5
ApproachRate:9.2
SliderMultiplier:1.8
SliderTickRate:1

[Events]
//Background and Video events
0,0,"uwu.jpg",0,0
//Break Periods
//Storyboard Layer 0 (Background)
//Storyboard Layer 1 (Fail)
//Storyboard Layer 2 (Pass)
//Storyboard Layer 3 (Foreground)
//Storyboard Sound Samples

[TimingPoints]
968,-100,4,2,0,50,0,0
969,342.857142857143,4,2,0,50,1,0
11597,-133.333333333333,4,2,0,50,0,0
11940,-100,4,2,0,50,0,0
22911,-66.6666666666667,4,2,0,50,0,0
23254,-100,4,2,0,50,0,0
24111,-66.6666666666667,4,2,0,50,0,0
24454,-100,4,2,0,50,0,0
25654,-66.6666666666667,4,2,0,50,0,0
26169,-100,4,2,0,50,0,0
26683,-133.333333333333,4,2,0,50,0,0
27026,-100,4,2,0,50,0,0
28397,-66.6666666666667,4,2,0,50,0,0
28740,-100,4,2,0,50,0,0
29597,-66.6666666666667,4,2,0,50,0,0
29940,-100,4,2,0,50,0,0
32511,-66.6666666666667,4,2,0,50,0,0
33197,-80,4,2,0,50,0,0
33369,-100,4,2,0,50,0,0
171369,-50,4,2,0,50,0,1
214911,-66.6666666666667,4,2,0,50,0,0

[Colours]
Combo1 : 51,153,255
Combo2 : 151,216,255
Combo3 : 172,242,255
Combo4 : 19,107,255

[HitObjects]
74,101,969,5,0,0:0:0:0:
74,101,1140,2,0,L|79:156,1,45
11,260,1311,2,0,B|36:238|36:238|134:247,1,90
178,253,1569,2,0,P|192:281|193:307,1,45
296,227,1741,2,0,P|326:196|372:190,1,90
371,190,1997,2,0,L|369:243,1,45
369,332,2169,1,0,0:0:0:0:
237,343,2340,5,0,0:0:0:0:
237,343,2511,2,0,L|232:282,1,45
289,216,2683,2,0,B|318:192|318:192|412:188,1,90
462,181,2940,2,0,P|475:171|491:148,1,45
399,9,3111,2,0,B|397:38|397:38|394:111,1,90
395,99,3369,2,0,L|350:98,1,45
268,93,3540,2,0,L|219:91,1,45
56,183,3711,5,0,0:0:0:0:
56,183,3883,2,0,L|111:179,1,45
252,230,4054,2,0,B|212:207|212:207|173:229,1,90
217,353,4311,2,0,L|215:302,1,45
350,174,4483,2,0,L|342:297,1,90
344,263,4740,6,0,L|414:252,1,45
489,137,4911,1,0,0:0:0:0:
489,137,4997,1,0,0:0:0:0:
489,137,5083,2,0,P|457:98|404:87,1,90
225,79,5340,1,0,0:0:0:0:
225,79,5426,2,0,P|249:81|277:77,1,45
350,174,5597,2,0,P|320:166|289:167,1,45
53,165,5769,5,0,0:0:0:0:
79,251,5940,1,0,0:0:0:0:
149,159,6111,5,0,0:0:0:0:
106,335,6283,1,0,0:0:0:0:
272,282,6454,5,0,0:0:0:0:
272,282,6626,2,0,L|212:275,1,45
379,207,6797,2,0,B|399:236|399:236|395:318,1,90
278,190,7054,2,0,B|270:172|270:172|273:134,1,45
368,60,7226,2,0,L|275:62,1,90
276,69,7483,2,0,L|213:66,1,45
134,176,7654,2,0,L|197:169,1,45
74,55,7826,5,0,0:0:0:0:
74,55,7997,2,0,L|69:111,1,45
31,185,8169,2,0,B|35:227|35:227|39:233|39:233|44:282,1,90
92,345,8426,2,0,P|126:331|154:334,1,45
271,318,8597,2,0,P|231:303|216:260,1,90
304,154,8854,2,0,L|301:201,1,45
171,174,9026,2,0,L|168:126,1,45
298,64,9197,6,0,L|304:166,1,90
394,153,9454,1,0,0:0:0:0:
401,165,9540,2,0,L|399:214,1,45
312,279,9711,2,0,L|317:344,1,45
172,249,9883,1,0,0:0:0:0:
172,249,9969,1,0,0:0:0:0:
172,249,10054,2,0,L|230:239,1,45
52,168,10226,1,0,0:0:0:0:
52,168,10311,1,0,0:0:0:0:
52,168,10397,6,0,B|107:177|107:177|159:161,1,90
177,50,10654,2,0,P|182:82|232:112,1,90
328,68,10911,2,0,P|316:92|311:124,1,45
416,164,11083,2,0,P|387:170|360:186,1,45
346,257,11254,5,0,0:0:0:0:
80,320,11597,2,0,L|77:275,3,33.7500012874604
163,324,11940,6,0,L|215:321,1,45
231,305,12111,2,0,L|283:302,1,45
208,120,12283,2,0,B|189:149|189:149|195:229,1,90
284,213,12540,1,0,0:0:0:0:
284,213,12626,2,0,L|342:209,1,45
427,199,12797,1,0,0:0:0:0:
341,87,12969,1,0,0:0:0:0:
208,120,13140,1,0,0:0:0:0:
208,120,13226,1,0,0:0:0:0:
208,120,13311,6,0,L|206:172,1,45
92,256,13483,2,0,L|89:203,1,45
240,319,13654,2,0,B|196:345|196:345|203:234,1,135
315,162,13997,2,0,B|296:190|296:190|306:283,1,90
386,299,14254,1,0,0:0:0:0:
386,299,14340,2,0,L|391:246,1,45
407,127,14511,1,0,0:0:0:0:
257,88,14683,6,0,L|211:96,1,45
190,88,14854,2,0,L|144:96,1,45
91,178,15026,2,0,L|85:290,1,90
155,336,15283,1,0,0:0:0:0:
168,335,15369,2,0,L|264:331,1,90
275,329,15626,1,0,0:0:0:0:
290,328,15711,1,0,0:0:0:0:
232,232,15883,1,0,0:0:0:0:
350,184,16054,6,0,B|362:208|362:208|356:287,1,90
450,241,16311,1,0,0:0:0:0:
448,224,16397,2,0,L|438:126,1,90
354,51,16740,5,0,0:0:0:0:
316,127,16911,1,0,0:0:0:0:
225,61,17083,5,0,0:0:0:0:
274,203,17254,1,0,0:0:0:0:
112,165,17426,6,0,P|101:209|102:255,1,90
263,291,17769,2,0,P|274:247|273:201,1,90
185,72,18111,5,0,0:0:0:0:
189,213,18283,1,0,0:0:0:0:
173,53,18454,1,0,0:0:0:0:
297,151,18626,1,0,0:0:0:0:
424,78,18797,5,0,0:0:0:0:
424,78,18883,1,0,0:0:0:0:
424,78,18969,2,0,P|414:108|409:134,1,45
415,261,19140,5,0,0:0:0:0:
415,261,19226,1,0,0:0:0:0:
415,261,19312,2,0,P|392:252|370:247,1,45
249,256,19483,6,0,L|243:222,16,22.5
256,192,20254,12,0,21540,0:0:0:0:
133,87,21883,5,0,0:0:0:0:
138,95,22226,1,0,0:0:0:0:
112,181,22397,1,0,0:0:0:0:
312,79,22569,1,0,0:0:0:0:
312,79,22911,6,0,B|298:134|298:134|316:215,1,135
327,221,23254,2,0,L|378:225,3,45
332,308,23597,2,0,L|257:321,1,45
148,238,23769,2,0,L|241:243,1,90
100,313,24111,6,0,B|67:276|67:276|63:161,1,135.000005149842
134,92,24454,2,0,P|151:130|124:114,1,90
319,191,24797,2,0,B|272:185|254:136|254:136|243:187|180:210,1,180
351,268,25311,2,0,P|332:283|315:310,1,45
190,282,25483,2,0,P|211:294|232:318,1,45
420,338,25654,6,0,B|445:295|445:295|433:205,1,135.000005149842
445,204,25997,2,0,L|434:129,1,67.5000025749208
317,45,26169,2,0,B|334:72|334:72|327:156,1,90
209,104,26511,1,0,0:0:0:0:
209,104,26597,1,0,0:0:0:0:
209,104,26683,2,0,P|243:111|212:113,1,101.250003862381
209,104,27026,6,0,B|166:190|264:175|211:281,1,180
67,249,27540,2,0,B|56:205|56:205|121:219,1,90
118,327,27883,1,0,0:0:0:0:
117,337,27969,1,0,0:0:0:0:
116,346,28054,1,0,0:0:0:0:
252,340,28226,1,0,0:0:0:0:
423,335,28397,6,0,B|447:300|447:300|438:199,1,135
437,186,28740,2,0,L|485:180,3,45
375,122,29083,2,0,L|298:111,1,45
241,211,29254,2,0,L|356:198,1,90
173,93,29597,6,0,B|147:128|147:128|157:241,1,135.000005149842
167,342,29940,2,0,P|163:308|176:339,1,90
77,381,30283,2,0,P|57:351|67:269,1,90
95,129,30626,1,0,0:0:0:0:
123,241,30797,1,0,0:0:0:0:
88,122,30969,1,0,0:0:0:0:
325,148,31140,5,0,0:0:0:0:
335,144,31483,5,0,0:0:0:0:
127,238,31654,1,0,0:0:0:0:
120,233,31997,1,0,0:0:0:0:
217,326,32169,1,0,0:0:0:0:
239,323,32254,1,0,0:0:0:0:
261,321,32340,1,0,0:0:0:0:
283,319,32426,1,0,0:0:0:0:
305,317,32511,6,0,B|321:168,1,135.000005149842
230,100,32854,1,0,0:0:0:0:
214,107,32940,1,0,0:0:0:0:
207,125,33026,2,0,P|210:161|226:190,1,67.5000025749208
408,211,33197,2,0,P|427:188|439:157,1,56.25
368,20,33369,2,0,P|341:12|301:15,1,45
326,127,33540,1,0,0:0:0:0:
326,127,33883,6,0,L|169:112,1,135
119,225,34226,2,0,L|282:206,1,135
276,210,34569,2,0,P|299:262|264:341,2,135
163,160,35254,5,0,0:0:0:0:
84,147,35426,1,0,0:0:0:0:
5,136,35597,1,0,0:0:0:0:
180,54,35769,6,0,L|375:45,1,180
442,40,36197,1,0,0:0:0:0:
453,39,36283,2,0,P|464:88|457:137,1,90
245,182,36626,5,0,0:0:0:0:
355,145,36797,1,0,0:0:0:0:
289,312,36969,1,0,0:0:0:0:
475,237,37140,1,0,0:0:0:0:
475,237,37226,1,0,0:0:0:0:
475,237,37311,2,0,P|473:285|428:335,1,90
367,348,37569,2,0,P|329:317|263:321,1,90
113,352,37826,6,0,L|99:249,1,90
237,165,38169,2,0,L|235:263,1,90
47,199,38511,2,0,B|84:173|84:173|140:188,1,90
18,94,38854,1,0,0:0:0:0:
241,62,39026,1,0,0:0:0:0:
241,62,39111,1,0,0:0:0:0:
241,62,39197,1,0,0:0:0:0:
446,201,39369,5,0,0:0:0:0:
456,61,39540,1,0,0:0:0:0:
335,255,39711,5,0,0:0:0:0:
318,120,39883,1,0,0:0:0:0:
471,301,40054,5,0,0:0:0:0:
482,135,40225,1,0,0:0:0:0:
297,346,40396,5,0,0:0:0:0:
273,189,40568,1,0,0:0:0:0:
169,280,40740,5,0,0:0:0:0:
135,266,40826,1,0,0:0:0:0:
99,266,40911,1,0,0:0:0:0:
66,281,40997,1,0,0:0:0:0:
47,311,41083,2,0,P|42:337|41:359,3,45
118,172,41426,5,0,0:0:0:0:
145,149,41511,1,0,0:0:0:0:
159,115,41597,1,0,0:0:0:0:
159,78,41683,1,0,0:0:0:0:
148,43,41769,2,0,P|138:20|121:3,3,45
267,57,42111,6,0,P|270:72|270:89,30,22.5
266,165,43483,5,0,0:0:0:0:
266,165,43826,1,0,0:0:0:0:
266,165,44169,1,0,0:0:0:0:
262,247,44340,2,0,L|260:308,1,45
