osu file format v14

[General]
AudioFilename: carry.mp3
AudioLeadIn: 0
PreviewTime: 88240
Countdown: 0
SampleSet: Soft
StackLeniency: 0.2
Mode: 0
LetterboxInBreaks: 0
WidescreenStoryboard: 0

[Editor]
Bookmarks: 1583,12554,23525,56440,78383,79240,89354
DistanceSpacing: 0.4
BeatDivisor: 4
GridSize: 4
TimelineZoom: 1.8

[Metadata]
Title:Carry Me Away
TitleUnicode:Carry Me Away
Artist:lapix
ArtistUnicode:lapix
Creator:Avena
Version:ULTRA
Source:SOUND VOLTEX IV HEAVENLY HAVEN
Tags:Kanata.N SDVX 4 Priti Saturnalize wa_ Electronic English Rhythm Video Game instrumental future core megarex beatmania IIDX 26 Rootage
BeatmapID:1401834
BeatmapSetID:662208

[Difficulty]
HPDrainRate:6
CircleSize:4.4
OverallDifficulty:9.2
ApproachRate:9.6
SliderMultiplier:2.3
SliderTickRate:1

[Events]
//Background and Video events
0,0,"jpeg.jpg",0,0
//Break Periods
//Storyboard Layer 0 (Background)
//Storyboard Layer 1 (Fail)
//Storyboard Layer 2 (Pass)
//Storyboard Layer 3 (Foreground)
//Storyboard Layer 4 (Overlay)
//Storyboard Sound Samples

[TimingPoints]
411,342.857142857143,4,2,1,80,1,0
1268,-133.333333333333,4,2,1,80,0,0
1439,-66.6666666666667,4,2,1,80,0,0
1783,342.857142857143,4,3,1,80,1,0
12754,-74.0740740740741,4,3,1,85,0,0
18240,-74.0740740740741,4,2,1,85,0,0
19611,-74.0740740740741,4,1,1,85,0,0
20983,-74.0740740740741,4,1,1,60,0,0
22354,-74.0740740740741,4,1,1,95,0,0
23383,-50,4,3,1,85,0,0
23725,-55.5555555555556,4,2,1,90,0,0
24754,-100,4,2,1,90,0,0
24925,-55.5555555555556,4,2,1,90,0,0
25783,-100,4,2,1,90,0,0
26125,-55.5555555555556,4,2,1,90,0,0
26811,-100,4,2,1,90,0,0
27154,-55.5555555555556,4,2,1,90,0,0
28525,-100,4,2,1,90,0,0
28868,-100,4,2,1,100,0,0
29211,-55.5555555555556,4,2,1,90,0,0
29554,-100,4,2,1,60,0,0
29897,-55.5555555555556,4,2,1,90,0,0
30411,-100,4,2,1,90,0,0
30583,-55.5555555555556,4,2,1,90,0,0
33325,-200,4,2,1,90,0,0
33583,-125,4,2,1,90,0,0
33840,-90.9090909090909,4,2,1,90,0,0
34097,-71.4285714285714,4,2,1,90,0,0
34354,-50,4,2,1,90,0,0
34697,-55.5555555555556,4,2,1,90,0,0
37611,-100,4,2,1,90,0,0
38125,-55.5555555555556,4,2,1,90,0,0
44468,-55.5555555555556,4,2,1,60,0,0
45325,-200,4,2,1,90,0,0
45583,-200,4,2,1,30,0,0
45668,-66.6666666666667,4,3,1,75,0,0
48068,-133.333333333333,4,3,1,75,0,0
48411,-66.6666666666667,4,3,1,75,0,0
49783,-100,4,3,1,75,0,0
50468,-100,4,3,1,50,0,0
50511,-100,4,3,1,30,0,0
50811,-100,4,3,1,50,0,0
51154,-66.6666666666667,4,1,1,90,0,0
55268,-100,4,2,1,90,0,0
56297,-50,4,2,1,90,0,0
56897,-50,4,2,1,30,0,0
56983,-66.6666666666667,4,2,1,90,0,0
58011,-133.333333333333,4,2,1,90,0,0
58354,-66.6666666666667,4,2,1,90,0,0
58868,-133.333333333333,4,2,1,90,0,0
59040,-80,4,2,1,90,0,0
59211,-50,4,2,1,90,0,0
59383,-66.6666666666667,4,2,1,90,0,0
61783,-200,4,2,1,50,0,0
62125,-50,4,2,1,90,0,0
62383,-50,4,2,1,30,0,0
62468,-50,4,2,1,50,0,0
62811,-66.6666666666667,4,2,1,90,0,0
64183,-100,4,2,1,90,0,0
64354,-66.6666666666667,4,2,1,90,0,0
64525,-100,4,2,1,90,0,0
64697,-50,4,2,1,90,0,0
64868,-66.6666666666667,4,2,1,90,0,0
65554,-133.333333333333,4,2,1,90,0,0
65897,-66.6666666666667,4,2,1,90,0,0
67611,-100,4,2,1,90,0,0
67954,-66.6666666666667,4,2,1,90,0,0
72154,-66.6666666666667,4,2,1,70,0,0
72411,-50,4,2,1,90,0,0
73097,-100,4,2,1,90,0,0
73268,-66.6666666666667,4,2,1,90,0,0
77383,-66.6666666666667,4,2,1,30,0,0
77554,-66.6666666666667,4,2,1,50,0,0
77725,-66.6666666666667,4,2,1,20,0,0
77897,-100,4,2,1,50,0,0
78068,-100,4,2,1,20,0,0
78240,-133.333333333333,4,2,1,50,0,0
78411,-133.333333333333,4,2,1,20,0,0
78583,-200,4,2,1,50,0,0
78754,-200,4,2,1,20,0,0
78925,-200,4,2,1,50,0,0
83725,-200,4,2,1,40,0,0
84068,-80,4,2,1,90,0,0
86811,-80,4,2,1,60,0,0
88183,-80,4,2,1,45,0,0
89211,-50,4,2,1,90,0,0
89554,-50,4,3,1,95,0,1
110811,-66.6666666666667,4,3,1,95,0,1
111497,-50,4,3,1,95,0,0
116725,-50,4,1,1,40,0,0

[Colours]
Combo1 : 254,133,254
Combo2 : 128,149,249
Combo3 : 251,179,249
Combo4 : 124,250,247

[HitObjects]
368,276,1268,6,0,L|421:271,1,43.1250016450883,0|0,1:0|0:0,0:0:0:0:
423,284,1440,2,0,P|340:292|284:224,1,172.500006580353,12|0,1:0|0:0,0:0:0:0:
332,44,1783,6,0,L|192:51,1,115,0|0,1:0|0:0,0:0:0:0:
109,131,2125,1,0,0:0:0:0:
96,123,2210,1,0,0:0:0:0:
83,118,2296,1,0,0:0:0:0:
69,115,2382,1,0,0:0:0:0:
54,114,2467,1,0,0:0:0:0:
60,200,2640,1,0,0:0:0:0:
106,36,2811,1,0,0:0:0:0:
225,157,2983,6,0,B|366:201|307:123|459:168,1,230,2|0,1:2|0:0,0:0:0:0:
502,313,3497,1,0,0:0:0:0:
502,313,3583,1,0,0:0:0:0:
502,313,3668,2,0,B|359:355|418:277|277:321,1,230,2|0,1:2|0:0,0:0:0:0:
54,366,4183,2,0,P|20:314|26:244,1,115
78,75,4525,6,0,L|214:85,1,115,2|0,1:2|0:0,0:0:0:0:
276,192,4868,2,0,L|140:202,1,115,2|0,1:2|0:0,0:0:0:0:
192,83,5211,1,0,0:0:0:0:
206,84,5296,1,0,0:0:0:0:
221,86,5382,1,0,0:0:0:0:
235,87,5468,1,0,0:0:0:0:
249,88,5555,2,0,B|355:80|355:80|363:130,1,115,8|0,1:3|0:0,0:0:0:0:
494,29,5897,6,0,L|477:287,1,230,2|0,1:2|0:0,0:0:0:0:
349,203,6411,2,0,L|357:89,1,115,2|0,1:2|0:0,0:0:0:0:
479,259,6754,1,4,1:3:0:0:
482,316,6839,1,4,3:0:0:0:
486,373,6925,1,4,1:3:0:0:
372,357,7097,1,4,3:0:0:0:
258,341,7268,6,0,P|188:346|136:358,1,115,0|0,1:0|0:0,0:0:0:0:
38,309,7611,1,0,0:0:0:0:
60,195,7783,1,0,0:0:0:0:
83,82,7954,1,0,0:0:0:0:
280,227,8125,2,0,P|210:232|158:244,1,115
83,82,8469,6,0,P|141:115|229:112,1,115,2|0,1:2|0:0,0:0:0:0:
309,96,8811,1,0,0:0:0:0:
319,92,8897,1,0,0:0:0:0:
329,87,8983,1,0,0:0:0:0:
339,83,9068,1,0,0:0:0:0:
349,79,9154,2,0,P|424:73|442:220,1,230,2|0,1:2|0:0,0:0:0:0:
346,366,9668,2,0,L|353:242,1,115
309,96,10011,6,0,L|315:148,8,28.75,2|0|2|0|2|0|2|0|2,3:2|3:2|3:2|3:2|3:2|3:2|3:2|0:0|0:2,0:0:0:0:
213,31,10525,2,0,L|82:23,1,115,0|0,1:0|0:0,0:0:0:0:
41,125,10868,1,0,1:0:0:0:
135,191,11040,1,2,0:2:0:0:
129,204,11125,1,2,0:2:0:0:
124,217,11211,1,2,0:2:0:0:
122,232,11297,1,2,0:2:0:0:
122,246,11383,6,0,L|129:373,1,115,0|0,1:0|0:0,0:0:0:0:
218,183,11725,1,8,1:0:0:0:
218,183,11811,1,0,1:0:0:0:
218,183,11896,2,0,L|225:310,1,115,0|0,1:0|0:0,0:0:0:0:
314,120,12240,2,0,L|317:183,1,57.5,0|0,1:0|0:0,0:0:0:0:
224,298,12411,2,0,L|217:183,1,115,8|0,1:0|0:0,0:0:0:0:
474,45,12754,6,0,L|466:201,1,155.250000592232,4|0,1:0|0:0,0:0:0:0:
227,28,13097,2,0,L|218:183,1,155.250000592232,0|0,1:0|0:0,0:0:0:0:
346,114,13440,2,0,L|337:269,1,155.250000592232,0|0,1:0|0:0,0:0:0:0:
378,334,13697,2,0,P|282:370|205:359,1,155.250000592232,0|0,1:0|0:0,0:0:0:0:
190,257,13954,2,0,P|142:239|103:244,1,77.6250002961159,0|0,1:0|0:0,0:0:0:0:
11,291,14125,6,0,L|2:136,1,155.250000592232,0|0,1:0|0:0,0:0:0:0:
26,13,14468,1,0,1:0:0:0:
293,99,14640,2,0,P|331:213|202:121,1,388.125001480579,2|0,1:2|1:0,0:0:0:0:
263,173,15154,1,6,1:2:0:0:
263,173,15325,1,4,1:2:0:0:
497,16,15497,6,0,L|485:179,1,155.250000592232,0|0,1:0|0:0,0:0:0:0:
275,328,15840,2,0,L|263:173,1,155.250000592232,0|0,1:0|0:0,0:0:0:0:
271,54,16183,2,0,P|324:109|400:113,1,155.250000592232,0|0,1:0|0:0,0:0:0:0:
409,24,16440,2,0,P|334:11|271:54,1,155.250000592232,0|0,1:0|0:0,0:0:0:0:
376,186,16697,2,0,P|394:152|399:113,1,77.6250002961159,0|0,1:0|0:0,0:0:0:0:
271,54,16868,5,2,0:0:0:0:
104,265,17040,2,0,L|90:95,1,155.250000592232,0|0,1:0|0:0,0:0:0:0:
389,31,17383,2,0,L|376:185,1,155.250000592232,0|0,1:0|0:0,0:0:0:0:
301,328,17725,2,0,P|248:313|221:316,1,77.6250002961159,0|0,1:0|0:0,0:0:0:0:
179,252,17897,2,0,P|126:267|99:264,1,77.6250002961159,0|0,1:0|0:0,0:0:0:0:
39,221,18068,1,0,1:0:0:0:
44,143,18240,6,0,L|38:226,1,77.6250002961159,4|0,1:0|0:0,0:0:0:0:
34,299,18411,2,0,L|28:382,1,77.6250002961159,0|0,1:0|0:0,0:0:0:0:
49,65,18583,2,0,L|43:148,1,77.6250002961159,0|0,1:0|0:0,0:0:0:0:
39,221,18754,2,0,L|33:304,1,77.6250002961159,0|0,1:0|0:0,0:0:0:0:
189,96,18925,6,0,L|183:179,1,77.6250002961159,0|0,1:0|0:0,0:0:0:0:
179,252,19097,2,0,L|173:335,1,77.6250002961159,0|0,1:0|0:0,0:0:0:0:
194,18,19268,2,0,L|188:101,1,77.6250002961159,0|0,1:0|0:0,0:0:0:0:
184,174,19439,2,0,L|178:257,1,77.6250002961159,0|0,1:0|0:0,0:0:0:0:
332,64,19611,5,0,0:0:0:0:
330,94,19696,1,0,0:0:0:0:
328,123,19782,1,0,0:0:0:0:
326,152,19868,1,0,0:0:0:0:
324,181,19953,1,0,0:0:0:0:
322,210,20039,1,0,0:0:0:0:
320,239,20125,1,0,0:0:0:0:
318,268,20211,1,0,0:0:0:0:
316,297,20296,5,0,0:0:0:0:
291,280,20383,1,0,0:3:0:0:
267,264,20469,1,0,0:3:0:0:
243,248,20555,1,0,0:3:0:0:
219,231,20640,1,0,0:3:0:0:
195,215,20726,1,0,0:3:0:0:
171,199,20812,1,0,0:3:0:0:
147,183,20898,1,0,0:3:0:0:
122,166,20983,6,0,L|125:105,1,51.7500001974106
139,128,21097,2,0,L|142:67,1,51.7500001974106
156,90,21211,2,0,L|159:29,1,51.7500001974106
229,24,21325,6,0,L|232:85,1,51.7500001974106
246,62,21439,2,0,L|249:123,1,51.7500001974106
263,100,21553,2,0,L|266:161,1,51.7500001974106
333,179,21668,6,0,L|336:118,1,51.7500001974106
350,141,21782,2,0,L|353:80,1,51.7500001974106
367,103,21896,2,0,L|370:42,1,51.7500001974106
440,37,22010,6,0,L|443:98,1,51.7500001974106
457,75,22125,2,0,L|460:136,1,51.7500001974106
474,113,22240,2,0,L|477:174,1,51.7500001974106
491,149,22354,5,2,1:3:0:0:
423,289,22697,1,2,1:3:0:0:
423,289,23040,5,4,1:3:0:0:
298,320,23211,1,2,1:3:0:0:
170,349,23383,2,2,B|216:317|214:249|214:249|239:311|298:320,1,230,6|0,1:2|0:1,0:1:0:0:
423,289,23725,6,2,B|398:331|398:331|404:118|404:118|381:160,1,310.499990524292,4|0,1:0|0:0,0:1:0:0:
215,249,24068,5,8,1:0:0:0:
212,238,24154,1,2,3:2:0:0:
209,227,24240,1,2,3:2:0:0:
184,210,24325,5,2,1:0:0:0:
137,230,24410,1,2,0:0:0:0:
86,224,24496,1,0,1:0:0:0:
45,193,24582,1,8,1:0:0:0:
26,146,24667,1,0,1:0:0:0:
33,95,24755,6,0,P|61:84|97:80,1,57.5,0|0,1:0|1:0,0:0:0:0:
301,75,24925,1,8,1:0:0:0:
285,60,25011,6,0,L|277:163,1,103.499996841431,12|0,3:0|0:0,0:0:0:0:
447,201,25183,1,8,1:0:0:0:
467,194,25269,6,0,L|381:135,1,103.499996841431,6|0,3:0|0:0,0:0:0:0:
263,263,25440,1,8,1:0:0:0:
259,284,25525,6,0,L|352:239,1,103.499996841431,6|2,3:0|0:1,0:0:0:0:
301,75,25697,1,0,1:0:0:0:
285,60,25783,6,0,P|269:74|257:82,1,28.75,4|0,1:3|3:0,3:0:0:0:
243,96,25868,2,0,P|223:104|209:107,1,28.75,0|0,3:0|3:0,3:0:0:0:
190,116,25954,2,0,P|168:117|154:115,1,28.75,0|0,3:0|3:0,3:0:0:0:
136,116,26040,2,0,P|115:109|103:103,1,28.75,0|0,3:0|3:0,3:0:0:0:
83,98,26125,6,0,P|41:146|51:210,1,103.499996841431,2|0,1:0|0:0,0:0:0:0:
259,284,26297,2,0,P|238:223|178:200,1,103.499996841431,2|0,1:3|0:0,0:0:0:0:
9,343,26469,2,2,P|71:355|101:224,1,206.999993682862,12|0,1:3|0:1,0:1:0:0:
391,33,26811,6,0,P|383:53|381:81,1,38.3333333333333,2|2,1:2|3:2,0:0:0:0:
404,85,26925,2,0,P|389:101|378:126,1,38.3333333333333,2|2,3:2|3:2,0:0:0:0:
398,138,27040,2,0,P|379:148|359:168,1,38.3333333333333,2|2,3:2|3:2,0:0:0:0:
374,185,27154,6,2,B|232:196|232:196|173:143,1,206.999993682861,12|0,1:3|0:1,0:1:0:0:
264,28,27411,1,0,1:0:0:0:
278,13,27497,2,0,L|263:116,1,103.499996841431,8|0,1:0|0:1,0:0:0:0:
331,271,27668,2,0,L|434:262,1,103.499996841431,2|0,1:0|0:0,0:0:0:0:
474,72,27840,6,2,P|432:100|433:155,1,103.499996841431,8|0,1:0|0:1,0:1:0:0:
452,162,28011,1,4,1:3:0:0:
264,28,28183,2,2,B|177:87|177:87|57:44,1,206.999993682861,10|10,1:1|3:0,0:1:0:0:
8,197,28525,6,0,P|37:205|53:215,1,38.3333333333333,14|2,1:3|3:2,0:0:0:0:
58,217,28640,2,0,P|82:234|94:249,1,38.3333333333333,2|2,3:2|3:2,0:0:0:0:
98,252,28754,2,0,P|115:276|120:294,1,38.3333333333333,2|2,0:0|0:0,0:0:0:0:
90,310,28868,6,0,P|111:288|128:280,1,38.3333333333333,14|2,1:3|3:2,0:0:0:0:
132,276,28983,2,0,P|158:263|177:260,1,38.3333333333333,2|2,3:2|3:2,0:0:0:0:
182,259,29097,2,0,P|211:256|229:260,1,38.3333333333333,2|2,0:0|0:0,0:0:0:0:
238,263,29212,6,0,B|289:257|289:257|330:221|330:221|377:284|377:284|397:246|397:246|484:237,1,310.499990524292,2|0,1:0|0:0,0:0:0:0:
440,100,29554,6,0,L|498:104,1,57.5,0|0,1:0|1:0,0:0:0:0:
489,114,29725,2,0,L|431:110,1,57.5,0|0,1:0|1:0,0:0:0:0:
361,75,29898,6,0,L|258:88,1,103.499996841431,2|0,1:0|0:0,0:0:0:0:
6,148,30068,2,0,L|108:161,1,103.499996841431,4|0,1:3|0:0,0:0:0:0:
367,220,30240,2,0,L|264:233,1,103.499996841431,8|0,1:0|0:0,0:0:0:0:
12,291,30411,6,0,P|51:297|79:315,1,57.5,2|0,3:3|0:0,0:0:0:0:
264,233,30583,6,0,P|169:243|109:140,1,206.999993682861,4|0,1:0|0:0,0:0:0:0:
212,47,30840,1,0,0:0:0:0:
226,56,30925,2,0,B|236:106|236:106|207:151,1,103.499996841431,8|0,1:0|0:0,0:0:0:0:
13,188,31097,2,0,B|3:138|3:138|32:93,1,103.499996841431,2|0,3:2|0:0,0:0:0:0:
160,239,31268,6,0,L|410:225,1,206.999993682861,8|4,1:0|3:0,0:0:0:0:
483,95,31525,1,0,0:0:0:0:
471,114,31611,2,0,P|420:125|369:119,1,103.499996841431,8|0,1:0|0:0,0:0:0:0:
270,82,31783,2,0,P|224:58|189:20,1,103.499996841431,4|0,3:0|0:0,0:0:0:0:
27,53,31954,6,0,L|41:287,1,206.999993682861,0|0,1:0|1:0,0:0:0:0:
349,126,32297,2,0,L|335:360,1,206.999993682861,8|0,1:0|0:0,0:0:0:0:
181,99,32640,1,0,1:0:0:0:
430,369,32811,6,0,L|437:265,1,103.499996841431,4|0,3:0|3:0,0:0:0:0:
225,315,32983,1,2,3:0:0:0:
225,315,33154,1,2,3:0:0:0:
225,315,33325,6,0,P|213:297|210:273,2,28.75,4|2|2,1:2|3:2|3:2,0:0:0:0:
363,265,33583,2,0,P|375:246|378:220,2,46,4|2|2,3:2|3:2|3:2,0:0:0:0:
173,156,33840,2,0,P|148:131|136:95,2,63.2500019302369,4|2|2,3:2|3:2|3:2,0:3:0:0:
324,123,34097,2,0,P|338:81|329:31,2,80.499997543335,4|2|2,3:2|3:2|3:2,0:3:0:0:
167,27,34354,6,2,B|122:71|129:122|154:158|208:171|208:171|177:200|177:200|246:196|277:242,1,345,4|0,1:2|0:1,0:1:0:0:
409,76,34697,6,2,B|354:81|323:123|323:123|334:45|334:45|303:83|264:95|215:91,1,310.499990524292,4|0,1:1|0:1,0:1:0:0:
34,28,35040,1,2,3:0:0:0:
42,46,35125,1,2,3:0:0:0:
48,65,35211,2,0,B|38:177,1,103.499996841431,0|0,1:0|1:0,0:0:0:0:
23,308,35382,2,0,B|107:371|107:371|164:286,1,206.999993682861,8|0,1:0|0:0,0:0:0:0:
178,300,35639,1,2,1:0:0:0:
192,314,35725,5,0,1:0:0:0:
217,269,35810,1,0,3:0:0:0:
220,218,35896,1,2,3:2:0:0:
202,170,35982,1,2,3:2:0:0:
165,135,36068,6,0,L|61:126,1,103.499996841431,8|0,1:0|0:0,0:0:0:0:
267,143,36239,1,2,3:0:0:0:
252,157,36325,2,0,L|148:148,1,103.499996841431,8|0,1:0|0:0,0:0:0:0:
385,166,36496,1,0,1:0:0:0:
370,151,36583,2,0,L|266:142,1,103.499996841431,8|0,1:0|0:0,0:0:0:0:
421,243,36754,6,0,B|463:200|463:200|452:45,1,206.999993682861,8|2,1:0|3:0,0:0:0:0:
341,24,37011,1,0,3:0:0:0:
345,40,37097,5,2,3:2:0:0:
319,84,37183,1,2,3:2:0:0:
281,119,37269,1,2,3:2:0:0:
234,140,37354,1,2,3:2:0:0:
183,146,37440,1,8,1:0:0:0:
132,137,37526,1,0,1:0:0:0:
87,113,37612,6,2,P|100:134|104:149,1,28.75,2|2,1:2|0:2,0:2:0:0:
104,124,37697,2,2,P|113:147|114:162,1,28.75,2|2,1:2|0:2,0:2:0:0:
118,139,37784,2,2,P|123:163|121:179,1,28.75,2|2,1:2|0:2,0:2:0:0:
130,156,37869,2,2,P|131:181|126:196,1,28.75,2|2,1:2|0:2,0:2:0:0:
139,175,37955,2,2,P|136:200|129:213,1,28.75,0|2,1:3|0:2,0:2:0:0:
144,195,38040,2,2,P|136:219|127:231,1,28.75,0|2,1:3|0:2,0:2:0:0:
86,314,38125,5,10,1:0:0:0:
98,297,38211,2,0,L|219:287,1,103.499996841431,0|0,1:0|0:0,0:0:0:0:
340,168,38383,2,0,L|330:289,1,103.499996841431,0|0,1:0|0:0,0:0:0:0:
337,359,38554,2,0,L|345:255,1,103.499996841431,2|0,1:0|0:0,0:0:0:0:
340,168,38725,1,2,1:2:0:0:
350,150,38811,6,0,P|400:140|452:137,1,103.499996841431,0|0,1:0|0:0,0:0:0:0:
285,109,38983,1,0,1:0:0:0:
291,89,39069,2,0,P|339:70|389:59,2,103.499996841431,0|2|0,1:0|3:0|1:0,0:0:0:0:
211,183,39325,2,0,P|160:173|109:170,1,103.499996841431,2|0,1:2|0:0,0:0:0:0:
56,33,39497,6,2,B|79:63|94:123|69:191|69:191|53:248|92:252|141:236|126:186|114:167|109:170,1,310.499990524292,8|0,1:1|0:1,0:1:0:0:
236,16,39840,1,2,0:0:0:0:
236,16,40011,1,0,0:0:0:0:
235,260,40183,6,2,B|187:252|145:280|128:330|128:330|116:302|121:280|121:280|76:225|109:169,1,310.499990524292,0|0,1:1|0:1,0:1:0:0:
236,16,40525,1,0,1:0:0:0:
245,34,40611,1,0,3:0:0:0:
191,81,40697,6,0,L|305:87,1,103.499996841431,0|0,1:0|0:0,0:0:0:0:
445,225,40868,2,2,B|354:229|354:229|330:214|330:214|242:219,1,206.999993682861,8|0,1:0|1:1,0:1:0:0:
96,296,41125,2,2,B|183:291|183:291|208:306|208:306|298:301,1,206.999993682861,0|0,1:0|0:1,0:1:0:0:
486,142,41383,2,0,L|372:148,1,103.499996841431,2|0,1:2|0:0,0:0:0:0:
253,85,41554,5,0,1:0:0:0:
202,94,41639,1,2,3:2:0:0:
157,120,41725,1,2,1:2:0:0:
125,159,41811,1,2,1:2:0:0:
107,208,41898,5,2,3:2:0:0:
125,159,41983,1,2,1:2:0:0:
124,108,42069,1,2,1:2:0:0:
106,59,42155,1,2,3:2:0:0:
72,20,42240,5,8,1:0:0:0:
106,59,42326,1,2,3:2:0:0:
151,85,42412,1,2,1:2:0:0:
202,94,42498,1,0,3:0:0:0:
253,85,42583,6,0,P|298:93|324:112,1,68.9999978942872,4|0,3:0|3:0,0:0:0:0:
324,86,42697,2,0,P|339:128|336:160,1,68.9999978942872,4|4,3:0|3:0,0:0:0:0:
358,147,42811,2,0,P|328:181|299:194,1,68.9999978942872,4|4,3:0|3:0,0:0:0:0:
321,207,42925,6,0,P|222:174|119:168,1,206.999993682861,6|0,1:0|3:0,0:0:0:0:
153,345,43183,1,0,3:0:0:0:
173,349,43268,2,0,P|212:342|286:303,1,103.499996841431,0|0,1:0|0:0,0:0:0:0:
33,100,43440,2,0,P|19:137|16:220,1,103.499996841431,6|0,3:0|0:0,0:0:0:0:
153,345,43611,6,0,P|256:338|354:306,1,206.999993682861,8|0,1:0|3:0,0:0:0:0:
181,160,43868,1,2,3:0:0:0:
178,178,43954,2,2,P|231:235|236:141,1,206.999993682861,2|0,1:3|0:1,0:1:0:0:
52,258,44297,1,4,1:0:0:0:
53,28,44468,5,2,1:2:0:0:
54,38,44553,1,2,1:2:0:0:
56,48,44639,1,2,1:2:0:0:
57,58,44725,1,2,1:2:0:0:
59,68,44810,1,2,1:2:0:0:
60,79,44896,1,2,1:2:0:0:
62,89,44982,1,2,1:2:0:0:
63,99,45067,1,2,1:2:0:0:
65,109,45153,1,2,1:2:0:0:
66,120,45239,1,2,1:2:0:0:
68,130,45325,2,2,P|119:133|167:149,1,86.25,2|0,0:1|0:1,0:1:0:0:
232,109,45668,5,4,1:0:0:0:
295,257,45839,2,0,P|253:268|210:269,1,86.2500032901765,2|0,1:1|3:0,0:0:0:0:
367,65,46011,1,8,1:0:0:0:
401,268,46182,2,0,P|370:298|334:321,1,86.2500032901765,2|0,1:1|3:0,0:0:0:0:
367,65,46353,1,4,1:3:0:0:
498,225,46525,2,0,P|486:266|466:304,1,86.2500032901765,2|0,1:1|3:0,0:0:0:0:
367,65,46696,1,8,1:0:0:0:
203,317,46868,2,0,L|193:207,1,86.2500032901765,2|0,1:1|0:0,0:0:0:0:
189,144,47039,5,4,1:3:0:0:
233,172,47125,1,0,0:0:0:0:
286,167,47211,1,2,1:0:0:0:
325,131,47297,1,0,0:0:0:0:
333,79,47382,1,8,1:0:0:0:
308,32,47468,1,0,0:0:0:0:
259,11,47554,1,2,1:0:0:0:
208,24,47639,1,0,0:0:0:0:
175,65,47726,2,0,L|77:58,1,86.2500032901765,4|0,1:3|0:0,0:0:0:0:
25,194,47897,2,0,L|111:187,1,86.2500032901765,2|0,1:0|0:0,0:0:0:0:
0,9,48068,6,0,L|6:95,1,86.2500032901765,4|0,1:3|2:0,0:0:0:0:
205,341,48411,6,0,P|212:283|240:242,1,86.2500032901765,4|0,1:3|0:0,0:0:0:0:
428,242,48583,2,0,P|445:280|447:323,1,86.2500032901765,2|0,1:0|0:0,0:0:0:0:
339,377,48754,2,0,L|316:166,1,172.500006580353,8|2,1:0|1:0,0:0:0:0:
236,101,49011,1,0,0:0:0:0:
221,113,49096,1,4,1:3:0:0:
217,170,49182,1,0,0:0:0:0:
213,227,49268,1,2,1:0:0:0:
209,284,49354,1,0,0:0:0:0:
205,341,49440,2,0,P|104:344|51:265,1,172.500006580353,8|2,1:0|1:0,0:0:0:0:
16,88,49783,6,0,L|96:81,1,57.5,0|0,1:0|0:0,0:0:0:0:
131,78,49954,2,0,L|73:83,1,57.5,2|0,3:0|0:0,0:0:0:0:
69,25,50125,2,0,L|84:196,1,172.5,8|0,1:0|0:0,0:0:0:0:
152,249,50468,6,2,P|154:234|160:221,6,28.75,2|2|2|2|2|2|2,1:3|3:3|3:3|3:3|3:3|3:3|3:3,0:1:0:0:
95,296,50811,6,0,L|255:282,1,115,0|0,1:0|0:0,0:0:0:0:
469,335,51154,6,0,L|298:350,1,172.5,4|0,1:0|0:0,0:0:0:0:
163,193,51497,2,8,P|208:208|260:206,1,86.2500032901765,8|0,1:0|0:0,0:0:0:0:
309,47,51668,2,8,P|266:48|225:62,1,86.2500032901765,0|0,1:0|0:0,0:0:0:0:
393,181,51840,2,0,L|408:79,1,86.2500032901765,8|0,1:0|0:0,0:0:0:0:
490,236,52011,2,0,L|505:134,1,86.2500032901765,0|0,1:0|0:0,0:0:0:0:
259,293,52183,2,0,L|244:191,1,86.2500032901765,8|0,1:0|0:0,0:0:0:0:
162,348,52354,2,0,L|147:246,1,86.2500032901765,0|0,1:0|0:0,0:0:0:0:
17,61,52525,6,0,P|62:84|117:83,1,86.2500032901765,8|0,1:0|0:0,0:0:0:0:
205,71,52697,2,0,P|247:43|274:-4,1,86.2500032901765,8|0,1:0|0:0,0:0:0:0:
83,185,52868,6,0,P|133:182|180:154,1,86.2500032901765,8|0,0:0|0:0,0:0:0:0:
250,99,53039,2,0,P|273:53|272:-1,1,86.2500032901765,8|0,0:0|0:0,0:0:0:0:
202,259,53212,6,0,P|244:231|271:183,1,86.2500032901765,8|0,0:0|0:0,0:0:0:0:
303,101,53383,2,0,P|300:50|272:3,1,86.2500032901765,8|0,0:0|0:0,0:0:0:0:
342,263,53555,6,0,P|365:218|364:163,1,86.2500032901765,8|0,0:0|0:0,0:0:0:0:
351,76,53726,2,0,P|323:33|275:6,1,86.2500032901765,8|0,0:0|0:0,0:0:0:0:
60,167,53897,5,4,0:3:0:0:
20,219,53982,1,4,0:3:0:0:
17,282,54068,1,4,0:3:0:0:
49,338,54154,1,4,0:3:0:0:
107,365,54239,1,4,0:3:0:0:
170,356,54325,1,4,0:3:0:0:
216,313,54411,1,4,0:3:0:0:
233,251,54496,1,4,0:3:0:0:
211,192,54582,1,4,0:3:0:0:
189,133,54669,1,4,0:3:0:0:
205,71,54755,1,4,0:3:0:0:
251,26,54840,1,4,0:3:0:0:
314,19,54926,1,4,0:3:0:0:
371,46,55012,1,4,0:3:0:0:
403,101,55098,1,4,0:3:0:0:
399,164,55183,1,4,0:3:0:0:
363,217,55268,6,0,P|351:282|372:338,1,115,2|0,1:2|0:0,0:0:0:0:
224,86,55611,2,0,P|286:64|324:18,1,115,2|0,1:2|0:0,0:0:0:0:
180,272,55954,2,0,P|130:229|71:219,1,115,2|0,1:2|0:0,0:0:0:0:
19,363,56297,2,0,L|265:356,1,230,8|6,1:0|3:0,0:0:0:0:
466,72,56640,6,2,B|435:113|440:142|458:161|470:170|480:191|482:221|464:255|446:270|452:287|461:302|461:302|510:281|508:213,1,345,0|0,1:0|0:0,0:1:0:0:
363,258,56983,6,0,P|230:252|181:219,1,172.500006580353,2|0,1:0|1:0,0:0:0:0:
48,172,57240,1,2,1:1:0:0:
60,160,57325,2,0,P|72:216|74:266,1,86.2500032901765,8|0,1:0|0:0,0:0:0:0:
185,319,57497,2,0,P|189:276|199:234,1,86.2500032901765,2|0,1:0|0:0,0:0:0:0:
335,73,57668,5,4,1:0:0:0:
144,38,57840,1,2,3:1:0:0:
147,54,57925,1,0,3:0:0:0:
166,24,58011,6,0,L|160:66,1,43.1250016450883,2|0,0:0|0:0,0:0:0:0:
149,153,58183,2,0,L|143:195,1,43.1250016450883,2|0,0:1|0:0,0:0:0:0:
132,282,58354,6,0,B|219:302|219:302|264:224,1,172.500006580353,2|0,1:0|1:0,0:0:0:0:
298,151,58611,1,0,1:0:0:0:
335,73,58697,1,8,1:0:0:0:
28,16,58868,6,0,L|31:88,1,43.1250016450883,4|0,1:3|0:0,0:0:0:0:
40,48,59040,2,0,L|43:120,1,71.875,2|0,3:2|0:0,0:0:0:0:
61,105,59211,2,2,L|68:235,1,115,2|0,1:1|0:1,0:1:0:0:
14,319,59383,6,0,B|129:292|62:355|211:318,1,172.500006580353,12|0,1:3|0:0,0:0:0:0:
367,225,59725,1,0,1:0:0:0:
383,185,59810,1,0,1:0:0:0:
382,142,59896,1,0,1:0:0:0:
365,103,59982,1,0,1:0:0:0:
335,73,60069,6,0,P|289:88|225:88,1,86.2500032901765,8|2,1:0|3:2,0:0:0:0:
32,12,60240,2,0,P|74:15|115:29,1,86.2500032901765,2|2,3:2|3:2,0:0:0:0:
115,245,60411,1,4,3:2:0:0:
110,224,60496,1,0,3:0:0:0:
107,203,60582,1,0,3:0:0:0:
105,181,60668,1,0,3:0:0:0:
106,160,60753,5,2,1:0:0:0:
264,34,60925,2,0,L|371:39,1,86.2500032901765,0|0,1:0|0:0,0:0:0:0:
462,108,61097,2,0,B|370:116|370:116|345:15,1,172.500006580353,4|0,1:2|0:0,0:0:0:0:
264,34,61354,5,0,1:0:0:0:
178,30,61440,2,0,L|77:48,1,86.2500032901765,8|0,1:0|0:0,0:0:0:0:
22,187,61611,2,0,L|123:205,1,86.2500032901765
217,123,61783,6,2,B|189:130|189:130|224:134,1,57.5,4|2,0:0|3:0,0:0:0:0:
239,373,62125,6,2,B|189:337|176:272|189:217|261:212|294:179|293:116|282:79|237:59|192:83|177:130|227:173|257:172|264:138,1,345,0|0,1:0|0:0,0:1:0:0:
104,288,62468,1,4,1:2:0:0:
104,288,62811,6,0,P|56:303|11:299,1,86.2500032901765,8|0,1:0|0:0,0:0:0:0:
20,301,62983,2,0,P|60:286|103:287,1,86.2500032901765,0|0,1:0|0:0,0:0:0:0:
75,380,63154,1,0,1:0:0:0:
315,310,63325,2,0,L|307:225,1,86.2500032901765,0|0,1:0|1:0,0:0:0:0:
218,37,63497,5,0,1:0:0:0:
241,87,63582,1,2,1:2:0:0:
234,143,63668,1,2,1:2:0:0:
198,186,63754,1,2,0:2:0:0:
144,202,63839,1,2,1:2:0:0:
90,218,63926,1,2,0:2:0:0:
54,261,64012,1,2,1:2:0:0:
46,317,64098,1,2,1:2:0:0:
70,367,64183,6,0,L|141:360,1,57.5,8|0,1:0|0:0,0:0:0:0:
213,353,64354,2,0,L|124:361,1,86.2500032901765,14|0,3:0|0:0,0:0:0:0:
32,212,64525,6,0,L|103:219,1,57.5,2|0,1:3|0:0,0:0:0:0:
204,230,64697,2,2,L|72:217,1,115,0|0,0:1|0:1,0:1:0:0:
2,21,64868,5,2,0:0:0:0:
25,57,64953,1,2,0:0:0:0:
63,76,65039,1,2,0:0:0:0:
105,73,65125,1,2,0:0:0:0:
141,50,65212,5,0,1:2:0:0:
200,25,65296,1,0,3:0:0:0:
263,32,65382,1,0,3:0:0:0:
314,71,65468,1,0,3:0:0:0:
337,131,65554,6,0,L|444:123,1,86.2500032901765,0|0,3:0|3:0,0:0:0:0:
472,236,65812,1,0,0:0:0:0:
459,248,65898,6,0,L|271:233,1,172.500006580353,0|0,1:0|0:0,0:0:0:0:
119,105,66240,2,0,P|205:115|268:63,1,172.500006580353,0|0,0:0|1:0,0:0:0:0:
12,18,66583,5,0,1:0:0:0:
14,39,66668,1,0,3:0:0:0:
16,60,66754,1,0,3:0:0:0:
19,82,66840,1,0,1:0:0:0:
21,103,66925,5,8,1:0:0:0:
18,146,67010,1,2,0:2:0:0:
15,189,67096,1,2,0:2:0:0:
12,232,67182,1,2,0:2:0:0:
9,275,67267,5,2,1:2:0:0:
69,254,67353,1,2,3:2:0:0:
133,261,67439,1,2,3:2:0:0:
189,293,67525,1,2,3:2:0:0:
226,347,67612,6,0,L|306:340,1,57.5,6|0,3:0|0:0,0:0:0:0:
251,233,67783,2,0,L|331:226,1,57.5,6|0,3:0|0:0,0:0:0:0:
405,265,67954,6,0,B|326:285|326:285|251:233,1,172.500006580353,8|0,1:0|1:0,0:0:0:0:
241,147,68211,1,0,3:0:0:0:
230,61,68298,2,0,L|325:87,1,86.2500032901765,0|0,3:0|0:0,0:0:0:0:
485,141,68468,2,0,L|390:167,1,86.2500032901765,0|0,1:0|0:0,0:0:0:0:
251,233,68640,5,8,1:0:0:0:
247,276,68725,1,0,1:0:0:0:
243,319,68811,2,0,P|131:324|56:352,1,172.500006580353,0|0,1:0|0:0,0:0:0:0:
11,153,69068,1,0,1:0:0:0:
23,164,69154,2,0,P|78:184|125:181,1,86.2500032901765,0|0,1:0|0:0,0:0:0:0:
347,67,69325,2,0,P|322:102|288:127,1,86.2500032901765,8|0,1:0|0:3,0:3:0:0:
87,87,69498,5,0,1:0:0:0:
96,71,69583,2,0,P|168:27|253:37,1,172.500006580353,0|0,1:0|1:0,0:0:0:0:
423,340,69925,1,0,1:0:0:0:
435,352,70011,2,0,L|428:242,1,86.2500032901765,8|0,1:0|3:0,0:0:0:0:
421,178,70183,2,0,L|415:91,1,86.2500032901765,0|0,1:0|3:0,0:0:0:0:
252,36,70354,5,0,1:0:0:0:
249,79,70440,1,0,1:0:0:0:
247,123,70525,1,0,3:0:0:0:
337,346,70697,2,0,L|424:340,2,86.2500032901765,8|0|0,1:0|3:0|1:0,0:0:0:0:
252,326,70954,1,0,1:0:0:0:
167,306,71040,2,0,B|117:236|117:236|148:155,1,172.500006580353,0|0,1:0|1:0,0:0:0:0:
420,102,71297,1,0,0:0:0:0:
407,90,71383,2,0,L|320:84,1,86.2500032901765,8|0,1:0|1:0,0:0:0:0:
252,36,71554,6,0,B|212:134|290:99|239:220,1,172.500006580353,0|0,1:0|0:0,0:0:0:0:
167,306,71811,1,0,1:0:0:0:
154,318,71897,2,0,P|106:306|50:303,1,86.2500032901765,0|0,1:0|0:0,0:0:0:0:
8,204,72068,1,8,1:0:0:0:
50,212,72153,1,4,1:2:0:0:
92,207,72239,1,4,1:2:0:0:
131,187,72325,1,4,1:2:0:0:
161,157,72411,6,0,B|327:148|327:148|275:189,1,230,8|0,1:0|0:0,0:0:0:0:
368,326,72668,2,0,B|277:187|277:187|328:148,1,230,8|0,1:0|0:0,0:0:0:0:
483,320,72925,2,0,L|368:326,1,115,8|0,1:0|0:0,0:0:0:0:
454,190,73097,6,0,P|481:196|525:200,1,57.5,2|0,0:0|0:0,0:0:0:0:
478,51,73268,1,4,1:0:0:0:
436,38,73353,1,0,0:0:0:0:
393,34,73439,1,0,1:0:0:0:
350,38,73525,1,0,1:0:0:0:
309,50,73610,1,0,1:0:0:0:
271,69,73696,1,0,1:0:0:0:
236,96,73783,1,8,1:0:0:0:
223,86,73868,6,0,P|165:80|130:58,1,86.2500032901765,2|2,3:0|0:0,0:0:0:0:
28,216,74040,1,0,1:0:0:0:
40,204,74125,2,2,P|151:188|275:281,1,258.75000987053,4|0,1:2|0:0,0:0:0:0:
413,250,74468,5,2,3:0:0:0:
400,237,74554,2,0,L|408:352,1,86.2500032901765,0|0,1:0|1:0,0:0:0:0:
42,119,74811,2,0,L|47:32,1,86.2500032901765,0|0,1:0|0:0,0:0:0:0:
197,6,74983,1,0,1:0:0:0:
210,46,75068,1,0,1:0:0:0:
223,86,75155,2,0,B|303:119|303:119|371:54,1,172.500006580353,8|4,1:0|1:3,0:0:0:0:
466,351,75497,6,0,P|425:335|383:335,1,86.2500032901765,2|0,1:2|0:0,0:0:0:0:
383,335,75668,2,0,P|423:350|465:350,1,86.2500032901765,2|0,1:1|0:0,0:0:0:0:
500,202,75840,5,4,1:3:0:0:
480,211,75925,1,0,3:0:0:0:
459,217,76011,1,0,3:0:0:0:
438,219,76097,1,0,3:0:0:0:
417,217,76182,1,0,3:0:0:0:
378,237,76268,5,0,1:0:0:0:
320,231,76353,1,0,1:0:0:0:
263,226,76439,1,0,3:0:0:0:
206,221,76525,2,0,L|196:124,1,86.2500032901765,8|0,1:0|0:0,0:0:0:0:
60,59,76697,2,0,L|51:144,1,86.2500032901765,0|0,1:0|0:0,0:0:0:0:
8,340,76868,6,0,B|61:381|133:371|214:356|272:296|199:287|260:222|340:211|411:201|473:241,1,517.500019741059,4|0,1:3|0:0,0:0:0:0:
503,42,77554,6,0,L|330:55,1,172.500006580353
331,55,77897,2,0,L|182:66,1,115,0|0,0:2|0:0,0:0:0:0:
217,63,78240,2,0,L|96:72,1,86.2500032901765
131,70,78583,6,0,L|73:74,1,57.5,4|0,0:0|0:0,0:0:0:0:
11,180,78925,2,0,L|68:184,1,57.5
151,158,79268,1,0,0:0:0:0:
217,213,79440,2,0,L|344:203,1,115
429,93,79954,5,0,0:2:0:0:
415,95,80039,1,0,0:0:0:0:
401,92,80125,1,0,0:0:0:0:
388,86,80211,1,0,0:0:0:0:
378,77,80296,1,0,0:0:0:0:
430,236,80468,5,0,0:0:0:0:
440,227,80553,1,0,0:0:0:0:
453,221,80639,1,0,0:0:0:0:
467,218,80725,1,0,0:0:0:0:
481,220,80810,1,0,0:0:0:0:
308,165,80983,5,0,0:0:0:0:
286,166,81068,1,0,0:0:0:0:
265,168,81154,1,0,0:0:0:0:
243,170,81240,1,0,0:0:0:0:
229,187,81325,5,0,0:0:0:0:
226,184,81410,1,0,0:0:0:0:
223,182,81496,1,0,0:0:0:0:
220,181,81582,1,0,0:0:0:0:
216,180,81667,1,0,0:0:0:0:
213,180,81753,1,0,0:0:0:0:
210,183,81839,1,0,0:0:0:0:
207,185,81925,1,0,0:0:0:0:
206,188,82010,1,0,0:0:0:0:
205,192,82096,1,0,0:0:0:0:
204,195,82182,1,0,0:0:0:0:
206,198,82267,1,0,0:0:0:0:
208,201,82353,1,0,0:0:0:0:
211,203,82439,1,0,0:0:0:0:
214,205,82525,1,0,0:0:0:0:
217,205,82610,1,0,0:0:0:0:
265,193,82697,5,0,3:0:0:0:
270,188,82783,1,0,3:0:0:0:
277,187,82869,1,2,3:2:0:0:
283,189,82955,1,0,3:0:0:0:
288,195,83040,1,2,3:2:0:0:
289,202,83126,1,0,3:0:0:0:
286,208,83212,1,2,3:2:0:0:
280,212,83297,1,0,3:0:0:0:
265,259,83383,5,2,3:2:0:0:
267,280,83468,1,2,3:2:0:0:
269,301,83554,1,2,3:2:0:0:
271,323,83640,1,2,3:2:0:0:
288,360,83725,6,0,L|267:358,1,14.375,2|0,1:2|1:0,1:0:0:0:
262,358,83811,2,0,L|241:356,1,14.375,2|0,1:2|1:0,1:0:0:0:
236,356,83897,2,0,L|215:354,1,14.375,2|0,1:2|1:0,1:0:0:0:
210,354,83983,2,0,L|189:352,1,14.375,2|0,1:2|1:0,1:0:0:0:
157,347,84068,6,0,P|115:282|124:204,1,143.75,0|0,1:0|0:0,0:0:0:0:
174,47,84411,2,0,L|334:55,1,143.75,8|0,1:0|0:0,0:0:0:0:
512,207,84754,2,0,L|352:215,1,143.75,8|0,1:0|0:0,0:0:0:0:
30,40,85097,2,0,L|190:48,1,143.75,8|0,1:0|0:0,0:0:0:0:
474,20,85440,5,8,1:0:0:0:
174,47,85611,1,8,1:0:0:0:
421,115,85783,5,8,1:0:0:0:
121,141,85954,1,8,1:0:0:0:
474,210,86126,5,8,1:0:0:0:
174,236,86298,1,8,1:0:0:0:
421,305,86468,5,8,1:0:0:0:
121,331,86639,1,8,1:0:0:0:
174,46,86811,5,8,1:0:0:0:
186,97,86896,1,8,1:0:0:0:
225,133,86982,1,8,1:0:0:0:
278,141,87068,1,8,1:0:0:0:
326,118,87153,1,8,1:0:0:0:
374,95,87239,1,8,1:0:0:0:
426,102,87325,1,8,1:0:0:0:
466,138,87411,1,8,1:0:0:0:
479,189,87496,1,8,1:0:0:0:
461,239,87582,1,8,1:0:0:0:
419,271,87668,1,8,1:0:0:0:
366,274,87754,1,8,1:0:0:0:
320,248,87839,1,8,1:0:0:0:
270,229,87925,1,8,1:0:0:0:
216,233,88011,1,8,1:0:0:0:
169,257,88097,1,8,1:0:0:0:
187,281,88183,5,2,3:2:0:0:
194,283,88268,1,2,3:2:0:0:
197,290,88354,1,2,3:2:0:0:
198,296,88440,1,2,3:2:0:0:
194,303,88525,1,2,3:2:0:0:
189,306,88611,1,2,3:2:0:0:
182,307,88697,1,2,3:2:0:0:
175,303,88783,1,2,3:2:0:0:
171,298,88868,1,2,3:2:0:0:
171,291,88954,1,2,3:2:0:0:
174,284,89040,1,2,3:2:0:0:
180,280,89125,1,2,3:2:0:0:
184,294,89211,6,0,B|287:288|287:288|305:311|305:311|412:306,1,230,8|0,1:0|1:0,0:0:0:0:
491,35,89554,6,2,P|426:62|372:60,1,115,4|2,1:0|0:2,0:2:0:0:
289,130,89725,2,2,P|224:103|170:105,1,115,2|2,0:2|0:2,0:2:0:0:
11,25,89897,1,10,1:2:0:0:
51,65,89982,1,2,0:2:0:0:
74,117,90068,1,2,0:2:0:0:
76,174,90154,1,2,0:2:0:0:
56,228,90240,6,2,L|69:352,1,115,2|2,1:2|0:2,0:2:0:0:
266,368,90411,2,2,L|277:253,1,115,2|2,0:2|0:2,0:2:0:0:
479,33,90583,1,10,1:2:0:0:
484,90,90668,1,2,0:2:0:0:
490,147,90754,1,2,0:2:0:0:
496,204,90840,1,2,0:2:0:0:
502,261,90925,6,2,B|364:279|427:215|272:254,1,230,2|2,1:2|0:2,0:2:0:0:
166,292,91183,1,2,0:2:0:0:
55,263,91268,2,2,P|39:129|137:74,1,230,10|2,1:2|0:2,0:2:0:0:
219,92,91525,1,2,0:2:0:0:
333,106,91611,6,2,L|468:92,1,115,2|2,1:2|0:2,0:2:0:0:
502,261,91783,2,2,L|387:272,1,115,2|2,0:2|0:2,0:2:0:0:
268,202,91954,1,10,1:2:0:0:
325,196,92039,1,2,0:2:0:0:
382,190,92125,1,2,0:2:0:0:
439,184,92211,1,2,0:2:0:0:
496,178,92296,5,2,1:2:0:0:
63,299,92468,1,2,0:2:0:0:
38,249,92553,1,2,0:2:0:0:
41,192,92640,2,2,P|69:259|56:315,1,115,10|2,1:2|0:2,0:2:0:0:
232,371,92811,2,2,P|228:314|254:263,1,115,2|2,0:2|0:2,0:2:0:0:
420,328,92983,5,2,1:2:0:0:
460,288,93068,1,2,0:2:0:0:
467,232,93154,1,2,0:2:0:0:
439,184,93240,1,2,0:2:0:0:
386,164,93325,1,10,1:2:0:0:
333,144,93410,1,2,0:2:0:0:
305,96,93496,1,2,0:2:0:0:
312,40,93582,1,2,0:2:0:0:
353,0,93669,6,0,L|485:13,1,115,2|2,1:2|0:2,0:0:0:0:
500,153,93840,2,2,L|368:166,1,115,2|2,0:2|0:2,0:2:0:0:
228,10,94011,2,2,B|305:96|305:96|286:209,1,230,10|2,1:2|0:2,0:2:0:0:
172,224,94268,1,2,0:2:0:0:
57,238,94354,5,2,1:2:0:0:
78,290,94439,1,2,0:2:0:0:
121,327,94525,1,2,0:2:0:0:
177,339,94611,1,2,0:2:0:0:
232,323,94696,1,10,1:2:0:0:
278,289,94783,1,2,0:2:0:0:
333,281,94869,1,2,0:2:0:0:
386,301,94955,1,2,0:2:0:0:
424,345,95040,6,2,P|451:279|436:219,1,115,2|2,1:2|0:2,0:2:0:0:
508,141,95211,2,2,P|481:75|496:15,1,115,2|2,0:2|0:2,0:2:0:0:
263,158,95383,2,2,P|349:144|445:240,1,230,10|2,1:2|0:2,0:2:0:0:
216,356,95640,1,2,0:2:0:0:
202,373,95725,5,2,1:2:0:0:
151,348,95810,1,2,0:2:0:0:
116,303,95896,1,2,0:2:0:0:
105,247,95982,1,2,0:2:0:0:
120,193,96067,1,10,1:2:0:0:
136,138,96153,1,2,0:2:0:0:
125,82,96239,1,2,0:2:0:0:
90,37,96325,1,2,0:2:0:0:
38,12,96410,5,2,1:2:0:0:
0,354,96583,2,2,L|262:344,1,230,2|10,0:2|1:2,0:2:0:0:
467,76,96925,2,2,L|336:71,1,115,2|2,0:2|0:2,0:2:0:0:
196,233,97097,5,2,1:2:0:0:
236,193,97182,1,2,0:2:0:0:
290,173,97268,1,2,0:2:0:0:
347,178,97354,1,2,0:2:0:0:
397,206,97440,2,2,P|463:202|506:162,1,115,10|2,1:2|0:2,0:2:0:0:
454,38,97611,2,2,P|388:42|345:82,1,115,2|2,0:2|0:2,0:2:0:0:
428,346,97783,6,2,L|199:358,1,230,2|2,1:2|0:2,0:2:0:0:
196,233,98040,1,2,0:2:0:0:
193,108,98125,2,2,L|423:120,1,230,10|2,1:2|0:2,0:2:0:0:
425,233,98383,1,0,0:0:0:0:
428,346,98468,5,2,1:2:0:0:
376,370,98553,1,2,0:2:0:0:
319,376,98639,1,2,0:2:0:0:
264,363,98725,1,2,0:2:0:0:
215,333,98810,1,10,1:2:0:0:
179,289,98896,1,2,0:2:0:0:
159,235,98982,1,2,0:2:0:0:
158,178,99068,1,2,0:2:0:0:
175,123,99154,6,2,L|167:3,1,115,2|2,1:2|0:2,0:2:0:0:
328,71,99325,2,2,L|320:185,1,115,2|2,0:2|0:2,0:2:0:0:
179,289,99497,1,10,1:2:0:0:
130,260,99582,1,2,0:2:0:0:
74,263,99668,1,2,0:2:0:0:
30,298,99754,1,2,0:2:0:0:
13,352,99840,6,2,L|141:357,1,115,2|2,1:2|0:2,0:2:0:0:
239,325,100011,2,2,L|366:329,1,115,2|2,0:2|0:2,0:2:0:0:
461,142,100183,2,2,L|333:146,1,115,10|2,1:2|0:2,0:2:0:0:
60,126,100354,2,2,L|175:123,1,115,10|2,1:2|0:2,0:2:0:0:
300,15,100525,5,4,1:0:0:0:
271,64,100610,1,2,0:2:0:0:
258,120,100696,1,2,0:2:0:0:
260,177,100782,1,2,0:2:0:0:
277,232,100867,1,10,1:2:0:0:
301,282,100953,1,2,0:2:0:0:
281,334,101039,1,2,0:2:0:0:
229,354,101125,1,2,0:2:0:0:
179,329,101212,6,2,P|251:314|439:320,1,230,2|2,1:2|0:2,0:2:0:0:
511,358,101468,1,2,0:2:0:0:
462,253,101554,2,2,B|435:205|435:205|451:140,1,115,10|2,1:2|0:2,0:2:0:0:
452,56,101725,2,2,B|479:104|479:104|465:163,1,115,2|2,0:2|0:2,0:2:0:0:
340,112,101897,5,2,1:2:0:0:
282,114,101982,1,2,0:2:0:0:
225,117,102068,1,2,0:2:0:0:
167,120,102154,1,2,0:2:0:0:
110,122,102240,2,2,B|56:272|56:272|120:207,1,230,10|2,1:2|0:2,0:2:0:0:
176,40,102497,1,2,0:2:0:0:
159,23,102583,6,2,L|29:29,1,115,2|2,1:2|0:2,0:2:0:0:
105,221,102754,2,2,L|235:227,1,115,2|2,0:2|0:2,0:2:0:0:
436,16,102926,1,10,1:2:0:0:
379,24,103011,1,2,0:2:0:0:
333,58,103097,1,2,0:2:0:0:
308,109,103183,1,2,0:2:0:0:
310,166,103268,5,2,1:2:0:0:
337,216,103354,1,2,0:2:0:0:
384,248,103440,2,2,P|419:193|405:127,1,115,2|2,0:2|0:2,0:2:0:0:
333,58,103611,2,2,L|81:68,1,230,10|2,1:2|0:2,0:2:0:0:
397,13,103868,1,2,0:2:0:0:
397,13,103954,6,2,L|512:19,1,115,2|2,1:2|0:2,0:2:0:0:
300,141,104125,2,2,L|414:145,1,115,2|2,0:2|0:2,0:2:0:0:
496,282,104297,1,8,1:0:0:0:
441,264,104382,1,0,0:0:0:0:
385,270,104468,1,0,0:0:0:0:
336,299,104554,1,0,0:0:0:0:
303,346,104641,6,2,L|73:336,1,230,2|2,1:2|0:2,0:2:0:0:
21,9,104983,2,2,P|97:31|137:74,1,115,10|2,1:2|0:2,0:2:0:0:
191,146,105154,2,2,P|209:222|192:278,1,115,2|2,0:2|0:2,0:2:0:0:
43,252,105325,5,2,1:2:0:0:
37,195,105410,1,2,0:2:0:0:
49,140,105496,1,2,0:2:0:0:
79,91,105582,1,2,0:2:0:0:
123,54,105667,1,10,1:2:0:0:
177,35,105753,1,2,0:2:0:0:
234,33,105839,1,2,0:2:0:0:
289,51,105925,1,2,0:2:0:0:
334,85,106012,6,2,L|321:345,1,230,4|2,1:0|0:2,0:2:0:0:
7,10,106354,2,2,L|20:270,1,230,10|2,1:2|0:2,0:2:0:0:
26,356,106612,1,2,0:2:0:0:
120,292,106697,2,2,L|409:306,1,230,2|2,1:2|0:2,0:2:0:0:
448,79,107040,2,2,L|303:86,1,115,10|2,1:2|0:2,0:2:0:0:
217,89,107211,2,2,L|73:96,1,115,2|2,1:2|0:2,0:2:0:0:
16,224,107383,5,4,1:0:0:0:
68,201,107468,1,2,0:2:0:0:
125,202,107554,1,2,0:2:0:0:
176,227,107640,1,2,0:2:0:0:
213,271,107725,1,10,1:2:0:0:
258,305,107810,1,2,0:2:0:0:
314,304,107896,1,2,0:2:0:0:
359,270,107982,1,2,0:2:0:0:
373,215,108069,6,0,L|364:72,1,115,0|0,1:0|0:0,0:0:0:0:
167,33,108240,2,0,L|174:147,1,115,0|0,1:0|0:0,0:0:0:0:
381,330,108411,2,0,L|371:186,1,115,8|0,1:0|0:0,0:0:0:0:
174,148,108583,2,0,L|177:205,2,57.5,0|0|0,1:0|1:0|1:0,0:0:0:0:
167,33,108754,1,4,1:0:0:0:
381,330,109097,5,0,1:0:0:0:
365,100,109268,2,0,L|369:43,2,57.5,0|0|0,1:0|1:0|1:0,0:0:0:0:
373,215,109440,1,2,1:3:0:0:
456,105,109611,6,0,L|458:77,4,28.75,0|0|0|0|0,1:0|1:0|1:0|0:0|0:0,0:0:0:0:
373,215,109783,1,2,1:3:0:0:
498,370,109954,1,0,1:0:0:0:
308,304,110125,5,2,1:2:0:0:
279,306,110210,1,2,0:2:0:0:
250,308,110296,1,2,0:2:0:0:
222,310,110382,1,2,0:2:0:0:
201,290,110468,5,2,1:2:0:0:
151,316,110553,1,2,0:2:0:0:
97,301,110639,1,2,0:2:0:0:
67,254,110725,1,2,0:2:0:0:
79,199,110811,5,2,1:2:0:0:
161,175,110898,1,2,0:2:0:0:
166,89,110983,1,2,0:2:0:0:
84,58,111069,1,2,0:2:0:0:
33,126,111155,6,2,L|79:199,1,86.2500032901765,2|2,1:2|0:2,0:2:0:0:
161,175,111325,2,2,L|166:88,1,86.2500032901765,2|2,1:2|0:2,0:2:0:0:
369,118,111498,6,2,B|295:206|295:206|331:319,1,230,4|0,1:0|0:0,0:1:0:0:
443,29,111840,2,2,L|328:21,2,115,0|2|2,1:0|0:2|0:2,0:2:0:0:
506,187,112097,5,0,1:3:0:0:
492,205,112183,2,0,P|442:231|386:225,1,115,10|0,1:0|0:0,0:0:0:0:
293,141,112354,1,0,1:0:0:0:
315,142,112440,2,0,P|363:172|386:225,1,115,2|0,1:0|0:0,0:0:0:0:
361,347,112611,1,0,1:0:0:0:
350,326,112697,2,0,P|352:270|386:225,1,115,0|0,1:0|1:0,0:0:0:0:
506,187,112868,6,2,L|500:45,2,115,0|2|2,1:0|0:2|0:2,0:0:0:0:
386,225,113126,2,2,L|381:110,1,115,0|2,1:0|0:2,0:0:0:0:
261,148,113297,1,0,1:0:0:0:
266,263,113383,2,2,L|260:121,1,115,0|2,1:0|0:2,0:0:0:0:
106,6,113554,6,0,B|148:154|71:87|113:240,1,230,10|2,1:0|0:2,0:0:0:0:
154,312,113811,1,2,0:1:0:0:
236,353,113897,2,0,P|301:333|355:339,1,115,2|0,0:2|0:0,0:0:0:0:
497,241,114068,2,0,P|439:243|385:224,1,115,2|0,0:2|0:0,0:0:0:0:
292,83,114240,5,0,1:3:0:0:
306,81,114325,1,0,1:3:0:0:
320,79,114411,1,0,0:3:0:0:
334,77,114497,1,0,0:3:0:0:
348,75,114582,1,0,0:3:0:0:
363,73,114668,1,0,0:3:0:0:
377,71,114754,1,0,1:3:0:0:
391,69,114840,1,0,1:3:0:0:
405,67,114925,6,0,B|363:174|363:174|289:79,1,230,10|0,1:0|1:0,0:0:0:0:
157,226,115183,2,0,L|272:235,1,115,2|0,1:0|0:0,0:0:0:0:
492,327,115354,2,0,L|377:335,1,115,0|0,1:0|0:0,0:0:0:0:
377,335,115611,5,0,1:0:0:0:
391,334,115696,1,0,0:0:0:0:
405,333,115782,1,0,1:0:0:0:
420,332,115868,1,0,1:0:0:0:
434,331,115954,1,0,0:0:0:0:
448,330,116039,1,0,1:0:0:0:
463,329,116125,1,0,1:0:0:0:
477,328,116211,1,0,0:0:0:0:
492,327,116296,5,8,1:0:0:0:
309,128,116468,1,0,1:0:0:0:
366,136,116554,1,0,1:0:0:0:
423,144,116640,5,8,1:0:0:0:
423,149,116726,1,2,0:2:0:0:
421,155,116812,1,2,0:2:0:0:
417,159,116898,1,2,0:2:0:0:
412,162,116983,1,2,0:2:0:0:
406,163,117069,1,2,0:2:0:0:
401,162,117155,1,2,0:2:0:0:
396,159,117240,1,2,0:2:0:0:
392,155,117326,1,2,0:2:0:0:
390,149,117412,1,2,0:2:0:0:
390,143,117498,1,2,0:2:0:0:
392,138,117583,1,2,0:2:0:0:
396,134,117669,1,2,0:2:0:0:
401,131,117755,1,2,0:2:0:0:
406,130,117840,1,2,0:2:0:0:
412,131,117926,1,2,0:2:0:0:
417,134,118012,1,2,0:2:0:0:
421,138,118098,1,2,0:2:0:0:
423,144,118183,5,2,0:2:0:0:
423,149,118269,1,2,0:2:0:0:
421,155,118355,1,2,0:2:0:0:
417,159,118440,1,2,0:2:0:0:
412,162,118526,1,2,0:2:0:0:
406,163,118612,1,2,0:2:0:0:
401,162,118698,1,2,0:2:0:0:
396,159,118783,1,2,0:2:0:0:
392,155,118869,1,2,0:2:0:0:
390,149,118955,1,2,0:2:0:0:
390,143,119040,1,2,0:2:0:0:
392,138,119126,1,2,0:2:0:0:
396,134,119212,1,2,0:2:0:0:
401,131,119298,1,2,0:2:0:0:
406,130,119383,1,2,0:2:0:0:
412,131,119469,1,2,0:2:0:0:
417,134,119555,1,2,0:2:0:0:
421,138,119640,1,2,0:2:0:0:
