osu file format v14

[General]
AudioFilename: carry.mp3
AudioLeadIn: 0
PreviewTime: 88240
Countdown: 0
SampleSet: Drum
StackLeniency: 0.3
Mode: 0
LetterboxInBreaks: 0
WidescreenStoryboard: 0

[Editor]
Bookmarks: 1583,12554,23525,56440,78383,79240,89354
DistanceSpacing: 1
BeatDivisor: 4
GridSize: 4
TimelineZoom: 1.1

[Metadata]
Title:Carry Me Away
TitleUnicode:Carry Me Away
Artist:lapix
ArtistUnicode:lapix
Creator:Avena
Version:NOVICE
Source:SOUND VOLTEX IV HEAVENLY HAVEN
Tags:Kanata.N SDVX 4 Priti Saturnalize wa_ Electronic English Rhythm Video Game instrumental future core megarex beatmania IIDX 26 Rootage
BeatmapID:1419908
BeatmapSetID:662208

[Difficulty]
HPDrainRate:4
CircleSize:3
OverallDifficulty:5
ApproachRate:5.5
SliderMultiplier:1.3
SliderTickRate:1

[Events]
//Background and Video events
0,0,"jpeg.jpg",0,0
//Break Periods
2,78783,82943
//Storyboard Layer 0 (Background)
//Storyboard Layer 1 (Fail)
//Storyboard Layer 2 (Pass)
//Storyboard Layer 3 (Foreground)
//Storyboard Layer 4 (Overlay)
//Storyboard Sound Samples

[TimingPoints]
411,342.857142857143,4,2,1,80,1,0
1783,342.857142857143,4,3,1,80,1,0
12754,-100,4,3,1,85,0,0
18240,-100,4,2,1,85,0,0
19611,-100,4,1,1,85,0,0
20983,-100,4,1,1,60,0,0
22354,-100,4,1,1,95,0,0
23383,-100,4,3,1,85,0,0
23725,-100,4,2,1,90,0,0
28868,-100,4,2,1,100,0,0
29211,-100,4,2,1,90,0,0
29554,-100,4,2,1,60,0,0
29897,-100,4,2,1,90,0,0
44468,-100,4,2,1,60,0,0
45325,-100,4,2,1,90,0,0
45583,-100,4,2,1,30,0,0
45668,-100,4,3,1,75,0,0
50468,-100,4,3,1,50,0,0
50511,-100,4,3,1,30,0,0
50811,-100,4,3,1,50,0,0
51154,-100,4,1,1,90,0,0
55268,-100,4,2,1,90,0,0
56897,-100,4,2,1,30,0,0
56983,-100,4,2,1,90,0,0
61783,-100,4,2,1,50,0,0
62125,-100,4,2,1,90,0,0
62383,-100,4,2,1,30,0,0
62468,-100,4,2,1,50,0,0
62811,-100,4,2,1,90,0,0
72154,-100,4,2,1,70,0,0
72411,-100,4,2,1,90,0,0
77383,-100,4,2,1,30,0,0
77554,-100,4,2,1,50,0,0
77725,-100,4,2,1,20,0,0
77897,-100,4,2,1,50,0,0
78068,-100,4,2,1,20,0,0
78240,-100,4,2,1,50,0,0
78411,-100,4,2,1,20,0,0
78583,-100,4,2,1,50,0,0
78754,-100,4,2,1,20,0,0
78925,-100,4,2,1,50,0,0
84068,-100,4,2,1,90,0,0
86811,-100,4,2,1,60,0,0
88183,-100,4,2,1,45,0,0
89211,-100,4,2,1,90,0,0
89554,-100,4,3,1,95,0,1
111497,-100,4,3,1,95,0,0
116725,-100,4,1,1,40,0,0

[Colours]
Combo1 : 254,133,254
Combo2 : 128,149,249
Combo3 : 251,179,249
Combo4 : 124,250,247

[HitObjects]
184,208,1783,6,0,P|264:184|340:184,1,130,0|0,1:0|0:0,0:0:0:0:
346,313,2468,2,0,P|282:334|214:339,1,130,0|0,0:0|0:0,0:0:0:0:
196,316,2983,2,0,P|132:294|64:289,1,130,2|0,1:2|0:0,0:0:0:0:
12,172,3668,2,0,P|72:182|198:103,1,195,2|0,1:2|0:0,0:0:0:0:
282,34,4525,6,0,L|287:168,1,130,2|2,1:2|1:2,0:0:0:0:
413,131,5211,2,0,L|415:66,2,65,0|0|8,0:0|0:0|1:3,0:0:0:0:
448,256,5897,2,0,P|367:263|319:276,1,130,2|0,1:2|0:0,0:0:0:0:
343,298,6411,2,0,P|262:291|214:278,1,130,2|4,1:2|1:3,0:0:0:0:
96,224,7097,1,0,0:0:0:0:
96,224,7269,6,0,L|101:358,2,130,0|0|0,1:0|0:0|0:0,0:0:0:0:
118,201,8125,1,0,0:0:0:0:
76,76,8468,2,0,P|146:77|212:44,1,130,2|0,1:2|0:0,0:0:0:0:
227,35,8983,1,0,0:0:0:0:
254,17,9154,2,0,L|408:25,1,130,2|0,1:2|0:0,0:0:0:0:
416,27,9668,1,0,0:0:0:0:
476,142,10011,6,0,P|478:206|467:270,1,130,2|2,3:2|0:2,0:0:0:0:
455,300,10525,1,0,1:0:0:0:
333,253,10868,2,0,L|202:262,1,130,0|2,1:0|0:2,0:0:0:0:
180,285,11383,2,0,P|148:251|155:98,2,195,0|0|8,1:0|0:0|1:0,0:0:0:0:
289,354,12754,6,0,L|418:345,1,130,4|0,1:0|1:0,0:0:0:0:
487,234,13440,2,0,P|485:188|472:132,2,97.5,0|0|0,1:0|1:0|1:0,0:0:0:0:
456,223,14125,2,0,P|364:238|317:265,1,130,0|0,1:0|1:0,0:0:0:0:
305,273,14640,2,0,P|213:258|166:231,1,130,2|0,1:2|0:0,0:0:0:0:
167,211,15154,1,6,1:2:0:0:
76,117,15497,6,0,L|82:247,1,130,0|0,1:0|1:0,0:0:0:0:
122,370,16183,2,0,P|66:351|22:348,2,97.5,0|0|0,1:0|1:0|1:0,0:0:0:0:
153,361,16868,2,0,P|193:324|340:335,1,195,2|0,0:0|1:0,0:0:0:0:
445,377,17725,1,0,1:0:0:0:
445,377,17897,2,0,P|456:334|457:309,2,65,0|0|4,1:0|1:0|1:0,0:0:0:0:
256,192,18411,12,0,20640,0:3:0:0:
256,192,20983,12,0,22354,1:0:0:0:
179,25,23383,6,0,P|169:64|168:101,1,65,6|0,1:2|0:1,0:0:0:0:
181,117,23725,2,0,P|243:99|308:97,1,130,4|8,1:0|1:0,0:0:0:0:
327,226,24411,2,0,P|264:243|199:245,1,130,2|0,0:0|1:0,0:0:0:0:
180,219,24925,2,0,P|133:205|84:204,2,97.5,8|8|8,1:0|1:0|1:0,0:0:0:0:
235,336,25783,1,4,1:3:0:0:
361,306,26125,2,0,L|500:311,1,130,2|12,1:0|1:3,0:0:0:0:
509,181,26811,2,0,L|439:183,1,65,2|2,1:2|3:2,0:0:0:0:
420,206,27154,6,0,P|345:221|247:135,1,195,12|2,1:3|1:0,0:0:0:0:
231,130,27840,2,0,P|181:134|161:144,1,65,8|4,1:0|1:3,0:0:0:0:
141,158,28183,2,0,P|91:154|71:144,1,65,10|10,1:1|3:0,0:0:0:0:
55,125,28525,1,14,1:3:0:0:
130,18,28868,1,14,1:3:0:0:
260,29,29211,1,2,1:0:0:0:
110,242,29897,2,0,L|52:120,1,130,2|8,1:0|1:0,0:0:0:0:
130,18,30583,6,0,L|185:135,1,130,4|8,1:0|1:0,0:0:0:0:
300,76,31268,2,0,P|356:65|435:71,1,130,8|8,1:0|1:0,0:0:0:0:
457,84,31783,1,0,1:0:0:0:
477,109,31954,2,0,B|497:239|497:239|452:296,2,195,0|2|2,1:0|1:2|3:0,0:0:0:0:
369,38,33325,2,0,B|304:86|102:103|270:-22|63:-2|2:46,1,390,4|4,1:2|1:2,0:0:0:0:
66,159,34697,6,0,P|77:208|86:299,1,130,4|2,1:1|3:0,0:0:0:0:
207,334,35383,2,0,P|211:284|226:236,2,97.5,8|0|0,1:0|1:0|0:0,0:0:0:0:
214,365,36068,2,0,P|309:346|406:340,1,195,8|8,1:0|1:0,0:0:0:0:
438,348,36754,2,0,P|457:312|461:280,1,65,8|2,1:0|3:0,0:0:0:0:
449,257,37097,1,2,3:2:0:0:
347,175,37440,6,0,L|129:167,1,195,8|0,1:0|1:3,0:0:0:0:
129,144,38125,2,0,P|98:178|210:310,1,260,10|0,1:0|1:0,0:0:0:0:
231,299,38983,1,0,1:0:0:0:
260,286,39154,2,0,P|318:293|345:306,1,65,2|2,3:0|1:2,0:0:0:0:
351,312,39497,2,0,P|419:309|489:263,1,130,8|2,1:1|0:0,0:0:0:0:
499,152,40183,6,0,L|490:16,1,130,0|0,1:1|1:0,0:0:0:0:
369,71,40868,2,0,P|315:70|264:48,2,97.5,8|0|2,1:0|1:0|1:2,0:0:0:0:
396,54,41554,2,0,P|395:133|415:248,1,195,0|2,1:0|1:2,0:0:0:0:
431,274,42240,1,8,1:0:0:0:
319,341,42583,2,0,P|281:330|251:330,1,65,4|4,3:0|3:0,0:0:0:0:
226,342,42925,6,0,P|160:343|109:293,1,130,6|0,1:0|1:0,0:0:0:0:
101,272,43440,1,6,3:0:0:0:
99,239,43611,2,0,L|109:105,1,130,8|2,1:0|1:3,0:0:0:0:
208,24,44297,2,0,B|264:66|324:54|368:24|368:24|408:52|408:52|455:46,1,260,4|2,1:0|1:2,0:0:0:0:
479,43,45154,1,2,1:2:0:0:
483,47,45325,2,0,P|490:100|489:140,1,65,2|0,0:1|0:0,0:0:0:0:
474,139,45668,6,0,P|462:203|462:280,1,130,4|8,1:0|1:0,0:0:0:0:
470,299,46183,1,2,1:1:0:0:
488,325,46354,2,0,P|424:337|347:337,1,130,4|8,1:3|1:0,0:0:0:0:
257,256,47040,1,4,1:3:0:0:
143,319,47383,1,8,1:0:0:0:
67,213,47725,2,0,L|62:135,2,65,4|2|4,1:3|1:0|1:3,0:0:0:0:
181,150,48410,5,4,1:3:0:0:
181,150,48583,1,2,1:0:0:0:
181,150,48754,2,0,P|236:143|327:143,1,130,8|4,1:0|1:3,0:0:0:0:
339,156,49268,1,2,1:0:0:0:
364,176,49440,1,8,1:0:0:0:
469,99,49783,2,0,P|445:181|516:351,1,260,0|2,1:0|1:3,0:0:0:0:
259,250,51154,6,0,P|193:250|126:277,1,130,4|8,1:0|1:0,0:0:0:0:
15,326,51840,2,0,L|8:188,1,130,8|8,1:0|1:0,0:0:0:0:
59,76,52525,2,0,P|98:68|135:67,1,65,8|8,1:0|1:0,0:0:0:0:
155,71,52868,2,0,P|192:83|225:101,1,65,8|8,0:0|0:0,0:0:0:0:
240,114,53211,2,0,P|266:143|285:175,1,65,8|8,0:0|0:0,0:0:0:0:
292,194,53555,2,0,P|299:233|301:270,1,65,8|8,0:0|0:0,0:0:0:0:
297,289,53897,1,4,0:3:0:0:
256,192,53983,12,2,55268,1:2:0:0:
312,101,56297,6,0,P|300:137|295:181,1,65,8|6,1:0|3:0,0:0:0:0:
313,191,56640,1,2,1:1:0:0:
439,166,56983,2,0,L|450:293,2,97.5,2|2|2,1:0|1:1|1:0,0:0:0:0:
435,134,57668,1,4,1:0:0:0:
330,56,58011,2,0,P|282:72|187:74,1,130,2|2,0:0|1:0,0:0:0:0:
172,64,58525,1,0,1:0:0:0:
142,49,58698,2,0,P|77:50|15:69,1,130,8|2,1:0|3:2,0:0:0:0:
25,198,59383,6,0,P|87:216|151:218,1,130,12|0,1:3|1:0,0:0:0:0:
275,177,60068,1,8,1:0:0:0:
275,177,60240,1,2,3:2:0:0:
275,177,60411,1,4,1:2:0:0:
359,275,60754,2,0,P|421:256|485:254,2,130,2|4|8,1:0|1:2|1:0,0:0:0:0:
250,346,61783,2,0,L|181:342,1,65,4|2,0:0|3:0,0:0:0:0:
158,360,62125,5,0,1:0:0:0:
31,329,62468,1,4,1:2:0:0:
14,199,62811,2,0,P|16:126|33:63,1,130,8|0,1:0|1:0,0:0:0:0:
155,35,63497,2,0,P|218:50|282:50,1,130,0|2,1:0|1:2,0:0:0:0:
394,14,64183,1,8,1:0:0:0:
370,128,64525,2,0,P|364:170|362:204,1,65,2|0,1:3|0:1,0:0:0:0:
385,215,64868,6,0,B|341:246|207:258|319:175|181:188|140:220,1,260,2|0,0:0|3:0,0:0:0:0:
94,342,65897,1,0,1:0:0:0:
14,239,66240,2,0,L|22:104,1,130,0|2,1:0|1:2,0:0:0:0:
113,17,66925,2,0,L|242:24,1,130,8|2,1:0|1:2,0:0:0:0:
364,76,67611,5,6,3:0:0:0:
364,76,67783,1,6,3:0:0:0:
364,76,67954,2,0,P|376:120|372:188,2,97.5,8|0|0,1:0|3:0|1:0,0:0:0:0:
251,140,68811,2,0,P|175:150|61:84,1,195,0|8,1:0|1:0,0:0:0:0:
174,17,69668,2,0,P|209:12|262:11,1,65,0|0,1:0|0:0,0:0:0:0:
263,31,70011,2,0,P|298:36|351:37,1,65,8|0,1:0|1:0,0:0:0:0:
358,28,70354,6,0,P|403:23|491:30,1,130,0|8,1:0|1:0,0:0:0:0:
505,158,71040,2,0,L|500:236,1,65,0|0,1:0|1:0,0:0:0:0:
479,247,71383,1,8,1:0:0:0:
479,247,71554,2,0,P|399:234|285:277,1,195,0|8,1:0|1:0,0:0:0:0:
174,217,72411,2,0,L|182:114,2,97.5,8|8|8,1:0|1:0|1:0,0:0:0:0:
197,240,73097,6,0,L|67:250,1,130,2|0,0:0|1:0,0:0:0:0:
20,128,73783,1,8,1:0:0:0:
102,25,74126,1,4,1:2:0:0:
232,44,74469,2,0,P|304:50|371:85,1,130,2|0,3:0|1:0,0:0:0:0:
408,192,75154,2,0,P|348:217|284:221,1,130,8|2,1:0|1:2,0:0:0:0:
179,144,75840,6,0,P|82:138|-9:213,1,195,4|0,1:3|0:0,0:0:0:0:
26,215,76525,2,0,P|37:253|38:286,1,65,8|0,1:0|1:0,0:0:0:0:
22,306,76868,1,4,1:3:0:0:
256,192,76954,12,4,78583,0:0:0:0:
256,192,84068,12,0,88097,1:0:0:0:
170,85,89211,6,0,L|174:173,1,65,8|0,1:0|1:0,0:0:0:0:
196,172,89554,2,0,L|328:178,1,130,4|10,1:0|1:2,0:0:0:0:
439,241,90240,2,0,P|442:208|453:178,2,65,2|2|8,1:2|0:2|1:0,0:0:0:0:
445,272,90754,1,2,0:2:0:0:
452,303,90926,2,0,P|362:306|296:329,1,130,2|10,1:2|1:2,0:0:0:0:
201,360,91611,2,0,P|111:357|45:334,1,130,2|10,1:2|1:2,0:0:0:0:
20,226,92297,6,0,L|25:148,1,65,2|2,1:2|0:2,0:0:0:0:
27,128,92640,1,10,1:2:0:0:
148,175,92983,2,0,L|286:169,1,130,2|10,1:2|1:2,0:0:0:0:
378,84,93668,2,0,P|282:83|226:49,1,130,2|10,1:2|1:2,0:0:0:0:
230,45,94183,2,0,P|134:46|78:80,1,130,2|2,0:2|0:2,0:0:0:0:
82,83,94697,2,0,P|24:77|6:68,1,65,10|2,1:2|0:2,0:0:0:0:
4,103,95040,6,0,L|15:253,1,130,2|10,1:2|1:2,0:0:0:0:
138,268,95725,2,0,L|142:203,1,65,2|2,1:2|0:2,0:0:0:0:
160,175,96068,2,0,P|207:174|234:165,1,65,10|2,1:2|0:2,0:0:0:0:
250,150,96411,2,0,P|316:153|384:184,1,130,2|10,1:2|1:2,0:0:0:0:
464,272,97097,1,2,1:2:0:0:
453,142,97440,2,0,P|444:101|442:67,1,65,10|2,1:2|0:2,0:0:0:0:
452,47,97783,6,0,L|312:39,1,130,2|10,1:2|1:2,0:0:0:0:
193,21,98468,2,0,L|53:28,1,130,2|10,1:2|1:2,0:0:0:0:
10,147,99154,2,0,P|15:230|42:280,1,130,2|10,1:2|1:2,0:0:0:0:
59,292,99668,1,2,0:2:0:0:
87,307,99840,2,0,L|231:300,1,130,2|10,1:2|1:2,0:0:0:0:
239,277,100354,1,10,1:2:0:0:
261,254,100525,6,0,L|405:261,1,130,4|10,1:0|1:2,0:0:0:0:
456,148,101211,2,0,P|384:144|328:100,1,130,2|10,1:2|1:2,0:0:0:0:
314,89,101725,1,2,0:2:0:0:
298,60,101897,2,0,P|226:64|167:108,1,130,2|10,1:2|1:2,0:0:0:0:
144,220,102583,1,2,1:2:0:0:
144,220,102754,1,2,0:2:0:0:
144,220,102925,1,10,1:2:0:0:
271,186,103268,6,0,L|261:315,1,130,2|10,1:2|1:2,0:0:0:0:
285,338,103783,1,2,0:2:0:0:
307,360,103954,2,0,P|352:348|388:348,1,65,2|2,1:2|0:2,0:0:0:0:
398,362,104297,2,0,P|443:374|479:374,1,65,8|0,1:0|0:0,0:0:0:0:
489,357,104640,2,0,L|479:227,1,130,2|10,1:2|1:2,0:0:0:0:
469,97,105325,1,2,1:2:0:0:
362,170,105668,1,10,1:2:0:0:
352,40,106011,6,0,P|276:36|213:58,1,130,4|10,1:0|1:2,0:0:0:0:
236,182,106697,2,0,P|300:187|362:170,1,130,2|10,1:2|1:2,0:0:0:0:
388,150,107211,1,2,1:2:0:0:
409,125,107383,2,0,L|418:254,1,130,4|10,1:0|1:2,0:0:0:0:
326,346,108068,2,0,L|261:350,1,65,0|0,1:0|1:0,0:0:0:0:
238,327,108411,2,0,L|173:322,1,65,8|0,1:0|1:0,0:0:0:0:
150,345,108754,6,0,P|120:268|120:200,1,130,4|0,1:0|1:0,0:0:0:0:
129,191,109268,1,2,1:3:0:0:
150,166,109440,2,0,P|209:173|240:169,1,65,0|2,1:3|1:3,0:0:0:0:
240,153,109783,2,0,P|299:146|330:150,1,65,0|2,1:0|1:3,0:0:0:0:
333,161,110125,1,2,1:2:0:0:
410,265,110468,1,2,1:2:0:0:
461,146,110812,1,2,1:2:0:0:
384,42,111154,1,2,1:2:0:0:
256,57,111497,6,0,P|169:77|110:61,1,130,4|0,1:0|1:0,0:0:0:0:
99,58,112011,1,2,0:2:0:0:
67,46,112183,2,0,L|75:180,1,130,10|0,1:0|0:0,0:0:0:0:
176,257,112868,2,0,P|175:315|157:365,2,97.5,0|0|0,1:0|1:0|1:0,0:0:0:0:
160,228,113554,2,0,P|237:228|296:187,1,130,10|2,1:0|0:2,0:0:0:0:
368,104,114240,6,0,L|379:298,1,195,0|0,1:3|1:3,0:0:0:0:
383,330,114925,2,0,B|339:361|205:373|317:290|179:303|138:335,1,260,10|0,1:0|1:0,0:0:0:0:
111,353,115783,1,0,1:0:0:0:
80,363,115954,2,0,P|32:360|10:348,1,65,0|0,0:0|1:0,0:0:0:0:
22,320,116297,2,0,P|23:250|11:188,1,130,8|8,1:0|1:0,0:0:0:0:
256,192,116725,12,2,119640,0:2:0:0:
