osu file format v14

[General]
AudioFilename: carry.mp3
AudioLeadIn: 0
PreviewTime: 88240
Countdown: 0
SampleSet: Drum
StackLeniency: 0.3
Mode: 0
LetterboxInBreaks: 0
WidescreenStoryboard: 0

[Editor]
Bookmarks: 1583,12554,23525,56440,78383,79240,89354
DistanceSpacing: 1
BeatDivisor: 4
GridSize: 4
TimelineZoom: 1.1

[Metadata]
Title:Carry Me Away
TitleUnicode:Carry Me Away
Artist:lapix
ArtistUnicode:lapix
Creator:Avena
Version:BASIC
Source:SOUND VOLTEX IV HEAVENLY HAVEN
Tags:Kanata.N SDVX 4 Priti Saturnalize wa_ Electronic English Rhythm Video Game instrumental future core megarex beatmania IIDX 26 Rootage
BeatmapID:1418994
BeatmapSetID:662208

[Difficulty]
HPDrainRate:4
CircleSize:2.7
OverallDifficulty:3
ApproachRate:3
SliderMultiplier:1
SliderTickRate:1

[Events]
//Background and Video events
0,0,"jpeg.jpg",0,0
//Break Periods
2,78783,82628
//Storyboard Layer 0 (Background)
//Storyboard Layer 1 (Fail)
//Storyboard Layer 2 (Pass)
//Storyboard Layer 3 (Foreground)
//Storyboard Layer 4 (Overlay)
//Storyboard Sound Samples

[TimingPoints]
411,342.857142857143,4,2,1,80,1,0
1783,342.857142857143,4,3,1,80,1,0
12754,-100,4,3,1,85,0,0
18240,-100,4,2,1,85,0,0
19611,-100,4,1,1,85,0,0
20983,-100,4,1,1,60,0,0
22354,-100,4,1,1,95,0,0
23383,-100,4,3,1,85,0,0
23725,-100,4,2,1,90,0,0
28868,-100,4,2,1,100,0,0
29211,-100,4,2,1,90,0,0
29554,-100,4,2,1,60,0,0
29897,-100,4,2,1,90,0,0
44468,-100,4,2,1,60,0,0
45325,-100,4,2,1,90,0,0
45583,-100,4,2,1,30,0,0
45668,-100,4,3,1,75,0,0
50468,-100,4,3,1,50,0,0
51154,-100,4,1,1,90,0,0
55268,-100,4,2,1,90,0,0
56897,-100,4,2,1,30,0,0
56983,-100,4,2,1,90,0,0
61783,-100,4,2,1,50,0,0
62125,-100,4,2,1,90,0,0
62383,-100,4,2,1,30,0,0
62468,-100,4,2,1,50,0,0
62811,-100,4,2,1,90,0,0
72411,-100,4,2,1,90,0,0
77383,-100,4,2,1,30,0,0
77554,-100,4,2,1,50,0,0
77725,-100,4,2,1,20,0,0
77897,-100,4,2,1,50,0,0
78068,-100,4,2,1,20,0,0
78240,-100,4,2,1,50,0,0
78411,-100,4,2,1,20,0,0
78583,-100,4,2,1,50,0,0
78754,-100,4,2,1,20,0,0
78925,-100,4,2,1,50,0,0
84068,-100,4,2,1,90,0,0
86811,-100,4,2,1,60,0,0
89211,-100,4,2,1,90,0,0
89554,-100,4,3,1,95,0,1
111497,-100,4,3,1,95,0,0
116725,-100,4,1,1,40,0,0

[Colours]
Combo1 : 254,133,254
Combo2 : 128,149,249
Combo3 : 251,179,249
Combo4 : 124,250,247

[HitObjects]
172,168,1783,6,0,L|274:161,1,100,0|0,1:0|0:0,0:0:0:0:
359,112,2468,2,0,P|387:172|381:257,1,150,0|2,0:0|1:2,0:0:0:0:
204,346,3668,2,0,L|42:336,1,150,2|0,1:2|0:0,0:0:0:0:
21,242,4525,6,0,L|130:235,1,100,2|2,1:2|1:2,0:0:0:0:
220,229,5211,1,0,0:0:0:0:
320,224,5554,1,8,1:3:0:0:
420,219,5897,2,0,P|440:160|451:54,2,150,2|2|0,1:2|1:2|0:0,0:0:0:0:
349,289,7268,6,0,P|286:293|238:306,1,100,0|0,1:0|0:0,0:0:0:0:
156,337,7954,2,0,P|85:339|19:279,1,150,0|2,0:0|1:2,0:0:0:0:
59,197,8811,1,0,0:0:0:0:
13,107,9154,2,0,P|106:87|177:88,1,150,2|0,1:2|0:0,0:0:0:0:
239,147,10011,6,0,P|332:167|403:166,1,150,2|0,3:2|1:0,0:0:0:0:
480,132,10868,2,0,L|491:251,1,100,0|2,1:0|0:2,0:0:0:0:
452,266,11383,2,0,B|354:278|354:278|301:256,2,150,0|0|8,1:0|1:0|1:0,0:0:0:0:
484,171,12754,6,0,L|474:71,1,100,4|0,1:0|1:0,0:0:0:0:
380,36,13440,2,0,P|317:60|228:54,1,150,0|0,1:0|1:0,0:0:0:0:
140,25,14297,1,0,0:0:0:0:
140,25,14468,2,0,P|57:21|29:125,1,200,0|6,1:0|1:2,0:0:0:0:
95,190,15497,6,0,L|207:186,1,100,0|0,1:0|1:0,0:0:0:0:
287,148,16183,2,0,L|446:153,1,150,0|0,1:0|1:0,0:0:0:0:
465,249,17040,1,0,1:0:0:0:
494,344,17383,1,0,1:0:0:0:
397,321,17725,2,0,P|338:315|280:315,1,100,0|0,1:0|1:0,0:0:0:0:
247,323,18240,1,4,1:0:0:0:
256,192,18325,12,0,20983,0:0:0:0:
312,240,22354,6,0,L|305:122,1,100,0|0,1:0|1:0,0:0:0:0:
267,47,23040,2,0,L|211:44,2,50,0|0|6,1:0|1:0|1:2,0:0:0:0:
366,59,23725,5,4,1:0:0:0:
405,150,24068,2,0,P|406:241|384:303,1,150,8|8,1:0|1:0,0:0:0:0:
289,277,24925,2,0,L|295:371,2,75,8|8|8,1:0|1:0|1:0,0:0:0:0:
268,178,25783,1,4,1:3:0:0:
247,79,26125,2,0,P|214:71|180:71,2,50,2|2|12,1:0|1:3|1:3,0:0:0:0:
343,110,26811,1,2,1:2:0:0:
364,209,27154,6,0,P|361:265|339:314,1,100,12|8,1:3|1:0,0:0:0:0:
253,346,27840,1,8,1:0:0:0:
166,295,28183,1,10,1:1:0:0:
70,322,28525,2,0,P|52:275|50:225,1,100,14|14,1:3|1:3,0:0:0:0:
81,130,29211,1,2,1:0:0:0:
273,183,29897,2,0,L|380:176,1,100,2|8,1:0|1:0,0:0:0:0:
394,78,30583,6,0,L|294:84,1,100,4|8,1:0|1:0,0:0:0:0:
199,116,31268,1,8,1:0:0:0:
123,49,31611,1,8,1:0:0:0:
26,81,31955,2,0,L|38:238,2,150,0|2|2,1:0|1:2|3:0,0:0:0:0:
123,49,33325,2,0,P|186:72|278:68,1,150,4|4,1:2|3:2,0:0:0:0:
362,37,34183,1,2,3:2:0:0:
362,37,34354,1,4,1:2:0:0:
423,116,34697,6,0,P|421:190|411:265,1,150,4|0,1:1|1:0,0:0:0:0:
391,311,35383,2,0,P|360:341|293:343,1,100,8|0,1:0|1:0,0:0:0:0:
232,278,36068,2,0,L|120:274,1,100,8|0,1:0|1:0,0:0:0:0:
91,182,36754,2,0,L|203:178,1,100,8|2,1:0|3:2,0:0:0:0:
243,95,37440,6,0,P|296:138|431:123,2,200,8|10|0,1:0|1:0|1:0,0:0:0:0:
209,57,38983,1,0,1:0:0:0:
113,86,39325,1,2,1:2:0:0:
113,86,39497,2,0,L|121:201,1,100,8|2,1:1|0:0,0:0:0:0:
208,232,40183,6,0,L|200:347,1,100,0|0,1:1|1:0,0:0:0:0:
105,361,40868,2,0,P|95:328|62:266,1,100,8|4,1:0|0:0,0:0:0:0:
5,189,41554,1,0,1:0:0:0:
31,92,41897,1,2,3:2:0:0:
127,64,42240,2,0,P|170:88|217:104,1,100,8|4,1:0|3:0,0:0:0:0:
317,91,42925,5,6,1:0:0:0:
390,23,43268,1,0,1:0:0:0:
477,71,43611,1,8,1:0:0:0:
457,168,43955,1,2,1:3:0:0:
356,179,44297,2,0,P|289:226|216:142,1,200,4|0,1:0|0:0,0:0:0:0:
224,52,45325,1,2,0:1:0:0:
134,96,45668,6,0,P|77:89|27:89,1,100,4|8,1:0|1:0,0:0:0:0:
24,188,46354,2,0,P|73:194|123:195,1,100,4|8,1:3|1:0,0:0:0:0:
215,155,47040,2,0,P|275:145|390:232,1,200,4|4,1:3|1:3,0:0:0:0:
403,317,48068,1,4,1:3:0:0:
481,254,48411,6,0,L|473:149,1,100,4|8,1:3|1:0,0:0:0:0:
421,68,49097,2,0,P|371:64|323:84,1,100,4|8,1:3|1:0,0:0:0:0:
253,152,49783,2,0,P|184:171|103:73,1,200,0|2,1:0|1:3,0:0:0:0:
305,66,51154,6,0,L|413:71,1,100,4|8,1:0|1:0,0:0:0:0:
352,156,51840,2,0,L|244:151,1,100,8|8,1:0|1:0,0:0:0:0:
199,236,52525,1,8,1:0:0:0:
160,328,52868,1,8,0:0:0:0:
99,248,53212,1,8,0:0:0:0:
39,168,53554,1,8,0:0:0:0:
138,156,53898,1,4,0:3:0:0:
256,192,53983,12,2,55268,1:2:0:0:
316,142,56640,5,2,1:1:0:0:
222,176,56983,2,0,P|130:181|53:191,1,150,2|2,1:0|1:0,0:0:0:0:
79,287,57840,2,0,P|153:283|228:275,1,150,2|2,3:1|1:0,0:0:0:0:
322,241,58697,1,8,1:0:0:0:
316,142,59039,1,2,3:2:0:0:
238,77,59383,6,0,P|303:41|414:113,1,200,12|8,1:3|1:0,0:0:0:0:
412,193,60412,1,4,1:2:0:0:
322,241,60754,2,0,L|213:236,1,100,2|4,1:0|1:2,0:0:0:0:
136,183,61440,2,0,L|27:188,1,100,8|4,1:0|0:0,0:0:0:0:
16,285,62125,5,0,1:0:0:0:
99,339,62468,1,4,1:2:0:0:
195,311,62811,2,0,P|257:322|303:339,1,100,8|0,1:0|1:0,0:0:0:0:
386,367,63497,2,0,P|448:356|494:339,1,100,0|2,1:0|1:2,0:0:0:0:
501,245,64183,2,0,L|497:129,1,100,8|2,1:0|1:3,0:0:0:0:
446,59,64868,6,0,B|381:41|330:51|362:67|310:76|246:59,1,200,2|0,0:0|3:0,0:0:0:0:
152,33,65897,2,0,P|121:67|113:168,1,150,0|0,1:0|1:0,0:0:0:0:
136,210,66583,1,0,1:0:0:0:
230,242,66925,2,0,L|348:237,1,100,8|2,1:0|1:2,0:0:0:0:
430,232,67611,5,6,3:0:0:0:
498,159,67954,2,0,P|510:98|511:52,2,100,8|0|8,1:0|3:0|1:0,0:0:0:0:
452,137,68811,2,0,P|359:137|289:156,1,150,0|8,1:0|1:0,0:0:0:0:
216,199,69668,2,0,P|130:192|103:178,1,100,0|8,0:0|1:0,0:0:0:0:
36,128,70354,5,0,1:0:0:0:
27,227,70697,2,0,L|32:333,1,100,8|0,1:0|1:0,0:0:0:0:
127,356,71383,1,8,1:0:0:0:
131,360,71554,2,0,P|180:352|294:351,1,150,0|8,1:0|1:0,0:0:0:0:
377,373,72411,2,0,P|439:349|460:216,1,200,8|2,1:0|0:0,0:0:0:0:
389,164,73440,5,0,1:0:0:0:
289,154,73783,2,0,L|181:148,1,100,8|4,1:0|1:2,0:0:0:0:
100,102,74468,2,0,P|27:134|40:249,1,200,2|8,3:0|1:0,0:0:0:0:
226,290,75840,1,4,1:3:0:0:
405,201,76525,5,8,1:0:0:0:
391,101,76868,1,4,1:3:0:0:
256,192,77040,12,4,78583,0:0:0:0:
256,192,84068,12,0,88097,1:0:0:0:
153,140,89554,6,0,L|157:248,1,100,4|10,1:0|1:2,0:0:0:0:
246,285,90240,2,0,L|242:185,1,100,2|10,1:2|1:2,0:0:0:0:
237,85,90925,1,2,1:2:0:0:
325,128,91268,1,10,1:2:0:0:
406,73,91612,1,2,1:2:0:0:
476,260,92297,6,0,P|464:311|326:333,1,200,2|2,1:2|1:2,0:0:0:0:
256,284,93325,1,10,1:2:0:0:
175,340,93668,2,0,P|80:343|36:260,1,200,2|2,1:2|1:2,0:0:0:0:
54,161,94697,1,10,1:2:0:0:
71,61,95040,6,0,L|178:55,1,100,2|10,1:2|1:2,0:0:0:0:
256,106,95725,2,0,L|363:112,1,100,2|10,1:2|1:2,0:0:0:0:
451,82,96411,1,2,1:2:0:0:
468,180,96754,1,10,1:2:0:0:
485,278,97097,2,0,P|446:300|390:302,1,100,2|10,1:2|1:2,0:0:0:0:
307,248,97783,6,0,P|268:226|212:224,1,100,2|10,1:2|1:2,0:0:0:0:
124,268,98468,1,2,1:2:0:0:
31,228,98811,1,10,1:2:0:0:
44,128,99154,2,0,L|158:125,1,100,2|10,1:2|1:2,0:0:0:0:
228,72,99840,2,0,L|342:75,1,100,2|10,1:2|1:2,0:0:0:0:
363,110,100354,1,10,1:2:0:0:
363,110,100525,6,0,P|380:156|376:216,1,100,4|10,1:0|1:2,0:0:0:0:
281,233,101211,2,0,P|264:279|268:339,1,100,2|10,1:2|1:2,0:0:0:0:
352,378,101897,2,0,P|416:340|440:220,1,200,2|2,1:2|1:2,0:0:0:0:
279,106,103268,5,2,1:2:0:0:
208,175,103611,1,10,1:2:0:0:
121,125,103954,2,0,P|118:66|110:17,1,100,2|8,1:2|1:0,0:0:0:0:
12,36,104640,2,0,P|14:94|22:143,1,100,2|10,1:2|1:2,0:0:0:0:
60,226,105325,1,2,1:2:0:0:
140,285,105668,2,0,P|176:277|209:276,1,50,10|2,1:2|0:2,0:0:0:0:
231,302,106011,6,0,P|289:315|344:309,1,100,4|10,1:0|1:2,0:0:0:0:
417,264,106697,1,2,1:2:0:0:
395,166,107040,1,10,1:2:0:0:
395,166,107211,1,2,1:2:0:0:
395,166,107383,2,0,L|403:64,1,100,4|10,1:0|1:2,0:0:0:0:
306,39,108068,2,0,L|309:88,2,50,0|0|8,1:0|1:0|1:0,0:0:0:0:
210,70,108754,5,4,1:0:0:0:
122,21,109097,1,8,1:0:0:0:
122,21,109268,2,0,P|61:26|17:39,1,100,0|0,1:0|1:0,0:0:0:0:
3,82,109783,1,8,1:0:0:0:
43,173,110125,2,0,L|39:281,1,100,2|2,1:2|1:2,0:0:0:0:
131,313,110811,2,0,L|134:213,1,100,2|2,1:2|1:2,0:0:0:0:
180,123,111497,6,0,P|224:163|362:149,1,200,4|10,1:0|1:0,0:0:0:0:
492,6,112868,2,0,P|500:42|498:80,2,75,0|0|0,1:0|1:0|1:0,0:0:0:0:
447,29,113554,2,0,L|337:23,1,100,10|2,1:0|0:2,0:0:0:0:
247,15,114240,6,0,B|172:80|172:80|66:74,1,200,0|10,1:3|1:0,0:0:0:0:
19,267,115611,2,0,L|119:272,1,100,0|0,1:0|0:0,0:0:0:0:
189,343,116297,2,0,L|289:337,1,100,8|8,1:0|1:0,0:0:0:0:
256,192,116811,12,2,119640,0:2:0:0:
