osu file format v14

[General]
AudioFilename: audio.mp3
AudioLeadIn: 0
PreviewTime: 101096
Countdown: 0
SampleSet: Normal
StackLeniency: 0.7
Mode: 1
LetterboxInBreaks: 0
WidescreenStoryboard: 1

[Editor]
Bookmarks: 21574,46260,79174,101117,123060,145003,188889,199860,221803
DistanceSpacing: 1
BeatDivisor: 4
GridSize: 32
TimelineZoom: 2.000003

[Metadata]
Title:BRAND NEW DAY feat. Numb'n'dub
TitleUnicode:BRAND NEW DAY feat. Numb'n'dub
Artist:lapix
ArtistUnicode:lapix
Creator:Cychloryn
Version:Muzukashii
Source:
Tags:fügene fugene MRX-016 megarex future bass capu electronic edm hardcore english japanese
BeatmapID:2211097
BeatmapSetID:1056895

[Difficulty]
HPDrainRate:6
CircleSize:2
OverallDifficulty:4.8
ApproachRate:10
SliderMultiplier:1.4
SliderTickRate:1

[Events]
//Background and Video events
0,0,"sun.jpg",0,54
//Break Periods
2,145201,152780
//Storyboard Layer 0 (Background)
//Storyboard Layer 1 (Fail)
//Storyboard Layer 2 (Pass)
//Storyboard Layer 3 (Foreground)
//Storyboard Layer 4 (Overlay)
//Storyboard Sound Samples

[TimingPoints]
2032,342.857142857143,7,1,0,40,1,0
2032,-133.333333333333,7,1,0,40,0,0
18832,342.857142857143,4,1,0,45,1,0
18832,-125,4,1,0,45,0,0
21232,-123.456790123457,4,1,0,45,0,0
21403,-120.481927710843,4,1,0,45,0,0
21574,342.857142857143,4,1,0,50,1,0
21574,-117.647058823529,4,1,0,50,0,0
43516,-117.647058823529,4,1,0,25,0,0
45746,-117.647058823529,4,1,0,50,0,0
45916,-116.279069767442,4,1,0,50,0,0
46088,-114.942528735632,4,1,0,50,0,0
46259,342.857142857143,4,1,0,60,1,0
46259,-111.111111111111,4,1,0,60,0,0
67516,-111.111111111111,4,1,0,60,0,0
67687,-108.138269917447,4,1,0,60,0,0
67773,-106.710716850583,4,1,0,60,0,0
67859,-105.320252557966,4,1,0,60,0,0
68030,-102.645482007787,4,1,0,60,0,0
68201,-100.103206405804,4,1,0,60,0,0
73688,-100,4,1,0,70,0,0
74030,-97.826108223067,4,1,0,70,0,0
74201,-96.774224765879,4,1,0,70,0,0
74372,-95.7447215934986,4,1,0,70,0,0
74887,-92.7834860240235,4,1,0,70,0,0
75058,-91.8367253227831,4,1,0,70,0,0
75230,-90.9090909090909,4,1,0,70,0,0
75401,-90.0000090000009,4,1,0,70,0,0
75487,-89.5522120739665,4,1,0,70,0,0
75572,-89.1089285364215,4,1,0,70,0,0
75744,-88.2353200692118,4,1,0,70,0,0
75915,-87.3786747101649,4,1,0,70,0,0
76087,-86.5384282544507,4,1,0,70,0,0
76430,-84.9056443574256,4,1,0,80,0,0
76515,-84.5070660583285,4,1,0,80,0,0
76601,-84.1121416717625,4,1,0,80,0,0
76772,-83.3333333333333,4,1,0,80,0,0
76858,-82.6446280991736,4,1,0,80,0,0
76944,-81.9672131147541,4,1,0,80,0,0
77115,-80.658561019008,4,1,0,80,0,0
77287,-79.3910389746489,4,1,0,80,0,0
77458,-78.1627990410988,4,1,0,80,0,0
77544,-77.5193798449612,4,1,0,80,0,0
77630,-76.9719244905421,4,1,0,80,0,0
77801,-74.0740740740741,4,1,0,80,0,0
78144,-78.740157480315,4,1,0,80,0,0
78487,-84.0336134453782,4,1,0,80,0,0
78658,-80,4,1,0,80,0,0
78830,-74.0740740740741,4,1,0,80,0,0
79173,-83.3333333333333,4,1,0,100,0,1
79515,-95.2380952380952,4,1,0,100,0,1
81915,-95.2380952380952,4,1,0,100,0,1
82172,-90.9090909090909,4,1,0,100,0,1
82430,-86.9565217391304,4,1,0,100,0,1
82687,-83.3333333333333,4,1,0,100,0,1
82858,-81.3008130081301,4,1,0,100,0,1
82944,-80,4,1,0,100,0,1
83287,-76.9230769230769,4,1,0,100,0,1
83458,-78.7401574803149,4,1,0,100,0,1
83630,-80.7700291499035,4,1,0,100,0,1
83972,-85.9496403867046,4,1,0,100,0,1
84144,-88.796855880927,4,1,0,100,0,1
84315,-91.8391712433187,4,1,0,100,0,1
84401,-95.2380952380952,4,1,0,100,0,1
86630,-95.2380952380952,4,1,0,100,0,1
88430,-90.9090909090909,4,1,0,100,0,1
88601,-86.9565217391304,4,1,0,100,0,1
88772,-80,4,1,0,100,0,1
89115,-83.3333333333333,4,1,0,100,0,1
89458,-86.9565217391304,4,1,0,100,0,1
89801,-89.2857142857143,4,1,0,100,0,1
89887,-90.9090909090909,4,1,0,100,0,1
89972,-92.5925925925926,4,1,0,100,0,1
90144,-95.2380952380952,4,1,0,100,0,1
92201,-90.9090909090909,4,1,0,100,0,1
92315,-92.5925925925926,4,1,0,100,0,1
92430,-94.3396226415094,4,1,0,100,0,1
92544,-96.1538461538461,4,1,0,100,0,1
92887,-95.2380952380952,4,1,0,100,0,1
93144,-90.9090909090909,4,1,0,100,0,1
93401,-86.9565217391304,4,1,0,100,0,1
93658,-83.3333333333333,4,1,0,100,0,1
93830,-81.3008130081301,4,1,0,100,0,1
93915,-80,4,1,0,100,0,1
94258,-76.9230769230769,4,1,0,100,0,1
94430,-78.7401574803149,4,1,0,100,0,1
94601,-80.8080808080808,4,1,0,100,0,1
94944,-86.0215053763441,4,1,0,100,0,1
95287,-91.9540229885058,4,1,0,100,0,1
95601,-86.9565217391304,4,1,0,100,0,1
99058,-84.0336134453781,4,1,0,100,0,1
99230,-81.3008130081301,4,1,0,100,0,1
99401,-78.7401574803149,4,1,0,100,0,1
99487,-77.5193798449612,4,1,0,100,0,1
99572,-76.3358778625954,4,1,0,100,0,1
99658,-75.187969924812,4,1,0,100,0,1
99744,-73.5294117647059,4,1,0,50,0,0
100772,-71.4285714285714,4,1,0,100,0,0
101116,-90.9090909090909,4,1,0,90,0,1
120315,-90.9090909090909,4,1,0,90,0,1
120487,-89.2857142857143,4,1,0,90,0,1
120658,-87.719298245614,4,1,0,90,0,1
120830,-86.2068965517241,4,1,0,90,0,1
121001,-83.3333333333333,4,1,0,90,0,1
121087,-81.3008130081301,4,1,0,90,0,1
121172,-79.3650793650794,4,1,0,90,0,1
121344,-75.7575757575758,4,1,0,90,0,1
121687,-78.125,4,1,0,70,0,0
122372,-100,4,1,0,70,0,0
122458,-97.0873786407767,4,1,0,70,0,0
122544,-94.3396226415094,4,1,0,70,0,0
122715,-89.2857142857143,4,1,0,70,0,0
123058,-100,4,1,0,65,0,0
123401,-111.111111111111,4,1,0,65,0,0
124601,-111.111111111111,4,1,0,65,0,0
125116,-109.89010989011,4,1,0,65,0,0
125459,-107.52688172043,4,1,0,65,0,0
125801,-105.263157894737,4,1,0,65,0,0
128087,-107.52688172043,4,1,0,65,0,0
128201,-108.695652173913,4,1,0,65,0,0
128887,-111.111111111111,4,1,0,65,0,0
130944,-109.89010989011,4,1,0,65,0,0
131116,-108.695652173913,4,1,0,65,0,0
131287,-107.52688172043,4,1,0,65,0,0
131458,-105.263157894737,4,1,0,65,0,0
133173,-105.263157894737,4,1,0,65,0,0
133344,-106.666666666667,4,1,0,65,0,0
133572,-109.58904109589,4,1,0,65,0,0
133687,-111.111111111111,4,1,0,65,0,0
137801,-112.359550561798,4,1,0,55,0,0
137972,-113.636363636364,4,1,0,55,0,0
138144,-114.942528735632,4,1,0,55,0,0
138487,-117.647058823529,4,1,0,45,0,0
138658,-119.047619047619,4,1,0,45,0,0
138830,-120.481927710843,4,1,0,45,0,0
139001,-121.951219512195,4,1,0,45,0,0
139172,-123.456790123457,4,1,0,45,0,0
139515,-111.111111111111,4,1,0,65,0,0
144316,-113.636363636364,4,1,0,65,0,0
144487,-116.279069767442,4,1,0,65,0,0
145001,-125,4,1,0,40,0,0
158715,-125,4,1,0,45,0,0
164201,-125,4,1,0,50,0,0
166772,-121.951219512195,4,1,0,50,0,0
166944,-119.047619047619,4,1,0,50,0,0
188887,-100,4,1,0,55,0,0
194372,-100,4,1,0,70,0,0
194715,-100,4,1,0,70,0,0
194887,-98.5915215235151,4,1,0,70,0,0
195058,-97.2222627314984,4,1,0,70,0,0
195572,-93.3332960000149,4,1,0,70,0,0
195744,-92.1052873961283,4,1,0,70,0,0
195915,-90.9090909090909,4,1,0,70,0,0
196087,-89.7435667324188,4,1,0,70,0,0
196172,-89.1719404438444,4,1,0,70,0,0
196258,-88.6076285851754,4,1,0,70,0,0
196430,-87.5000109375014,4,1,0,70,0,0
196601,-86.4197424173157,4,1,0,70,0,0
196772,-85.3658224271381,4,1,0,70,0,0
196944,-84.3373697198481,4,1,0,70,0,0
197115,-83.3333333333333,4,1,0,80,0,0
197201,-82.8402268828134,4,1,0,80,0,0
197287,-82.3529217993125,4,1,0,80,0,0
197458,-81.3953772309455,4,1,0,80,0,0
197630,-80.459779363193,4,1,0,80,0,0
197801,-79.5454455061994,4,1,0,80,0,0
197972,-78.6516588814633,4,1,0,80,0,0
198144,-77.7777950617322,4,1,0,80,0,0
198230,-77.7777950617322,4,1,0,80,0,0
198315,-76.9230769230769,4,1,0,80,0,0
198487,-74.0740740740741,4,1,0,80,0,0
198830,-78.7401574803149,4,1,0,80,0,0
199172,-80,4,1,0,80,0,0
199344,-76.9230769230769,4,1,0,80,0,0
199515,-71.4285714285714,4,1,0,80,0,0
199859,-90.9090909090909,4,1,0,100,0,1
200201,-86.9565217391304,4,1,0,100,0,1
200544,-83.3333333333333,4,1,0,100,0,1
200801,-80,4,1,0,100,0,1
201058,-76.9230769230769,4,1,0,100,0,1
201401,-75.187969924812,4,1,0,100,0,1
201572,-76.9230769230769,4,1,0,100,0,1
201658,-78.7401574803149,4,1,0,100,0,1
201915,-81.3008130081301,4,1,0,100,0,1
202001,-83.3333333333333,4,1,0,100,0,1
202172,-86.9565217391304,4,1,0,100,0,1
202601,-95.2380952380952,4,1,0,100,0,1
203972,-90.9090909090909,4,1,0,100,0,1
204144,-86.9565217391304,4,1,0,100,0,1
204315,-83.3333333333333,4,1,0,100,0,1
204658,-86.9565217391304,4,1,0,100,0,1
204830,-89.2857142857143,4,1,0,100,0,1
205001,-90.9090909090909,4,1,0,100,0,1
205344,-95.2380952380952,4,1,0,100,0,1
205687,-90.9090909090909,4,1,0,100,0,1
206030,-86.9565217391304,4,1,0,100,0,1
206115,-86.2068965517241,4,1,0,100,0,1
206201,-85.4700854700855,4,1,0,100,0,1
206372,-84.0336134453781,4,1,0,100,0,1
206544,-80,4,1,0,100,0,1
206715,-81.3008130081301,4,1,0,100,0,1
206801,-83.3333333333333,4,1,0,100,0,1
207058,-86.9565217391304,4,1,0,100,0,1
207401,-90.9090909090909,4,1,0,100,0,1
207487,-92.5925925925926,4,1,0,100,0,1
207658,-93.4579439252336,4,1,0,100,0,1
207744,-95.2380952380952,4,1,0,100,0,1
208087,-95.1129989984601,4,1,0,100,0,1
208772,-90.9090909090909,4,1,0,100,0,1
209115,-84.7457627118644,4,1,0,100,0,1
209287,-81.9672131147541,4,1,0,100,0,1
209458,-76.9230769230769,4,1,0,100,0,1
209801,-80,4,1,0,100,0,1
210144,-83.3333333333333,4,1,0,100,0,1
210830,-90.9090909090909,4,1,0,100,0,1
211172,-86.9565217391304,4,1,0,100,0,1
211515,-83.3333333333333,4,1,0,100,0,1
211772,-80,4,1,0,100,0,1
212030,-76.9230769230769,4,1,0,100,0,1
212372,-75.187969924812,4,1,0,100,0,1
212544,-76.9230769230769,4,1,0,100,0,1
212630,-78.7401574803149,4,1,0,100,0,1
212887,-81.3008130081301,4,1,0,100,0,1
212972,-83.3333333333333,4,1,0,100,0,1
213144,-86.9565217391304,4,1,0,100,0,1
213572,-95.2380952380952,4,1,0,100,0,1
214944,-90.9090909090909,4,1,0,100,0,1
215115,-86.9565217391304,4,1,0,100,0,1
215287,-83.3333333333333,4,1,0,100,0,1
215630,-86.9565217391304,4,1,0,100,0,1
215801,-90.9090909090909,4,1,0,100,0,1
215972,-92.5925925925926,4,1,0,100,0,1
216287,-86.9565217391304,4,1,0,100,0,1
219744,-84.0336134453781,4,1,0,100,0,1
219915,-81.3008130081301,4,1,0,100,0,1
220087,-78.7401574803149,4,1,0,100,0,1
220172,-77.5193798449612,4,1,0,100,0,1
220258,-76.3358778625954,4,1,0,100,0,1
220344,-75.187969924812,4,1,0,100,0,1
220430,-74.0740740740741,4,1,0,100,0,0
221458,-95.2380952380952,4,1,0,50,0,0
221801,-105.263157894737,4,1,0,50,0,0
222315,-133.333333333333,4,1,0,40,0,0
238258,-133.333333333333,4,1,0,35,0,0
242372,-133.333333333333,4,1,0,35,0,0
242544,-129.075227624164,4,1,0,35,0,0
242715,-125.080520585127,4,1,0,35,0,0
243058,-117.789931081111,4,1,0,35,0,0
243401,-105.263157894737,4,1,0,35,0,0

[HitObjects]
256,192,2032,5,4,0:0:0:0:
256,192,2546,1,8,0:0:0:0:
256,192,3060,1,8,0:0:0:0:
256,192,3574,1,8,0:0:0:0:
256,192,4089,1,8,0:0:0:0:
256,192,4432,1,0,0:0:0:0:
256,192,4946,1,8,0:0:0:0:
256,192,5460,1,8,0:0:0:0:
256,192,5974,1,8,0:0:0:0:
256,192,6489,1,8,0:0:0:0:
256,192,6832,1,0,0:0:0:0:
256,192,7346,1,8,0:0:0:0:
256,192,7860,1,8,0:0:0:0:
256,192,8374,1,8,0:0:0:0:
256,192,8889,1,8,0:0:0:0:
256,192,9232,1,0,0:0:0:0:
256,192,9574,1,8,0:0:0:0:
256,192,9746,1,0,0:0:0:0:
256,192,10089,1,8,0:0:0:0:
256,192,10260,1,0,0:0:0:0:
256,192,10432,1,8,0:0:0:0:
256,192,10774,1,8,0:0:0:0:
256,192,11117,1,0,0:0:0:0:
256,192,11289,1,8,0:0:0:0:
256,192,11632,1,0,0:0:0:0:
256,192,12146,1,8,0:0:0:0:
256,192,12660,1,8,0:0:0:0:
256,192,13174,1,8,0:0:0:0:
256,192,13689,1,8,0:0:0:0:
256,192,14032,1,0,0:0:0:0:
256,192,14546,1,8,0:0:0:0:
256,192,15060,1,8,0:0:0:0:
256,192,15574,1,8,0:0:0:0:
256,192,16089,1,8,0:0:0:0:
256,192,16432,1,0,0:0:0:0:
256,192,16603,1,8,0:0:0:0:
256,192,16774,1,8,0:0:0:0:
256,192,16946,1,0,0:0:0:0:
256,192,17117,1,8,0:0:0:0:
256,192,17460,1,0,0:0:0:0:
256,192,17632,1,8,0:0:0:0:
256,192,17974,1,0,0:0:0:0:
256,192,18146,1,8,0:0:0:0:
256,192,18489,1,0,0:0:0:0:
256,192,18832,1,8,0:0:0:0:
256,192,19174,1,0,0:0:0:0:
256,192,19346,1,8,0:0:0:0:
256,192,19517,1,0,0:0:0:0:
256,192,19860,1,8,0:0:0:0:
256,192,20203,1,0,0:0:0:0:
256,192,20374,1,8,0:0:0:0:
256,192,20546,1,8,0:0:0:0:
256,192,20889,1,0,0:0:0:0:
256,192,21232,1,8,0:0:0:0:
256,192,21403,1,8,0:0:0:0:
256,192,21574,5,4,0:0:0:0:
256,192,21916,1,0,0:0:0:0:
256,192,22088,1,8,0:0:0:0:
256,192,22602,1,0,0:0:0:0:
256,192,23116,1,8,0:0:0:0:
256,192,23288,1,8,0:0:0:0:
256,192,23459,1,0,0:0:0:0:
256,192,23631,1,8,0:0:0:0:
256,192,23974,1,0,0:0:0:0:
256,192,24316,1,8,0:0:0:0:
256,192,24659,1,0,0:0:0:0:
256,192,24831,1,8,0:0:0:0:
256,192,25345,1,0,0:0:0:0:
256,192,25859,1,8,0:0:0:0:
256,192,26202,1,0,0:0:0:0:
256,192,26374,1,8,0:0:0:0:
256,192,26545,1,8,0:0:0:0:
256,192,26716,1,0,0:0:0:0:
256,192,27059,1,8,0:0:0:0:
256,192,27402,1,8,0:0:0:0:
256,192,27574,1,8,0:0:0:0:
256,192,27745,1,0,0:0:0:0:
256,192,28088,1,8,0:0:0:0:
256,192,28431,1,8,0:0:0:0:
256,192,28602,1,0,0:0:0:0:
256,192,28774,1,0,0:0:0:0:
256,192,29116,1,8,0:0:0:0:
256,192,29459,1,0,0:0:0:0:
256,192,29802,1,8,0:0:0:0:
256,192,30145,1,0,0:0:0:0:
256,192,30316,1,8,0:0:0:0:
256,192,30488,1,0,0:0:0:0:
256,192,30831,1,0,0:0:0:0:
256,192,31002,1,8,0:0:0:0:
256,192,31345,1,8,0:0:0:0:
256,192,31516,1,8,0:0:0:0:
256,192,31688,1,0,0:0:0:0:
256,192,31859,1,8,0:0:0:0:
256,192,32202,1,0,0:0:0:0:
256,192,32431,1,0,0:0:0:0:
256,192,32545,1,8,0:0:0:0:
256,192,32888,1,0,0:0:0:0:
256,192,33059,1,8,0:0:0:0:
256,192,33574,1,0,0:0:0:0:
256,192,34088,1,8,0:0:0:0:
256,192,34259,1,8,0:0:0:0:
256,192,34602,1,8,0:0:0:0:
256,192,34945,1,8,0:0:0:0:
256,192,35116,1,0,0:0:0:0:
256,192,35288,1,8,0:0:0:0:
256,192,35631,1,0,0:0:0:0:
256,192,35802,1,8,0:0:0:0:
256,192,36316,1,0,0:0:0:0:
256,192,36831,1,8,0:0:0:0:
256,192,37002,1,8,0:0:0:0:
256,192,37345,1,8,0:0:0:0:
256,192,37516,1,8,0:0:0:0:
256,192,37688,1,0,0:0:0:0:
256,192,38031,1,8,0:0:0:0:
256,192,38374,1,0,0:0:0:0:
256,192,38545,1,8,0:0:0:0:
256,192,38716,1,0,0:0:0:0:
256,192,39059,1,8,0:0:0:0:
256,192,39231,1,8,0:0:0:0:
256,192,39574,1,0,0:0:0:0:
256,192,40088,1,0,0:0:0:0:
256,192,40259,1,0,0:0:0:0:
256,192,40431,1,8,0:0:0:0:
256,192,40602,1,0,0:0:0:0:
256,192,40774,1,8,0:0:0:0:
256,192,41288,1,0,0:0:0:0:
256,192,41802,1,8,0:0:0:0:
256,192,42145,1,0,0:0:0:0:
256,192,42316,1,8,0:0:0:0:
256,192,42659,1,0,0:0:0:0:
256,192,42831,1,8,0:0:0:0:
256,192,43174,1,8,0:0:0:0:
256,192,43516,12,0,45059,0:0:0:0:
256,192,45745,5,8,0:0:0:0:
256,192,45916,1,8,0:0:0:0:
256,192,46088,1,0,0:0:0:0:
256,192,46259,5,4,0:0:0:0:
256,192,46430,1,8,0:0:0:0:
256,192,46773,1,0,0:0:0:0:
256,192,46944,1,8,0:0:0:0:
256,192,47287,1,8,0:0:0:0:
256,192,47459,1,0,0:0:0:0:
256,192,47973,1,8,0:0:0:0:
256,192,48144,1,8,0:0:0:0:
256,192,48316,1,0,0:0:0:0:
256,192,48659,1,8,0:0:0:0:
256,192,48830,1,0,0:0:0:0:
256,192,49001,1,8,0:0:0:0:
256,192,49173,1,8,0:0:0:0:
256,192,49516,1,0,0:0:0:0:
256,192,49687,1,8,0:0:0:0:
256,192,50030,1,8,0:0:0:0:
256,192,50201,1,0,0:0:0:0:
256,192,50716,1,8,0:0:0:0:
256,192,50887,1,8,0:0:0:0:
256,192,51059,1,0,0:0:0:0:
256,192,51230,1,8,0:0:0:0:
256,192,51401,1,0,0:0:0:0:
256,192,51744,1,8,0:0:0:0:
256,192,51916,1,8,0:0:0:0:
256,192,52087,1,0,0:0:0:0:
256,192,52259,1,8,0:0:0:0:
256,192,52601,1,0,0:0:0:0:
256,192,52773,1,0,0:0:0:0:
256,192,52944,1,8,0:0:0:0:
256,192,53287,1,0,0:0:0:0:
256,192,53459,1,0,0:0:0:0:
256,192,53630,1,8,0:0:0:0:
256,192,54144,1,0,0:0:0:0:
256,192,54316,1,8,0:0:0:0:
256,192,54487,1,8,0:0:0:0:
256,192,54830,1,8,0:0:0:0:
256,192,55173,1,0,0:0:0:0:
256,192,55687,1,8,0:0:0:0:
256,192,55859,1,0,0:0:0:0:
256,192,56030,1,8,0:0:0:0:
256,192,56201,1,8,0:0:0:0:
256,192,56373,1,0,0:0:0:0:
256,192,56887,1,0,0:0:0:0:
256,192,57230,1,0,0:0:0:0:
256,192,57401,1,8,0:0:0:0:
256,192,57744,1,8,0:0:0:0:
256,192,57916,1,8,0:0:0:0:
256,192,58259,1,8,0:0:0:0:
256,192,58430,1,0,0:0:0:0:
256,192,58944,1,8,0:0:0:0:
256,192,59116,1,8,0:0:0:0:
256,192,59287,1,0,0:0:0:0:
256,192,59630,1,8,0:0:0:0:
256,192,59801,1,0,0:0:0:0:
256,192,59973,1,8,0:0:0:0:
256,192,60144,1,8,0:0:0:0:
256,192,60487,1,0,0:0:0:0:
256,192,60659,1,8,0:0:0:0:
256,192,61001,1,8,0:0:0:0:
256,192,61173,1,0,0:0:0:0:
256,192,61687,1,8,0:0:0:0:
256,192,61859,1,0,0:0:0:0:
256,192,62030,1,8,0:0:0:0:
256,192,62201,1,8,0:0:0:0:
256,192,62373,1,0,0:0:0:0:
256,192,62716,1,8,0:0:0:0:
256,192,62887,1,0,0:0:0:0:
256,192,63059,1,8,0:0:0:0:
256,192,63230,1,8,0:0:0:0:
256,192,63573,1,0,0:0:0:0:
256,192,63744,1,8,0:0:0:0:
256,192,63916,1,8,0:0:0:0:
256,192,64259,1,8,0:0:0:0:
256,192,64430,1,8,0:0:0:0:
256,192,64601,1,8,0:0:0:0:
256,192,64944,1,0,0:0:0:0:
256,192,65116,1,0,0:0:0:0:
256,192,65287,1,8,0:0:0:0:
256,192,65459,1,8,0:0:0:0:
256,192,65801,1,0,0:0:0:0:
256,192,66144,1,8,0:0:0:0:
256,192,66659,1,0,0:0:0:0:
256,192,66830,1,8,0:0:0:0:
256,192,67001,1,0,0:0:0:0:
256,192,67173,1,8,0:0:0:0:
256,192,67344,1,0,0:0:0:0:
256,192,67516,1,8,0:0:0:0:
256,192,67687,1,0,0:0:0:0:
256,192,67773,1,0,0:0:0:0:
256,192,67859,1,0,0:0:0:0:
256,192,68030,1,0,0:0:0:0:
256,192,68201,5,12,0:0:0:0:
256,192,68544,1,8,0:0:0:0:
256,192,68716,1,0,0:0:0:0:
256,192,68887,1,8,0:0:0:0:
256,192,69144,1,8,0:0:0:0:
256,192,69401,1,0,0:0:0:0:
256,192,69573,1,8,0:0:0:0:
256,192,69916,1,8,0:0:0:0:
256,192,70087,1,0,0:0:0:0:
256,192,70259,1,8,0:0:0:0:
256,192,70516,1,0,0:0:0:0:
256,192,70601,1,0,0:0:0:0:
256,192,70773,1,8,0:0:0:0:
256,192,70944,1,8,0:0:0:0:
256,192,71287,1,8,0:0:0:0:
256,192,71459,1,0,0:0:0:0:
256,192,71630,1,8,0:0:0:0:
256,192,71887,1,0,0:0:0:0:
256,192,72144,1,8,0:0:0:0:
256,192,72316,1,0,0:0:0:0:
256,192,72487,1,8,0:0:0:0:
256,192,72659,1,8,0:0:0:0:
256,192,72830,1,0,0:0:0:0:
256,192,73001,1,8,0:0:0:0:
256,192,73259,1,8,0:0:0:0:
256,192,73430,1,8,0:0:0:0:
256,192,73516,1,8,0:0:0:0:
256,192,73687,1,4,0:0:0:0:
256,192,74030,1,0,0:0:0:0:
256,192,74201,1,0,0:0:0:0:
256,192,74373,1,8,0:0:0:0:
256,192,74887,1,0,0:0:0:0:
256,192,75059,1,8,0:0:0:0:
256,192,75230,1,0,0:0:0:0:
256,192,75401,1,8,0:0:0:0:
256,192,75487,1,8,0:0:0:0:
256,192,75573,1,8,0:0:0:0:
256,192,75744,1,8,0:0:0:0:
256,192,75916,1,8,0:0:0:0:
256,192,76087,1,0,0:0:0:0:
256,192,76430,1,8,0:0:0:0:
256,192,76516,1,8,0:0:0:0:
256,192,76601,1,8,0:0:0:0:
256,192,76773,1,0,0:0:0:0:
256,192,76859,1,0,0:0:0:0:
256,192,76944,1,0,0:0:0:0:
256,192,77116,1,8,0:0:0:0:
256,192,77287,1,0,0:0:0:0:
256,192,77459,1,8,0:0:0:0:
256,192,77544,1,8,0:0:0:0:
256,192,77630,1,8,0:0:0:0:
256,192,77801,1,8,0:0:0:0:
256,192,78144,1,8,0:0:0:0:
256,192,78487,5,8,0:0:0:0:
256,192,78659,1,8,0:0:0:0:
256,192,78830,1,12,0:0:0:0:
256,192,79173,5,4,0:0:0:0:
256,192,79687,1,0,0:0:0:0:
256,192,79859,1,8,0:0:0:0:
256,192,79944,1,8,0:0:0:0:
256,192,80116,1,8,0:0:0:0:
256,192,80201,1,8,0:0:0:0:
256,192,80373,1,0,0:0:0:0:
256,192,80716,1,0,0:0:0:0:
256,192,80887,1,8,0:0:0:0:
256,192,80973,1,0,0:0:0:0:
256,192,81230,1,0,0:0:0:0:
256,192,81573,1,0,0:0:0:0:
256,192,81744,1,0,0:0:0:0:
256,192,81916,1,8,0:0:0:0:
256,192,82173,1,0,0:0:0:0:
256,192,82430,1,8,0:0:0:0:
256,192,82687,1,8,0:0:0:0:
256,192,82859,1,0,0:0:0:0:
256,192,82944,1,8,0:0:0:0:
256,192,83287,1,4,0:0:0:0:
256,192,83459,1,4,0:0:0:0:
256,192,83630,1,12,0:0:0:0:
256,192,83973,1,8,0:0:0:0:
256,192,84144,1,0,0:0:0:0:
256,192,84316,1,8,0:0:0:0:
256,192,84659,1,4,0:0:0:0:
256,192,85173,1,0,0:0:0:0:
256,192,85344,1,8,0:0:0:0:
256,192,85430,1,8,0:0:0:0:
256,192,85601,1,0,0:0:0:0:
256,192,85687,1,0,0:0:0:0:
256,192,85859,1,8,0:0:0:0:
256,192,86116,1,8,0:0:0:0:
256,192,86373,1,8,0:0:0:0:
256,192,86716,1,8,0:0:0:0:
256,192,86801,1,8,0:0:0:0:
256,192,86973,1,8,0:0:0:0:
256,192,87059,1,0,0:0:0:0:
256,192,87230,1,0,0:0:0:0:
256,192,87401,1,8,0:0:0:0:
256,192,87744,1,8,0:0:0:0:
256,192,87830,1,8,0:0:0:0:
256,192,88087,1,0,0:0:0:0:
256,192,88430,1,8,0:0:0:0:
256,192,88601,1,0,0:0:0:0:
256,192,88773,1,12,0:0:0:0:
256,192,89116,1,4,0:0:0:0:
256,192,89459,1,4,0:0:0:0:
256,192,89801,1,8,0:0:0:0:
256,192,89887,1,8,0:0:0:0:
256,192,89973,1,8,0:0:0:0:
256,192,90144,1,4,0:0:0:0:
256,192,90659,1,0,0:0:0:0:
256,192,90830,1,8,0:0:0:0:
256,192,90916,1,8,0:0:0:0:
256,192,91087,1,8,0:0:0:0:
256,192,91173,1,8,0:0:0:0:
256,192,91344,1,0,0:0:0:0:
256,192,91687,1,0,0:0:0:0:
256,192,91859,1,8,0:0:0:0:
256,192,91944,1,0,0:0:0:0:
256,192,92201,1,0,0:0:0:0:
256,192,92316,1,0,0:0:0:0:
256,192,92430,1,0,0:0:0:0:
256,192,92544,1,0,0:0:0:0:
256,192,92887,1,8,0:0:0:0:
256,192,93144,1,0,0:0:0:0:
256,192,93401,1,8,0:0:0:0:
256,192,93659,1,8,0:0:0:0:
256,192,93830,1,0,0:0:0:0:
256,192,93916,1,8,0:0:0:0:
256,192,94259,1,4,0:0:0:0:
256,192,94430,1,4,0:0:0:0:
256,192,94601,1,12,0:0:0:0:
256,192,94944,1,8,0:0:0:0:
256,192,95287,1,0,0:0:0:0:
256,192,95630,1,8,0:0:0:0:
256,192,95801,1,8,0:0:0:0:
256,192,95973,1,0,0:0:0:0:
256,192,96144,1,8,0:0:0:0:
256,192,96316,1,8,0:0:0:0:
256,192,96487,1,0,0:0:0:0:
256,192,96659,1,8,0:0:0:0:
256,192,96830,1,8,0:0:0:0:
256,192,97001,1,0,0:0:0:0:
256,192,97173,1,8,0:0:0:0:
256,192,97344,1,8,0:0:0:0:
256,192,97516,1,0,0:0:0:0:
256,192,97687,1,8,0:0:0:0:
256,192,98030,1,8,0:0:0:0:
256,192,98201,1,0,0:0:0:0:
256,192,98373,1,8,0:0:0:0:
256,192,98459,1,8,0:0:0:0:
256,192,98544,1,8,0:0:0:0:
256,192,98716,1,0,0:0:0:0:
256,192,98801,1,0,0:0:0:0:
256,192,98887,1,0,0:0:0:0:
256,192,99059,1,8,0:0:0:0:
256,192,99230,1,8,0:0:0:0:
256,192,99401,1,8,0:0:0:0:
256,192,99487,1,8,0:0:0:0:
256,192,99573,1,8,0:0:0:0:
256,192,99659,1,8,0:0:0:0:
256,192,99744,1,8,0:0:0:0:
256,192,100773,1,12,0:0:0:0:
256,192,101116,5,4,0:0:0:0:
256,192,101287,1,8,0:0:0:0:
256,192,101459,1,8,0:0:0:0:
256,192,101630,1,0,0:0:0:0:
256,192,101801,1,8,0:0:0:0:
256,192,102144,1,8,0:0:0:0:
256,192,102316,1,0,0:0:0:0:
256,192,102659,1,0,0:0:0:0:
256,192,102830,1,8,0:0:0:0:
256,192,103001,1,8,0:0:0:0:
256,192,103173,1,0,0:0:0:0:
256,192,103344,1,8,0:0:0:0:
256,192,103430,1,8,0:0:0:0:
256,192,103516,1,8,0:0:0:0:
256,192,103687,1,0,0:0:0:0:
256,192,103859,1,8,0:0:0:0:
256,192,104030,1,8,0:0:0:0:
256,192,104373,1,0,0:0:0:0:
256,192,104544,1,8,0:0:0:0:
256,192,104716,1,0,0:0:0:0:
256,192,104887,1,0,0:0:0:0:
256,192,105059,1,8,0:0:0:0:
256,192,105401,1,8,0:0:0:0:
256,192,105487,1,8,0:0:0:0:
256,192,105573,1,8,0:0:0:0:
256,192,105744,1,0,0:0:0:0:
256,192,105916,1,8,0:0:0:0:
256,192,106087,1,8,0:0:0:0:
256,192,106259,1,0,0:0:0:0:
256,192,106601,5,8,0:0:0:0:
256,192,106944,1,0,0:0:0:0:
256,192,107116,1,8,0:0:0:0:
256,192,107287,1,0,0:0:0:0:
256,192,107630,1,0,0:0:0:0:
256,192,107801,1,8,0:0:0:0:
256,192,107973,1,0,0:0:0:0:
256,192,108059,1,0,0:0:0:0:
256,192,108144,1,0,0:0:0:0:
256,192,108316,1,0,0:0:0:0:
256,192,108487,1,8,0:0:0:0:
256,192,108659,1,8,0:0:0:0:
256,192,108830,1,8,0:0:0:0:
256,192,108916,1,8,0:0:0:0:
256,192,109001,1,8,0:0:0:0:
256,192,109173,1,0,0:0:0:0:
256,192,109344,1,8,0:0:0:0:
256,192,109687,1,8,0:0:0:0:
256,192,109859,1,0,0:0:0:0:
256,192,110030,1,8,0:0:0:0:
256,192,110201,1,0,0:0:0:0:
256,192,110287,1,0,0:0:0:0:
256,192,110373,1,0,0:0:0:0:
256,192,110544,1,8,0:0:0:0:
256,192,110887,1,8,0:0:0:0:
256,192,111059,1,8,0:0:0:0:
256,192,111230,1,0,0:0:0:0:
256,192,111401,1,8,0:0:0:0:
256,192,111573,1,8,0:0:0:0:
256,192,111659,1,8,0:0:0:0:
256,192,111744,1,8,0:0:0:0:
256,192,111916,1,8,0:0:0:0:
256,192,112087,1,4,0:0:0:0:
256,192,112601,1,0,0:0:0:0:
256,192,112773,1,8,0:0:0:0:
256,192,112944,1,8,0:0:0:0:
256,192,113116,1,0,0:0:0:0:
256,192,113287,1,8,0:0:0:0:
256,192,113630,1,0,0:0:0:0:
256,192,113801,1,8,0:0:0:0:
256,192,113973,1,8,0:0:0:0:
256,192,114144,1,0,0:0:0:0:
256,192,114316,1,8,0:0:0:0:
256,192,114401,1,8,0:0:0:0:
256,192,114487,1,8,0:0:0:0:
256,192,114659,1,0,0:0:0:0:
256,192,114830,1,8,0:0:0:0:
256,192,115001,1,8,0:0:0:0:
256,192,115344,1,0,0:0:0:0:
256,192,115516,1,8,0:0:0:0:
256,192,115687,1,0,0:0:0:0:
256,192,115773,1,0,0:0:0:0:
256,192,115859,1,0,0:0:0:0:
256,192,116030,1,8,0:0:0:0:
256,192,116373,1,8,0:0:0:0:
256,192,116459,1,8,0:0:0:0:
256,192,116544,1,8,0:0:0:0:
256,192,116716,1,0,0:0:0:0:
256,192,116887,1,8,0:0:0:0:
256,192,117059,1,8,0:0:0:0:
256,192,117230,1,0,0:0:0:0:
256,192,117573,1,8,0:0:0:0:
256,192,117916,1,0,0:0:0:0:
256,192,118087,1,8,0:0:0:0:
256,192,118259,1,0,0:0:0:0:
256,192,118344,1,0,0:0:0:0:
256,192,118430,1,0,0:0:0:0:
256,192,118601,1,8,0:0:0:0:
256,192,118773,1,8,0:0:0:0:
256,192,119116,1,8,0:0:0:0:
256,192,119287,1,0,0:0:0:0:
256,192,119459,1,8,0:0:0:0:
256,192,119630,1,8,0:0:0:0:
256,192,119801,1,0,0:0:0:0:
256,192,119887,1,0,0:0:0:0:
256,192,119973,1,0,0:0:0:0:
256,192,120144,1,0,0:0:0:0:
256,192,120316,1,8,0:0:0:0:
256,192,120487,1,0,0:0:0:0:
256,192,120659,1,8,0:0:0:0:
256,192,120830,1,0,0:0:0:0:
256,192,121001,5,8,0:0:0:0:
256,192,121087,1,8,0:0:0:0:
256,192,121173,1,8,0:0:0:0:
256,192,121344,1,0,0:0:0:0:
256,192,121687,1,12,0:0:0:0:
256,192,122373,1,0,0:0:0:0:
256,192,122459,1,0,0:0:0:0:
256,192,122544,1,0,0:0:0:0:
256,192,122716,1,8,0:0:0:0:
256,192,123059,5,4,0:0:0:0:
256,192,123401,1,8,0:0:0:0:
256,192,123744,1,8,0:0:0:0:
256,192,124087,1,4,0:0:0:0:
256,192,124601,1,8,0:0:0:0:
256,192,124773,1,0,0:0:0:0:
256,192,125116,1,0,0:0:0:0:
256,192,125459,1,8,0:0:0:0:
256,192,125801,1,8,0:0:0:0:
256,192,125916,1,8,0:0:0:0:
256,192,126030,1,8,0:0:0:0:
256,192,126144,1,8,0:0:0:0:
256,192,126487,1,0,0:0:0:0:
256,192,126601,1,0,0:0:0:0:
256,192,126716,1,0,0:0:0:0:
256,192,126830,1,0,0:0:0:0:
256,192,127173,1,8,0:0:0:0:
256,192,127401,1,0,0:0:0:0:
256,192,127516,1,0,0:0:0:0:
256,192,127744,1,8,0:0:0:0:
256,192,127859,1,8,0:0:0:0:
256,192,128087,1,8,0:0:0:0:
256,192,128201,1,0,0:0:0:0:
256,192,128887,1,4,0:0:0:0:
256,192,129230,1,8,0:0:0:0:
256,192,129573,1,4,0:0:0:0:
256,192,129744,1,0,0:0:0:0:
256,192,129916,1,8,0:0:0:0:
256,192,130259,1,0,0:0:0:0:
256,192,130601,1,8,0:0:0:0:
256,192,130944,1,8,0:0:0:0:
256,192,131116,1,8,0:0:0:0:
256,192,131287,1,4,0:0:0:0:
256,192,131516,1,0,0:0:0:0:
256,192,131630,1,8,0:0:0:0:
256,192,131859,1,8,0:0:0:0:
256,192,131973,1,8,0:0:0:0:
256,192,132144,1,0,0:0:0:0:
256,192,132316,1,0,0:0:0:0:
256,192,132659,1,0,0:0:0:0:
256,192,132887,1,8,0:0:0:0:
256,192,133001,1,8,0:0:0:0:
256,192,133173,1,0,0:0:0:0:
256,192,133344,1,8,0:0:0:0:
256,192,133573,1,0,0:0:0:0:
256,192,133687,1,0,0:0:0:0:
256,192,134030,1,4,0:0:0:0:
256,192,134373,1,8,0:0:0:0:
256,192,134716,1,8,0:0:0:0:
256,192,134887,1,0,0:0:0:0:
256,192,135059,1,4,0:0:0:0:
256,192,135401,1,8,0:0:0:0:
256,192,135744,1,4,0:0:0:0:
256,192,135916,1,0,0:0:0:0:
256,192,136087,1,8,0:0:0:0:
256,192,136430,1,8,0:0:0:0:
256,192,136516,1,8,0:0:0:0:
256,192,136601,1,8,0:0:0:0:
256,192,136773,1,4,0:0:0:0:
256,192,137116,1,8,0:0:0:0:
256,192,137287,1,8,0:0:0:0:
256,192,137459,1,8,0:0:0:0:
256,192,137801,1,8,0:0:0:0:
256,192,137973,1,0,0:0:0:0:
256,192,138144,1,8,0:0:0:0:
256,192,138487,1,8,0:0:0:0:
256,192,138659,1,8,0:0:0:0:
256,192,138830,1,8,0:0:0:0:
256,192,139001,1,8,0:0:0:0:
256,192,139173,1,0,0:0:0:0:
256,192,139516,1,4,0:0:0:0:
256,192,139859,1,12,0:0:0:0:
256,192,140201,1,8,0:0:0:0:
256,192,140373,1,0,0:0:0:0:
256,192,140544,1,4,0:0:0:0:
256,192,140887,1,8,0:0:0:0:
256,192,141059,1,8,0:0:0:0:
256,192,141230,1,0,0:0:0:0:
256,192,141573,1,8,0:0:0:0:
256,192,141916,1,0,0:0:0:0:
256,192,142259,1,0,0:0:0:0:
256,192,142373,1,0,0:0:0:0:
256,192,142487,1,0,0:0:0:0:
256,192,142601,1,8,0:0:0:0:
256,192,142944,1,8,0:0:0:0:
256,192,143116,1,0,0:0:0:0:
256,192,143287,1,0,0:0:0:0:
256,192,143630,1,8,0:0:0:0:
256,192,143801,1,0,0:0:0:0:
256,192,143973,1,8,0:0:0:0:
256,192,144316,1,8,0:0:0:0:
256,192,144487,1,0,0:0:0:0:
256,192,145001,5,4,0:0:0:0:
256,192,153230,5,0,0:0:0:0:
256,192,153573,5,8,0:0:0:0:
256,192,153744,1,0,0:0:0:0:
256,192,154087,1,8,0:0:0:0:
256,192,154430,1,0,0:0:0:0:
256,192,154773,1,8,0:0:0:0:
256,192,155116,1,8,0:0:0:0:
256,192,155973,1,8,0:0:0:0:
256,192,157001,1,8,0:0:0:0:
256,192,157344,1,0,0:0:0:0:
256,192,157687,1,0,0:0:0:0:
256,192,158030,1,0,0:0:0:0:
256,192,158716,1,8,0:0:0:0:
256,192,159744,1,8,0:0:0:0:
256,192,160430,1,8,0:0:0:0:
256,192,160773,1,8,0:0:0:0:
256,192,160887,1,8,0:0:0:0:
256,192,161001,1,8,0:0:0:0:
256,192,161459,1,0,0:0:0:0:
256,192,162487,1,0,0:0:0:0:
256,192,163173,1,0,0:0:0:0:
256,192,163601,1,0,0:0:0:0:
256,192,164201,1,8,0:0:0:0:
256,192,165230,1,8,0:0:0:0:
256,192,165573,1,0,0:0:0:0:
256,192,165916,1,8,0:0:0:0:
256,192,166087,1,0,0:0:0:0:
256,192,166259,1,8,0:0:0:0:
256,192,166601,1,8,0:0:0:0:
256,192,166773,1,8,0:0:0:0:
256,192,166944,5,0,0:0:0:0:
256,192,167287,1,0,0:0:0:0:
256,192,167459,1,0,0:0:0:0:
256,192,167630,1,8,0:0:0:0:
256,192,168316,1,0,0:0:0:0:
256,192,168487,1,8,0:0:0:0:
256,192,168659,1,8,0:0:0:0:
256,192,169001,1,8,0:0:0:0:
256,192,169344,1,0,0:0:0:0:
256,192,169687,1,0,0:0:0:0:
256,192,170030,1,8,0:0:0:0:
256,192,170201,1,0,0:0:0:0:
256,192,170373,1,8,0:0:0:0:
256,192,171059,1,0,0:0:0:0:
256,192,171230,1,8,0:0:0:0:
256,192,171573,1,0,0:0:0:0:
256,192,171744,1,8,0:0:0:0:
256,192,171916,1,8,0:0:0:0:
256,192,172087,1,0,0:0:0:0:
256,192,172430,1,0,0:0:0:0:
256,192,172601,1,0,0:0:0:0:
256,192,172773,1,8,0:0:0:0:
256,192,173116,1,8,0:0:0:0:
256,192,173459,1,8,0:0:0:0:
256,192,173630,1,8,0:0:0:0:
256,192,173801,1,0,0:0:0:0:
256,192,174144,1,0,0:0:0:0:
256,192,174487,1,8,0:0:0:0:
256,192,174830,1,0,0:0:0:0:
256,192,175173,1,0,0:0:0:0:
256,192,175344,1,8,0:0:0:0:
256,192,175516,1,0,0:0:0:0:
256,192,175859,1,8,0:0:0:0:
256,192,176201,1,0,0:0:0:0:
256,192,176373,1,8,0:0:0:0:
256,192,176544,1,0,0:0:0:0:
256,192,176716,1,8,0:0:0:0:
256,192,177059,1,0,0:0:0:0:
256,192,177230,1,8,0:0:0:0:
256,192,177573,1,0,0:0:0:0:
256,192,177801,1,8,0:0:0:0:
256,192,177916,1,0,0:0:0:0:
256,192,178259,1,0,0:0:0:0:
256,192,178430,1,0,0:0:0:0:
256,192,178601,1,8,0:0:0:0:
256,192,179287,1,0,0:0:0:0:
256,192,179459,1,8,0:0:0:0:
256,192,179630,1,8,0:0:0:0:
256,192,179973,1,8,0:0:0:0:
256,192,180316,1,8,0:0:0:0:
256,192,180487,1,8,0:0:0:0:
256,192,180659,1,0,0:0:0:0:
256,192,181001,1,0,0:0:0:0:
256,192,181173,1,0,0:0:0:0:
256,192,181344,1,8,0:0:0:0:
256,192,182030,1,0,0:0:0:0:
256,192,182201,1,8,0:0:0:0:
256,192,182373,1,8,0:0:0:0:
256,192,182716,1,8,0:0:0:0:
256,192,182887,1,8,0:0:0:0:
256,192,183059,1,0,0:0:0:0:
256,192,183401,1,0,0:0:0:0:
256,192,183744,1,0,0:0:0:0:
256,192,184087,1,8,0:0:0:0:
256,192,184259,1,0,0:0:0:0:
256,192,184430,1,8,0:0:0:0:
256,192,184601,1,8,0:0:0:0:
256,192,184773,1,0,0:0:0:0:
256,192,185459,1,8,0:0:0:0:
256,192,185801,1,0,0:0:0:0:
256,192,185973,1,8,0:0:0:0:
256,192,186144,1,0,0:0:0:0:
256,192,186830,1,8,0:0:0:0:
256,192,187173,1,8,0:0:0:0:
256,192,187516,1,0,0:0:0:0:
256,192,187687,1,8,0:0:0:0:
256,192,188030,1,0,0:0:0:0:
256,192,188201,1,8,0:0:0:0:
256,192,188887,5,12,0:0:0:0:
256,192,189230,1,8,0:0:0:0:
256,192,189401,1,0,0:0:0:0:
256,192,189573,1,8,0:0:0:0:
256,192,189830,1,8,0:0:0:0:
256,192,190087,1,0,0:0:0:0:
256,192,190259,1,8,0:0:0:0:
256,192,190601,1,8,0:0:0:0:
256,192,190773,1,0,0:0:0:0:
256,192,190944,1,8,0:0:0:0:
256,192,191201,1,0,0:0:0:0:
256,192,191287,1,0,0:0:0:0:
256,192,191459,1,8,0:0:0:0:
256,192,191630,1,8,0:0:0:0:
256,192,191973,1,8,0:0:0:0:
256,192,192144,1,0,0:0:0:0:
256,192,192316,1,8,0:0:0:0:
256,192,192573,1,0,0:0:0:0:
256,192,192830,1,8,0:0:0:0:
256,192,193001,1,0,0:0:0:0:
256,192,193173,1,8,0:0:0:0:
256,192,193344,1,8,0:0:0:0:
256,192,193516,1,0,0:0:0:0:
256,192,193687,1,8,0:0:0:0:
256,192,193944,1,8,0:0:0:0:
256,192,194116,1,8,0:0:0:0:
256,192,194201,1,8,0:0:0:0:
256,192,194373,1,4,0:0:0:0:
256,192,194716,1,0,0:0:0:0:
256,192,194887,1,0,0:0:0:0:
256,192,195059,1,8,0:0:0:0:
256,192,195573,1,0,0:0:0:0:
256,192,195744,1,8,0:0:0:0:
256,192,195916,1,0,0:0:0:0:
256,192,196087,1,8,0:0:0:0:
256,192,196173,1,8,0:0:0:0:
256,192,196259,1,8,0:0:0:0:
256,192,196430,1,8,0:0:0:0:
256,192,196601,1,8,0:0:0:0:
256,192,196773,1,0,0:0:0:0:
256,192,196944,1,0,0:0:0:0:
256,192,197116,1,8,0:0:0:0:
256,192,197201,1,8,0:0:0:0:
256,192,197287,1,8,0:0:0:0:
256,192,197459,1,0,0:0:0:0:
256,192,197544,1,0,0:0:0:0:
256,192,197630,1,0,0:0:0:0:
256,192,197801,1,8,0:0:0:0:
256,192,197973,1,0,0:0:0:0:
256,192,198144,1,8,0:0:0:0:
256,192,198230,1,8,0:0:0:0:
256,192,198316,1,8,0:0:0:0:
256,192,198487,1,8,0:0:0:0:
256,192,198830,1,8,0:0:0:0:
256,192,199173,5,8,0:0:0:0:
256,192,199344,1,8,0:0:0:0:
256,192,199516,1,12,0:0:0:0:
256,192,199859,5,4,0:0:0:0:
256,192,200201,1,4,0:0:0:0:
256,192,200544,1,4,0:0:0:0:
256,192,200801,1,4,0:0:0:0:
256,192,201059,1,12,0:0:0:0:
256,192,201401,1,0,0:0:0:0:
256,192,201573,1,8,0:0:0:0:
256,192,201659,1,0,0:0:0:0:
256,192,201916,1,8,0:0:0:0:
256,192,202001,1,8,0:0:0:0:
256,192,202173,1,8,0:0:0:0:
256,192,202601,1,0,0:0:0:0:
256,192,202773,1,8,0:0:0:0:
256,192,202944,1,0,0:0:0:0:
256,192,203030,1,0,0:0:0:0:
256,192,203201,1,8,0:0:0:0:
256,192,203459,1,0,0:0:0:0:
256,192,203630,1,8,0:0:0:0:
256,192,203716,1,8,0:0:0:0:
256,192,203801,1,8,0:0:0:0:
256,192,203973,1,4,0:0:0:0:
256,192,204144,1,4,0:0:0:0:
256,192,204316,1,12,0:0:0:0:
256,192,204659,1,8,0:0:0:0:
256,192,204830,1,8,0:0:0:0:
256,192,205001,1,0,0:0:0:0:
256,192,205344,1,4,0:0:0:0:
256,192,205687,1,4,0:0:0:0:
256,192,206030,1,8,0:0:0:0:
256,192,206116,1,8,0:0:0:0:
256,192,206201,1,8,0:0:0:0:
256,192,206373,1,0,0:0:0:0:
256,192,206544,1,8,0:0:0:0:
256,192,206801,1,8,0:0:0:0:
256,192,207059,1,8,0:0:0:0:
256,192,207401,1,8,0:0:0:0:
256,192,207487,1,8,0:0:0:0:
256,192,207659,1,8,0:0:0:0:
256,192,207744,1,0,0:0:0:0:
256,192,208087,1,4,0:0:0:0:
256,192,208430,1,8,0:0:0:0:
256,192,208516,1,8,0:0:0:0:
256,192,208601,1,8,0:0:0:0:
256,192,208773,1,0,0:0:0:0:
256,192,209116,1,0,0:0:0:0:
256,192,209287,1,0,0:0:0:0:
256,192,209459,1,12,0:0:0:0:
256,192,209801,1,12,0:0:0:0:
256,192,210144,1,12,0:0:0:0:
256,192,210830,1,4,0:0:0:0:
256,192,211173,1,4,0:0:0:0:
256,192,211516,1,4,0:0:0:0:
256,192,211773,1,4,0:0:0:0:
256,192,212030,1,12,0:0:0:0:
256,192,212373,1,0,0:0:0:0:
256,192,212544,1,8,0:0:0:0:
256,192,212630,1,0,0:0:0:0:
256,192,212887,1,8,0:0:0:0:
256,192,212973,1,8,0:0:0:0:
256,192,213144,1,8,0:0:0:0:
256,192,213573,1,0,0:0:0:0:
256,192,213744,1,8,0:0:0:0:
256,192,213916,1,0,0:0:0:0:
256,192,214001,1,0,0:0:0:0:
256,192,214173,1,8,0:0:0:0:
256,192,214430,1,0,0:0:0:0:
256,192,214601,1,8,0:0:0:0:
256,192,214687,1,8,0:0:0:0:
256,192,214773,1,8,0:0:0:0:
256,192,214944,1,4,0:0:0:0:
256,192,215116,1,4,0:0:0:0:
256,192,215287,1,12,0:0:0:0:
256,192,215630,1,8,0:0:0:0:
256,192,215801,1,0,0:0:0:0:
256,192,215973,1,8,0:0:0:0:
256,192,216316,1,8,0:0:0:0:
256,192,216487,1,8,0:0:0:0:
256,192,216659,1,0,0:0:0:0:
256,192,216830,1,8,0:0:0:0:
256,192,217001,1,8,0:0:0:0:
256,192,217173,1,0,0:0:0:0:
256,192,217344,1,8,0:0:0:0:
256,192,217516,1,8,0:0:0:0:
256,192,217687,1,0,0:0:0:0:
256,192,217859,1,8,0:0:0:0:
256,192,218030,1,8,0:0:0:0:
256,192,218201,1,0,0:0:0:0:
256,192,218373,1,8,0:0:0:0:
256,192,218716,1,8,0:0:0:0:
256,192,218887,1,0,0:0:0:0:
256,192,219059,1,8,0:0:0:0:
256,192,219144,1,8,0:0:0:0:
256,192,219230,1,8,0:0:0:0:
256,192,219401,1,0,0:0:0:0:
256,192,219487,1,0,0:0:0:0:
256,192,219573,1,0,0:0:0:0:
256,192,219744,1,8,0:0:0:0:
256,192,219916,1,8,0:0:0:0:
256,192,220087,1,8,0:0:0:0:
256,192,220173,1,8,0:0:0:0:
256,192,220259,1,8,0:0:0:0:
256,192,220344,5,8,0:0:0:0:
256,192,220430,1,8,0:0:0:0:
256,192,221459,1,8,0:0:0:0:
256,192,221801,5,4,0:0:0:0:
256,192,222316,1,8,0:0:0:0:
256,192,222830,1,8,0:0:0:0:
256,192,223344,1,8,0:0:0:0:
256,192,223859,1,8,0:0:0:0:
256,192,224201,1,8,0:0:0:0:
256,192,224544,1,0,0:0:0:0:
256,192,225059,1,8,0:0:0:0:
256,192,225573,1,8,0:0:0:0:
256,192,226087,1,8,0:0:0:0:
256,192,226601,1,8,0:0:0:0:
256,192,226944,1,8,0:0:0:0:
256,192,227287,1,0,0:0:0:0:
256,192,227801,1,8,0:0:0:0:
256,192,228316,1,8,0:0:0:0:
256,192,228830,1,8,0:0:0:0:
256,192,229344,1,8,0:0:0:0:
256,192,229687,1,8,0:0:0:0:
256,192,230030,1,0,0:0:0:0:
256,192,230373,1,8,0:0:0:0:
256,192,230544,1,0,0:0:0:0:
256,192,230887,1,8,0:0:0:0:
256,192,231059,1,0,0:0:0:0:
256,192,231230,1,8,0:0:0:0:
256,192,231573,1,8,0:0:0:0:
256,192,231916,1,0,0:0:0:0:
256,192,232087,1,8,0:0:0:0:
256,192,232430,1,8,0:0:0:0:
256,192,232773,1,0,0:0:0:0:
256,192,233287,1,8,0:0:0:0:
256,192,233801,1,8,0:0:0:0:
256,192,234316,1,8,0:0:0:0:
256,192,234830,1,8,0:0:0:0:
256,192,235173,1,8,0:0:0:0:
256,192,235516,1,0,0:0:0:0:
256,192,236030,1,8,0:0:0:0:
256,192,236544,1,8,0:0:0:0:
256,192,237059,1,8,0:0:0:0:
256,192,237573,1,8,0:0:0:0:
256,192,237916,1,8,0:0:0:0:
256,192,238259,1,0,0:0:0:0:
256,192,238773,1,8,0:0:0:0:
256,192,239287,1,8,0:0:0:0:
256,192,239801,1,8,0:0:0:0:
256,192,240316,1,8,0:0:0:0:
256,192,240659,1,8,0:0:0:0:
256,192,241001,1,0,0:0:0:0:
256,192,241516,1,8,0:0:0:0:
256,192,242030,1,8,0:0:0:0:
256,192,242373,1,0,0:0:0:0:
256,192,242544,1,8,0:0:0:0:
256,192,242716,1,0,0:0:0:0:
256,192,243059,1,8,0:0:0:0:
256,192,243401,1,8,0:0:0:0:
