osu file format v14

[General]
AudioFilename: audio.mp3
AudioLeadIn: 0
PreviewTime: 101096
Countdown: 0
SampleSet: Normal
StackLeniency: 0.7
Mode: 1
LetterboxInBreaks: 0
WidescreenStoryboard: 0

[Editor]
Bookmarks: 21574,46260,79174,101117,123060,145003,188889,199860,221803
DistanceSpacing: 1
BeatDivisor: 8
GridSize: 32
TimelineZoom: 2.000003

[Metadata]
Title:BRAND NEW DAY feat. Numb'n'dub
TitleUnicode:BRAND NEW DAY feat. Numb'n'dub
Artist:lapix
ArtistUnicode:lapix
Creator:Cychloryn
Version:Fly Away
Source:
Tags:fügene fugene MRX-016 megarex future bass capu electronic edm hardcore english japanese
BeatmapID:2209144
BeatmapSetID:1056895

[Difficulty]
HPDrainRate:5
CircleSize:2
OverallDifficulty:6.6
ApproachRate:10
SliderMultiplier:1.4
SliderTickRate:1

[Events]
//Background and Video events
0,0,"sun.jpg",0,54
//Break Periods
2,145201,152780
//Storyboard Layer 0 (Background)
//Storyboard Layer 1 (Fail)
//Storyboard Layer 2 (Pass)
//Storyboard Layer 3 (Foreground)
//Storyboard Layer 4 (Overlay)
//Storyboard Sound Samples

[TimingPoints]
2032,342.857142857143,7,1,0,40,1,0
2032,-133.333333333333,7,1,0,40,0,0
16432,-121.951219512195,4,1,0,40,0,0
16517,-123.456790123457,4,1,0,40,0,0
16603,-125,4,1,0,40,0,0
16689,-126.943021624744,4,1,0,40,0,0
16774,-128.94740235458,4,1,0,40,0,0
16946,-133.152246278395,4,1,0,40,0,0
17117,-125,4,1,0,40,0,0
17203,-126.943021624744,4,1,0,40,0,0
17289,-128.94740235458,4,1,0,40,0,0
17460,-133.152246278395,4,1,0,40,0,0
17632,-125,4,1,0,40,0,0
17717,-126.582278481013,4,1,0,40,0,0
17803,-128.205128205128,4,1,0,40,0,0
18746,-126.582278481013,4,1,0,40,0,0
18832,342.857142857143,4,1,0,45,1,0
18832,-125,4,1,0,45,0,0
21232,-123.456790123457,4,1,0,45,0,0
21403,-120.481927710843,4,1,0,45,0,0
21574,342.857142857143,4,1,0,50,1,0
21574,-117.647058823529,4,1,0,50,0,0
43516,-117.647058823529,4,1,0,25,0,0
45746,-117.647058823529,4,1,0,50,0,0
45916,-116.279069767442,4,1,0,50,0,0
46088,-114.942528735632,4,1,0,50,0,0
46259,342.857142857143,4,1,0,60,1,0
46259,-111.111111111111,4,1,0,60,0,0
67687,-108.138269917447,4,1,0,60,0,0
67772,-106.710716850583,4,1,0,60,0,0
67858,-105.320252557966,4,1,0,60,0,0
67944,-103.965666378335,4,1,0,60,0,0
68030,-102.645482007787,4,1,0,60,0,0
68201,-100.103206405804,4,1,0,60,0,0
73687,-100,4,1,0,70,0,0
73858,-99.0735631113458,4,1,0,70,0,0
74030,-98.1642307212813,4,1,0,70,0,0
74115,-97.7157000792474,4,1,0,70,0,0
74201,-97.271344251069,4,1,0,70,0,0
74372,-96.3945544788284,4,1,0,70,0,0
74458,-95.9621064833918,4,1,0,70,0,0
74544,-95.5335212796142,4,1,0,70,0,0
74630,-95.1086568850583,4,1,0,70,0,0
74715,-94.6876443986577,4,1,0,70,0,0
74887,-93.8566152488843,4,1,0,70,0,0
74972,-93.4465906011419,4,1,0,70,0,0
75058,-93.0401328613097,4,1,0,70,0,0
75230,-92.2376484564952,4,1,0,70,0,0
75401,-91.4489723878973,4,1,0,70,0,0
75487,-91.059587572916,4,1,0,70,0,0
75572,-90.6735868748169,4,1,0,70,0,0
75658,-90.2908448694936,4,1,0,70,0,0
75744,-89.9112396242429,4,1,0,70,0,0
75915,-89.1616840145583,4,1,0,70,0,0
76001,-88.7914944851603,4,1,0,70,0,0
76087,-88.4244444071097,4,1,0,70,0,0
76172,-88.0604164905458,4,1,0,70,0,0
76258,-87.6992966516409,4,1,0,70,0,0
76430,-86.9565217391304,4,1,0,80,0,0
76515,-85.8958203952754,4,1,0,80,0,0
76601,-84.8606842147247,4,1,0,80,0,0
76687,-83.8501296323004,4,1,0,80,0,0
76772,-82.8634286400869,4,1,0,80,0,0
76858,-81.8996794446547,4,1,0,80,0,0
76944,-80.9580904253295,4,1,0,80,0,0
77030,-80.037905952259,4,1,0,80,0,0
77115,-79.1384043640082,4,1,0,80,0,0
77201,-78.2588348355117,4,1,0,80,0,0
77287,-77.3986619319325,4,1,0,80,0,0
77372,-76.5571924333933,4,1,0,80,0,0
77458,-75.7338228767644,4,1,0,80,0,0
77544,-74.9279754835664,4,1,0,80,0,0
77630,-74.1390418418511,4,1,0,80,0,0
77801,-66.6666666666667,4,1,0,80,0,0
77858,-67.7200750067551,4,1,0,80,0,0
77915,-68.8073552310448,4,1,0,80,0,0
77972,-69.9300699300699,4,1,0,80,0,0
78030,-71.0900305473861,4,1,0,80,0,0
78087,-72.2891740455841,4,1,0,80,0,0
78144,-73.5294117647059,4,1,0,80,0,0
78230,-75.4716981132076,4,1,0,80,0,0
78315,-77.5193798449612,4,1,0,80,0,0
78401,-79.6812749003984,4,1,0,80,0,0
78487,-81.9672131147541,4,1,0,80,0,0
78658,-76.9230769230769,4,1,0,80,0,0
78830,-64.5161290322581,4,1,0,90,0,0
79173,-83.3333333333333,4,1,0,100,0,1
79515,-95.2380952380952,4,1,0,100,0,1
79601,-93.4579439252336,4,1,0,100,0,1
79687,-91.743119266055,4,1,0,100,0,1
79772,-90.0900900900901,4,1,0,100,0,1
79858,-88.495575221239,4,1,0,100,0,1
79944,-86.9565217391304,4,1,0,100,0,1
80030,-85.4700854700855,4,1,0,100,0,1
80115,-84.0336134453782,4,1,0,100,0,1
80201,-82.6446280991736,4,1,0,100,0,1
80372,-76.9230769230769,4,1,0,100,0,1
80544,-80,4,1,0,100,0,1
80630,-80.6451612903226,4,1,0,100,0,1
80715,-81.3008130081301,4,1,0,100,0,1
80887,-83.3333333333333,4,1,0,100,0,1
80972,-84.0336134453781,4,1,0,100,0,1
81144,-86.9565217391304,4,1,0,100,0,1
81230,-87.719298245614,4,1,0,100,0,1
81401,-90.9090909090909,4,1,0,100,0,1
81487,-92.5644804170585,4,1,0,100,0,1
81572,-94.2812749845379,4,1,0,100,0,1
81630,-95.4616573480179,4,1,0,100,0,1
81687,-96.671970735461,4,1,0,100,0,1
81744,-98.0392156862745,4,1,0,100,0,1
81830,-100,4,1,0,100,0,1
81915,-90.9090909090909,4,1,0,100,0,1
82001,-88.9024810904423,4,1,0,100,0,1
82087,-86.9826165240877,4,1,0,100,0,1
82172,-85.1438462710827,4,1,0,100,0,1
82258,-83.3812775679349,4,1,0,100,0,1
82344,-81.6901362428092,4,1,0,100,0,1
82430,-80.0662307861063,4,1,0,100,0,1
82515,-78.5056912700886,4,1,0,100,0,1
82601,-77.0047612043853,4,1,0,100,0,1
82687,-75.5602033476193,4,1,0,100,0,1
82772,-74.1687903663641,4,1,0,100,0,1
82858,-72.8277485374367,4,1,0,100,0,1
82944,-71.5342888883643,4,1,0,100,0,1
83115,-70.4225352112676,4,1,0,100,0,1
83201,-69.4444444444444,4,1,0,100,0,1
83287,-66.6666666666667,4,1,0,100,0,1
83458,-68.9655172413793,4,1,0,100,0,1
83630,-71.4285714285714,4,1,0,100,0,1
83972,-76.9230769230769,4,1,0,100,0,1
84144,-79.9561840111619,4,1,0,100,0,1
84315,-83.2383029374797,4,1,0,100,0,1
84401,-84.9825615783641,4,1,0,100,0,1
84487,-86.8014113909492,4,1,0,100,0,1
84658,-80,4,1,0,100,0,1
85001,-95.2380952380952,4,1,0,100,0,1
85087,-93.0232558139535,4,1,0,100,0,1
85172,-90.9090909090909,4,1,0,100,0,1
85258,-88.8888888888889,4,1,0,100,0,1
85344,-86.9565217391304,4,1,0,100,0,1
85515,-83.3333333333333,4,1,0,100,0,1
85601,-81.6326530612245,4,1,0,100,0,1
85687,-80,4,1,0,100,0,1
85858,-76.9230769230769,4,1,0,100,0,1
86030,-80,4,1,0,100,0,1
86115,-81.0811029948927,4,1,0,100,0,1
86201,-82.1917583036279,4,1,0,100,0,1
86287,-83.3333333333333,4,1,0,100,0,1
86372,-84.5070660583285,4,1,0,100,0,1
86458,-85.7142612244968,4,1,0,100,0,1
86544,-86.9565217391304,4,1,0,100,0,1
86715,-80,4,1,0,100,0,1
86801,-81.2055450394375,4,1,0,100,0,1
86887,-82.4479114707306,4,1,0,100,0,1
86972,-83.7289526345315,4,1,0,100,0,1
87058,-85.0504306528556,4,1,0,100,0,1
87115,-85.9548118363214,4,1,0,100,0,1
87172,-86.8786331558403,4,1,0,100,0,1
87230,-87.8225282349428,4,1,0,100,0,1
87315,-89.2775039438337,4,1,0,100,0,1
87401,-90.7815016349748,4,1,0,100,0,1
87572,-94.3396226415094,4,1,0,100,0,1
87658,-92.5925925925926,4,1,0,100,0,1
87744,-90.9090909090909,4,1,0,100,0,1
87830,-89.2857142857143,4,1,0,100,0,1
88001,-94.3396226415094,4,1,0,100,0,1
88087,-92.5925925925926,4,1,0,100,0,1
88258,-94.3396226415094,4,1,0,100,0,1
88344,-92.5925925925926,4,1,0,100,0,1
88430,-90.9090909090909,4,1,0,100,0,1
88601,-94.3396226415094,4,1,0,100,0,1
88687,-92.5925925925926,4,1,0,100,0,1
88772,-90.9090909090909,4,1,0,100,0,1
88944,-88.4955752212389,4,1,0,100,0,1
89115,-83.3333333333333,4,1,0,100,0,1
89458,-76.9230769230769,4,1,0,100,0,1
89630,-74.0740740740741,4,1,0,100,0,1
89801,-71.4285714285714,4,1,0,100,0,1
89887,-74.0181492501961,4,1,0,100,0,1
89972,-76.8024970027826,4,1,0,100,0,1
90058,-79.8045745578228,4,1,0,100,0,1
90144,-83.0508221200882,4,1,0,100,0,1
90487,-95.2380952380952,4,1,0,100,0,1
90572,-93.0232558139535,4,1,0,100,0,1
90658,-90.9090909090909,4,1,0,100,0,1
90744,-88.8888888888889,4,1,0,100,0,1
90830,-86.9565217391304,4,1,0,100,0,1
90915,-85.1063829787234,4,1,0,100,0,1
91001,-83.3333333333333,4,1,0,100,0,1
91087,-81.6326530612245,4,1,0,100,0,1
91172,-80,4,1,0,100,0,1
91344,-76.9230769230769,4,1,0,100,0,1
91515,-80,4,1,0,100,0,1
91858,-83.3333333333333,4,1,0,100,0,1
91944,-84.0336134453781,4,1,0,100,0,1
92115,-86.9565217391304,4,1,0,100,0,1
92201,-84.7811121247164,4,1,0,100,0,1
92258,-83.3903167164229,4,1,0,100,0,1
92315,-82.0444155648102,4,1,0,100,0,1
92372,-80.7412042550615,4,1,0,100,0,1
92458,-78.8623009022636,4,1,0,100,0,1
92544,-77.0688556276834,4,1,0,100,0,1
92887,-90.9090909090909,4,1,0,100,0,1
92972,-88.8888888888889,4,1,0,100,0,1
93058,-86.9565217391304,4,1,0,100,0,1
93144,-85.1063829787234,4,1,0,100,0,1
93230,-83.3333333333333,4,1,0,100,0,1
93315,-81.6326530612245,4,1,0,100,0,1
93401,-80,4,1,0,100,0,1
93487,-78.4313725490196,4,1,0,100,0,1
93572,-76.9230769230769,4,1,0,100,0,1
93658,-75.4716981132076,4,1,0,100,0,1
93744,-74.0740740740741,4,1,0,100,0,1
93830,-72.7272727272727,4,1,0,100,0,1
93915,-71.4285714285714,4,1,0,100,0,1
94087,-70.4225352112676,4,1,0,100,0,1
94172,-69.4444444444444,4,1,0,100,0,1
94258,-66.6666666666667,4,1,0,100,0,1
94430,-68.9655172413793,4,1,0,100,0,1
94601,-71.4285714285714,4,1,0,100,0,1
94944,-76.9230769230769,4,1,0,100,0,1
95115,-80,4,1,0,100,0,1
95287,-83.3333333333333,4,1,0,100,0,1
95372,-84.7457627118644,4,1,0,100,0,1
95458,-86.2068965517241,4,1,0,100,0,1
95630,-76.9230769230769,4,1,0,100,0,1
95715,-78.125,4,1,0,100,0,1
95801,-79.3650793650794,4,1,0,100,0,1
95887,-80.6451612903226,4,1,0,100,0,1
95972,-81.9672131147541,4,1,0,100,0,1
96058,-83.3333333333333,4,1,0,100,0,1
96144,-76.9230769230769,4,1,0,100,0,1
96230,-78.125,4,1,0,100,0,1
96315,-79.3650793650794,4,1,0,100,0,1
96401,-80.6451612903226,4,1,0,100,0,1
96487,-81.9672131147541,4,1,0,100,0,1
96572,-83.3333333333333,4,1,0,100,0,1
96658,-76.9230769230769,4,1,0,100,0,1
96744,-78.1049855974407,4,1,0,100,0,1
96830,-79.3237806348441,4,1,0,100,0,1
96915,-80.5812161961798,4,1,0,100,0,1
97001,-81.8792265033231,4,1,0,100,0,1
97087,-83.2196691352395,4,1,0,100,0,1
97172,-76.9230769230769,4,1,0,100,0,1
97258,-78.1049855974407,4,1,0,100,0,1
97344,-79.3237806348441,4,1,0,100,0,1
97430,-80.5812161961798,4,1,0,100,0,1
97515,-81.8792265033231,4,1,0,100,0,1
97601,-83.2196691352395,4,1,0,100,0,1
97687,-76.9230769230769,4,1,0,100,0,1
97772,-77.9220981615839,4,1,0,100,0,1
97858,-78.9473476454348,4,1,0,100,0,1
97944,-80,4,1,0,100,0,1
98030,-76.9230769230769,4,1,0,100,0,1
98115,-77.9220981615839,4,1,0,100,0,1
98201,-78.9473476454348,4,1,0,100,0,1
98287,-80,4,1,0,100,0,1
98372,-76.9230769230769,4,1,0,100,0,1
98430,-77.5681455550738,4,1,0,100,0,1
98487,-78.2241246329333,4,1,0,100,0,1
98544,-78.8912310818828,4,1,0,100,0,1
98630,-76.3358778625954,4,1,0,100,0,1
98715,-73.5294117647059,4,1,0,100,0,1
98772,-74.1350845028761,4,1,0,100,0,1
98830,-74.7508181477046,4,1,0,100,0,1
98887,-75.3768654831996,4,1,0,100,0,1
98972,-72.992700729927,4,1,0,100,0,1
99058,-70.4225352112676,4,1,0,100,0,1
99115,-70.9779123834454,4,1,0,100,0,1
99172,-71.542118991714,4,1,0,100,0,1
99230,-72.1153672799598,4,1,0,100,0,1
99315,-69.9300699300699,4,1,0,100,0,1
99401,-67.5675675675676,4,1,0,100,0,1
99458,-66.6848049336086,4,1,0,100,0,1
99515,-65.8248112144414,4,1,0,100,0,1
99572,-64.9867167151034,4,1,0,100,0,1
99630,-64.1697366538178,4,1,0,100,0,1
99687,-63.373002720603,4,1,0,100,0,1
99744,-62.5958107127722,4,1,0,50,0,0
100087,-68.9655172413793,4,1,0,50,0,0
100430,-76.9230769230769,4,1,0,50,0,0
100772,-66.6666666666667,4,1,0,100,0,0
101116,-86.9565217391304,4,1,0,90,0,1
120315,-86.9565217391304,4,1,0,90,0,1
120401,-86.0310520479262,4,1,0,90,0,1
120487,-85.1250742716273,4,1,0,90,0,1
120572,-84.2379790297975,4,1,0,90,0,1
120658,-83.3691125774812,4,1,0,90,0,1
120744,-82.5180549504231,4,1,0,90,0,1
120830,-81.6841974568442,4,1,0,90,0,1
120915,-80.8670238832668,4,1,0,90,0,1
121001,-80.0660384685288,4,1,0,90,0,1
121058,-78.4627576520804,4,1,0,90,0,1
121115,-76.9834793453325,4,1,0,90,0,1
121172,-75.5590044043344,4,1,0,90,0,1
121230,-74.1862326673141,4,1,0,90,0,1
121287,-72.862452448142,4,1,0,90,0,1
121344,-71.5850871083132,4,1,0,90,0,1
121515,-74.6268656716418,4,1,0,90,0,1
121687,-78.125,4,1,0,70,0,0
122030,-90.9090909090909,4,1,0,70,0,0
122372,-100,4,1,0,70,0,0
122430,-96.8379504054121,4,1,0,70,0,0
122487,-93.8697425903919,4,1,0,70,0,0
122544,-91.0780821506086,4,1,0,70,0,0
122601,-88.4476725879435,4,1,0,70,0,0
122658,-85.964934903053,4,1,0,70,0,0
122715,-83.6177731249132,4,1,0,70,0,0
123058,-100,4,1,0,65,0,0
123401,-111.111111111111,4,1,0,65,0,0
124601,-111.111111111111,4,1,0,65,0,0
125459,-108.695652173913,4,1,0,65,0,0
125801,-105.263157894737,4,1,0,65,0,0
128087,-107.52688172043,4,1,0,65,0,0
128201,-108.695652173913,4,1,0,65,0,0
128544,-106.382978723404,4,1,0,65,0,0
128715,-108.695652173913,4,1,0,65,0,0
128887,-111.111111111111,4,1,0,65,0,0
130944,-108.695652173913,4,1,0,65,0,0
130987,-109.89010989011,4,1,0,65,0,0
131116,-107.52688172043,4,1,0,65,0,0
131159,-108.695652173913,4,1,0,65,0,0
131287,-105.263157894737,4,1,0,65,0,0
131458,-105.263157894737,4,1,0,65,0,0
132658,-100,4,1,0,65,0,0
132715,-100.82301829837,4,1,0,65,0,0
132772,-101.659799547207,4,1,0,65,0,0
132830,-102.510481696753,4,1,0,65,0,0
132887,-103.375520883406,4,1,0,65,0,0
132944,-104.255283657776,4,1,0,65,0,0
133001,-105.150259721142,4,1,0,65,0,0
133173,-105.263157894737,4,1,0,65,0,0
133344,-106.666666666667,4,1,0,65,0,0
133458,-108.108108108108,4,1,0,65,0,0
133572,-109.58904109589,4,1,0,65,0,0
133687,-111.111111111111,4,1,0,65,0,0
137801,-113.636363636364,4,1,0,55,0,0
137972,-116.279069767442,4,1,0,55,0,0
138144,-119.047619047619,4,1,0,55,0,0
138487,-121.951219512195,4,1,0,45,0,0
138658,-125,4,1,0,45,0,0
138830,-128.205128205128,4,1,0,45,0,0
139001,-131.578947368421,4,1,0,45,0,0
139172,-135.135135135135,4,1,0,45,0,0
139515,-111.111111111111,4,1,0,65,0,0
143973,-112.359550561798,4,1,0,65,0,0
144144,-113.636363636364,4,1,0,65,0,0
144316,-114.942528735632,4,1,0,65,0,0
144487,-116.279069767442,4,1,0,65,0,0
145001,-125,4,1,0,40,0,0
158715,-125,4,1,0,45,0,0
164201,-125,4,1,0,50,0,0
188544,-128.205128205128,4,1,0,50,0,0
188715,-125,4,1,0,50,0,0
188887,-120.481927710843,4,1,0,60,0,0
189058,-119.715746930488,4,1,0,60,0,0
189144,-119.715746930488,4,1,0,60,0,0
189230,-118.959107806691,4,1,0,60,0,0
189401,-118.211972981471,4,1,0,60,0,0
189487,-117.841983327716,4,1,0,60,0,0
189572,-117.474302496329,4,1,0,60,0,0
189744,-116.745781391189,4,1,0,60,0,0
189830,-116.384763372318,4,1,0,60,0,0
190001,-115.669652100387,4,1,0,60,0,0
190087,-115.315248827244,4,1,0,60,0,0
190258,-114.613180515759,4,1,0,60,0,0
190430,-113.919609210173,4,1,0,60,0,0
190515,-113.575832879976,4,1,0,60,0,0
190601,-113.234253361642,4,1,0,60,0,0
190772,-112.557094586229,4,1,0,60,0,0
190858,-112.221606250295,4,1,0,60,0,0
190944,-111.888111888112,4,1,0,60,0,0
191115,-111.227034398073,4,1,0,60,0,0
191201,-110.899293460601,4,1,0,60,0,0
191287,-110.573600552868,4,1,0,60,0,0
191372,-110.249815055935,4,1,0,60,0,0
191458,-109.92779942134,4,1,0,60,0,0
191630,-109.289617486339,4,1,0,60,0,0
191801,-108.658802666922,4,1,0,60,0,0
191887,-108.346000786592,4,1,0,60,0,0
191972,-108.035111411209,4,1,0,60,0,0
192144,-107.418539150835,4,1,0,60,0,0
192230,-107.112942028334,4,1,0,60,0,0
192315,-106.809078771696,4,1,0,60,0,0
192401,-106.506934666516,4,1,0,60,0,0
192487,-106.206495164418,4,1,0,60,0,0
192572,-105.907633716331,4,1,0,60,0,0
192744,-105.610561056106,4,1,0,60,0,0
192830,-105.021277310783,4,1,0,60,0,0
192915,-104.729149473631,4,1,0,60,0,0
193001,-104.43864229765,4,1,0,60,0,0
193172,-103.862328406451,4,1,0,60,0,0
193258,-103.576603702449,4,1,0,60,0,0
193344,-103.292446739832,4,1,0,60,0,0
193430,-103.009844650853,4,1,0,60,0,0
193515,-102.72867917628,4,1,0,60,0,0
193687,-102.171136653895,4,1,0,60,0,0
193772,-101.894628726541,4,1,0,60,0,0
193858,-101.619510132989,4,1,0,60,0,0
193944,-101.345975906008,4,1,0,60,0,0
194030,-101.073910296905,4,1,0,60,0,0
194115,-100.803301509731,4,1,0,60,0,0
194201,-100.5340368035,4,1,0,60,0,0
194372,-100,4,1,0,60,0,0
194544,-99.0735631113458,4,1,0,70,0,0
194715,-98.1642307212813,4,1,0,70,0,0
194801,-98.1642307212813,4,1,0,70,0,0
194887,-97.271344251069,4,1,0,70,0,0
195058,-96.3945544788284,4,1,0,70,0,0
195144,-95.9621064833918,4,1,0,70,0,0
195230,-95.5335212796142,4,1,0,70,0,0
195316,-95.5335212796142,4,1,0,70,0,0
195401,-94.6876443986577,4,1,0,70,0,0
195572,-93.8566152488843,4,1,0,70,0,0
195659,-93.8566152488843,4,1,0,70,0,0
195744,-93.0401328613097,4,1,0,70,0,0
195830,-92.6371098703914,4,1,0,70,0,0
195915,-92.2376484564952,4,1,0,70,0,0
196087,-91.4489723878973,4,1,0,70,0,0
196172,-91.059587572916,4,1,0,70,0,0
196258,-90.6735868748169,4,1,0,70,0,0
196344,-90.2908448694936,4,1,0,70,0,0
196430,-89.9112396242429,4,1,0,70,0,0
196601,-89.1616840145583,4,1,0,70,0,0
196687,-89.1616840145583,4,1,0,70,0,0
196772,-88.4244444071097,4,1,0,70,0,0
196858,-88.0604164905458,4,1,0,70,0,0
196944,-87.6992966516409,4,1,0,70,0,0
197115,-86.9565217391304,4,1,0,80,0,0
197201,-85.4781218747062,4,1,0,80,0,0
197287,-84.0492225867157,4,1,0,80,0,0
197372,-82.6672420306712,4,1,0,80,0,0
197458,-81.3300389245566,4,1,0,80,0,0
197544,-80.0353436077372,4,1,0,80,0,0
197630,-78.7812850330527,4,1,0,80,0,0
197715,-77.5658592319273,4,1,0,80,0,0
197801,-76.3874247965803,4,1,0,80,0,0
197887,-75.2442050675467,4,1,0,80,0,0
197972,-74.1347547436976,4,1,0,80,0,0
198058,-73.0574925937967,4,1,0,80,0,0
198144,-72.0111415638228,4,1,0,80,0,0
198230,-70.9942892193752,4,1,0,80,0,0
198315,-70.0058034811086,4,1,0,80,0,0
198401,-69.0444183456543,4,1,0,80,0,0
198487,-66.6666666666667,4,1,0,80,0,0
198544,-67.7200750067551,4,1,0,80,0,0
198601,-68.8073552310448,4,1,0,80,0,0
198658,-69.9300699300699,4,1,0,80,0,0
198715,-71.0900305473861,4,1,0,80,0,0
198772,-72.2891740455841,4,1,0,80,0,0
198830,-73.5294117647059,4,1,0,80,0,0
198915,-75.4716981132076,4,1,0,80,0,0
199001,-77.5193798449612,4,1,0,80,0,0
199087,-79.6812749003984,4,1,0,80,0,0
199172,-81.9672131147541,4,1,0,80,0,0
199344,-76.9230769230769,4,1,0,80,0,0
199515,-64.5161290322581,4,1,0,90,0,0
199859,-86.9565217391304,4,1,0,100,0,1
200201,-80,4,1,0,100,0,1
200544,-74.0740740740741,4,1,0,100,0,1
200801,-68.9655172413793,4,1,0,100,0,1
201058,-64.5161290322581,4,1,0,100,0,1
201230,-68.9655172413793,4,1,0,100,0,1
201315,-71.4285714285714,4,1,0,100,0,1
201401,-72.463768115942,4,1,0,100,0,1
201487,-73.5294117647059,4,1,0,100,0,1
201572,-74.6268656716418,4,1,0,100,0,1
201658,-75.7575757575758,4,1,0,100,0,1
201830,-71.4285714285714,4,1,0,100,0,1
201915,-72.5806334547365,4,1,0,100,0,1
202001,-73.7704676162401,4,1,0,100,0,1
202087,-75.0000187500047,4,1,0,100,0,1
202172,-76.2711929043384,4,1,0,100,0,1
202258,-77.5862002080862,4,1,0,100,0,1
202344,-78.9473476454348,4,1,0,100,0,1
202430,-80.3571715561327,4,1,0,100,0,1
202515,-81.8181966942176,4,1,0,100,0,1
202601,-83.3333333333333,4,1,0,100,0,1
202772,-86.9565217391304,4,1,0,100,0,1
202858,-85.1311615806473,4,1,0,100,0,1
202944,-83.3809299475117,4,1,0,100,0,1
203030,-81.7011486364487,4,1,0,100,0,1
203115,-80.0877762027182,4,1,0,100,0,1
203201,-78.5368274891462,4,1,0,100,0,1
203287,-77.0448670783431,4,1,0,100,0,1
203458,-74.0740740740741,4,1,0,100,0,1
203544,-76.3358778625954,4,1,0,100,0,1
203630,-78.7401574803149,4,1,0,100,0,1
203801,-72.463768115942,4,1,0,100,0,1
203887,-74.6268656716418,4,1,0,100,0,1
203972,-76.9230769230769,4,1,0,100,0,1
204144,-80,4,1,0,100,0,1
204315,-83.3333333333333,4,1,0,100,0,1
204658,-86.9565217391304,4,1,0,100,0,1
204830,-90.9090909090909,4,1,0,100,0,1
205001,-92.5925925925926,4,1,0,100,0,1
205087,-94.3396226415094,4,1,0,100,0,1
205172,-96.1538461538461,4,1,0,100,0,1
205344,-83.3333333333333,4,1,0,100,0,1
205687,-76.9230769230769,4,1,0,100,0,1
206030,-83.3333333333333,4,1,0,100,0,1
206115,-80,4,1,0,100,0,1
206201,-76.9230769230769,4,1,0,100,0,1
206287,-74.0740740740741,4,1,0,100,0,1
206372,-71.4285714285714,4,1,0,100,0,1
206544,-66.6666666666667,4,1,0,100,0,1
206715,-62.5,4,1,0,100,0,1
206801,-64.0756194830892,4,1,0,100,0,1
206887,-65.7327791621831,4,1,0,100,0,1
206972,-67.477885809873,4,1,0,100,0,1
207058,-69.3181794550621,4,1,0,100,0,1
207144,-71.2616664255647,4,1,0,100,0,1
207315,-66.6666666666667,4,1,0,100,0,1
207401,-67.6598226500729,4,1,0,100,0,1
207487,-68.6830640613807,4,1,0,100,0,1
207572,-69.7376817102469,4,1,0,100,0,1
207658,-70.8251913873734,4,1,0,100,0,1
207744,-71.9472080166457,4,1,0,100,0,1
207801,-72.7151623475072,4,1,0,100,0,1
207858,-73.4996876263276,4,1,0,100,0,1
207915,-74.3012708489366,4,1,0,100,0,1
208001,-75.537087576944,4,1,0,100,0,1
208087,-76.8146500900652,4,1,0,100,0,1
208258,-81.9672131147541,4,1,0,100,0,1
208344,-80,4,1,0,100,0,1
208430,-78.125,4,1,0,100,0,1
208515,-76.3358778625954,4,1,0,100,0,1
208601,-74.6268656716418,4,1,0,100,0,1
208687,-72.992700729927,4,1,0,100,0,1
208772,-71.4285714285714,4,1,0,100,0,1
208944,-66.6666666666667,4,1,0,100,0,1
209030,-68.4931506849315,4,1,0,100,0,1
209115,-70.4225352112676,4,1,0,100,0,1
209287,-74.6268656716418,4,1,0,100,0,1
209458,-69.4444444444444,4,1,0,100,0,1
209630,-75.7575757575758,4,1,0,100,0,1
209801,-71.4285714285714,4,1,0,100,0,1
210144,-74.0740740740741,4,1,0,100,0,1
210315,-80,4,1,0,100,0,1
210401,-74.0740740740741,4,1,0,100,0,1
210487,-68.9655172413793,4,1,0,100,0,1
210830,-86.9565217391304,4,1,0,100,0,1
211172,-80,4,1,0,100,0,1
211515,-74.0740740740741,4,1,0,100,0,1
211772,-68.9655172413793,4,1,0,100,0,1
212030,-64.5161290322581,4,1,0,100,0,1
212201,-68.9655172413793,4,1,0,100,0,1
212287,-71.4285714285714,4,1,0,100,0,1
212372,-72.463768115942,4,1,0,100,0,1
212458,-73.5294117647059,4,1,0,100,0,1
212544,-74.6268656716418,4,1,0,100,0,1
212630,-75.7575757575758,4,1,0,100,0,1
212801,-68.9655172413793,4,1,0,100,0,1
212887,-70.3125109863298,4,1,0,100,0,1
212944,-71.240090503411,4,1,0,100,0,1
213001,-72.1925230203908,4,1,0,100,0,1
213058,-73.1707138608015,4,1,0,100,0,1
213144,-74.6887904822581,4,1,0,100,0,1
213230,-76.2711929043384,4,1,0,100,0,1
213315,-77.9220981615839,4,1,0,100,0,1
213401,-79.6459895058444,4,1,0,100,0,1
213487,-81.4479490591947,4,1,0,100,0,1
213572,-83.3333333333333,4,1,0,100,0,1
213744,-86.9565217391304,4,1,0,100,0,1
213830,-85.1250742716273,4,1,0,100,0,1
213915,-83.3691125774812,4,1,0,100,0,1
214001,-81.6841974568442,4,1,0,100,0,1
214087,-80.0660384685288,4,1,0,100,0,1
214172,-78.5107453731655,4,1,0,100,0,1
214258,-77.0146651325345,4,1,0,100,0,1
214430,-74.1873884407146,4,1,0,100,0,1
214515,-76.3358778625954,4,1,0,100,0,1
214601,-78.7401574803149,4,1,0,100,0,1
214772,-74.0740740740741,4,1,0,100,0,1
214944,-76.9230769230769,4,1,0,100,0,1
215115,-80,4,1,0,100,0,1
215287,-83.3333333333333,4,1,0,100,0,1
215630,-76.9230769230769,4,1,0,100,0,1
215801,-80,4,1,0,100,0,1
215972,-83.3333333333333,4,1,0,100,0,1
216058,-84.7457627118644,4,1,0,100,0,1
216144,-86.2068965517241,4,1,0,100,0,1
216272,-76.9230769230769,4,1,0,100,0,1
216316,-76.9230769230769,4,1,0,100,0,1
216401,-78.125,4,1,0,100,0,1
216487,-79.3650793650794,4,1,0,100,0,1
216573,-80.6451612903226,4,1,0,100,0,1
216658,-81.9672131147541,4,1,0,100,0,1
216744,-83.3333333333333,4,1,0,100,0,1
216830,-76.9230769230769,4,1,0,100,0,1
216916,-78.125,4,1,0,100,0,1
217001,-79.3650793650794,4,1,0,100,0,1
217087,-80.6451612903226,4,1,0,100,0,1
217173,-81.9672131147541,4,1,0,100,0,1
217258,-83.3333333333333,4,1,0,100,0,1
217344,-76.9230769230769,4,1,0,100,0,1
217430,-78.1049855974407,4,1,0,100,0,1
217516,-79.3237806348441,4,1,0,100,0,1
217601,-80.5812161961798,4,1,0,100,0,1
217687,-81.8792265033231,4,1,0,100,0,1
217773,-83.2196691352395,4,1,0,100,0,1
217858,-76.9230769230769,4,1,0,100,0,1
217944,-78.1049855974407,4,1,0,100,0,1
218030,-79.3237806348441,4,1,0,100,0,1
218116,-80.5812161961798,4,1,0,100,0,1
218201,-81.8792265033231,4,1,0,100,0,1
218287,-83.2196691352395,4,1,0,100,0,1
218373,-76.9230769230769,4,1,0,100,0,1
218458,-77.9220981615839,4,1,0,100,0,1
218544,-78.9473476454348,4,1,0,100,0,1
218630,-80,4,1,0,100,0,1
218716,-76.9230769230769,4,1,0,100,0,1
218801,-77.9220981615839,4,1,0,100,0,1
218887,-78.9473476454348,4,1,0,100,0,1
218973,-80,4,1,0,100,0,1
219058,-76.9230769230769,4,1,0,100,0,1
219115,-77.5193798449612,4,1,0,100,0,1
219172,-78.125,4,1,0,100,0,1
219230,-78.7401574803149,4,1,0,100,0,1
219315,-76.3358778625954,4,1,0,100,0,1
219401,-73.5294117647059,4,1,0,100,0,1
219458,-74.0740740740741,4,1,0,100,0,1
219515,-74.6268656716418,4,1,0,100,0,1
219572,-75.187969924812,4,1,0,100,0,1
219658,-72.992700729927,4,1,0,100,0,1
219744,-70.4225352112676,4,1,0,100,0,1
219801,-70.9219858156028,4,1,0,100,0,1
219858,-71.4285714285714,4,1,0,100,0,1
219915,-71.9424460431655,4,1,0,100,0,1
220001,-69.9300699300699,4,1,0,100,0,1
220087,-67.5675675675676,4,1,0,100,0,1
220144,-66.6848049336086,4,1,0,100,0,1
220201,-65.8248112144414,4,1,0,100,0,1
220258,-64.9867167151034,4,1,0,100,0,1
220316,-64.1697366538178,4,1,0,100,0,1
220373,-63.373002720603,4,1,0,100,0,1
220430,-62.5958107127722,4,1,0,100,0,0
220772,-68.9655172413793,4,1,0,50,0,0
221115,-76.9230769230769,4,1,0,50,0,0
221458,-86.9565217391304,4,1,0,50,0,0
221800,-100,4,1,0,50,0,0
222315,-133.333333333333,4,1,0,40,0,0
238258,-133.333333333333,4,1,0,35,0,0
242372,-133.333333333333,4,1,0,35,0,0
242544,-129.075227624164,4,1,0,35,0,0
242715,-125.080520585127,4,1,0,35,0,0
242887,-121.325799810004,4,1,0,35,0,0
243058,-117.789931081111,4,1,0,35,0,0
243401,-105.263157894737,4,1,0,35,0,0

[HitObjects]
256,192,2032,5,4,0:0:0:0:
256,192,2546,1,8,0:0:0:0:
256,192,3060,1,8,0:0:0:0:
256,192,3574,1,8,0:0:0:0:
256,192,4089,1,8,0:0:0:0:
256,192,4432,1,0,0:0:0:0:
256,192,4946,1,8,0:0:0:0:
256,192,5460,1,8,0:0:0:0:
256,192,5974,1,8,0:0:0:0:
256,192,6489,1,8,0:0:0:0:
256,192,6832,1,0,0:0:0:0:
256,192,7346,1,8,0:0:0:0:
256,192,7860,1,8,0:0:0:0:
256,192,8374,1,8,0:0:0:0:
256,192,8889,1,8,0:0:0:0:
256,192,9232,1,0,0:0:0:0:
256,192,9574,1,8,0:0:0:0:
256,192,9746,1,0,0:0:0:0:
256,192,10089,1,8,0:0:0:0:
256,192,10260,1,0,0:0:0:0:
256,192,10432,1,8,0:0:0:0:
256,192,10774,1,8,0:0:0:0:
256,192,10946,1,0,0:0:0:0:
256,192,11117,1,8,0:0:0:0:
256,192,11289,1,8,0:0:0:0:
256,192,11632,1,0,0:0:0:0:
256,192,12146,1,8,0:0:0:0:
256,192,12660,1,8,0:0:0:0:
256,192,13174,1,8,0:0:0:0:
256,192,13689,1,8,0:0:0:0:
256,192,14032,1,0,0:0:0:0:
256,192,14546,1,8,0:0:0:0:
256,192,15060,1,8,0:0:0:0:
256,192,15574,1,8,0:0:0:0:
256,192,16089,1,8,0:0:0:0:
256,192,16432,1,0,0:0:0:0:
256,192,16517,1,8,0:0:0:0:
256,192,16603,1,8,0:0:0:0:
256,192,16689,1,8,0:0:0:0:
256,192,16774,1,8,0:0:0:0:
256,192,16946,1,0,0:0:0:0:
256,192,17117,1,8,0:0:0:0:
256,192,17203,1,8,0:0:0:0:
256,192,17289,1,8,0:0:0:0:
256,192,17460,1,0,0:0:0:0:
256,192,17632,1,8,0:0:0:0:
256,192,17717,1,8,0:0:0:0:
256,192,17803,1,8,0:0:0:0:
256,192,17974,1,0,0:0:0:0:
256,192,18146,1,8,0:0:0:0:
256,192,18317,1,8,0:0:0:0:
256,192,18489,1,0,0:0:0:0:
256,192,18660,1,0,0:0:0:0:
256,192,18746,1,0,0:0:0:0:
256,192,18832,1,8,0:0:0:0:
256,192,19174,1,0,0:0:0:0:
256,192,19346,1,8,0:0:0:0:
256,192,19517,1,0,0:0:0:0:
256,192,19689,1,0,0:0:0:0:
256,192,19860,1,8,0:0:0:0:
256,192,20203,1,0,0:0:0:0:
256,192,20374,1,8,0:0:0:0:
256,192,20546,1,8,0:0:0:0:
256,192,20717,1,0,0:0:0:0:
256,192,20889,1,8,0:0:0:0:
256,192,21232,1,8,0:0:0:0:
256,192,21403,1,8,0:0:0:0:
256,192,21574,5,4,0:0:0:0:
256,192,21916,1,0,0:0:0:0:
256,192,22088,1,8,0:0:0:0:
256,192,22602,1,0,0:0:0:0:
256,192,23116,1,8,0:0:0:0:
256,192,23288,1,8,0:0:0:0:
256,192,23459,1,0,0:0:0:0:
256,192,23631,1,8,0:0:0:0:
256,192,23974,1,0,0:0:0:0:
256,192,24316,1,8,0:0:0:0:
256,192,24488,1,0,0:0:0:0:
256,192,24659,1,0,0:0:0:0:
256,192,24831,1,8,0:0:0:0:
256,192,25345,1,0,0:0:0:0:
256,192,25859,1,8,0:0:0:0:
256,192,26031,1,0,0:0:0:0:
256,192,26202,1,8,0:0:0:0:
256,192,26374,1,8,0:0:0:0:
256,192,26545,1,0,0:0:0:0:
256,192,26716,1,8,0:0:0:0:
256,192,27059,1,8,0:0:0:0:
256,192,27231,1,0,0:0:0:0:
256,192,27402,1,8,0:0:0:0:
256,192,27574,1,8,0:0:0:0:
256,192,27745,1,0,0:0:0:0:
256,192,28088,1,8,0:0:0:0:
256,192,28259,1,0,0:0:0:0:
256,192,28431,1,8,0:0:0:0:
256,192,28602,1,0,0:0:0:0:
256,192,28774,1,0,0:0:0:0:
256,192,29116,1,0,0:0:0:0:
256,192,29459,1,8,0:0:0:0:
256,192,29802,1,8,0:0:0:0:
256,192,29974,1,0,0:0:0:0:
256,192,30145,1,8,0:0:0:0:
256,192,30316,1,8,0:0:0:0:
256,192,30488,1,0,0:0:0:0:
256,192,30831,1,0,0:0:0:0:
256,192,31002,1,8,0:0:0:0:
256,192,31174,1,0,0:0:0:0:
256,192,31345,1,8,0:0:0:0:
256,192,31516,1,8,0:0:0:0:
256,192,31688,1,0,0:0:0:0:
256,192,31859,1,8,0:0:0:0:
256,192,32202,1,0,0:0:0:0:
256,192,32431,1,0,0:0:0:0:
256,192,32545,1,8,0:0:0:0:
256,192,32888,1,0,0:0:0:0:
256,192,33059,1,8,0:0:0:0:
256,192,33574,1,0,0:0:0:0:
256,192,34088,1,8,0:0:0:0:
256,192,34259,1,8,0:0:0:0:
256,192,34431,1,0,0:0:0:0:
256,192,34602,1,8,0:0:0:0:
256,192,34774,1,8,0:0:0:0:
256,192,34945,1,8,0:0:0:0:
256,192,35116,1,0,0:0:0:0:
256,192,35288,1,8,0:0:0:0:
256,192,35631,1,0,0:0:0:0:
256,192,35802,1,8,0:0:0:0:
256,192,36316,1,0,0:0:0:0:
256,192,36831,1,8,0:0:0:0:
256,192,37002,1,8,0:0:0:0:
256,192,37345,1,8,0:0:0:0:
256,192,37516,1,8,0:0:0:0:
256,192,37688,1,0,0:0:0:0:
256,192,37859,1,0,0:0:0:0:
256,192,38031,1,8,0:0:0:0:
256,192,38374,1,0,0:0:0:0:
256,192,38545,1,0,0:0:0:0:
256,192,38716,1,8,0:0:0:0:
256,192,38888,1,0,0:0:0:0:
256,192,39059,1,8,0:0:0:0:
256,192,39231,1,8,0:0:0:0:
256,192,39574,1,0,0:0:0:0:
256,192,40088,1,8,0:0:0:0:
256,192,40259,1,0,0:0:0:0:
256,192,40345,1,0,0:0:0:0:
256,192,40431,1,8,0:0:0:0:
256,192,40602,1,0,0:0:0:0:
256,192,40774,1,8,0:0:0:0:
256,192,41288,1,0,0:0:0:0:
256,192,41802,1,8,0:0:0:0:
256,192,42145,1,0,0:0:0:0:
256,192,42316,1,8,0:0:0:0:
256,192,42659,1,0,0:0:0:0:
256,192,42831,1,8,0:0:0:0:
256,192,43002,1,0,0:0:0:0:
256,192,43174,1,8,0:0:0:0:
256,192,43516,12,0,45059,0:0:0:0:
256,192,45745,5,8,0:0:0:0:
256,192,45916,1,8,0:0:0:0:
256,192,46088,1,0,0:0:0:0:
256,192,46259,5,4,0:0:0:0:
256,192,46430,1,8,0:0:0:0:
256,192,46687,1,8,0:0:0:0:
256,192,46773,1,0,0:0:0:0:
256,192,46944,1,8,0:0:0:0:
256,192,47201,1,0,0:0:0:0:
256,192,47287,1,8,0:0:0:0:
256,192,47459,1,0,0:0:0:0:
256,192,47973,1,8,0:0:0:0:
256,192,48144,1,8,0:0:0:0:
256,192,48316,1,0,0:0:0:0:
256,192,48487,1,0,0:0:0:0:
256,192,48659,1,8,0:0:0:0:
256,192,48830,1,0,0:0:0:0:
256,192,49001,1,8,0:0:0:0:
256,192,49173,1,8,0:0:0:0:
256,192,49430,1,8,0:0:0:0:
256,192,49516,1,0,0:0:0:0:
256,192,49687,1,8,0:0:0:0:
256,192,49944,1,0,0:0:0:0:
256,192,50030,1,8,0:0:0:0:
256,192,50201,1,0,0:0:0:0:
256,192,50544,1,0,0:0:0:0:
256,192,50630,1,0,0:0:0:0:
256,192,50716,1,8,0:0:0:0:
256,192,50887,1,8,0:0:0:0:
256,192,51059,1,0,0:0:0:0:
256,192,51230,1,0,0:0:0:0:
256,192,51401,1,8,0:0:0:0:
256,192,51744,1,8,0:0:0:0:
256,192,51830,1,8,0:0:0:0:
256,192,51916,1,0,0:0:0:0:
256,192,52087,1,0,0:0:0:0:
256,192,52259,1,8,0:0:0:0:
256,192,52516,1,8,0:0:0:0:
256,192,52601,1,0,0:0:0:0:
256,192,52773,1,0,0:0:0:0:
256,192,52944,1,8,0:0:0:0:
256,192,53201,1,8,0:0:0:0:
256,192,53287,1,0,0:0:0:0:
256,192,53459,1,0,0:0:0:0:
256,192,53630,1,8,0:0:0:0:
256,192,53973,1,8,0:0:0:0:
256,192,54059,1,8,0:0:0:0:
256,192,54144,1,0,0:0:0:0:
256,192,54316,1,0,0:0:0:0:
256,192,54487,1,8,0:0:0:0:
256,192,54830,1,8,0:0:0:0:
256,192,55173,1,0,0:0:0:0:
256,192,55516,1,0,0:0:0:0:
256,192,55601,1,0,0:0:0:0:
256,192,55687,1,8,0:0:0:0:
256,192,55859,1,0,0:0:0:0:
256,192,56030,1,8,0:0:0:0:
256,192,56201,1,8,0:0:0:0:
256,192,56373,1,0,0:0:0:0:
256,192,56887,1,0,0:0:0:0:
256,192,57144,1,0,0:0:0:0:
256,192,57230,1,8,0:0:0:0:
256,192,57401,1,8,0:0:0:0:
256,192,57659,1,8,0:0:0:0:
256,192,57744,1,0,0:0:0:0:
256,192,57916,1,8,0:0:0:0:
256,192,58173,1,0,0:0:0:0:
256,192,58259,1,8,0:0:0:0:
256,192,58430,1,0,0:0:0:0:
256,192,58944,1,8,0:0:0:0:
256,192,59116,1,8,0:0:0:0:
256,192,59287,1,0,0:0:0:0:
256,192,59459,1,0,0:0:0:0:
256,192,59630,1,8,0:0:0:0:
256,192,59801,1,0,0:0:0:0:
256,192,59973,1,8,0:0:0:0:
256,192,60144,1,8,0:0:0:0:
256,192,60401,1,8,0:0:0:0:
256,192,60487,1,0,0:0:0:0:
256,192,60659,1,8,0:0:0:0:
256,192,60916,1,0,0:0:0:0:
256,192,61001,1,8,0:0:0:0:
256,192,61173,1,0,0:0:0:0:
256,192,61516,1,0,0:0:0:0:
256,192,61601,1,0,0:0:0:0:
256,192,61687,1,8,0:0:0:0:
256,192,61859,1,0,0:0:0:0:
256,192,62030,1,8,0:0:0:0:
256,192,62201,1,8,0:0:0:0:
256,192,62373,1,0,0:0:0:0:
256,192,62716,1,8,0:0:0:0:
256,192,62801,1,8,0:0:0:0:
256,192,62887,1,0,0:0:0:0:
256,192,63059,1,8,0:0:0:0:
256,192,63230,1,8,0:0:0:0:
256,192,63487,1,0,0:0:0:0:
256,192,63573,1,8,0:0:0:0:
256,192,63744,1,0,0:0:0:0:
256,192,63916,1,8,0:0:0:0:
256,192,64173,1,0,0:0:0:0:
256,192,64259,1,8,0:0:0:0:
256,192,64430,1,8,0:0:0:0:
256,192,64601,1,8,0:0:0:0:
256,192,64944,1,8,0:0:0:0:
256,192,65030,1,8,0:0:0:0:
256,192,65116,1,0,0:0:0:0:
256,192,65287,1,8,0:0:0:0:
256,192,65459,1,8,0:0:0:0:
256,192,65801,1,0,0:0:0:0:
256,192,65973,1,0,0:0:0:0:
256,192,66144,1,8,0:0:0:0:
256,192,66316,1,0,0:0:0:0:
256,192,66659,1,0,0:0:0:0:
256,192,66830,1,8,0:0:0:0:
256,192,66916,1,8,0:0:0:0:
256,192,67001,1,0,0:0:0:0:
256,192,67173,1,8,0:0:0:0:
256,192,67259,1,8,0:0:0:0:
256,192,67344,1,0,0:0:0:0:
256,192,67430,1,0,0:0:0:0:
256,192,67516,1,8,0:0:0:0:
256,192,67687,1,0,0:0:0:0:
256,192,67773,1,0,0:0:0:0:
256,192,67859,1,8,0:0:0:0:
256,192,67944,1,8,0:0:0:0:
256,192,68030,1,0,0:0:0:0:
256,192,68201,5,12,0:0:0:0:
256,192,68373,1,0,0:0:0:0:
256,192,68544,1,8,0:0:0:0:
256,192,68716,1,0,0:0:0:0:
256,192,68801,1,0,0:0:0:0:
256,192,68887,1,8,0:0:0:0:
256,192,69059,1,0,0:0:0:0:
256,192,69144,1,8,0:0:0:0:
256,192,69316,1,8,0:0:0:0:
256,192,69401,1,0,0:0:0:0:
256,192,69573,1,8,0:0:0:0:
256,192,69744,1,0,0:0:0:0:
256,192,69830,1,0,0:0:0:0:
256,192,69916,1,8,0:0:0:0:
256,192,70087,1,0,0:0:0:0:
256,192,70173,1,0,0:0:0:0:
256,192,70259,1,8,0:0:0:0:
256,192,70430,1,0,0:0:0:0:
256,192,70516,1,8,0:0:0:0:
256,192,70601,1,8,0:0:0:0:
256,192,70687,1,8,0:0:0:0:
256,192,70773,1,0,0:0:0:0:
256,192,70944,1,8,0:0:0:0:
256,192,71116,1,0,0:0:0:0:
256,192,71201,1,0,0:0:0:0:
256,192,71287,1,8,0:0:0:0:
256,192,71459,1,0,0:0:0:0:
256,192,71544,1,0,0:0:0:0:
256,192,71630,1,8,0:0:0:0:
256,192,71716,1,8,0:0:0:0:
256,192,71801,1,0,0:0:0:0:
256,192,71887,1,8,0:0:0:0:
256,192,72059,1,8,0:0:0:0:
256,192,72144,1,0,0:0:0:0:
256,192,72316,1,8,0:0:0:0:
256,192,72487,1,0,0:0:0:0:
256,192,72573,1,0,0:0:0:0:
256,192,72659,1,8,0:0:0:0:
256,192,72744,1,8,0:0:0:0:
256,192,72830,1,0,0:0:0:0:
256,192,73001,1,8,0:0:0:0:
256,192,73087,1,8,0:0:0:0:
256,192,73173,1,0,0:0:0:0:
256,192,73259,1,8,0:0:0:0:
256,192,73344,1,8,0:0:0:0:
256,192,73430,1,8,0:0:0:0:
256,192,73516,1,0,0:0:0:0:
256,192,73687,1,12,0:0:0:0:
256,192,73859,1,0,0:0:0:0:
256,192,74030,1,8,0:0:0:0:
256,192,74116,1,8,0:0:0:0:
256,192,74201,1,0,0:0:0:0:
256,192,74373,1,8,0:0:0:0:
256,192,74459,1,8,0:0:0:0:
256,192,74544,1,0,0:0:0:0:
256,192,74630,1,0,0:0:0:0:
256,192,74716,1,8,0:0:0:0:
256,192,74887,1,0,0:0:0:0:
256,192,74973,1,0,0:0:0:0:
256,192,75059,1,8,0:0:0:0:
256,192,75230,1,0,0:0:0:0:
256,192,75401,1,8,0:0:0:0:
256,192,75487,1,0,0:0:0:0:
256,192,75573,1,8,0:0:0:0:
256,192,75659,1,8,0:0:0:0:
256,192,75744,1,0,0:0:0:0:
256,192,75916,1,0,0:0:0:0:
256,192,76001,1,0,0:0:0:0:
256,192,76087,1,8,0:0:0:0:
256,192,76173,1,0,0:0:0:0:
256,192,76259,1,8,0:0:0:0:
256,192,76430,1,0,0:0:0:0:
256,192,76516,1,0,0:0:0:0:
256,192,76601,1,8,0:0:0:0:
256,192,76687,1,8,0:0:0:0:
256,192,76773,1,0,0:0:0:0:
256,192,76859,1,0,0:0:0:0:
256,192,76944,1,8,0:0:0:0:
256,192,77030,1,8,0:0:0:0:
256,192,77116,1,0,0:0:0:0:
256,192,77201,1,0,0:0:0:0:
256,192,77287,1,8,0:0:0:0:
256,192,77373,1,8,0:0:0:0:
256,192,77459,1,0,0:0:0:0:
256,192,77544,1,8,0:0:0:0:
256,192,77630,1,0,0:0:0:0:
256,192,77801,1,8,0:0:0:0:
256,192,77859,1,0,0:0:0:0:
256,192,77916,1,0,0:0:0:0:
256,192,77973,1,8,0:0:0:0:
256,192,78030,1,0,0:0:0:0:
256,192,78087,1,0,0:0:0:0:
256,192,78144,1,8,0:0:0:0:
256,192,78230,1,8,0:0:0:0:
256,192,78316,1,0,0:0:0:0:
256,192,78401,1,0,0:0:0:0:
256,192,78487,1,8,0:0:0:0:
256,192,78659,1,8,0:0:0:0:
256,192,78830,1,12,0:0:0:0:
256,192,79173,5,4,0:0:0:0:
256,192,79516,1,0,0:0:0:0:
256,192,79601,1,8,0:0:0:0:
256,192,79687,1,8,0:0:0:0:
256,192,79773,1,0,0:0:0:0:
256,192,79859,1,8,0:0:0:0:
256,192,79944,1,8,0:0:0:0:
256,192,80030,1,0,0:0:0:0:
256,192,80116,1,8,0:0:0:0:
256,192,80201,1,0,0:0:0:0:
256,192,80373,1,8,0:0:0:0:
256,192,80544,1,0,0:0:0:0:
256,192,80630,1,8,0:0:0:0:
256,192,80716,1,0,0:0:0:0:
256,192,80887,1,8,0:0:0:0:
256,192,80973,1,0,0:0:0:0:
256,192,81144,1,0,0:0:0:0:
256,192,81230,1,0,0:0:0:0:
256,192,81401,1,8,0:0:0:0:
256,192,81487,1,8,0:0:0:0:
256,192,81573,1,0,0:0:0:0:
256,192,81630,1,0,0:0:0:0:
256,192,81687,1,0,0:0:0:0:
256,192,81744,1,8,0:0:0:0:
256,192,81830,1,0,0:0:0:0:
256,192,81916,1,8,0:0:0:0:
256,192,82001,1,8,0:0:0:0:
256,192,82087,1,0,0:0:0:0:
256,192,82173,1,8,0:0:0:0:
256,192,82259,1,8,0:0:0:0:
256,192,82344,1,0,0:0:0:0:
256,192,82430,1,8,0:0:0:0:
256,192,82516,1,8,0:0:0:0:
256,192,82601,1,0,0:0:0:0:
256,192,82687,1,8,0:0:0:0:
256,192,82773,1,8,0:0:0:0:
256,192,82859,1,0,0:0:0:0:
256,192,82944,1,8,0:0:0:0:
256,192,83116,1,0,0:0:0:0:
256,192,83201,1,8,0:0:0:0:
256,192,83287,1,4,0:0:0:0:
256,192,83459,1,4,0:0:0:0:
256,192,83630,1,12,0:0:0:0:
256,192,83973,1,8,0:0:0:0:
256,192,84144,1,0,0:0:0:0:
256,192,84316,1,8,0:0:0:0:
256,192,84401,1,8,0:0:0:0:
256,192,84487,1,0,0:0:0:0:
256,192,84659,1,4,0:0:0:0:
256,192,85001,1,8,0:0:0:0:
256,192,85087,1,0,0:0:0:0:
256,192,85173,1,0,0:0:0:0:
256,192,85259,1,8,0:0:0:0:
256,192,85344,1,0,0:0:0:0:
256,192,85516,1,0,0:0:0:0:
256,192,85601,1,8,0:0:0:0:
256,192,85687,1,0,0:0:0:0:
256,192,85859,1,8,0:0:0:0:
256,192,86030,1,0,0:0:0:0:
256,192,86116,1,8,0:0:0:0:
256,192,86201,1,0,0:0:0:0:
256,192,86287,1,0,0:0:0:0:
256,192,86373,1,8,0:0:0:0:
256,192,86459,1,0,0:0:0:0:
256,192,86544,1,0,0:0:0:0:
256,192,86716,1,8,0:0:0:0:
256,192,86801,1,8,0:0:0:0:
256,192,86887,1,0,0:0:0:0:
256,192,86973,1,0,0:0:0:0:
256,192,87059,1,8,0:0:0:0:
256,192,87116,1,8,0:0:0:0:
256,192,87173,1,8,0:0:0:0:
256,192,87230,1,0,0:0:0:0:
256,192,87316,1,0,0:0:0:0:
256,192,87401,1,8,0:0:0:0:
256,192,87573,1,8,0:0:0:0:
256,192,87659,1,0,0:0:0:0:
256,192,87744,1,0,0:0:0:0:
256,192,87830,1,8,0:0:0:0:
256,192,88001,1,0,0:0:0:0:
256,192,88087,1,8,0:0:0:0:
256,192,88259,1,0,0:0:0:0:
256,192,88344,1,0,0:0:0:0:
256,192,88430,1,8,0:0:0:0:
256,192,88601,1,8,0:0:0:0:
256,192,88687,1,8,0:0:0:0:
256,192,88773,1,4,0:0:0:0:
256,192,88944,1,8,0:0:0:0:
256,192,89116,1,4,0:0:0:0:
256,192,89459,1,4,0:0:0:0:
256,192,89630,1,0,0:0:0:0:
256,192,89801,1,8,0:0:0:0:
256,192,89887,1,8,0:0:0:0:
256,192,89973,1,0,0:0:0:0:
256,192,90059,1,8,0:0:0:0:
256,192,90144,1,4,0:0:0:0:
256,192,90487,1,8,0:0:0:0:
256,192,90573,1,0,0:0:0:0:
256,192,90659,1,8,0:0:0:0:
256,192,90744,1,0,0:0:0:0:
256,192,90830,1,8,0:0:0:0:
256,192,90916,1,8,0:0:0:0:
256,192,91001,1,0,0:0:0:0:
256,192,91087,1,8,0:0:0:0:
256,192,91173,1,0,0:0:0:0:
256,192,91344,1,0,0:0:0:0:
256,192,91516,1,0,0:0:0:0:
256,192,91601,1,8,0:0:0:0:
256,192,91687,1,0,0:0:0:0:
256,192,91859,1,8,0:0:0:0:
256,192,91944,1,0,0:0:0:0:
256,192,92116,1,0,0:0:0:0:
256,192,92201,1,8,0:0:0:0:
256,192,92259,1,8,0:0:0:0:
256,192,92316,1,8,0:0:0:0:
256,192,92373,1,0,0:0:0:0:
256,192,92459,1,8,0:0:0:0:
256,192,92544,1,0,0:0:0:0:
256,192,92887,1,8,0:0:0:0:
256,192,92973,1,0,0:0:0:0:
256,192,93059,1,0,0:0:0:0:
256,192,93144,1,8,0:0:0:0:
256,192,93230,1,8,0:0:0:0:
256,192,93316,1,0,0:0:0:0:
256,192,93401,1,8,0:0:0:0:
256,192,93487,1,0,0:0:0:0:
256,192,93573,1,0,0:0:0:0:
256,192,93659,1,8,0:0:0:0:
256,192,93744,1,8,0:0:0:0:
256,192,93830,1,0,0:0:0:0:
256,192,93916,1,8,0:0:0:0:
256,192,94087,1,8,0:0:0:0:
256,192,94173,1,8,0:0:0:0:
256,192,94259,1,4,0:0:0:0:
256,192,94430,1,4,0:0:0:0:
256,192,94601,1,12,0:0:0:0:
256,192,94944,1,8,0:0:0:0:
256,192,95116,1,0,0:0:0:0:
256,192,95287,1,8,0:0:0:0:
256,192,95373,1,8,0:0:0:0:
256,192,95459,1,0,0:0:0:0:
256,192,95630,1,8,0:0:0:0:
256,192,95716,1,0,0:0:0:0:
256,192,95801,1,8,0:0:0:0:
256,192,95887,1,8,0:0:0:0:
256,192,95973,1,0,0:0:0:0:
256,192,96059,1,0,0:0:0:0:
256,192,96144,1,8,0:0:0:0:
256,192,96230,1,0,0:0:0:0:
256,192,96316,1,8,0:0:0:0:
256,192,96401,1,8,0:0:0:0:
256,192,96487,1,0,0:0:0:0:
256,192,96573,1,0,0:0:0:0:
256,192,96659,1,8,0:0:0:0:
256,192,96744,1,0,0:0:0:0:
256,192,96830,1,8,0:0:0:0:
256,192,96916,1,8,0:0:0:0:
256,192,97001,1,0,0:0:0:0:
256,192,97087,1,0,0:0:0:0:
256,192,97173,1,8,0:0:0:0:
256,192,97259,1,0,0:0:0:0:
256,192,97344,1,8,0:0:0:0:
256,192,97430,1,8,0:0:0:0:
256,192,97516,1,0,0:0:0:0:
256,192,97601,1,0,0:0:0:0:
256,192,97687,1,8,0:0:0:0:
256,192,97773,1,8,0:0:0:0:
256,192,97859,1,0,0:0:0:0:
256,192,97944,1,0,0:0:0:0:
256,192,98030,1,8,0:0:0:0:
256,192,98116,1,0,0:0:0:0:
256,192,98201,1,8,0:0:0:0:
256,192,98287,1,0,0:0:0:0:
256,192,98373,1,8,0:0:0:0:
256,192,98430,1,0,0:0:0:0:
256,192,98487,1,0,0:0:0:0:
256,192,98544,1,8,0:0:0:0:
256,192,98630,1,0,0:0:0:0:
256,192,98716,1,8,0:0:0:0:
256,192,98773,1,8,0:0:0:0:
256,192,98830,1,8,0:0:0:0:
256,192,98887,1,0,0:0:0:0:
256,192,98973,1,0,0:0:0:0:
256,192,99059,1,8,0:0:0:0:
256,192,99116,1,0,0:0:0:0:
256,192,99173,1,0,0:0:0:0:
256,192,99230,1,8,0:0:0:0:
256,192,99316,1,0,0:0:0:0:
256,192,99401,1,8,0:0:0:0:
256,192,99459,1,8,0:0:0:0:
256,192,99516,1,8,0:0:0:0:
256,192,99573,1,8,0:0:0:0:
256,192,99630,1,8,0:0:0:0:
256,192,99687,1,8,0:0:0:0:
256,192,99744,1,0,0:0:0:0:
256,192,100087,1,0,0:0:0:0:
256,192,100430,1,0,0:0:0:0:
256,192,100773,1,12,0:0:0:0:
256,192,101116,5,4,0:0:0:0:
256,192,101287,1,8,0:0:0:0:
256,192,101459,1,0,0:0:0:0:
256,192,101544,1,8,0:0:0:0:
256,192,101630,1,0,0:0:0:0:
256,192,101801,1,8,0:0:0:0:
256,192,101973,1,0,0:0:0:0:
256,192,102059,1,0,0:0:0:0:
256,192,102144,1,8,0:0:0:0:
256,192,102230,1,0,0:0:0:0:
256,192,102316,1,8,0:0:0:0:
256,192,102487,1,0,0:0:0:0:
256,192,102659,1,0,0:0:0:0:
256,192,102830,1,8,0:0:0:0:
256,192,102916,1,8,0:0:0:0:
256,192,103001,1,0,0:0:0:0:
256,192,103087,1,8,0:0:0:0:
256,192,103173,1,0,0:0:0:0:
256,192,103344,1,0,0:0:0:0:
256,192,103516,1,8,0:0:0:0:
256,192,103601,1,8,0:0:0:0:
256,192,103687,1,0,0:0:0:0:
256,192,103859,1,8,0:0:0:0:
256,192,103944,1,0,0:0:0:0:
256,192,104030,1,8,0:0:0:0:
256,192,104116,1,8,0:0:0:0:
256,192,104201,1,0,0:0:0:0:
256,192,104373,1,8,0:0:0:0:
256,192,104459,1,0,0:0:0:0:
256,192,104544,1,8,0:0:0:0:
256,192,104716,1,0,0:0:0:0:
256,192,104801,1,0,0:0:0:0:
256,192,104887,1,8,0:0:0:0:
256,192,104973,1,0,0:0:0:0:
256,192,105059,1,8,0:0:0:0:
256,192,105230,1,0,0:0:0:0:
256,192,105401,1,0,0:0:0:0:
256,192,105573,1,8,0:0:0:0:
256,192,105659,1,0,0:0:0:0:
256,192,105744,1,8,0:0:0:0:
256,192,105830,1,8,0:0:0:0:
256,192,105916,1,0,0:0:0:0:
256,192,106001,1,8,0:0:0:0:
256,192,106087,1,0,0:0:0:0:
256,192,106173,1,0,0:0:0:0:
256,192,106259,1,8,0:0:0:0:
256,192,106430,1,0,0:0:0:0:
256,192,106601,1,8,0:0:0:0:
256,192,106687,1,8,0:0:0:0:
256,192,106773,1,0,0:0:0:0:
256,192,106944,1,8,0:0:0:0:
256,192,107030,1,0,0:0:0:0:
256,192,107116,1,8,0:0:0:0:
256,192,107287,1,8,0:0:0:0:
256,192,107373,1,0,0:0:0:0:
256,192,107459,1,0,0:0:0:0:
256,192,107630,1,8,0:0:0:0:
256,192,107716,1,0,0:0:0:0:
256,192,107801,1,8,0:0:0:0:
256,192,107973,1,0,0:0:0:0:
256,192,108059,1,0,0:0:0:0:
256,192,108144,1,8,0:0:0:0:
256,192,108316,1,8,0:0:0:0:
256,192,108401,1,0,0:0:0:0:
256,192,108487,1,8,0:0:0:0:
256,192,108573,1,8,0:0:0:0:
256,192,108659,1,0,0:0:0:0:
256,192,108830,1,8,0:0:0:0:
256,192,108916,1,8,0:0:0:0:
256,192,109001,1,0,0:0:0:0:
256,192,109087,1,0,0:0:0:0:
256,192,109173,1,8,0:0:0:0:
256,192,109344,1,8,0:0:0:0:
256,192,109516,1,0,0:0:0:0:
256,192,109687,1,8,0:0:0:0:
256,192,109773,1,8,0:0:0:0:
256,192,109859,1,0,0:0:0:0:
256,192,110030,1,8,0:0:0:0:
256,192,110201,1,0,0:0:0:0:
256,192,110287,1,8,0:0:0:0:
256,192,110373,1,0,0:0:0:0:
256,192,110459,1,0,0:0:0:0:
256,192,110544,1,8,0:0:0:0:
256,192,110716,1,0,0:0:0:0:
256,192,110887,1,8,0:0:0:0:
256,192,110973,1,0,0:0:0:0:
256,192,111059,1,8,0:0:0:0:
256,192,111144,1,8,0:0:0:0:
256,192,111230,1,0,0:0:0:0:
256,192,111401,1,8,0:0:0:0:
256,192,111573,1,0,0:0:0:0:
256,192,111659,1,0,0:0:0:0:
256,192,111744,1,8,0:0:0:0:
256,192,111916,1,8,0:0:0:0:
256,192,112087,1,4,0:0:0:0:
256,192,112259,1,8,0:0:0:0:
256,192,112430,1,0,0:0:0:0:
256,192,112516,1,8,0:0:0:0:
256,192,112601,1,0,0:0:0:0:
256,192,112687,1,0,0:0:0:0:
256,192,112773,1,8,0:0:0:0:
256,192,112944,1,0,0:0:0:0:
256,192,113030,1,8,0:0:0:0:
256,192,113116,1,0,0:0:0:0:
256,192,113287,1,8,0:0:0:0:
256,192,113373,1,8,0:0:0:0:
256,192,113459,1,0,0:0:0:0:
256,192,113630,1,0,0:0:0:0:
256,192,113801,1,8,0:0:0:0:
256,192,113887,1,0,0:0:0:0:
256,192,113973,1,8,0:0:0:0:
256,192,114059,1,8,0:0:0:0:
256,192,114144,1,0,0:0:0:0:
256,192,114316,1,0,0:0:0:0:
256,192,114487,1,8,0:0:0:0:
256,192,114573,1,8,0:0:0:0:
256,192,114659,1,0,0:0:0:0:
256,192,114830,1,8,0:0:0:0:
256,192,114916,1,0,0:0:0:0:
256,192,115001,1,8,0:0:0:0:
256,192,115087,1,0,0:0:0:0:
256,192,115173,1,0,0:0:0:0:
256,192,115344,1,8,0:0:0:0:
256,192,115430,1,0,0:0:0:0:
256,192,115516,1,8,0:0:0:0:
256,192,115601,1,8,0:0:0:0:
256,192,115687,1,0,0:0:0:0:
256,192,115773,1,0,0:0:0:0:
256,192,115859,1,8,0:0:0:0:
256,192,116030,1,8,0:0:0:0:
256,192,116201,1,0,0:0:0:0:
256,192,116373,1,0,0:0:0:0:
256,192,116459,1,0,0:0:0:0:
256,192,116544,1,8,0:0:0:0:
256,192,116630,1,8,0:0:0:0:
256,192,116716,1,0,0:0:0:0:
256,192,116801,1,0,0:0:0:0:
256,192,116887,1,8,0:0:0:0:
256,192,117059,1,8,0:0:0:0:
256,192,117144,1,8,0:0:0:0:
256,192,117230,1,0,0:0:0:0:
256,192,117316,1,8,0:0:0:0:
256,192,117401,1,0,0:0:0:0:
256,192,117573,1,8,0:0:0:0:
256,192,117659,1,0,0:0:0:0:
256,192,117744,1,8,0:0:0:0:
256,192,117916,1,0,0:0:0:0:
256,192,118001,1,0,0:0:0:0:
256,192,118087,1,8,0:0:0:0:
256,192,118259,1,0,0:0:0:0:
256,192,118344,1,0,0:0:0:0:
256,192,118430,1,8,0:0:0:0:
256,192,118516,1,0,0:0:0:0:
256,192,118601,1,8,0:0:0:0:
256,192,118687,1,8,0:0:0:0:
256,192,118773,1,0,0:0:0:0:
256,192,118944,1,0,0:0:0:0:
256,192,119116,1,8,0:0:0:0:
256,192,119201,1,8,0:0:0:0:
256,192,119287,1,0,0:0:0:0:
256,192,119373,1,0,0:0:0:0:
256,192,119459,1,8,0:0:0:0:
256,192,119544,1,0,0:0:0:0:
256,192,119630,1,8,0:0:0:0:
256,192,119801,1,0,0:0:0:0:
256,192,119887,1,0,0:0:0:0:
256,192,119973,1,8,0:0:0:0:
256,192,120144,1,8,0:0:0:0:
256,192,120230,1,0,0:0:0:0:
256,192,120316,1,8,0:0:0:0:
256,192,120401,1,8,0:0:0:0:
256,192,120487,1,0,0:0:0:0:
256,192,120573,1,0,0:0:0:0:
256,192,120659,1,8,0:0:0:0:
256,192,120744,1,8,0:0:0:0:
256,192,120830,1,0,0:0:0:0:
256,192,120916,1,0,0:0:0:0:
256,192,121001,1,8,0:0:0:0:
256,192,121059,1,8,0:0:0:0:
256,192,121116,1,8,0:0:0:0:
256,192,121173,1,8,0:0:0:0:
256,192,121230,1,8,0:0:0:0:
256,192,121287,1,8,0:0:0:0:
256,192,121344,1,0,0:0:0:0:
256,192,121516,1,0,0:0:0:0:
256,192,121687,1,12,0:0:0:0:
256,192,122030,1,0,0:0:0:0:
256,192,122373,1,0,0:0:0:0:
256,192,122430,1,0,0:0:0:0:
256,192,122487,1,0,0:0:0:0:
256,192,122544,1,0,0:0:0:0:
256,192,122601,1,0,0:0:0:0:
256,192,122659,1,0,0:0:0:0:
256,192,122716,1,8,0:0:0:0:
256,192,123059,5,4,0:0:0:0:
256,192,123401,1,8,0:0:0:0:
256,192,123573,1,0,0:0:0:0:
256,192,123744,1,8,0:0:0:0:
256,192,124087,1,4,0:0:0:0:
256,192,124601,1,8,0:0:0:0:
256,192,124773,1,0,0:0:0:0:
256,192,124944,1,0,0:0:0:0:
256,192,125116,1,8,0:0:0:0:
256,192,125459,1,8,0:0:0:0:
256,192,125801,1,8,0:0:0:0:
256,192,125916,1,8,0:0:0:0:
256,192,126030,1,0,0:0:0:0:
256,192,126144,1,8,0:0:0:0:
256,192,126259,1,8,0:0:0:0:
256,192,126373,1,0,0:0:0:0:
256,192,126487,1,8,0:0:0:0:
256,192,126601,1,8,0:0:0:0:
256,192,126716,1,0,0:0:0:0:
256,192,126830,1,8,0:0:0:0:
256,192,127001,1,0,0:0:0:0:
256,192,127173,1,8,0:0:0:0:
256,192,127287,1,0,0:0:0:0:
256,192,127401,1,0,0:0:0:0:
256,192,127516,1,8,0:0:0:0:
256,192,127630,1,0,0:0:0:0:
256,192,127744,1,0,0:0:0:0:
256,192,127859,1,8,0:0:0:0:
256,192,128087,1,8,0:0:0:0:
256,192,128201,1,0,0:0:0:0:
256,192,128544,1,8,0:0:0:0:
256,192,128716,1,8,0:0:0:0:
256,192,128887,1,4,0:0:0:0:
256,192,129230,1,8,0:0:0:0:
256,192,129401,1,0,0:0:0:0:
256,192,129573,1,4,0:0:0:0:
256,192,129744,1,8,0:0:0:0:
256,192,129916,1,8,0:0:0:0:
256,192,130087,1,8,0:0:0:0:
256,192,130173,1,8,0:0:0:0:
256,192,130259,1,0,0:0:0:0:
256,192,130430,1,0,0:0:0:0:
256,192,130601,1,8,0:0:0:0:
256,192,130944,1,8,0:0:0:0:
256,192,130987,1,8,0:0:0:0:
256,192,131116,1,8,0:0:0:0:
256,192,131159,1,8,0:0:0:0:
256,192,131287,1,4,0:0:0:0:
256,192,131516,1,0,0:0:0:0:
256,192,131630,1,8,0:0:0:0:
256,192,131744,1,8,0:0:0:0:
256,192,131859,1,0,0:0:0:0:
256,192,131973,1,8,0:0:0:0:
256,192,132087,1,8,0:0:0:0:
256,192,132201,1,0,0:0:0:0:
256,192,132316,1,8,0:0:0:0:
256,192,132430,1,0,0:0:0:0:
256,192,132544,1,0,0:0:0:0:
256,192,132659,1,8,0:0:0:0:
256,192,132716,1,8,0:0:0:0:
256,192,132773,1,8,0:0:0:0:
256,192,132830,1,0,0:0:0:0:
256,192,132887,1,0,0:0:0:0:
256,192,132944,1,0,0:0:0:0:
256,192,133001,1,8,0:0:0:0:
256,192,133173,1,0,0:0:0:0:
256,192,133344,1,8,0:0:0:0:
256,192,133459,1,8,0:0:0:0:
256,192,133573,1,8,0:0:0:0:
256,192,133687,1,0,0:0:0:0:
256,192,134030,1,4,0:0:0:0:
256,192,134373,1,8,0:0:0:0:
256,192,134544,1,0,0:0:0:0:
256,192,134716,1,8,0:0:0:0:
256,192,134887,1,0,0:0:0:0:
256,192,135059,1,4,0:0:0:0:
256,192,135230,1,0,0:0:0:0:
256,192,135401,1,8,0:0:0:0:
256,192,135744,1,4,0:0:0:0:
256,192,135916,1,0,0:0:0:0:
256,192,136087,1,8,0:0:0:0:
256,192,136259,1,0,0:0:0:0:
256,192,136430,1,8,0:0:0:0:
256,192,136516,1,8,0:0:0:0:
256,192,136601,1,8,0:0:0:0:
256,192,136687,1,8,0:0:0:0:
256,192,136773,1,4,0:0:0:0:
256,192,136944,1,0,0:0:0:0:
256,192,137116,1,8,0:0:0:0:
256,192,137287,1,0,0:0:0:0:
256,192,137459,1,8,0:0:0:0:
256,192,137801,1,8,0:0:0:0:
256,192,137973,1,0,0:0:0:0:
256,192,138144,1,8,0:0:0:0:
256,192,138487,1,8,0:0:0:0:
256,192,138659,1,8,0:0:0:0:
256,192,138830,1,8,0:0:0:0:
256,192,139001,1,8,0:0:0:0:
256,192,139173,1,0,0:0:0:0:
256,192,139516,1,4,0:0:0:0:
256,192,139859,1,12,0:0:0:0:
256,192,140201,1,8,0:0:0:0:
256,192,140373,1,0,0:0:0:0:
256,192,140544,1,4,0:0:0:0:
256,192,140887,1,8,0:0:0:0:
256,192,141059,1,0,0:0:0:0:
256,192,141230,1,8,0:0:0:0:
256,192,141401,1,8,0:0:0:0:
256,192,141573,1,0,0:0:0:0:
256,192,141916,1,0,0:0:0:0:
256,192,142087,1,0,0:0:0:0:
256,192,142259,1,8,0:0:0:0:
256,192,142373,1,0,0:0:0:0:
256,192,142487,1,0,0:0:0:0:
256,192,142601,1,8,0:0:0:0:
256,192,142773,1,0,0:0:0:0:
256,192,142944,1,8,0:0:0:0:
256,192,143116,1,0,0:0:0:0:
256,192,143287,1,0,0:0:0:0:
256,192,143459,1,8,0:0:0:0:
256,192,143630,1,8,0:0:0:0:
256,192,143801,1,0,0:0:0:0:
256,192,143973,1,8,0:0:0:0:
256,192,144144,1,8,0:0:0:0:
256,192,144316,1,8,0:0:0:0:
256,192,144487,1,0,0:0:0:0:
256,192,145001,5,4,0:0:0:0:
256,192,153230,5,0,0:0:0:0:
256,192,153573,5,8,0:0:0:0:
256,192,153744,1,0,0:0:0:0:
256,192,154087,1,8,0:0:0:0:
256,192,154430,1,0,0:0:0:0:
256,192,154773,1,8,0:0:0:0:
256,192,155116,1,8,0:0:0:0:
256,192,155287,1,0,0:0:0:0:
256,192,155973,1,8,0:0:0:0:
256,192,157001,1,8,0:0:0:0:
256,192,157344,1,0,0:0:0:0:
256,192,157687,1,0,0:0:0:0:
256,192,158030,1,0,0:0:0:0:
256,192,158716,1,8,0:0:0:0:
256,192,159744,1,8,0:0:0:0:
256,192,160430,1,8,0:0:0:0:
256,192,160773,1,8,0:0:0:0:
256,192,160887,1,0,0:0:0:0:
256,192,161001,1,8,0:0:0:0:
256,192,161459,1,0,0:0:0:0:
256,192,162487,1,0,0:0:0:0:
256,192,163173,1,0,0:0:0:0:
256,192,163601,1,0,0:0:0:0:
256,192,164201,1,8,0:0:0:0:
256,192,165230,1,8,0:0:0:0:
256,192,165573,1,0,0:0:0:0:
256,192,165916,1,8,0:0:0:0:
256,192,166087,1,0,0:0:0:0:
256,192,166259,1,8,0:0:0:0:
256,192,166601,1,8,0:0:0:0:
256,192,166773,1,8,0:0:0:0:
256,192,166944,5,0,0:0:0:0:
256,192,167287,1,0,0:0:0:0:
256,192,167459,1,0,0:0:0:0:
256,192,167630,1,8,0:0:0:0:
256,192,168316,1,0,0:0:0:0:
256,192,168487,1,8,0:0:0:0:
256,192,168659,1,8,0:0:0:0:
256,192,168830,1,0,0:0:0:0:
256,192,169001,1,8,0:0:0:0:
256,192,169344,1,0,0:0:0:0:
256,192,169687,1,0,0:0:0:0:
256,192,170030,1,8,0:0:0:0:
256,192,170201,1,0,0:0:0:0:
256,192,170373,1,8,0:0:0:0:
256,192,171059,1,0,0:0:0:0:
256,192,171230,1,8,0:0:0:0:
256,192,171573,1,0,0:0:0:0:
256,192,171744,1,8,0:0:0:0:
256,192,171916,1,0,0:0:0:0:
256,192,172087,1,8,0:0:0:0:
256,192,172259,1,8,0:0:0:0:
256,192,172430,1,0,0:0:0:0:
256,192,172601,1,0,0:0:0:0:
256,192,172773,1,8,0:0:0:0:
256,192,172944,1,0,0:0:0:0:
256,192,173116,1,8,0:0:0:0:
256,192,173459,1,8,0:0:0:0:
256,192,173630,1,8,0:0:0:0:
256,192,173801,1,0,0:0:0:0:
256,192,173973,1,8,0:0:0:0:
256,192,174144,1,0,0:0:0:0:
256,192,174487,1,8,0:0:0:0:
256,192,174830,1,0,0:0:0:0:
256,192,175173,1,0,0:0:0:0:
256,192,175344,1,8,0:0:0:0:
256,192,175516,1,0,0:0:0:0:
256,192,175687,1,0,0:0:0:0:
256,192,175859,1,8,0:0:0:0:
256,192,176201,1,0,0:0:0:0:
256,192,176373,1,8,0:0:0:0:
256,192,176544,1,0,0:0:0:0:
256,192,176716,1,8,0:0:0:0:
256,192,176887,1,8,0:0:0:0:
256,192,177059,1,0,0:0:0:0:
256,192,177230,1,8,0:0:0:0:
256,192,177573,1,0,0:0:0:0:
256,192,177801,1,8,0:0:0:0:
256,192,177916,1,0,0:0:0:0:
256,192,178259,1,0,0:0:0:0:
256,192,178430,1,0,0:0:0:0:
256,192,178601,1,8,0:0:0:0:
256,192,179287,1,0,0:0:0:0:
256,192,179459,1,8,0:0:0:0:
256,192,179630,1,8,0:0:0:0:
256,192,179801,1,0,0:0:0:0:
256,192,179973,1,8,0:0:0:0:
256,192,180144,1,8,0:0:0:0:
256,192,180316,1,8,0:0:0:0:
256,192,180487,1,0,0:0:0:0:
256,192,180659,1,0,0:0:0:0:
256,192,181001,1,0,0:0:0:0:
256,192,181173,1,0,0:0:0:0:
256,192,181344,1,8,0:0:0:0:
256,192,182030,1,0,0:0:0:0:
256,192,182201,1,8,0:0:0:0:
256,192,182373,1,8,0:0:0:0:
256,192,182544,1,0,0:0:0:0:
256,192,182716,1,8,0:0:0:0:
256,192,182887,1,8,0:0:0:0:
256,192,183059,1,0,0:0:0:0:
256,192,183230,1,8,0:0:0:0:
256,192,183401,1,0,0:0:0:0:
256,192,183744,1,0,0:0:0:0:
256,192,184087,1,8,0:0:0:0:
256,192,184259,1,0,0:0:0:0:
256,192,184430,1,8,0:0:0:0:
256,192,184601,1,8,0:0:0:0:
256,192,184773,1,0,0:0:0:0:
256,192,185459,1,8,0:0:0:0:
256,192,185630,1,0,0:0:0:0:
256,192,185801,1,8,0:0:0:0:
256,192,185973,1,8,0:0:0:0:
256,192,186144,1,0,0:0:0:0:
256,192,186830,1,8,0:0:0:0:
256,192,187173,1,8,0:0:0:0:
256,192,187516,1,0,0:0:0:0:
256,192,187687,1,8,0:0:0:0:
256,192,188030,1,0,0:0:0:0:
256,192,188201,1,8,0:0:0:0:
256,192,188544,1,0,0:0:0:0:
256,192,188716,1,0,0:0:0:0:
256,192,188887,5,12,0:0:0:0:
256,192,189059,1,0,0:0:0:0:
256,192,189144,1,0,0:0:0:0:
256,192,189230,1,8,0:0:0:0:
256,192,189401,1,0,0:0:0:0:
256,192,189487,1,0,0:0:0:0:
256,192,189573,1,8,0:0:0:0:
256,192,189744,1,0,0:0:0:0:
256,192,189830,1,8,0:0:0:0:
256,192,190001,1,8,0:0:0:0:
256,192,190087,1,0,0:0:0:0:
256,192,190259,1,8,0:0:0:0:
256,192,190430,1,0,0:0:0:0:
256,192,190516,1,0,0:0:0:0:
256,192,190601,1,8,0:0:0:0:
256,192,190773,1,0,0:0:0:0:
256,192,190859,1,0,0:0:0:0:
256,192,190944,1,8,0:0:0:0:
256,192,191116,1,0,0:0:0:0:
256,192,191201,1,8,0:0:0:0:
256,192,191287,1,8,0:0:0:0:
256,192,191373,1,8,0:0:0:0:
256,192,191459,1,0,0:0:0:0:
256,192,191630,1,8,0:0:0:0:
256,192,191801,1,0,0:0:0:0:
256,192,191887,1,0,0:0:0:0:
256,192,191973,1,8,0:0:0:0:
256,192,192144,1,0,0:0:0:0:
256,192,192230,1,0,0:0:0:0:
256,192,192316,1,8,0:0:0:0:
256,192,192401,1,8,0:0:0:0:
256,192,192487,1,0,0:0:0:0:
256,192,192573,1,8,0:0:0:0:
256,192,192744,1,0,0:0:0:0:
256,192,192830,1,8,0:0:0:0:
256,192,192916,1,8,0:0:0:0:
256,192,193001,1,0,0:0:0:0:
256,192,193173,1,0,0:0:0:0:
256,192,193259,1,0,0:0:0:0:
256,192,193344,1,8,0:0:0:0:
256,192,193430,1,8,0:0:0:0:
256,192,193516,1,0,0:0:0:0:
256,192,193687,1,8,0:0:0:0:
256,192,193773,1,8,0:0:0:0:
256,192,193859,1,0,0:0:0:0:
256,192,193944,1,8,0:0:0:0:
256,192,194030,1,8,0:0:0:0:
256,192,194116,1,8,0:0:0:0:
256,192,194201,1,0,0:0:0:0:
256,192,194373,1,12,0:0:0:0:
256,192,194544,1,0,0:0:0:0:
256,192,194716,1,8,0:0:0:0:
256,192,194801,1,8,0:0:0:0:
256,192,194887,1,0,0:0:0:0:
256,192,195059,1,8,0:0:0:0:
256,192,195144,1,8,0:0:0:0:
256,192,195230,1,0,0:0:0:0:
256,192,195316,1,8,0:0:0:0:
256,192,195401,1,0,0:0:0:0:
256,192,195573,1,8,0:0:0:0:
256,192,195659,1,0,0:0:0:0:
256,192,195744,1,8,0:0:0:0:
256,192,195830,1,8,0:0:0:0:
256,192,195916,1,0,0:0:0:0:
256,192,196087,1,8,0:0:0:0:
256,192,196173,1,8,0:0:0:0:
256,192,196259,1,0,0:0:0:0:
256,192,196344,1,0,0:0:0:0:
256,192,196430,1,8,0:0:0:0:
256,192,196601,1,0,0:0:0:0:
256,192,196687,1,0,0:0:0:0:
256,192,196773,1,8,0:0:0:0:
256,192,196859,1,0,0:0:0:0:
256,192,196944,1,8,0:0:0:0:
256,192,197116,5,8,0:0:0:0:
256,192,197201,1,8,0:0:0:0:
256,192,197287,1,0,0:0:0:0:
256,192,197373,1,0,0:0:0:0:
256,192,197459,1,8,0:0:0:0:
256,192,197544,1,8,0:0:0:0:
256,192,197630,1,0,0:0:0:0:
256,192,197716,1,0,0:0:0:0:
256,192,197801,1,8,0:0:0:0:
256,192,197887,1,8,0:0:0:0:
256,192,197973,1,0,0:0:0:0:
256,192,198059,1,0,0:0:0:0:
256,192,198144,1,8,0:0:0:0:
256,192,198230,1,0,0:0:0:0:
256,192,198316,1,8,0:0:0:0:
256,192,198401,1,0,0:0:0:0:
256,192,198487,1,8,0:0:0:0:
256,192,198544,1,0,0:0:0:0:
256,192,198601,1,0,0:0:0:0:
256,192,198659,1,8,0:0:0:0:
256,192,198716,1,0,0:0:0:0:
256,192,198773,1,0,0:0:0:0:
256,192,198830,1,8,0:0:0:0:
256,192,198916,1,8,0:0:0:0:
256,192,199001,1,0,0:0:0:0:
256,192,199087,1,0,0:0:0:0:
256,192,199173,1,8,0:0:0:0:
256,192,199344,1,8,0:0:0:0:
256,192,199516,1,12,0:0:0:0:
256,192,199859,5,4,0:0:0:0:
256,192,200201,1,4,0:0:0:0:
256,192,200544,1,4,0:0:0:0:
256,192,200801,1,4,0:0:0:0:
256,192,201059,1,12,0:0:0:0:
256,192,201316,1,8,0:0:0:0:
256,192,201401,1,0,0:0:0:0:
256,192,201487,1,0,0:0:0:0:
256,192,201573,1,8,0:0:0:0:
256,192,201659,1,0,0:0:0:0:
256,192,201830,1,0,0:0:0:0:
256,192,201916,1,8,0:0:0:0:
256,192,202001,1,8,0:0:0:0:
256,192,202087,1,0,0:0:0:0:
256,192,202173,1,8,0:0:0:0:
256,192,202259,1,0,0:0:0:0:
256,192,202344,1,0,0:0:0:0:
256,192,202430,1,0,0:0:0:0:
256,192,202516,1,0,0:0:0:0:
256,192,202601,1,8,0:0:0:0:
256,192,202773,1,0,0:0:0:0:
256,192,202859,1,0,0:0:0:0:
256,192,202944,1,8,0:0:0:0:
256,192,203030,1,8,0:0:0:0:
256,192,203116,1,0,0:0:0:0:
256,192,203201,1,8,0:0:0:0:
256,192,203287,1,0,0:0:0:0:
256,192,203459,1,8,0:0:0:0:
256,192,203544,1,0,0:0:0:0:
256,192,203630,1,0,0:0:0:0:
256,192,203801,1,8,0:0:0:0:
256,192,203887,1,8,0:0:0:0:
256,192,203973,1,4,0:0:0:0:
256,192,204144,1,4,0:0:0:0:
256,192,204316,1,12,0:0:0:0:
256,192,204659,1,8,0:0:0:0:
256,192,204830,1,0,0:0:0:0:
256,192,205001,1,8,0:0:0:0:
256,192,205087,1,8,0:0:0:0:
256,192,205173,1,0,0:0:0:0:
256,192,205344,1,4,0:0:0:0:
256,192,205687,1,4,0:0:0:0:
256,192,206030,1,8,0:0:0:0:
256,192,206116,1,8,0:0:0:0:
256,192,206201,1,0,0:0:0:0:
256,192,206287,1,8,0:0:0:0:
256,192,206373,1,0,0:0:0:0:
256,192,206544,1,8,0:0:0:0:
256,192,206716,1,0,0:0:0:0:
256,192,206801,1,8,0:0:0:0:
256,192,206887,1,0,0:0:0:0:
256,192,206973,1,0,0:0:0:0:
256,192,207059,1,8,0:0:0:0:
256,192,207144,1,0,0:0:0:0:
256,192,207316,1,0,0:0:0:0:
256,192,207401,1,8,0:0:0:0:
256,192,207487,1,8,0:0:0:0:
256,192,207573,1,0,0:0:0:0:
256,192,207659,1,8,0:0:0:0:
256,192,207744,1,0,0:0:0:0:
256,192,207801,1,0,0:0:0:0:
256,192,207859,1,0,0:0:0:0:
256,192,207916,1,8,0:0:0:0:
256,192,208001,1,8,0:0:0:0:
256,192,208087,1,4,0:0:0:0:
256,192,208259,1,0,0:0:0:0:
256,192,208344,1,0,0:0:0:0:
256,192,208430,1,8,0:0:0:0:
256,192,208516,1,0,0:0:0:0:
256,192,208601,1,8,0:0:0:0:
256,192,208687,1,8,0:0:0:0:
256,192,208773,1,0,0:0:0:0:
256,192,208944,1,8,0:0:0:0:
256,192,209030,1,8,0:0:0:0:
256,192,209116,1,0,0:0:0:0:
256,192,209287,1,0,0:0:0:0:
256,192,209459,1,12,0:0:0:0:
256,192,209630,1,0,0:0:0:0:
256,192,209801,1,12,0:0:0:0:
256,192,210144,1,12,0:0:0:0:
256,192,210316,1,0,0:0:0:0:
256,192,210401,1,0,0:0:0:0:
256,192,210487,1,8,0:0:0:0:
256,192,210830,1,4,0:0:0:0:
256,192,211173,1,4,0:0:0:0:
256,192,211516,1,4,0:0:0:0:
256,192,211773,1,4,0:0:0:0:
256,192,212030,1,12,0:0:0:0:
256,192,212287,1,8,0:0:0:0:
256,192,212373,1,0,0:0:0:0:
256,192,212459,1,0,0:0:0:0:
256,192,212544,1,8,0:0:0:0:
256,192,212630,1,0,0:0:0:0:
256,192,212801,1,0,0:0:0:0:
256,192,212887,1,8,0:0:0:0:
256,192,212944,1,8,0:0:0:0:
256,192,213001,1,8,0:0:0:0:
256,192,213059,1,0,0:0:0:0:
256,192,213144,1,0,0:0:0:0:
256,192,213230,1,8,0:0:0:0:
256,192,213316,1,8,0:0:0:0:
256,192,213401,1,0,0:0:0:0:
256,192,213487,1,0,0:0:0:0:
256,192,213573,1,8,0:0:0:0:
256,192,213744,1,0,0:0:0:0:
256,192,213830,1,0,0:0:0:0:
256,192,213916,1,8,0:0:0:0:
256,192,214001,1,8,0:0:0:0:
256,192,214087,1,0,0:0:0:0:
256,192,214173,1,8,0:0:0:0:
256,192,214259,1,0,0:0:0:0:
256,192,214430,1,8,0:0:0:0:
256,192,214516,1,8,0:0:0:0:
256,192,214601,1,0,0:0:0:0:
256,192,214773,1,8,0:0:0:0:
256,192,214944,1,4,0:0:0:0:
256,192,215116,1,4,0:0:0:0:
256,192,215287,1,12,0:0:0:0:
256,192,215630,1,8,0:0:0:0:
256,192,215801,1,0,0:0:0:0:
256,192,215973,1,8,0:0:0:0:
256,192,216059,1,8,0:0:0:0:
256,192,216144,1,0,0:0:0:0:
256,192,216316,1,8,0:0:0:0:
256,192,216401,1,0,0:0:0:0:
256,192,216487,1,8,0:0:0:0:
256,192,216573,1,8,0:0:0:0:
256,192,216659,1,0,0:0:0:0:
256,192,216744,1,0,0:0:0:0:
256,192,216830,1,8,0:0:0:0:
256,192,216916,1,0,0:0:0:0:
256,192,217001,1,8,0:0:0:0:
256,192,217087,1,8,0:0:0:0:
256,192,217173,1,0,0:0:0:0:
256,192,217259,1,0,0:0:0:0:
256,192,217344,1,8,0:0:0:0:
256,192,217430,1,0,0:0:0:0:
256,192,217516,1,8,0:0:0:0:
256,192,217601,1,8,0:0:0:0:
256,192,217687,1,0,0:0:0:0:
256,192,217773,1,0,0:0:0:0:
256,192,217859,1,8,0:0:0:0:
256,192,217944,1,0,0:0:0:0:
256,192,218030,1,8,0:0:0:0:
256,192,218116,1,8,0:0:0:0:
256,192,218201,1,0,0:0:0:0:
256,192,218287,1,0,0:0:0:0:
256,192,218373,1,8,0:0:0:0:
256,192,218459,1,8,0:0:0:0:
256,192,218544,1,0,0:0:0:0:
256,192,218630,1,0,0:0:0:0:
256,192,218716,1,8,0:0:0:0:
256,192,218801,1,0,0:0:0:0:
256,192,218887,1,8,0:0:0:0:
256,192,218973,1,0,0:0:0:0:
256,192,219059,1,8,0:0:0:0:
256,192,219116,1,0,0:0:0:0:
256,192,219173,1,0,0:0:0:0:
256,192,219230,1,8,0:0:0:0:
256,192,219316,1,0,0:0:0:0:
256,192,219401,1,8,0:0:0:0:
256,192,219459,1,8,0:0:0:0:
256,192,219516,1,8,0:0:0:0:
256,192,219573,1,0,0:0:0:0:
256,192,219659,1,0,0:0:0:0:
256,192,219744,1,8,0:0:0:0:
256,192,219801,1,0,0:0:0:0:
256,192,219859,1,0,0:0:0:0:
256,192,219916,1,8,0:0:0:0:
256,192,220001,1,0,0:0:0:0:
256,192,220087,1,8,0:0:0:0:
256,192,220144,1,8,0:0:0:0:
256,192,220201,1,8,0:0:0:0:
256,192,220259,1,8,0:0:0:0:
256,192,220316,1,8,0:0:0:0:
256,192,220373,1,8,0:0:0:0:
256,192,220430,1,0,0:0:0:0:
256,192,220773,1,0,0:0:0:0:
256,192,221116,1,0,0:0:0:0:
256,192,221459,1,0,0:0:0:0:
256,192,221801,5,4,0:0:0:0:
256,192,222316,1,8,0:0:0:0:
256,192,222830,1,8,0:0:0:0:
256,192,223344,1,8,0:0:0:0:
256,192,223859,1,8,0:0:0:0:
256,192,224201,1,8,0:0:0:0:
256,192,224544,1,0,0:0:0:0:
256,192,225059,1,8,0:0:0:0:
256,192,225573,1,8,0:0:0:0:
256,192,226087,1,8,0:0:0:0:
256,192,226601,1,8,0:0:0:0:
256,192,226944,1,8,0:0:0:0:
256,192,227287,1,0,0:0:0:0:
256,192,227801,1,8,0:0:0:0:
256,192,228316,1,8,0:0:0:0:
256,192,228830,1,8,0:0:0:0:
256,192,229344,1,8,0:0:0:0:
256,192,229687,1,8,0:0:0:0:
256,192,230030,1,0,0:0:0:0:
256,192,230373,1,8,0:0:0:0:
256,192,230544,1,0,0:0:0:0:
256,192,230887,1,8,0:0:0:0:
256,192,231059,1,0,0:0:0:0:
256,192,231230,1,8,0:0:0:0:
256,192,231573,1,8,0:0:0:0:
256,192,231744,1,0,0:0:0:0:
256,192,231916,1,0,0:0:0:0:
256,192,232087,1,8,0:0:0:0:
256,192,232430,1,8,0:0:0:0:
256,192,232773,1,0,0:0:0:0:
256,192,233287,1,8,0:0:0:0:
256,192,233801,1,8,0:0:0:0:
256,192,234316,1,8,0:0:0:0:
256,192,234830,1,8,0:0:0:0:
256,192,235173,1,8,0:0:0:0:
256,192,235516,1,0,0:0:0:0:
256,192,236030,1,8,0:0:0:0:
256,192,236544,1,8,0:0:0:0:
256,192,237059,1,8,0:0:0:0:
256,192,237573,1,8,0:0:0:0:
256,192,237916,1,8,0:0:0:0:
256,192,238259,1,0,0:0:0:0:
256,192,238773,1,8,0:0:0:0:
256,192,239287,1,8,0:0:0:0:
256,192,239801,1,8,0:0:0:0:
256,192,240316,1,8,0:0:0:0:
256,192,240659,1,8,0:0:0:0:
256,192,241001,1,0,0:0:0:0:
256,192,241516,1,8,0:0:0:0:
256,192,242030,1,8,0:0:0:0:
256,192,242373,1,0,0:0:0:0:
256,192,242544,1,8,0:0:0:0:
256,192,242716,1,0,0:0:0:0:
256,192,242887,1,0,0:0:0:0:
256,192,243059,1,8,0:0:0:0:
256,192,243401,1,8,0:0:0:0:
