osu file format v14

[General]
AudioFilename: audio.mp3
AudioLeadIn: 0
PreviewTime: 101096
Countdown: 0
SampleSet: Normal
StackLeniency: 0.7
Mode: 1
LetterboxInBreaks: 0
WidescreenStoryboard: 1

[Editor]
Bookmarks: 21574,46260,79174,101117,123060,145003,188889,199860,221803
DistanceSpacing: 1
BeatDivisor: 2
GridSize: 32
TimelineZoom: 2.000002

[Metadata]
Title:BRAND NEW DAY feat. Numb'n'dub
TitleUnicode:BRAND NEW DAY feat. Numb'n'dub
Artist:lapix
ArtistUnicode:lapix
Creator:Cychloryn
Version:Capu's Kantan
Source:
Tags:fügene fugene MRX-016 megarex future bass capu electronic edm hardcore english japanese
BeatmapID:2219872
BeatmapSetID:1056895

[Difficulty]
HPDrainRate:8
CircleSize:2
OverallDifficulty:3
ApproachRate:10
SliderMultiplier:1.4
SliderTickRate:1

[Events]
//Background and Video events
0,0,"sun.jpg",0,54
//Break Periods
2,145201,166494
//Storyboard Layer 0 (Background)
//Storyboard Layer 1 (Fail)
//Storyboard Layer 2 (Pass)
//Storyboard Layer 3 (Foreground)
//Storyboard Layer 4 (Overlay)
//Storyboard Sound Samples

[TimingPoints]
2032,342.857142857143,7,1,0,40,1,0
18832,342.857142857143,4,1,0,40,1,0
21574,342.857142857143,4,1,0,40,1,0
46259,342.857142857143,4,1,0,60,1,0
79173,-100,4,1,0,82,0,1
99744,-100,4,1,0,40,0,0
100944,-100,4,1,0,82,0,0
101116,-100,4,1,0,82,0,1
122716,-100,4,1,0,75,0,0
199859,-100,4,1,0,82,0,1
220430,-100,4,1,0,40,0,0

[HitObjects]
256,192,2032,5,0,0:0:0:0:
256,192,3060,1,0,0:0:0:0:
256,192,4432,1,0,0:0:0:0:
256,192,5460,1,0,0:0:0:0:
256,192,6832,1,0,0:0:0:0:
256,192,7860,1,0,0:0:0:0:
256,192,8889,1,0,0:0:0:0:
256,192,9232,1,0,0:0:0:0:
256,192,10260,1,0,0:0:0:0:
256,192,11632,1,0,0:0:0:0:
256,192,12660,1,0,0:0:0:0:
256,192,14032,1,0,0:0:0:0:
256,192,15060,1,0,0:0:0:0:
256,192,16089,1,0,0:0:0:0:
256,192,16432,1,0,0:0:0:0:
256,192,17460,1,0,0:0:0:0:
256,192,18489,1,0,0:0:0:0:
256,192,18832,1,0,0:0:0:0:
256,192,19860,1,0,0:0:0:0:
256,192,20889,1,0,0:0:0:0:
256,192,21574,1,4,0:0:0:0:
256,192,22602,1,8,0:0:0:0:
256,192,23631,1,0,0:0:0:0:
256,192,24316,1,0,0:0:0:0:
256,192,25345,1,8,0:0:0:0:
256,192,26374,1,0,0:0:0:0:
256,192,27059,1,0,0:0:0:0:
256,192,27745,1,8,0:0:0:0:
256,192,28088,1,0,0:0:0:0:
256,192,28774,1,8,0:0:0:0:
256,192,29802,1,0,0:0:0:0:
256,192,30488,1,8,0:0:0:0:
256,192,31002,1,0,0:0:0:0:
256,192,31345,1,8,0:0:0:0:
256,192,31688,1,0,0:0:0:0:
256,192,32545,1,0,0:0:0:0:
256,192,33059,1,8,0:0:0:0:
256,192,34088,1,8,0:0:0:0:
256,192,34945,1,8,0:0:0:0:
256,192,35288,1,0,0:0:0:0:
256,192,35802,1,8,0:0:0:0:
256,192,36831,1,8,0:0:0:0:
256,192,37688,1,8,0:0:0:0:
256,192,38031,1,0,0:0:0:0:
256,192,39059,1,8,0:0:0:0:
256,192,40088,1,8,0:0:0:0:
256,192,40774,1,0,0:0:0:0:
256,192,41802,1,8,0:0:0:0:
256,192,42831,1,0,0:0:0:0:
256,192,43174,1,0,0:0:0:0:
256,192,46259,1,12,0:0:0:0:
256,192,46773,1,8,0:0:0:0:
256,192,47287,1,0,0:0:0:0:
256,192,47973,1,0,0:0:0:0:
256,192,49001,1,8,0:0:0:0:
256,192,49516,1,8,0:0:0:0:
256,192,50030,1,0,0:0:0:0:
256,192,50716,1,0,0:0:0:0:
256,192,51744,1,0,0:0:0:0:
256,192,52259,1,8,0:0:0:0:
256,192,52944,1,0,0:0:0:0:
256,192,53630,1,8,0:0:0:0:
256,192,54144,1,8,0:0:0:0:
256,192,54487,1,0,0:0:0:0:
256,192,55173,1,0,0:0:0:0:
256,192,55687,1,8,0:0:0:0:
256,192,56373,1,0,0:0:0:0:
256,192,57230,1,8,0:0:0:0:
256,192,57744,1,8,0:0:0:0:
256,192,58259,1,0,0:0:0:0:
256,192,58944,1,0,0:0:0:0:
256,192,59973,1,8,0:0:0:0:
256,192,60487,1,8,0:0:0:0:
256,192,61001,1,0,0:0:0:0:
256,192,61687,1,0,0:0:0:0:
256,192,62716,1,8,0:0:0:0:
256,192,63230,1,0,0:0:0:0:
256,192,63916,1,8,0:0:0:0:
256,192,64259,1,0,0:0:0:0:
256,192,64601,1,8,0:0:0:0:
256,192,65116,1,8,0:0:0:0:
256,192,65459,1,0,0:0:0:0:
256,192,66144,1,0,0:0:0:0:
256,192,66659,1,8,0:0:0:0:
256,192,67001,1,8,0:0:0:0:
256,192,67344,1,0,0:0:0:0:
256,192,68201,1,12,0:0:0:0:
256,192,69573,1,8,0:0:0:0:
256,192,70944,1,0,0:0:0:0:
256,192,72316,1,0,0:0:0:0:
256,192,73687,1,0,0:0:0:0:
256,192,74373,1,8,0:0:0:0:
256,192,75059,1,8,0:0:0:0:
256,192,75744,1,0,0:0:0:0:
256,192,76430,1,8,0:0:0:0:
256,192,76773,1,8,0:0:0:0:
256,192,77116,1,0,0:0:0:0:
256,192,77459,1,0,0:0:0:0:
256,192,77801,1,8,0:0:0:0:
256,192,79173,1,12,0:0:0:0:
256,192,79859,1,8,0:0:0:0:
256,192,80373,1,8,0:0:0:0:
256,192,80887,1,0,0:0:0:0:
256,192,81230,1,0,0:0:0:0:
256,192,81916,12,0,82944,0:0:0:0:
256,192,83287,5,0,0:0:0:0:
256,192,83630,1,8,0:0:0:0:
256,192,84659,1,4,0:0:0:0:
256,192,85344,1,0,0:0:0:0:
256,192,85859,1,8,0:0:0:0:
256,192,86373,1,8,0:0:0:0:
256,192,86716,1,0,0:0:0:0:
256,192,87401,1,8,0:0:0:0:
256,192,88087,1,8,0:0:0:0:
256,192,88773,1,0,0:0:0:0:
256,192,90144,1,12,0:0:0:0:
256,192,90830,1,8,0:0:0:0:
256,192,91344,1,0,0:0:0:0:
256,192,91859,1,8,0:0:0:0:
256,192,92201,1,0,0:0:0:0:
256,192,92887,12,0,93916,0:0:0:0:
256,192,94259,5,0,0:0:0:0:
256,192,94601,1,8,0:0:0:0:
256,192,95630,1,4,0:0:0:0:
256,192,96144,1,0,0:0:0:0:
256,192,96659,1,8,0:0:0:0:
256,192,97173,1,0,0:0:0:0:
256,192,97687,1,8,0:0:0:0:
256,192,98030,1,8,0:0:0:0:
256,192,98373,2,0,L|96:192,3,140
256,192,99744,5,0,0:0:0:0:
256,192,100087,1,0,0:0:0:0:
256,192,100430,1,0,0:0:0:0:
256,192,101116,1,12,0:0:0:0:
256,192,101630,1,8,0:0:0:0:
256,192,102144,1,0,0:0:0:0:
256,192,102830,1,8,0:0:0:0:
256,192,103859,1,8,0:0:0:0:
256,192,104373,1,8,0:0:0:0:
256,192,104887,1,0,0:0:0:0:
256,192,105573,1,8,0:0:0:0:
256,192,106601,1,0,0:0:0:0:
256,192,107116,1,8,0:0:0:0:
256,192,107801,1,8,0:0:0:0:
256,192,108487,1,8,0:0:0:0:
256,192,109344,1,8,0:0:0:0:
256,192,110030,1,0,0:0:0:0:
256,192,110544,1,8,0:0:0:0:
256,192,111230,1,0,0:0:0:0:
256,192,112087,1,12,0:0:0:0:
256,192,112601,1,8,0:0:0:0:
256,192,113116,1,0,0:0:0:0:
256,192,113801,1,8,0:0:0:0:
256,192,114830,1,8,0:0:0:0:
256,192,115344,1,8,0:0:0:0:
256,192,115859,1,0,0:0:0:0:
256,192,116544,1,8,0:0:0:0:
256,192,117573,1,0,0:0:0:0:
256,192,118087,1,8,0:0:0:0:
256,192,118773,1,8,0:0:0:0:
256,192,119459,1,8,0:0:0:0:
256,192,120316,1,8,0:0:0:0:
256,192,121001,1,0,0:0:0:0:
256,192,121516,1,8,0:0:0:0:
256,192,122201,1,0,0:0:0:0:
256,192,123059,1,12,0:0:0:0:
256,192,124087,1,4,0:0:0:0:
256,192,124773,1,0,0:0:0:0:
256,192,125116,1,8,0:0:0:0:
256,192,125801,1,4,0:0:0:0:
256,192,126830,1,0,0:0:0:0:
256,192,127859,1,8,0:0:0:0:
256,192,128887,1,4,0:0:0:0:
256,192,129230,1,8,0:0:0:0:
256,192,129573,1,4,0:0:0:0:
256,192,130601,1,8,0:0:0:0:
256,192,131287,1,4,0:0:0:0:
256,192,131973,1,8,0:0:0:0:
256,192,132316,1,0,0:0:0:0:
256,192,134030,1,0,0:0:0:0:
256,192,135059,1,8,0:0:0:0:
256,192,135744,1,0,0:0:0:0:
256,192,136087,1,8,0:0:0:0:
256,192,136773,1,4,0:0:0:0:
256,192,137459,1,8,0:0:0:0:
256,192,139516,1,4,0:0:0:0:
256,192,139859,1,4,0:0:0:0:
256,192,140201,1,8,0:0:0:0:
256,192,140544,1,0,0:0:0:0:
256,192,141573,1,8,0:0:0:0:
256,192,142259,1,0,0:0:0:0:
256,192,142944,1,8,0:0:0:0:
256,192,143801,1,0,0:0:0:0:
256,192,144316,1,8,0:0:0:0:
256,192,145001,1,4,0:0:0:0:
256,192,166944,5,0,0:0:0:0:
256,192,167630,5,8,0:0:0:0:
256,192,168316,1,0,0:0:0:0:
256,192,168659,1,0,0:0:0:0:
256,192,169001,1,8,0:0:0:0:
256,192,170373,1,8,0:0:0:0:
256,192,171059,1,0,0:0:0:0:
256,192,171401,1,0,0:0:0:0:
256,192,171744,1,8,0:0:0:0:
256,192,172430,1,8,0:0:0:0:
256,192,172773,1,8,0:0:0:0:
256,192,173116,1,0,0:0:0:0:
256,192,174487,1,8,0:0:0:0:
256,192,175173,1,8,0:0:0:0:
256,192,175516,1,8,0:0:0:0:
256,192,175859,1,0,0:0:0:0:
256,192,177230,1,8,0:0:0:0:
256,192,177916,1,0,0:0:0:0:
256,192,178601,1,8,0:0:0:0:
256,192,179287,1,0,0:0:0:0:
256,192,179630,1,0,0:0:0:0:
256,192,179973,1,8,0:0:0:0:
256,192,181344,1,8,0:0:0:0:
256,192,182030,1,0,0:0:0:0:
256,192,182373,1,8,0:0:0:0:
256,192,182716,1,8,0:0:0:0:
256,192,183401,1,0,0:0:0:0:
256,192,184087,1,8,0:0:0:0:
256,192,185459,1,8,0:0:0:0:
256,192,186144,1,0,0:0:0:0:
256,192,186830,1,8,0:0:0:0:
256,192,188201,1,8,0:0:0:0:
256,192,188887,1,4,0:0:0:0:
256,192,189573,1,0,0:0:0:0:
256,192,190944,1,0,0:0:0:0:
256,192,191630,1,0,0:0:0:0:
256,192,193001,1,0,0:0:0:0:
256,192,193687,1,0,0:0:0:0:
256,192,194373,1,0,0:0:0:0:
256,192,195059,1,8,0:0:0:0:
256,192,195744,1,0,0:0:0:0:
256,192,196430,1,8,0:0:0:0:
256,192,197116,1,8,0:0:0:0:
256,192,197459,1,8,0:0:0:0:
256,192,197801,1,0,0:0:0:0:
256,192,198144,1,0,0:0:0:0:
256,192,198487,1,8,0:0:0:0:
256,192,199859,1,12,0:0:0:0:
256,192,200544,1,8,0:0:0:0:
256,192,201059,1,0,0:0:0:0:
256,192,201916,1,8,0:0:0:0:
256,192,202601,1,8,0:0:0:0:
128,192,203630,1,8,0:0:0:0:
256,192,203973,5,0,0:0:0:0:
256,192,204316,1,8,0:0:0:0:
256,192,205344,1,4,0:0:0:0:
256,192,206030,1,0,0:0:0:0:
256,192,206544,1,8,0:0:0:0:
256,192,207059,1,0,0:0:0:0:
256,192,207401,1,8,0:0:0:0:
256,192,208087,1,0,0:0:0:0:
256,192,208773,1,8,0:0:0:0:
256,192,209459,1,0,0:0:0:0:
256,192,210830,1,12,0:0:0:0:
256,192,211516,1,0,0:0:0:0:
256,192,212030,1,0,0:0:0:0:
256,192,212887,1,8,0:0:0:0:
256,192,213573,1,8,0:0:0:0:
256,192,213916,1,0,0:0:0:0:
128,192,214601,1,8,0:0:0:0:
256,192,214944,5,0,0:0:0:0:
256,192,215287,1,8,0:0:0:0:
256,192,216316,1,4,0:0:0:0:
256,192,216830,1,0,0:0:0:0:
256,192,217344,1,8,0:0:0:0:
256,192,217859,1,0,0:0:0:0:
256,192,218373,1,8,0:0:0:0:
256,192,218716,1,8,0:0:0:0:
256,192,219059,2,0,L|128:192,6,70
256,192,220430,5,0,0:0:0:0:
256,192,221116,1,0,0:0:0:0:
256,192,221801,1,4,0:0:0:0:
256,192,222830,1,0,0:0:0:0:
256,192,223859,1,0,0:0:0:0:
256,192,224544,1,0,0:0:0:0:
256,192,225573,1,0,0:0:0:0:
256,192,226601,1,0,0:0:0:0:
256,192,227287,1,0,0:0:0:0:
256,192,228316,1,0,0:0:0:0:
256,192,229344,1,0,0:0:0:0:
256,192,230030,1,0,0:0:0:0:
256,192,231059,1,0,0:0:0:0:
256,192,232087,1,0,0:0:0:0:
256,192,232773,1,0,0:0:0:0:
256,192,233801,1,0,0:0:0:0:
256,192,234830,1,0,0:0:0:0:
256,192,235516,1,0,0:0:0:0:
256,192,236544,1,0,0:0:0:0:
256,192,237573,1,0,0:0:0:0:
256,192,238259,1,0,0:0:0:0:
256,192,239287,1,0,0:0:0:0:
256,192,240316,1,0,0:0:0:0:
256,192,241001,1,0,0:0:0:0:
256,192,242030,1,0,0:0:0:0:
256,192,243059,1,0,0:0:0:0:
256,192,243401,1,0,0:0:0:0:
