osu file format v14

[General]
AudioFilename: audio.mp3
AudioLeadIn: 0
PreviewTime: 101096
Countdown: 0
SampleSet: Normal
StackLeniency: 0.7
Mode: 1
LetterboxInBreaks: 0
WidescreenStoryboard: 1

[Editor]
Bookmarks: 21574,46260,77803,79174,101117,123060,145003,188889,199860,216316,221803
DistanceSpacing: 1
BeatDivisor: 2
GridSize: 32
TimelineZoom: 0.9000019

[Metadata]
Title:BRAND NEW DAY feat. Numb'n'dub
TitleUnicode:BRAND NEW DAY feat. Numb'n'dub
Artist:lapix
ArtistUnicode:lapix
Creator:Cychloryn
Version:Capu's Futsuu
Source:
Tags:fügene fugene MRX-016 megarex future bass capu electronic edm hardcore english japanese
BeatmapID:2219871
BeatmapSetID:1056895

[Difficulty]
HPDrainRate:7
CircleSize:2
OverallDifficulty:4
ApproachRate:10
SliderMultiplier:1.4
SliderTickRate:1

[Events]
//Background and Video events
0,0,"sun.jpg",0,54
//Break Periods
2,145201,166494
//Storyboard Layer 0 (Background)
//Storyboard Layer 1 (Fail)
//Storyboard Layer 2 (Pass)
//Storyboard Layer 3 (Foreground)
//Storyboard Layer 4 (Overlay)
//Storyboard Sound Samples

[TimingPoints]
2032,342.857142857143,7,1,0,40,1,0
18832,342.857142857143,4,1,0,40,1,0
21574,342.857142857143,4,1,0,40,1,0
46259,342.857142857143,4,1,0,60,1,0
73687,-100,4,1,0,60,0,0
74030,-98.3606234883202,4,1,0,60,0,0
74372,-96.774224765879,4,1,0,60,0,0
75058,-93.7499707031342,4,1,0,60,0,0
75401,-92.3077207100679,4,1,0,60,0,0
75744,-88.4955752212389,4,1,0,60,0,0
76430,-88.2353200692118,4,1,0,60,0,0
76601,-87.591215301835,4,1,0,60,0,0
76772,-86.9565217391304,4,1,0,60,0,0
77115,-85.7142612244968,4,1,0,60,0,0
77287,-85.1063829787234,4,1,0,60,0,0
77458,-84.5070660583285,4,1,0,60,0,0
77801,-83.3333333333333,4,1,0,60,0,0
78144,-90.9090909090909,4,1,0,60,0,0
78487,-100,4,1,0,60,0,0
79087,-100,4,1,0,82,0,0
79173,-90.9090909090909,4,1,0,82,0,1
79344,-100,4,1,0,82,0,1
84658,-90.9090909090909,4,1,0,82,0,1
84830,-100,4,1,0,82,0,1
88772,-100,4,1,0,82,0,1
89115,-111.111111111111,4,1,0,82,0,1
89458,-125,4,1,0,82,0,1
90144,-90.9090909090909,4,1,0,82,0,1
90315,-100,4,1,0,82,0,1
99744,-100,4,1,0,40,0,0
101116,-100,4,1,0,82,0,1
122716,-100,4,1,0,75,0,0
123058,-90.9090909090909,4,1,0,75,0,0
123230,-100,4,1,0,75,0,0
166944,-111.111111111111,4,1,0,75,0,0
188887,-100,4,1,0,75,0,0
194372,-100,4,1,0,75,0,0
194715,-98.3634292639071,4,1,0,75,0,0
195058,-96.779563253187,4,1,0,75,0,0
195744,-93.7601671181219,4,1,0,75,0,0
195915,-93.0345064984603,4,1,0,75,0,0
196087,-92.3199921712647,4,1,0,75,0,0
196430,-90.9233906787158,4,1,0,75,0,0
196772,-89.5684948193583,4,1,0,75,0,0
197115,-88.2533081752569,4,1,0,75,0,0
197287,-87.719298245614,4,1,0,75,0,0
197458,-86.976185920295,4,1,0,75,0,0
197801,-85.7354991263553,4,1,0,75,0,0
197972,-85.1283352217636,4,1,0,75,0,0
198144,-84.5297105026475,4,1,0,75,0,0
198487,-83.3574375256845,4,1,0,75,0,0
198830,-90.9377776444024,4,1,0,75,0,0
199172,-100,4,1,0,75,0,0
199859,-90.9090909090909,4,1,0,82,0,1
200801,-95.2380952380952,4,1,0,82,0,1
201058,-100,4,1,0,82,0,1
205344,-90.9090909090909,4,1,0,82,0,1
206544,-100,4,1,0,82,0,1
210830,-90.9090909090909,4,1,0,82,0,1
211772,-95.2380952380952,4,1,0,82,0,1
212030,-100,4,1,0,82,0,1
220430,-100,4,1,0,30,0,0
220772,-105.263157894737,4,1,0,30,0,0
221115,-111.111111111111,4,1,0,30,0,0
221458,-117.647058823529,4,1,0,30,0,0
221801,-125,4,1,0,82,0,0

[HitObjects]
256,192,2031,5,0,0:0:0:0:
256,192,3060,1,0,0:0:0:0:
256,192,4089,1,0,0:0:0:0:
256,192,4432,1,0,0:0:0:0:
256,192,5460,1,0,0:0:0:0:
256,192,6489,1,0,0:0:0:0:
256,192,6832,1,0,0:0:0:0:
256,192,7860,1,0,0:0:0:0:
256,192,8889,1,0,0:0:0:0:
256,192,9232,1,0,0:0:0:0:
256,192,9746,1,0,0:0:0:0:
256,192,10260,1,0,0:0:0:0:
256,192,10774,1,0,0:0:0:0:
256,192,11289,1,0,0:0:0:0:
256,192,11632,1,0,0:0:0:0:
256,192,12660,1,0,0:0:0:0:
256,192,13689,1,0,0:0:0:0:
256,192,14032,1,0,0:0:0:0:
256,192,15060,1,0,0:0:0:0:
256,192,16089,1,0,0:0:0:0:
256,192,16432,1,8,0:0:0:0:
256,192,16603,1,8,0:0:0:0:
256,192,16946,1,0,0:0:0:0:
256,192,17460,1,8,0:0:0:0:
256,192,17632,1,8,0:0:0:0:
256,192,17974,1,0,0:0:0:0:
256,192,18489,1,0,0:0:0:0:
256,192,18832,1,0,0:0:0:0:
256,192,19860,1,0,0:0:0:0:
256,192,20889,1,0,0:0:0:0:
256,192,21232,1,0,0:0:0:0:
256,192,21574,1,4,0:0:0:0:
256,192,22088,1,8,0:0:0:0:
256,192,22602,1,0,0:0:0:0:
256,192,23116,1,8,0:0:0:0:
256,192,23631,1,8,0:0:0:0:
256,192,23974,1,8,0:0:0:0:
256,192,24316,1,0,0:0:0:0:
256,192,24831,1,8,0:0:0:0:
256,192,25345,1,0,0:0:0:0:
256,192,25859,1,8,0:0:0:0:
256,192,26374,1,0,0:0:0:0:
256,192,26716,1,8,0:0:0:0:
256,192,27059,1,0,0:0:0:0:
256,192,27231,1,0,0:0:0:0:
256,192,27402,1,0,0:0:0:0:
256,192,27745,1,0,0:0:0:0:
256,192,28088,1,8,0:0:0:0:
256,192,28259,1,8,0:0:0:0:
256,192,28431,1,8,0:0:0:0:
256,192,28774,1,8,0:0:0:0:
256,192,29802,1,0,0:0:0:0:
256,192,29974,1,0,0:0:0:0:
256,192,30145,1,0,0:0:0:0:
256,192,30488,1,0,0:0:0:0:
256,192,31002,1,0,0:0:0:0:
256,192,31345,1,8,0:0:0:0:
256,192,31688,1,8,0:0:0:0:
256,192,32374,1,8,0:0:0:0:
256,192,32545,1,0,0:0:0:0:
256,192,32888,1,8,0:0:0:0:
256,192,33059,1,8,0:0:0:0:
256,192,33574,1,0,0:0:0:0:
256,192,34088,1,8,0:0:0:0:
256,192,34259,1,0,0:0:0:0:
256,192,34431,1,0,0:0:0:0:
256,192,34602,1,8,0:0:0:0:
256,192,34945,1,0,0:0:0:0:
256,192,35288,1,0,0:0:0:0:
256,192,35631,1,8,0:0:0:0:
256,192,35802,1,0,0:0:0:0:
256,192,36316,1,0,0:0:0:0:
256,192,36831,1,8,0:0:0:0:
256,192,37002,1,0,0:0:0:0:
256,192,37345,1,8,0:0:0:0:
256,192,37516,1,0,0:0:0:0:
256,192,37688,1,8,0:0:0:0:
256,192,38031,1,0,0:0:0:0:
256,192,38374,1,0,0:0:0:0:
256,192,38716,1,8,0:0:0:0:
256,192,39059,1,8,0:0:0:0:
256,192,39231,1,8,0:0:0:0:
256,192,40259,1,0,0:0:0:0:
256,192,40431,1,8,0:0:0:0:
256,192,40602,1,8,0:0:0:0:
256,192,40774,1,0,0:0:0:0:
256,192,41288,1,0,0:0:0:0:
256,192,41802,1,8,0:0:0:0:
256,192,42145,1,0,0:0:0:0:
256,192,42316,1,8,0:0:0:0:
256,192,42831,1,0,0:0:0:0:
256,192,43174,1,0,0:0:0:0:
256,192,46259,1,12,0:0:0:0:
256,192,46430,1,0,0:0:0:0:
256,192,46773,1,8,0:0:0:0:
256,192,46944,1,0,0:0:0:0:
256,192,47287,1,0,0:0:0:0:
256,192,47459,1,0,0:0:0:0:
256,192,47973,1,8,0:0:0:0:
256,192,49001,1,8,0:0:0:0:
256,192,49173,1,0,0:0:0:0:
256,192,49516,1,8,0:0:0:0:
256,192,49687,1,0,0:0:0:0:
256,192,50030,1,0,0:0:0:0:
256,192,50201,1,0,0:0:0:0:
256,192,50716,1,8,0:0:0:0:
256,192,51059,1,8,0:0:0:0:
256,192,51401,1,0,0:0:0:0:
256,192,51916,1,0,0:0:0:0:
256,192,52259,1,8,0:0:0:0:
256,192,52602,1,0,0:0:0:0:
256,192,52773,1,0,0:0:0:0:
256,192,52944,1,8,0:0:0:0:
256,192,53287,1,0,0:0:0:0:
256,192,53630,1,8,0:0:0:0:
256,192,54144,1,0,0:0:0:0:
256,192,54316,1,8,0:0:0:0:
256,192,54487,1,8,0:0:0:0:
256,192,54830,1,0,0:0:0:0:
256,192,55173,1,0,0:0:0:0:
256,192,55687,1,8,0:0:0:0:
256,192,56030,1,0,0:0:0:0:
256,192,56373,1,0,0:0:0:0:
256,192,57230,1,8,0:0:0:0:
256,192,57401,1,0,0:0:0:0:
256,192,57744,1,8,0:0:0:0:
256,192,57916,1,0,0:0:0:0:
256,192,58259,1,0,0:0:0:0:
256,192,58430,1,0,0:0:0:0:
256,192,58944,1,8,0:0:0:0:
256,192,59973,1,8,0:0:0:0:
256,192,60144,1,0,0:0:0:0:
256,192,60487,1,8,0:0:0:0:
256,192,60659,1,0,0:0:0:0:
256,192,61001,1,0,0:0:0:0:
256,192,61173,1,0,0:0:0:0:
256,192,61687,1,8,0:0:0:0:
256,192,62030,1,0,0:0:0:0:
256,192,62716,1,8,0:0:0:0:
256,192,63059,1,0,0:0:0:0:
256,192,63230,1,0,0:0:0:0:
256,192,63573,1,8,0:0:0:0:
256,192,63744,1,0,0:0:0:0:
256,192,63916,1,8,0:0:0:0:
256,192,64259,1,0,0:0:0:0:
256,192,64601,1,8,0:0:0:0:
256,192,65116,1,8,0:0:0:0:
256,192,65459,1,0,0:0:0:0:
256,192,65801,1,0,0:0:0:0:
256,192,66144,1,0,0:0:0:0:
256,192,66659,1,8,0:0:0:0:
256,192,67001,1,0,0:0:0:0:
256,192,67344,1,0,0:0:0:0:
256,192,68201,1,12,0:0:0:0:
256,192,68887,1,0,0:0:0:0:
256,192,69401,1,8,0:0:0:0:
256,192,69573,1,0,0:0:0:0:
256,192,70259,1,0,0:0:0:0:
256,192,70773,1,8,0:0:0:0:
256,192,70944,1,0,0:0:0:0:
256,192,71287,1,0,0:0:0:0:
256,192,71630,1,0,0:0:0:0:
256,192,72144,1,8,0:0:0:0:
256,192,72316,1,0,0:0:0:0:
256,192,72659,1,8,0:0:0:0:
256,192,73001,1,0,0:0:0:0:
256,192,73516,1,8,0:0:0:0:
256,192,73687,5,0,0:0:0:0:
256,192,74030,1,0,0:0:0:0:
256,192,74373,1,8,0:0:0:0:
256,192,75059,1,8,0:0:0:0:
256,192,75401,1,0,0:0:0:0:
256,192,75744,1,0,0:0:0:0:
256,192,76430,1,8,0:0:0:0:
256,192,76601,1,0,0:0:0:0:
256,192,76773,1,8,0:0:0:0:
256,192,77116,1,0,0:0:0:0:
256,192,77287,1,0,0:0:0:0:
256,192,77459,1,0,0:0:0:0:
256,192,77801,1,8,0:0:0:0:
256,192,78144,1,0,0:0:0:0:
256,192,78487,1,0,0:0:0:0:
256,192,79173,1,12,0:0:0:0:
256,192,79687,1,0,0:0:0:0:
256,192,79859,1,8,0:0:0:0:
256,192,80201,1,8,0:0:0:0:
256,192,80373,1,0,0:0:0:0:
256,192,80716,1,0,0:0:0:0:
256,192,80973,1,8,0:0:0:0:
256,192,81230,1,0,0:0:0:0:
256,192,81916,12,0,82944,0:0:0:0:
256,192,83287,5,0,0:0:0:0:
256,192,83459,1,0,0:0:0:0:
256,192,83630,1,8,0:0:0:0:
256,192,83973,1,8,0:0:0:0:
256,192,84316,1,8,0:0:0:0:
256,192,84487,1,8,0:0:0:0:
256,192,84659,1,4,0:0:0:0:
256,192,85344,1,0,0:0:0:0:
256,192,85516,1,8,0:0:0:0:
256,192,85687,1,0,0:0:0:0:
256,192,85859,1,8,0:0:0:0:
256,192,86201,1,0,0:0:0:0:
256,192,86373,1,8,0:0:0:0:
256,192,86716,1,8,0:0:0:0:
256,192,87059,1,0,0:0:0:0:
256,192,87230,1,0,0:0:0:0:
256,192,87401,1,8,0:0:0:0:
256,192,88087,1,8,0:0:0:0:
256,192,88773,1,0,0:0:0:0:
256,192,89116,1,0,0:0:0:0:
256,192,89459,1,0,0:0:0:0:
256,192,90144,1,12,0:0:0:0:
256,192,90659,1,0,0:0:0:0:
256,192,90830,1,8,0:0:0:0:
256,192,91173,1,8,0:0:0:0:
256,192,91344,1,0,0:0:0:0:
256,192,91687,1,8,0:0:0:0:
256,192,91944,1,8,0:0:0:0:
256,192,92201,1,0,0:0:0:0:
256,192,92887,12,0,93916,0:0:0:0:
256,192,94259,5,0,0:0:0:0:
256,192,94430,1,0,0:0:0:0:
256,192,94601,1,8,0:0:0:0:
256,192,94944,1,8,0:0:0:0:
256,192,95630,1,4,0:0:0:0:
256,192,95973,1,8,0:0:0:0:
256,192,96144,1,0,0:0:0:0:
256,192,96316,1,0,0:0:0:0:
256,192,96659,1,0,0:0:0:0:
256,192,96830,1,8,0:0:0:0:
256,192,97001,1,0,0:0:0:0:
256,192,97173,1,0,0:0:0:0:
256,192,97344,1,8,0:0:0:0:
256,192,97687,1,8,0:0:0:0:
256,192,97859,1,0,0:0:0:0:
256,192,98030,1,8,0:0:0:0:
256,192,98373,2,0,L|96:192,3,140
256,192,99744,5,0,0:0:0:0:
256,192,100087,1,0,0:0:0:0:
256,192,100430,1,0,0:0:0:0:
256,192,101116,1,12,0:0:0:0:
256,192,101287,1,0,0:0:0:0:
256,192,101630,1,8,0:0:0:0:
256,192,101801,1,0,0:0:0:0:
256,192,102144,1,0,0:0:0:0:
256,192,102316,1,0,0:0:0:0:
256,192,102830,1,8,0:0:0:0:
256,192,103173,1,0,0:0:0:0:
256,192,103859,1,8,0:0:0:0:
256,192,104030,1,0,0:0:0:0:
256,192,104373,1,8,0:0:0:0:
256,192,104544,1,0,0:0:0:0:
256,192,104887,1,0,0:0:0:0:
256,192,105059,1,0,0:0:0:0:
256,192,105573,1,8,0:0:0:0:
256,192,105744,1,8,0:0:0:0:
256,192,105916,1,8,0:0:0:0:
256,192,106259,1,0,0:0:0:0:
256,192,106773,1,0,0:0:0:0:
256,192,106944,1,0,0:0:0:0:
256,192,107116,1,8,0:0:0:0:
256,192,107459,1,0,0:0:0:0:
256,192,107630,1,8,0:0:0:0:
256,192,107801,1,0,0:0:0:0:
256,192,108144,1,0,0:0:0:0:
256,192,108316,1,8,0:0:0:0:
256,192,108487,1,8,0:0:0:0:
256,192,109001,1,0,0:0:0:0:
256,192,109344,1,8,0:0:0:0:
256,192,109687,1,0,0:0:0:0:
256,192,110030,1,0,0:0:0:0:
256,192,110544,1,8,0:0:0:0:
256,192,110887,1,8,0:0:0:0:
256,192,111059,1,0,0:0:0:0:
256,192,111230,1,0,0:0:0:0:
256,192,111401,1,8,0:0:0:0:
256,192,112087,1,12,0:0:0:0:
256,192,112259,1,0,0:0:0:0:
256,192,112601,1,8,0:0:0:0:
256,192,112773,1,0,0:0:0:0:
256,192,113116,1,0,0:0:0:0:
256,192,113287,1,0,0:0:0:0:
256,192,113801,1,8,0:0:0:0:
256,192,114144,1,0,0:0:0:0:
256,192,114830,1,8,0:0:0:0:
256,192,115001,1,0,0:0:0:0:
256,192,115344,1,8,0:0:0:0:
256,192,115516,1,0,0:0:0:0:
256,192,115859,1,0,0:0:0:0:
256,192,116030,1,0,0:0:0:0:
256,192,116544,1,8,0:0:0:0:
256,192,116716,1,0,0:0:0:0:
256,192,116887,1,0,0:0:0:0:
256,192,117230,1,0,0:0:0:0:
256,192,117744,1,0,0:0:0:0:
256,192,117916,1,0,0:0:0:0:
256,192,118087,1,8,0:0:0:0:
256,192,118430,1,0,0:0:0:0:
256,192,118601,1,8,0:0:0:0:
256,192,118773,1,8,0:0:0:0:
256,192,119116,1,8,0:0:0:0:
256,192,119287,1,8,0:0:0:0:
256,192,119459,1,8,0:0:0:0:
256,192,119973,1,8,0:0:0:0:
256,192,120144,1,0,0:0:0:0:
256,192,120316,1,8,0:0:0:0:
256,192,120659,1,8,0:0:0:0:
256,192,121001,1,0,0:0:0:0:
256,192,121516,1,8,0:0:0:0:
256,192,121859,1,8,0:0:0:0:
256,192,122030,1,0,0:0:0:0:
256,192,122201,1,8,0:0:0:0:
256,192,122373,1,8,0:0:0:0:
256,192,122716,1,0,0:0:0:0:
256,192,123059,1,12,0:0:0:0:
256,192,124087,1,4,0:0:0:0:
256,192,124773,1,0,0:0:0:0:
256,192,125116,1,8,0:0:0:0:
256,192,125801,1,4,0:0:0:0:
256,192,126144,1,0,0:0:0:0:
256,192,126487,1,8,0:0:0:0:
256,192,126659,1,0,0:0:0:0:
256,192,126830,1,0,0:0:0:0:
256,192,127859,1,8,0:0:0:0:
256,192,128544,1,0,0:0:0:0:
256,192,128887,1,4,0:0:0:0:
256,192,129230,1,8,0:0:0:0:
256,192,129573,1,4,0:0:0:0:
256,192,129916,1,0,0:0:0:0:
256,192,130259,1,0,0:0:0:0:
256,192,130601,1,8,0:0:0:0:
256,192,131287,1,4,0:0:0:0:
256,192,131630,1,8,0:0:0:0:
256,192,131801,1,0,0:0:0:0:
256,192,131973,1,8,0:0:0:0:
256,192,132144,1,0,0:0:0:0:
256,192,132316,1,0,0:0:0:0:
256,192,132659,1,8,0:0:0:0:
256,192,133001,1,0,0:0:0:0:
256,192,133344,1,8,0:0:0:0:
256,192,133516,1,0,0:0:0:0:
256,192,133687,1,8,0:0:0:0:
256,192,134030,1,0,0:0:0:0:
256,192,134716,1,8,0:0:0:0:
256,192,135059,1,0,0:0:0:0:
256,192,135744,1,0,0:0:0:0:
256,192,136087,1,8,0:0:0:0:
256,192,136773,1,4,0:0:0:0:
256,192,136944,1,0,0:0:0:0:
256,192,137116,1,8,0:0:0:0:
256,192,137459,1,8,0:0:0:0:
256,192,137801,1,0,0:0:0:0:
256,192,137973,1,0,0:0:0:0:
256,192,139516,1,4,0:0:0:0:
256,192,139859,1,4,0:0:0:0:
256,192,140201,1,8,0:0:0:0:
256,192,140373,1,0,0:0:0:0:
256,192,140544,1,0,0:0:0:0:
256,192,141059,1,0,0:0:0:0:
256,192,141230,1,8,0:0:0:0:
256,192,141573,1,8,0:0:0:0:
256,192,142259,1,0,0:0:0:0:
256,192,142430,1,8,0:0:0:0:
256,192,142601,1,0,0:0:0:0:
256,192,142944,1,8,0:0:0:0:
256,192,143116,1,0,0:0:0:0:
256,192,143287,1,0,0:0:0:0:
256,192,143801,1,0,0:0:0:0:
256,192,144144,1,0,0:0:0:0:
256,192,144316,1,8,0:0:0:0:
256,192,144487,1,0,0:0:0:0:
256,192,145001,1,4,0:0:0:0:
256,192,166944,5,0,0:0:0:0:
256,192,167287,1,0,0:0:0:0:
256,192,167630,5,8,0:0:0:0:
256,192,168316,1,0,0:0:0:0:
256,192,169001,1,8,0:0:0:0:
256,192,169687,1,0,0:0:0:0:
256,192,170030,1,0,0:0:0:0:
256,192,170373,1,8,0:0:0:0:
256,192,171059,1,0,0:0:0:0:
256,192,171230,1,8,0:0:0:0:
256,192,171573,1,0,0:0:0:0:
256,192,171744,1,8,0:0:0:0:
256,192,172087,1,8,0:0:0:0:
256,192,172430,1,0,0:0:0:0:
256,192,172773,1,0,0:0:0:0:
256,192,173116,1,8,0:0:0:0:
256,192,173801,1,0,0:0:0:0:
256,192,174487,1,8,0:0:0:0:
256,192,175173,1,0,0:0:0:0:
256,192,175516,1,0,0:0:0:0:
256,192,175859,1,8,0:0:0:0:
256,192,176373,1,0,0:0:0:0:
256,192,176544,1,8,0:0:0:0:
256,192,176716,1,0,0:0:0:0:
256,192,177059,1,0,0:0:0:0:
256,192,177230,1,8,0:0:0:0:
256,192,177916,1,0,0:0:0:0:
256,192,178259,1,0,0:0:0:0:
256,192,178601,1,8,0:0:0:0:
256,192,179287,1,0,0:0:0:0:
256,192,179973,1,8,0:0:0:0:
256,192,180659,1,8,0:0:0:0:
256,192,181001,1,0,0:0:0:0:
256,192,181344,1,8,0:0:0:0:
256,192,182030,1,0,0:0:0:0:
256,192,182716,1,8,0:0:0:0:
256,192,183401,1,0,0:0:0:0:
256,192,183744,1,0,0:0:0:0:
256,192,184087,1,8,0:0:0:0:
256,192,184773,1,0,0:0:0:0:
256,192,185459,1,8,0:0:0:0:
256,192,186144,1,0,0:0:0:0:
256,192,186830,1,8,0:0:0:0:
256,192,187173,1,0,0:0:0:0:
256,192,187516,1,0,0:0:0:0:
256,192,188201,1,8,0:0:0:0:
256,192,188887,1,4,0:0:0:0:
256,192,189230,1,0,0:0:0:0:
256,192,189573,1,0,0:0:0:0:
256,192,189830,1,8,0:0:0:0:
256,192,190259,1,0,0:0:0:0:
256,192,190944,1,0,0:0:0:0:
256,192,191201,1,8,0:0:0:0:
256,192,191630,1,0,0:0:0:0:
256,192,191973,1,0,0:0:0:0:
256,192,192316,1,0,0:0:0:0:
256,192,192573,1,8,0:0:0:0:
256,192,193001,1,0,0:0:0:0:
256,192,193687,1,0,0:0:0:0:
256,192,193944,1,8,0:0:0:0:
256,192,194373,5,0,0:0:0:0:
256,192,194716,1,8,0:0:0:0:
256,192,195059,1,8,0:0:0:0:
256,192,195744,1,0,0:0:0:0:
256,192,195916,1,0,0:0:0:0:
256,192,196087,1,8,0:0:0:0:
256,192,196430,1,8,0:0:0:0:
256,192,196773,1,0,0:0:0:0:
256,192,197116,1,8,0:0:0:0:
256,192,197287,1,0,0:0:0:0:
256,192,197459,1,0,0:0:0:0:
256,192,197801,1,8,0:0:0:0:
256,192,197973,1,8,0:0:0:0:
256,192,198144,1,8,0:0:0:0:
256,192,198487,1,0,0:0:0:0:
256,192,198830,1,0,0:0:0:0:
256,192,199173,1,0,0:0:0:0:
256,192,199859,1,12,0:0:0:0:
256,192,200201,1,8,0:0:0:0:
256,192,200544,1,8,0:0:0:0:
256,192,200801,1,8,0:0:0:0:
256,192,201059,1,0,0:0:0:0:
256,192,201573,1,0,0:0:0:0:
256,192,201916,1,8,0:0:0:0:
256,192,202601,1,0,0:0:0:0:
256,192,203287,1,8,0:0:0:0:
256,192,203630,1,8,0:0:0:0:
256,192,203973,5,0,0:0:0:0:
256,192,204144,1,0,0:0:0:0:
256,192,204316,1,8,0:0:0:0:
256,192,204659,1,8,0:0:0:0:
256,192,205001,1,0,0:0:0:0:
256,192,205173,1,8,0:0:0:0:
256,192,205344,1,4,0:0:0:0:
256,192,205687,1,4,0:0:0:0:
256,192,206030,1,8,0:0:0:0:
256,192,206373,1,0,0:0:0:0:
256,192,206544,1,8,0:0:0:0:
256,192,207059,1,0,0:0:0:0:
256,192,207230,1,0,0:0:0:0:
256,192,207401,1,8,0:0:0:0:
256,192,207744,1,8,0:0:0:0:
256,192,208087,1,0,0:0:0:0:
256,192,208773,1,8,0:0:0:0:
256,192,209459,1,0,0:0:0:0:
256,192,209801,1,0,0:0:0:0:
256,192,210144,1,0,0:0:0:0:
256,192,210830,1,12,0:0:0:0:
256,192,211173,1,8,0:0:0:0:
256,192,211516,1,8,0:0:0:0:
256,192,211773,1,8,0:0:0:0:
256,192,212030,1,0,0:0:0:0:
256,192,212544,1,0,0:0:0:0:
256,192,212887,1,8,0:0:0:0:
256,192,213573,1,0,0:0:0:0:
256,192,214259,1,8,0:0:0:0:
256,192,214602,1,8,0:0:0:0:
256,192,214944,5,0,0:0:0:0:
256,192,215116,1,0,0:0:0:0:
256,192,215287,1,8,0:0:0:0:
256,192,215630,1,8,0:0:0:0:
256,192,215973,1,8,0:0:0:0:
256,192,216316,1,4,0:0:0:0:
256,192,216659,1,8,0:0:0:0:
256,192,216830,1,0,0:0:0:0:
256,192,217345,1,0,0:0:0:0:
256,192,217687,1,0,0:0:0:0:
256,192,217859,1,8,0:0:0:0:
256,192,218030,1,8,0:0:0:0:
256,192,218373,1,8,0:0:0:0:
256,192,218545,1,0,0:0:0:0:
256,192,218716,1,8,0:0:0:0:
256,192,219059,2,0,L|160:192,6,70
256,192,220430,5,0,0:0:0:0:
256,192,220773,1,0,0:0:0:0:
256,192,221116,1,0,0:0:0:0:
256,192,221459,1,0,0:0:0:0:
256,192,221801,1,4,0:0:0:0:
256,192,222830,1,0,0:0:0:0:
256,192,223859,1,0,0:0:0:0:
256,192,224201,1,0,0:0:0:0:
256,192,224544,1,0,0:0:0:0:
256,192,225573,1,0,0:0:0:0:
256,192,226601,1,0,0:0:0:0:
256,192,226944,1,0,0:0:0:0:
256,192,227287,1,0,0:0:0:0:
256,192,228316,1,0,0:0:0:0:
256,192,229344,1,0,0:0:0:0:
256,192,229687,1,0,0:0:0:0:
256,192,230030,1,0,0:0:0:0:
256,192,231059,1,0,0:0:0:0:
256,192,232087,1,0,0:0:0:0:
256,192,232430,1,0,0:0:0:0:
256,192,232773,1,0,0:0:0:0:
256,192,233801,1,0,0:0:0:0:
256,192,234830,1,0,0:0:0:0:
256,192,235516,1,0,0:0:0:0:
256,192,236544,1,0,0:0:0:0:
256,192,237573,1,0,0:0:0:0:
256,192,238259,1,0,0:0:0:0:
256,192,239287,1,0,0:0:0:0:
256,192,240316,1,0,0:0:0:0:
256,192,241001,1,0,0:0:0:0:
256,192,242030,1,0,0:0:0:0:
256,192,243059,1,0,0:0:0:0:
256,192,243401,1,0,0:0:0:0:
