osu file format v14

[General]
AudioFilename: audio.ogg
AudioLeadIn: 0
PreviewTime: 187081
Countdown: 0
SampleSet: Soft
StackLeniency: 0.7
Mode: 3
LetterboxInBreaks: 0
SpecialStyle: 0
WidescreenStoryboard: 1

[Editor]
DistanceSpacing: 0.9
BeatDivisor: 4
GridSize: 32
TimelineZoom: 3

[Metadata]
Title:Artificial Human
TitleUnicode:Artificial Human
Artist:lapix
ArtistUnicode:lapix
Creator:ruka
Version:SCP
Source:
Tags:Pengdoll LCH W_B Best Album 2013~2017「Flagship」 MTNL-003 メカドリル MECHA DRILL Binzokomegane Girls Union MEGAREX MRX-020 dubstep drumstep electronic instrumental marathon comic market comiket 90 93 C90 C93 2016夏 summer 2017冬 winter LN hybrid collaboration
BeatmapID:3924687
BeatmapSetID:1903538

[Difficulty]
HPDrainRate:8
CircleSize:7
OverallDifficulty:6
ApproachRate:5
SliderMultiplier:1.4
SliderTickRate:1

[Events]
//Background and Video events
0,0,"bg.jpg",0,0
//Break Periods
//Storyboard Layer 0 (Background)
//Storyboard Layer 1 (Fail)
//Storyboard Layer 2 (Pass)
//Storyboard Layer 3 (Foreground)
//Storyboard Layer 4 (Overlay)
//Storyboard Sound Samples

[TimingPoints]
1036,306.122448979592,4,2,1,50,1,0
79403,-100,4,2,1,70,0,1
84301,-100,4,2,1,50,0,0
89199,-100,4,2,1,70,0,1
94097,-100,4,2,1,50,0,0
187158,-100,4,2,1,70,0,1
226342,-100,4,2,1,50,0,0

[HitObjects]
256,192,5933,5,0,0:0:0:0:
182,192,5972,1,0,0:0:0:0:
329,192,5972,128,0,6354:0:0:0:0:
109,192,6010,1,0,0:0:0:0:
36,192,6048,128,0,7388:0:0:0:0:
402,192,6087,1,0,0:0:0:0:
475,192,6087,1,0,0:0:0:0:
475,192,6189,128,0,6291:0:0:0:0:
256,192,6393,1,0,0:0:0:0:
329,192,6431,1,0,0:0:0:0:
182,192,6431,128,0,7694:0:0:0:0:
402,192,6469,1,0,0:0:0:0:
475,192,6507,128,0,8306:0:0:0:0:
109,192,6580,128,0,6682:0:0:0:0:
402,192,6988,128,0,7090:0:0:0:0:
329,192,7260,128,0,8000:0:0:0:0:
109,192,7464,1,0,0:0:0:0:
36,192,7541,128,0,7617:0:0:0:0:
109,192,7617,128,0,9530:0:0:0:0:
36,192,7694,128,0,7847:0:0:0:0:
256,192,7770,1,0,0:0:0:0:
182,192,7847,128,0,7923:0:0:0:0:
256,192,7923,128,0,9837:0:0:0:0:
182,192,8000,128,0,8153:0:0:0:0:
402,192,8076,1,0,0:0:0:0:
329,192,8153,128,0,8229:0:0:0:0:
402,192,8229,128,0,9224:0:0:0:0:
329,192,8306,128,0,8459:0:0:0:0:
36,192,8382,128,0,10143:0:0:0:0:
475,192,8459,128,0,10092:0:0:0:0:
329,192,9301,1,0,0:0:0:0:
402,192,9377,128,0,9454:0:0:0:0:
329,192,9454,128,0,10143:0:0:0:0:
402,192,9530,128,0,10117:0:0:0:0:
182,192,9607,1,0,0:0:0:0:
109,192,9683,128,0,9760:0:0:0:0:
182,192,9760,128,0,10092:0:0:0:0:
109,192,9837,128,0,10117:0:0:0:0:
256,192,9913,128,0,10168:0:0:0:0:
182,192,10168,1,0,0:0:0:0:
109,192,10194,1,0,0:0:0:0:
475,192,10219,5,0,0:0:0:0:
36,192,10219,1,0,0:0:0:0:
329,192,10287,1,0,0:0:0:0:
256,192,10389,1,0,0:0:0:0:
109,192,10430,1,0,0:0:0:0:
182,192,10474,1,0,0:0:0:0:
329,192,10491,1,0,0:0:0:0:
256,192,10544,1,0,0:0:0:0:
402,192,10593,1,0,0:0:0:0:
36,192,10593,1,0,0:0:0:0:
182,192,10627,1,0,0:0:0:0:
109,192,10678,1,0,0:0:0:0:
329,192,10678,1,0,0:0:0:0:
402,192,10729,1,0,0:0:0:0:
256,192,10744,1,0,0:0:0:0:
475,192,10780,1,0,0:0:0:0:
182,192,10831,128,0,10984:0:0:0:0:
36,192,10831,128,0,10984:0:0:0:0:
109,192,10831,128,0,15806:0:0:0:0:
256,192,10908,128,0,15729:0:0:0:0:
402,192,10984,128,0,15653:0:0:0:0:
182,192,11138,128,0,11252:0:0:0:0:
36,192,11138,128,0,11252:0:0:0:0:
329,192,11291,1,0,0:0:0:0:
182,192,11444,1,0,0:0:0:0:
475,192,11444,1,0,0:0:0:0:
182,192,11750,128,0,11903:0:0:0:0:
36,192,11750,128,0,11903:0:0:0:0:
182,192,12056,128,0,12171:0:0:0:0:
36,192,12056,128,0,12171:0:0:0:0:
182,192,12362,128,0,12439:0:0:0:0:
36,192,12362,128,0,12439:0:0:0:0:
182,192,12668,1,0,0:0:0:0:
475,192,12668,1,0,0:0:0:0:
329,192,12821,1,0,0:0:0:0:
329,192,13280,128,0,13433:0:0:0:0:
182,192,13280,128,0,13433:0:0:0:0:
329,192,13587,128,0,13701:0:0:0:0:
182,192,13587,128,0,13701:0:0:0:0:
36,192,13740,1,0,0:0:0:0:
182,192,13893,1,0,0:0:0:0:
475,192,13893,1,0,0:0:0:0:
36,192,14046,1,0,0:0:0:0:
329,192,14199,128,0,14352:0:0:0:0:
182,192,14199,128,0,14352:0:0:0:0:
475,192,14352,1,0,0:0:0:0:
182,192,14505,128,0,14620:0:0:0:0:
329,192,14505,128,0,14620:0:0:0:0:
329,192,14811,128,0,14888:0:0:0:0:
182,192,14811,128,0,14888:0:0:0:0:
36,192,14964,1,0,0:0:0:0:
182,192,15117,1,0,0:0:0:0:
475,192,15117,1,0,0:0:0:0:
36,192,15270,1,0,0:0:0:0:
36,192,15423,1,0,0:0:0:0:
36,192,15576,1,0,0:0:0:0:
329,192,15729,128,0,15882:0:0:0:0:
475,192,15729,128,0,15882:0:0:0:0:
402,192,15729,128,0,20704:0:0:0:0:
256,192,15806,128,0,20627:0:0:0:0:
109,192,15882,128,0,20551:0:0:0:0:
329,192,16036,128,0,16150:0:0:0:0:
475,192,16036,128,0,16150:0:0:0:0:
182,192,16189,1,0,0:0:0:0:
329,192,16342,1,0,0:0:0:0:
36,192,16342,1,0,0:0:0:0:
182,192,16495,1,0,0:0:0:0:
329,192,16648,128,0,16801:0:0:0:0:
475,192,16648,128,0,16801:0:0:0:0:
36,192,16801,1,0,0:0:0:0:
329,192,16954,128,0,17069:0:0:0:0:
475,192,16954,128,0,17069:0:0:0:0:
329,192,17260,128,0,17337:0:0:0:0:
475,192,17260,128,0,17337:0:0:0:0:
182,192,17413,1,0,0:0:0:0:
329,192,17566,1,0,0:0:0:0:
36,192,17566,1,0,0:0:0:0:
182,192,17719,1,0,0:0:0:0:
182,192,18178,128,0,18331:0:0:0:0:
329,192,18178,128,0,18331:0:0:0:0:
182,192,18484,128,0,18599:0:0:0:0:
329,192,18484,128,0,18599:0:0:0:0:
475,192,18638,1,0,0:0:0:0:
329,192,18791,1,0,0:0:0:0:
36,192,18791,1,0,0:0:0:0:
475,192,18944,1,0,0:0:0:0:
182,192,19097,128,0,19250:0:0:0:0:
329,192,19097,128,0,19250:0:0:0:0:
36,192,19250,1,0,0:0:0:0:
329,192,19403,128,0,19518:0:0:0:0:
182,192,19403,128,0,19518:0:0:0:0:
182,192,19709,128,0,19786:0:0:0:0:
329,192,19709,128,0,19786:0:0:0:0:
475,192,19862,1,0,0:0:0:0:
329,192,20015,1,0,0:0:0:0:
36,192,20015,1,0,0:0:0:0:
475,192,20168,1,0,0:0:0:0:
475,192,20321,1,0,0:0:0:0:
182,192,20474,1,0,0:0:0:0:
182,192,20627,128,0,20780:0:0:0:0:
36,192,20627,128,0,20780:0:0:0:0:
329,192,20627,128,0,21010:0:0:0:0:
109,192,20627,128,0,22770:0:0:0:0:
256,192,20704,128,0,21775:0:0:0:0:
402,192,20780,128,0,21622:0:0:0:0:
36,192,20933,128,0,21393:0:0:0:0:
182,192,20933,128,0,21393:0:0:0:0:
329,192,21087,1,0,0:0:0:0:
475,192,21240,1,0,0:0:0:0:
329,192,21393,1,0,0:0:0:0:
36,192,21546,128,0,21775:0:0:0:0:
182,192,21546,128,0,21775:0:0:0:0:
402,192,21699,1,0,0:0:0:0:
402,192,21775,1,0,0:0:0:0:
182,192,21852,128,0,22005:0:0:0:0:
36,192,21852,128,0,22005:0:0:0:0:
256,192,21852,1,0,0:0:0:0:
402,192,21928,128,0,21967:0:0:0:0:
256,192,22005,128,0,22464:0:0:0:0:
329,192,22005,128,0,22043:0:0:0:0:
402,192,22081,128,0,22234:0:0:0:0:
182,192,22158,128,0,22388:0:0:0:0:
329,192,22158,1,0,0:0:0:0:
36,192,22158,128,0,22388:0:0:0:0:
475,192,22234,128,0,22273:0:0:0:0:
402,192,22311,128,0,22349:0:0:0:0:
329,192,22311,128,0,22541:0:0:0:0:
475,192,22388,128,0,23459:0:0:0:0:
402,192,22464,1,0,0:0:0:0:
182,192,22464,128,0,22847:0:0:0:0:
36,192,22464,128,0,22694:0:0:0:0:
256,192,22541,128,0,22617:0:0:0:0:
329,192,22617,128,0,22694:0:0:0:0:
256,192,22694,128,0,24416:0:0:0:0:
36,192,22770,128,0,23000:0:0:0:0:
402,192,22770,128,0,24148:0:0:0:0:
109,192,22847,128,0,22923:0:0:0:0:
182,192,22923,128,0,23000:0:0:0:0:
109,192,23000,128,0,24760:0:0:0:0:
329,192,23076,128,0,23229:0:0:0:0:
182,192,23076,128,0,23229:0:0:0:0:
36,192,23076,1,0,0:0:0:0:
182,192,23382,128,0,23842:0:0:0:0:
329,192,23382,128,0,23842:0:0:0:0:
475,192,23536,1,0,0:0:0:0:
36,192,23689,1,0,0:0:0:0:
475,192,23842,1,0,0:0:0:0:
329,192,23995,128,0,24148:0:0:0:0:
182,192,23995,128,0,24148:0:0:0:0:
475,192,24148,1,0,0:0:0:0:
402,192,24224,1,0,0:0:0:0:
182,192,24301,128,0,24492:0:0:0:0:
36,192,24301,1,0,0:0:0:0:
329,192,24301,128,0,24339:0:0:0:0:
402,192,24377,128,0,24416:0:0:0:0:
475,192,24454,128,0,24837:0:0:0:0:
329,192,24454,1,0,0:0:0:0:
256,192,24530,128,0,24569:0:0:0:0:
329,192,24607,128,0,25296:0:0:0:0:
182,192,24607,128,0,24683:0:0:0:0:
36,192,24607,1,0,0:0:0:0:
256,192,24683,128,0,25066:0:0:0:0:
402,192,24760,128,0,24837:0:0:0:0:
182,192,24760,1,0,0:0:0:0:
36,192,24760,128,0,24798:0:0:0:0:
109,192,24837,128,0,24875:0:0:0:0:
182,192,24913,128,0,25908:0:0:0:0:
475,192,24913,1,0,0:0:0:0:
402,192,24913,128,0,25219:0:0:0:0:
109,192,24990,128,0,25602:0:0:0:0:
36,192,25066,128,0,25143:0:0:0:0:
475,192,25066,1,0,0:0:0:0:
256,192,25143,128,0,25372:0:0:0:0:
475,192,25219,128,0,25449:0:0:0:0:
36,192,25219,1,0,0:0:0:0:
402,192,25296,128,0,25449:0:0:0:0:
329,192,25372,128,0,25449:0:0:0:0:
36,192,25372,1,0,0:0:0:0:
256,192,25449,128,0,25525:0:0:0:0:
329,192,25525,128,0,25678:0:0:0:0:
475,192,25525,128,0,25678:0:0:0:0:
402,192,25525,128,0,27668:0:0:0:0:
256,192,25602,128,0,26673:0:0:0:0:
109,192,25678,128,0,26520:0:0:0:0:
475,192,25831,128,0,26291:0:0:0:0:
329,192,25831,128,0,26291:0:0:0:0:
182,192,25984,1,0,0:0:0:0:
36,192,26138,1,0,0:0:0:0:
182,192,26291,1,0,0:0:0:0:
329,192,26444,128,0,26673:0:0:0:0:
475,192,26444,128,0,26673:0:0:0:0:
109,192,26597,1,0,0:0:0:0:
329,192,26750,128,0,26903:0:0:0:0:
475,192,26750,128,0,26903:0:0:0:0:
256,192,26750,1,0,0:0:0:0:
109,192,26826,128,0,26865:0:0:0:0:
256,192,26903,128,0,27362:0:0:0:0:
182,192,26903,128,0,26941:0:0:0:0:
109,192,26979,128,0,27132:0:0:0:0:
329,192,27056,128,0,27286:0:0:0:0:
182,192,27056,1,0,0:0:0:0:
475,192,27056,128,0,27286:0:0:0:0:
36,192,27132,128,0,27171:0:0:0:0:
109,192,27209,128,0,27247:0:0:0:0:
182,192,27209,128,0,27439:0:0:0:0:
36,192,27286,128,0,28357:0:0:0:0:
109,192,27362,1,0,0:0:0:0:
329,192,27362,128,0,27745:0:0:0:0:
475,192,27362,128,0,27592:0:0:0:0:
256,192,27439,128,0,27515:0:0:0:0:
182,192,27515,128,0,27592:0:0:0:0:
256,192,27592,128,0,29046:0:0:0:0:
475,192,27668,128,0,27898:0:0:0:0:
109,192,27668,128,0,27821:0:0:0:0:
402,192,27745,128,0,27821:0:0:0:0:
329,192,27821,128,0,27898:0:0:0:0:
402,192,27898,128,0,28740:0:0:0:0:
182,192,27974,128,0,28127:0:0:0:0:
329,192,27974,128,0,28127:0:0:0:0:
475,192,27974,1,0,0:0:0:0:
109,192,27974,128,0,28357:0:0:0:0:
329,192,28280,128,0,28740:0:0:0:0:
182,192,28280,128,0,28740:0:0:0:0:
36,192,28433,1,0,0:0:0:0:
109,192,28433,128,0,29556:0:0:0:0:
475,192,28587,1,0,0:0:0:0:
36,192,28740,1,0,0:0:0:0:
182,192,28893,128,0,29046:0:0:0:0:
329,192,28893,128,0,29046:0:0:0:0:
402,192,28893,128,0,29454:0:0:0:0:
36,192,29046,1,0,0:0:0:0:
475,192,29046,1,0,0:0:0:0:
256,192,29122,128,0,29173:0:0:0:0:
329,192,29199,128,0,29505:0:0:0:0:
182,192,29199,128,0,29607:0:0:0:0:
256,192,29275,128,0,29326:0:0:0:0:
475,192,29352,128,0,29403:0:0:0:0:
36,192,29352,128,0,29505:0:0:0:0:
256,192,29428,128,0,29658:0:0:0:0:
475,192,29505,1,0,0:0:0:0:
402,192,29556,1,0,0:0:0:0:
329,192,29607,128,0,29709:0:0:0:0:
109,192,29658,1,0,0:0:0:0:
182,192,29709,1,0,0:0:0:0:
256,192,29760,1,0,0:0:0:0:
109,192,29811,128,0,29849:0:0:0:0:
36,192,29811,128,0,29849:0:0:0:0:
402,192,29811,128,0,30041:0:0:0:0:
475,192,29811,128,0,30194:0:0:0:0:
182,192,29964,1,0,0:0:0:0:
329,192,29964,1,0,0:0:0:0:
36,192,29964,128,0,30653:0:0:0:0:
256,192,30117,1,0,0:0:0:0:
402,192,30117,1,0,0:0:0:0:
109,192,30117,128,0,30653:0:0:0:0:
329,192,30270,1,0,0:0:0:0:
475,192,30270,1,0,0:0:0:0:
182,192,30270,128,0,30347:0:0:0:0:
182,192,30423,128,0,31418:0:0:0:0:
402,192,30423,128,0,30806:0:0:0:0:
329,192,30423,128,0,30653:0:0:0:0:
475,192,30423,128,0,30959:0:0:0:0:
256,192,30423,1,0,0:0:0:0:
256,192,30576,128,0,31418:0:0:0:0:
36,192,30729,1,0,0:0:0:0:
109,192,30729,1,0,0:0:0:0:
329,192,30729,1,0,0:0:0:0:
36,192,30882,128,0,31112:0:0:0:0:
109,192,30882,128,0,31112:0:0:0:0:
329,192,30882,128,0,30959:0:0:0:0:
402,192,30882,128,0,30959:0:0:0:0:
329,192,31036,1,0,0:0:0:0:
402,192,31036,1,0,0:0:0:0:
475,192,31036,1,0,0:0:0:0:
36,192,31189,1,0,0:0:0:0:
402,192,31342,128,0,31954:0:0:0:0:
36,192,31342,128,0,32604:0:0:0:0:
109,192,31342,128,0,32604:0:0:0:0:
329,192,31342,128,0,31418:0:0:0:0:
475,192,31495,1,0,0:0:0:0:
256,192,31495,1,0,0:0:0:0:
256,192,31648,128,0,31686:0:0:0:0:
182,192,31648,128,0,31686:0:0:0:0:
329,192,31648,128,0,31686:0:0:0:0:
182,192,31801,128,0,31839:0:0:0:0:
256,192,31801,128,0,31839:0:0:0:0:
329,192,31801,128,0,32145:0:0:0:0:
182,192,31954,1,0,0:0:0:0:
475,192,31954,1,0,0:0:0:0:
402,192,32107,128,0,32145:0:0:0:0:
475,192,32107,128,0,32145:0:0:0:0:
182,192,32260,1,0,0:0:0:0:
256,192,32260,1,0,0:0:0:0:
329,192,32260,1,0,0:0:0:0:
402,192,32260,1,0,0:0:0:0:
475,192,32260,128,0,33102:0:0:0:0:
402,192,32413,128,0,33102:0:0:0:0:
256,192,32413,128,0,32490:0:0:0:0:
182,192,32566,128,0,32604:0:0:0:0:
329,192,32566,128,0,32604:0:0:0:0:
256,192,32566,1,0,0:0:0:0:
36,192,32719,128,0,32757:0:0:0:0:
182,192,32719,128,0,32757:0:0:0:0:
109,192,32719,1,0,0:0:0:0:
329,192,32872,128,0,33867:0:0:0:0:
109,192,32872,128,0,33255:0:0:0:0:
182,192,32872,128,0,33102:0:0:0:0:
36,192,32872,128,0,33408:0:0:0:0:
256,192,32872,1,0,0:0:0:0:
256,192,33025,128,0,33867:0:0:0:0:
475,192,33178,1,0,0:0:0:0:
402,192,33178,1,0,0:0:0:0:
182,192,33178,1,0,0:0:0:0:
475,192,33331,128,0,33561:0:0:0:0:
402,192,33331,128,0,33561:0:0:0:0:
182,192,33331,128,0,33408:0:0:0:0:
109,192,33331,128,0,33408:0:0:0:0:
182,192,33484,1,0,0:0:0:0:
109,192,33484,1,0,0:0:0:0:
36,192,33484,1,0,0:0:0:0:
475,192,33638,1,0,0:0:0:0:
109,192,33791,128,0,34403:0:0:0:0:
475,192,33791,128,0,35053:0:0:0:0:
402,192,33791,128,0,35053:0:0:0:0:
182,192,33791,128,0,33867:0:0:0:0:
36,192,33944,1,0,0:0:0:0:
256,192,33944,1,0,0:0:0:0:
256,192,34097,128,0,34135:0:0:0:0:
329,192,34097,128,0,34135:0:0:0:0:
182,192,34097,128,0,34135:0:0:0:0:
329,192,34250,128,0,34288:0:0:0:0:
256,192,34250,128,0,34288:0:0:0:0:
182,192,34250,128,0,34594:0:0:0:0:
329,192,34403,1,0,0:0:0:0:
36,192,34403,1,0,0:0:0:0:
109,192,34556,128,0,34594:0:0:0:0:
36,192,34556,128,0,34594:0:0:0:0:
329,192,34709,1,0,0:0:0:0:
256,192,34709,1,0,0:0:0:0:
182,192,34709,1,0,0:0:0:0:
109,192,34709,1,0,0:0:0:0:
36,192,34709,128,0,35245:0:0:0:0:
109,192,34862,128,0,35245:0:0:0:0:
256,192,34862,128,0,34939:0:0:0:0:
329,192,35015,128,0,35053:0:0:0:0:
182,192,35015,128,0,35053:0:0:0:0:
256,192,35015,1,0,0:0:0:0:
475,192,35168,128,0,35206:0:0:0:0:
329,192,35168,128,0,35206:0:0:0:0:
402,192,35168,1,0,0:0:0:0:
329,192,35321,128,0,35513:0:0:0:0:
182,192,35321,128,0,35666:0:0:0:0:
36,192,35321,128,0,35359:0:0:0:0:
109,192,35321,1,0,0:0:0:0:
109,192,35474,128,0,35513:0:0:0:0:
402,192,35474,128,0,35513:0:0:0:0:
256,192,35474,1,0,0:0:0:0:
329,192,35627,128,0,35819:0:0:0:0:
475,192,35627,128,0,35666:0:0:0:0:
402,192,35627,1,0,0:0:0:0:
36,192,35780,128,0,36125:0:0:0:0:
475,192,35780,128,0,36431:0:0:0:0:
109,192,35780,128,0,36125:0:0:0:0:
256,192,35780,128,0,35819:0:0:0:0:
182,192,35780,1,0,0:0:0:0:
402,192,35780,128,0,35972:0:0:0:0:
182,192,35933,128,0,35972:0:0:0:0:
329,192,35933,128,0,35972:0:0:0:0:
256,192,35933,1,0,0:0:0:0:
256,192,36087,128,0,36125:0:0:0:0:
402,192,36087,128,0,36431:0:0:0:0:
329,192,36087,1,0,0:0:0:0:
36,192,36240,128,0,36584:0:0:0:0:
109,192,36240,1,0,0:0:0:0:
182,192,36240,128,0,36278:0:0:0:0:
182,192,36393,128,0,36737:0:0:0:0:
256,192,36393,1,0,0:0:0:0:
329,192,36393,128,0,36431:0:0:0:0:
329,192,36546,128,0,36584:0:0:0:0:
402,192,36546,1,0,0:0:0:0:
475,192,36546,128,0,36890:0:0:0:0:
109,192,36546,128,0,36890:0:0:0:0:
36,192,36699,1,0,0:0:0:0:
256,192,36699,128,0,36737:0:0:0:0:
402,192,36699,128,0,37349:0:0:0:0:
256,192,36852,1,0,0:0:0:0:
182,192,36852,128,0,36890:0:0:0:0:
329,192,36852,128,0,37196:0:0:0:0:
36,192,36852,128,0,37043:0:0:0:0:
475,192,37005,1,0,0:0:0:0:
256,192,37005,128,0,37196:0:0:0:0:
109,192,37005,128,0,37043:0:0:0:0:
36,192,37158,1,0,0:0:0:0:
182,192,37158,128,0,37196:0:0:0:0:
109,192,37158,128,0,37655:0:0:0:0:
475,192,37158,128,0,37349:0:0:0:0:
182,192,37311,1,0,0:0:0:0:
256,192,37311,128,0,37655:0:0:0:0:
329,192,37311,128,0,37349:0:0:0:0:
36,192,37464,128,0,37923:0:0:0:0:
329,192,37464,1,0,0:0:0:0:
402,192,37464,128,0,37655:0:0:0:0:
475,192,37464,128,0,37502:0:0:0:0:
475,192,37617,1,0,0:0:0:0:
182,192,37617,128,0,37770:0:0:0:0:
329,192,37617,128,0,37655:0:0:0:0:
256,192,37770,1,0,0:0:0:0:
109,192,37770,128,0,37847:0:0:0:0:
475,192,37770,128,0,37847:0:0:0:0:
182,192,37847,1,0,0:0:0:0:
329,192,37847,1,0,0:0:0:0:
402,192,37847,128,0,37923:0:0:0:0:
109,192,37923,1,0,0:0:0:0:
256,192,37923,128,0,38153:0:0:0:0:
475,192,37923,128,0,38000:0:0:0:0:
36,192,38000,1,0,0:0:0:0:
329,192,38000,1,0,0:0:0:0:
182,192,38000,128,0,38076:0:0:0:0:
109,192,38076,1,0,0:0:0:0:
475,192,38076,1,0,0:0:0:0:
402,192,38076,128,0,38153:0:0:0:0:
182,192,38153,1,0,0:0:0:0:
329,192,38153,128,0,38229:0:0:0:0:
256,192,38229,1,0,0:0:0:0:
475,192,38229,1,0,0:0:0:0:
402,192,38229,128,0,38306:0:0:0:0:
36,192,38229,128,0,38306:0:0:0:0:
182,192,38306,1,0,0:0:0:0:
329,192,38306,1,0,0:0:0:0:
109,192,38306,128,0,38382:0:0:0:0:
402,192,38382,1,0,0:0:0:0:
256,192,38382,128,0,38689:0:0:0:0:
36,192,38382,128,0,38459:0:0:0:0:
475,192,38459,1,0,0:0:0:0:
182,192,38459,1,0,0:0:0:0:
329,192,38459,128,0,38536:0:0:0:0:
402,192,38536,1,0,0:0:0:0:
36,192,38536,1,0,0:0:0:0:
109,192,38536,1,0,0:0:0:0:
329,192,38612,1,0,0:0:0:0:
182,192,38612,128,0,38689:0:0:0:0:
109,192,38689,128,0,38765:0:0:0:0:
36,192,38689,128,0,38765:0:0:0:0:
402,192,38689,128,0,38765:0:0:0:0:
475,192,38689,128,0,38765:0:0:0:0:
182,192,38765,128,0,38842:0:0:0:0:
256,192,38765,128,0,38842:0:0:0:0:
329,192,38765,128,0,38842:0:0:0:0:
109,192,38842,128,0,38918:0:0:0:0:
36,192,38842,128,0,38918:0:0:0:0:
402,192,38842,128,0,38918:0:0:0:0:
475,192,38842,128,0,38918:0:0:0:0:
182,192,38918,128,0,39071:0:0:0:0:
256,192,38918,128,0,39071:0:0:0:0:
329,192,38918,128,0,39071:0:0:0:0:
109,192,38995,128,0,39071:0:0:0:0:
36,192,38995,128,0,39071:0:0:0:0:
402,192,38995,128,0,39224:0:0:0:0:
475,192,38995,128,0,39224:0:0:0:0:
329,192,39148,128,0,39224:0:0:0:0:
256,192,39148,128,0,39224:0:0:0:0:
182,192,39148,128,0,39224:0:0:0:0:
109,192,39148,128,0,39377:0:0:0:0:
36,192,39148,128,0,39377:0:0:0:0:
182,192,39301,128,0,39530:0:0:0:0:
256,192,39301,128,0,39377:0:0:0:0:
329,192,39301,128,0,39377:0:0:0:0:
402,192,39301,128,0,39377:0:0:0:0:
475,192,39301,128,0,39377:0:0:0:0:
109,192,39454,128,0,39530:0:0:0:0:
36,192,39454,128,0,39530:0:0:0:0:
475,192,39454,128,0,39530:0:0:0:0:
402,192,39454,128,0,39530:0:0:0:0:
256,192,39454,128,0,39530:0:0:0:0:
329,192,39454,128,0,39683:0:0:0:0:
402,192,39607,128,0,39683:0:0:0:0:
475,192,39607,128,0,39683:0:0:0:0:
256,192,39607,128,0,39683:0:0:0:0:
182,192,39607,128,0,39683:0:0:0:0:
36,192,39607,128,0,39683:0:0:0:0:
109,192,39607,128,0,39683:0:0:0:0:
36,192,39760,128,0,39837:0:0:0:0:
109,192,39760,128,0,39837:0:0:0:0:
256,192,39760,128,0,39837:0:0:0:0:
329,192,39760,128,0,39837:0:0:0:0:
402,192,39760,128,0,39837:0:0:0:0:
475,192,39760,128,0,39837:0:0:0:0:
182,192,39760,128,0,39837:0:0:0:0:
329,192,39913,1,0,0:0:0:0:
329,192,40066,1,0,0:0:0:0:
182,192,40219,1,0,0:0:0:0:
36,192,40219,1,0,0:0:0:0:
109,192,40219,1,0,0:0:0:0:
329,192,40219,128,0,40321:0:0:0:0:
402,192,40219,128,0,40372:0:0:0:0:
475,192,40219,128,0,40423:0:0:0:0:
256,192,40219,1,0,0:0:0:0:
256,192,40372,128,0,40602:0:0:0:0:
182,192,40398,128,0,40449:0:0:0:0:
109,192,40423,128,0,40474:0:0:0:0:
36,192,40449,128,0,40500:0:0:0:0:
475,192,40474,128,0,40525:0:0:0:0:
402,192,40500,128,0,40551:0:0:0:0:
329,192,40525,128,0,40576:0:0:0:0:
36,192,40551,128,0,40755:0:0:0:0:
109,192,40602,128,0,40755:0:0:0:0:
182,192,40653,128,0,40755:0:0:0:0:
475,192,40678,128,0,40882:0:0:0:0:
256,192,40678,1,0,0:0:0:0:
402,192,40678,1,0,0:0:0:0:
329,192,40755,1,0,0:0:0:0:
256,192,40831,128,0,40882:0:0:0:0:
36,192,40831,128,0,40882:0:0:0:0:
109,192,40831,128,0,40882:0:0:0:0:
329,192,40908,128,0,40959:0:0:0:0:
182,192,40908,128,0,40959:0:0:0:0:
402,192,40908,128,0,40959:0:0:0:0:
475,192,40984,128,0,41036:0:0:0:0:
256,192,40984,128,0,41036:0:0:0:0:
36,192,40984,128,0,41036:0:0:0:0:
329,192,41061,128,0,41112:0:0:0:0:
182,192,41061,128,0,41112:0:0:0:0:
109,192,41061,128,0,41112:0:0:0:0:
402,192,41138,128,0,41342:0:0:0:0:
36,192,41138,128,0,41367:0:0:0:0:
256,192,41138,128,0,41291:0:0:0:0:
475,192,41138,1,0,0:0:0:0:
182,192,41189,1,0,0:0:0:0:
329,192,41240,1,0,0:0:0:0:
182,192,41291,128,0,41444:0:0:0:0:
475,192,41291,1,0,0:0:0:0:
329,192,41342,128,0,41444:0:0:0:0:
475,192,41393,128,0,41444:0:0:0:0:
256,192,41444,128,0,41673:0:0:0:0:
109,192,41444,1,0,0:0:0:0:
402,192,41444,128,0,41597:0:0:0:0:
36,192,41444,128,0,41520:0:0:0:0:
329,192,41520,128,0,41673:0:0:0:0:
36,192,41597,1,0,0:0:0:0:
475,192,41597,128,0,41673:0:0:0:0:
182,192,41597,128,0,41750:0:0:0:0:
402,192,41673,128,0,41750:0:0:0:0:
475,192,41750,128,0,41979:0:0:0:0:
329,192,41750,1,0,0:0:0:0:
109,192,41750,128,0,41903:0:0:0:0:
256,192,41750,128,0,41826:0:0:0:0:
36,192,41826,128,0,41979:0:0:0:0:
182,192,41903,128,0,41979:0:0:0:0:
256,192,41903,1,0,0:0:0:0:
402,192,41903,128,0,42056:0:0:0:0:
109,192,41979,128,0,42056:0:0:0:0:
475,192,42056,1,0,0:0:0:0:
329,192,42056,128,0,42286:0:0:0:0:
182,192,42056,128,0,42132:0:0:0:0:
256,192,42056,128,0,42209:0:0:0:0:
36,192,42056,128,0,45194:0:0:0:0:
402,192,42132,128,0,42286:0:0:0:0:
109,192,42132,128,0,42286:0:0:0:0:
475,192,42209,128,0,42286:0:0:0:0:
182,192,42209,128,0,42388:0:0:0:0:
256,192,42286,128,0,42337:0:0:0:0:
402,192,42362,128,0,42464:0:0:0:0:
329,192,42362,128,0,42515:0:0:0:0:
475,192,42362,128,0,42413:0:0:0:0:
109,192,42362,128,0,42439:0:0:0:0:
256,192,42413,128,0,42566:0:0:0:0:
182,192,42464,128,0,42566:0:0:0:0:
109,192,42515,128,0,42566:0:0:0:0:
475,192,42515,1,0,0:0:0:0:
475,192,42668,128,0,42974:0:0:0:0:
402,192,42668,128,0,42821:0:0:0:0:
329,192,42668,128,0,42745:0:0:0:0:
256,192,42668,1,0,0:0:0:0:
182,192,42668,1,0,0:0:0:0:
109,192,42668,1,0,0:0:0:0:
329,192,42821,1,0,0:0:0:0:
256,192,42847,1,0,0:0:0:0:
182,192,42872,1,0,0:0:0:0:
402,192,42898,128,0,43025:0:0:0:0:
109,192,42898,1,0,0:0:0:0:
329,192,42923,128,0,43025:0:0:0:0:
256,192,42949,128,0,43025:0:0:0:0:
182,192,42974,128,0,43025:0:0:0:0:
475,192,43025,1,0,0:0:0:0:
329,192,43127,1,0,0:0:0:0:
109,192,43127,128,0,43331:0:0:0:0:
402,192,43127,1,0,0:0:0:0:
182,192,43127,1,0,0:0:0:0:
256,192,43204,1,0,0:0:0:0:
182,192,43280,128,0,43331:0:0:0:0:
402,192,43280,128,0,43331:0:0:0:0:
475,192,43280,128,0,43331:0:0:0:0:
256,192,43357,128,0,43408:0:0:0:0:
329,192,43357,128,0,43408:0:0:0:0:
109,192,43433,128,0,43484:0:0:0:0:
182,192,43433,128,0,43484:0:0:0:0:
475,192,43433,128,0,43484:0:0:0:0:
402,192,43510,128,0,43561:0:0:0:0:
329,192,43510,128,0,43561:0:0:0:0:
109,192,43587,128,0,43791:0:0:0:0:
475,192,43587,128,0,43791:0:0:0:0:
182,192,43587,128,0,43791:0:0:0:0:
256,192,43587,1,0,0:0:0:0:
402,192,43638,1,0,0:0:0:0:
329,192,43689,1,0,0:0:0:0:
402,192,43740,128,0,43893:0:0:0:0:
256,192,43740,1,0,0:0:0:0:
329,192,43791,128,0,43893:0:0:0:0:
256,192,43842,128,0,43893:0:0:0:0:
475,192,43893,1,0,0:0:0:0:
182,192,43893,128,0,44007:0:0:0:0:
109,192,43893,128,0,44199:0:0:0:0:
256,192,43969,128,0,44046:0:0:0:0:
329,192,44046,128,0,44352:0:0:0:0:
402,192,44046,128,0,44161:0:0:0:0:
182,192,44046,1,0,0:0:0:0:
475,192,44122,128,0,44199:0:0:0:0:
256,192,44199,128,0,44428:0:0:0:0:
182,192,44199,128,0,44314:0:0:0:0:
402,192,44199,1,0,0:0:0:0:
109,192,44275,128,0,44352:0:0:0:0:
402,192,44352,128,0,44467:0:0:0:0:
475,192,44352,128,0,44734:0:0:0:0:
182,192,44352,1,0,0:0:0:0:
329,192,44428,128,0,44505:0:0:0:0:
402,192,44505,1,0,0:0:0:0:
256,192,44505,128,0,44734:0:0:0:0:
182,192,44505,128,0,44658:0:0:0:0:
109,192,44505,128,0,44581:0:0:0:0:
329,192,44581,128,0,44734:0:0:0:0:
402,192,44658,128,0,44734:0:0:0:0:
109,192,44658,128,0,44837:0:0:0:0:
182,192,44734,128,0,44786:0:0:0:0:
256,192,44811,128,0,44964:0:0:0:0:
329,192,44811,128,0,44913:0:0:0:0:
402,192,44811,128,0,44862:0:0:0:0:
475,192,44811,1,0,0:0:0:0:
182,192,44862,128,0,44964:0:0:0:0:
109,192,44913,128,0,44964:0:0:0:0:
402,192,44964,1,0,0:0:0:0:
256,192,45117,1,0,0:0:0:0:
329,192,45117,1,0,0:0:0:0:
109,192,45117,128,0,45194:0:0:0:0:
182,192,45117,128,0,45194:0:0:0:0:
475,192,45117,1,0,0:0:0:0:
402,192,45117,1,0,0:0:0:0:
475,192,45270,1,0,0:0:0:0:
329,192,45296,1,0,0:0:0:0:
182,192,45321,1,0,0:0:0:0:
36,192,45347,1,0,0:0:0:0:
475,192,45347,128,0,45500:0:0:0:0:
329,192,45372,128,0,45474:0:0:0:0:
182,192,45398,128,0,45449:0:0:0:0:
256,192,45576,1,0,0:0:0:0:
36,192,45576,128,0,45780:0:0:0:0:
329,192,45576,1,0,0:0:0:0:
402,192,45576,1,0,0:0:0:0:
475,192,45576,1,0,0:0:0:0:
109,192,45576,1,0,0:0:0:0:
182,192,45653,1,0,0:0:0:0:
256,192,45729,128,0,45780:0:0:0:0:
475,192,45729,128,0,45780:0:0:0:0:
402,192,45729,128,0,45780:0:0:0:0:
182,192,45806,128,0,45857:0:0:0:0:
109,192,45806,128,0,45857:0:0:0:0:
329,192,45806,128,0,45857:0:0:0:0:
36,192,45882,128,0,45933:0:0:0:0:
256,192,45882,128,0,45933:0:0:0:0:
475,192,45882,128,0,45933:0:0:0:0:
329,192,45959,128,0,46010:0:0:0:0:
402,192,45959,128,0,46010:0:0:0:0:
182,192,45959,128,0,46010:0:0:0:0:
109,192,46036,128,0,46240:0:0:0:0:
475,192,46036,128,0,46265:0:0:0:0:
256,192,46036,128,0,46189:0:0:0:0:
36,192,46036,1,0,0:0:0:0:
329,192,46087,1,0,0:0:0:0:
182,192,46138,1,0,0:0:0:0:
329,192,46189,128,0,46342:0:0:0:0:
36,192,46189,1,0,0:0:0:0:
182,192,46240,128,0,46342:0:0:0:0:
36,192,46291,128,0,46342:0:0:0:0:
256,192,46342,128,0,46571:0:0:0:0:
402,192,46342,1,0,0:0:0:0:
109,192,46342,128,0,46495:0:0:0:0:
475,192,46342,128,0,46418:0:0:0:0:
182,192,46418,128,0,46571:0:0:0:0:
475,192,46495,1,0,0:0:0:0:
36,192,46495,128,0,46571:0:0:0:0:
329,192,46495,128,0,46648:0:0:0:0:
109,192,46571,128,0,46648:0:0:0:0:
36,192,46648,128,0,46877:0:0:0:0:
182,192,46648,1,0,0:0:0:0:
402,192,46648,128,0,46801:0:0:0:0:
256,192,46648,128,0,46724:0:0:0:0:
475,192,46724,128,0,46877:0:0:0:0:
329,192,46801,128,0,46877:0:0:0:0:
256,192,46801,1,0,0:0:0:0:
109,192,46801,128,0,46954:0:0:0:0:
402,192,46877,128,0,46954:0:0:0:0:
36,192,46954,1,0,0:0:0:0:
182,192,46954,128,0,47183:0:0:0:0:
329,192,46954,128,0,47030:0:0:0:0:
256,192,46954,128,0,47107:0:0:0:0:
475,192,46954,128,0,49403:0:0:0:0:
109,192,47030,128,0,47183:0:0:0:0:
402,192,47030,128,0,47183:0:0:0:0:
36,192,47107,128,0,47183:0:0:0:0:
329,192,47107,128,0,47286:0:0:0:0:
256,192,47183,128,0,47234:0:0:0:0:
109,192,47260,128,0,47362:0:0:0:0:
182,192,47260,128,0,47413:0:0:0:0:
36,192,47260,128,0,47311:0:0:0:0:
402,192,47260,128,0,47337:0:0:0:0:
256,192,47311,128,0,47464:0:0:0:0:
329,192,47362,128,0,47464:0:0:0:0:
402,192,47413,128,0,47464:0:0:0:0:
36,192,47413,1,0,0:0:0:0:
36,192,47566,128,0,47872:0:0:0:0:
109,192,47566,128,0,47719:0:0:0:0:
182,192,47566,128,0,47643:0:0:0:0:
256,192,47566,1,0,0:0:0:0:
329,192,47566,1,0,0:0:0:0:
402,192,47566,1,0,0:0:0:0:
182,192,47719,1,0,0:0:0:0:
256,192,47745,1,0,0:0:0:0:
329,192,47770,1,0,0:0:0:0:
109,192,47796,128,0,47923:0:0:0:0:
402,192,47796,1,0,0:0:0:0:
182,192,47821,128,0,47923:0:0:0:0:
256,192,47847,128,0,47923:0:0:0:0:
329,192,47872,128,0,47923:0:0:0:0:
36,192,47923,1,0,0:0:0:0:
182,192,48025,1,0,0:0:0:0:
402,192,48025,128,0,48229:0:0:0:0:
109,192,48025,1,0,0:0:0:0:
329,192,48025,1,0,0:0:0:0:
256,192,48102,1,0,0:0:0:0:
329,192,48178,128,0,48229:0:0:0:0:
109,192,48178,128,0,48229:0:0:0:0:
36,192,48178,128,0,48229:0:0:0:0:
256,192,48255,128,0,48306:0:0:0:0:
182,192,48255,128,0,48306:0:0:0:0:
402,192,48331,128,0,48382:0:0:0:0:
329,192,48331,128,0,48382:0:0:0:0:
36,192,48331,128,0,48382:0:0:0:0:
109,192,48408,128,0,48459:0:0:0:0:
182,192,48408,128,0,48459:0:0:0:0:
402,192,48484,128,0,48689:0:0:0:0:
36,192,48484,128,0,48689:0:0:0:0:
329,192,48484,128,0,48689:0:0:0:0:
256,192,48484,1,0,0:0:0:0:
109,192,48536,1,0,0:0:0:0:
182,192,48587,1,0,0:0:0:0:
109,192,48638,128,0,48791:0:0:0:0:
256,192,48638,1,0,0:0:0:0:
182,192,48689,128,0,48791:0:0:0:0:
256,192,48740,128,0,48791:0:0:0:0:
36,192,48791,1,0,0:0:0:0:
329,192,48791,128,0,48905:0:0:0:0:
402,192,48791,128,0,49097:0:0:0:0:
256,192,48867,128,0,48944:0:0:0:0:
182,192,48944,128,0,49250:0:0:0:0:
109,192,48944,128,0,49058:0:0:0:0:
329,192,48944,1,0,0:0:0:0:
36,192,49020,128,0,49097:0:0:0:0:
256,192,49097,128,0,49326:0:0:0:0:
329,192,49097,128,0,49212:0:0:0:0:
109,192,49097,1,0,0:0:0:0:
402,192,49173,128,0,49250:0:0:0:0:
109,192,49250,128,0,49365:0:0:0:0:
36,192,49250,128,0,49632:0:0:0:0:
329,192,49250,1,0,0:0:0:0:
182,192,49326,128,0,49403:0:0:0:0:
109,192,49403,1,0,0:0:0:0:
256,192,49403,128,0,49690:0:0:0:0:
329,192,49403,128,0,49556:0:0:0:0:
402,192,49403,128,0,49479:0:0:0:0:
182,192,49479,128,0,49671:0:0:0:0:
475,192,49479,128,0,49632:0:0:0:0:
109,192,49556,128,0,49652:0:0:0:0:
402,192,49556,128,0,49594:0:0:0:0:
329,192,49632,128,0,49709:0:0:0:0:
402,192,49671,128,0,49709:0:0:0:0:
475,192,49709,1,0,0:0:0:0:
36,192,49709,1,0,0:0:0:0:
329,192,50015,128,0,50245:0:0:0:0:
256,192,50015,128,0,50053:0:0:0:0:
402,192,50015,128,0,50245:0:0:0:0:
475,192,50015,128,0,50053:0:0:0:0:
182,192,50053,128,0,50092:0:0:0:0:
109,192,50092,128,0,50130:0:0:0:0:
36,192,50130,128,0,50321:0:0:0:0:
475,192,50168,1,0,0:0:0:0:
256,192,50168,1,0,0:0:0:0:
109,192,50245,128,0,50359:0:0:0:0:
182,192,50321,128,0,50398:0:0:0:0:
475,192,50321,128,0,50857:0:0:0:0:
402,192,50321,1,0,0:0:0:0:
256,192,50359,128,0,50417:0:0:0:0:
329,192,50398,128,0,50436:0:0:0:0:
109,192,50436,1,0,0:0:0:0:
182,192,50474,1,0,0:0:0:0:
36,192,50551,128,0,50704:0:0:0:0:
256,192,50551,1,0,0:0:0:0:
329,192,50627,128,0,50666:0:0:0:0:
402,192,50627,128,0,50857:0:0:0:0:
256,192,50666,128,0,50704:0:0:0:0:
182,192,50704,128,0,50742:0:0:0:0:
109,192,50742,128,0,50933:0:0:0:0:
329,192,50780,1,0,0:0:0:0:
36,192,50780,1,0,0:0:0:0:
182,192,50857,128,0,50972:0:0:0:0:
36,192,50933,128,0,51469:0:0:0:0:
256,192,50933,128,0,51010:0:0:0:0:
475,192,50933,1,0,0:0:0:0:
329,192,50972,128,0,51029:0:0:0:0:
402,192,51010,128,0,51048:0:0:0:0:
182,192,51048,1,0,0:0:0:0:
256,192,51087,1,0,0:0:0:0:
109,192,51163,128,0,51316:0:0:0:0:
329,192,51163,1,0,0:0:0:0:
402,192,51240,128,0,51278:0:0:0:0:
475,192,51240,128,0,51469:0:0:0:0:
329,192,51278,128,0,51316:0:0:0:0:
256,192,51316,128,0,51354:0:0:0:0:
182,192,51354,128,0,51546:0:0:0:0:
402,192,51393,1,0,0:0:0:0:
109,192,51393,1,0,0:0:0:0:
256,192,51469,128,0,51584:0:0:0:0:
109,192,51546,128,0,52081:0:0:0:0:
329,192,51546,128,0,51622:0:0:0:0:
36,192,51546,1,0,0:0:0:0:
402,192,51584,128,0,51641:0:0:0:0:
475,192,51622,128,0,51661:0:0:0:0:
256,192,51661,1,0,0:0:0:0:
329,192,51699,1,0,0:0:0:0:
182,192,51775,128,0,51928:0:0:0:0:
402,192,51775,1,0,0:0:0:0:
36,192,51852,128,0,52081:0:0:0:0:
475,192,51852,128,0,52196:0:0:0:0:
402,192,51890,128,0,51928:0:0:0:0:
329,192,51928,128,0,51967:0:0:0:0:
256,192,51967,128,0,52005:0:0:0:0:
182,192,52005,1,0,0:0:0:0:
329,192,52081,1,0,0:0:0:0:
402,192,52158,128,0,52234:0:0:0:0:
182,192,52158,128,0,52694:0:0:0:0:
36,192,52158,1,0,0:0:0:0:
109,192,52158,1,0,0:0:0:0:
329,192,52196,128,0,52254:0:0:0:0:
256,192,52234,128,0,52273:0:0:0:0:
402,192,52311,1,0,0:0:0:0:
109,192,52311,1,0,0:0:0:0:
329,192,52388,1,0,0:0:0:0:
256,192,52464,128,0,52502:0:0:0:0:
36,192,52464,128,0,52502:0:0:0:0:
109,192,52464,128,0,52694:0:0:0:0:
329,192,52502,128,0,52541:0:0:0:0:
402,192,52541,128,0,52579:0:0:0:0:
475,192,52579,128,0,52770:0:0:0:0:
36,192,52617,1,0,0:0:0:0:
256,192,52617,1,0,0:0:0:0:
402,192,52694,128,0,52808:0:0:0:0:
329,192,52770,128,0,52847:0:0:0:0:
36,192,52770,128,0,53306:0:0:0:0:
109,192,52770,1,0,0:0:0:0:
256,192,52808,128,0,52866:0:0:0:0:
182,192,52847,128,0,52885:0:0:0:0:
402,192,52885,1,0,0:0:0:0:
329,192,52923,1,0,0:0:0:0:
475,192,53000,128,0,53153:0:0:0:0:
256,192,53000,1,0,0:0:0:0:
182,192,53076,128,0,53115:0:0:0:0:
109,192,53076,128,0,53306:0:0:0:0:
256,192,53115,128,0,53153:0:0:0:0:
329,192,53153,128,0,53191:0:0:0:0:
402,192,53191,128,0,53382:0:0:0:0:
182,192,53229,1,0,0:0:0:0:
475,192,53229,1,0,0:0:0:0:
329,192,53306,128,0,53421:0:0:0:0:
475,192,53382,128,0,53918:0:0:0:0:
256,192,53382,128,0,53459:0:0:0:0:
36,192,53382,1,0,0:0:0:0:
182,192,53421,128,0,53478:0:0:0:0:
109,192,53459,128,0,53497:0:0:0:0:
329,192,53497,1,0,0:0:0:0:
256,192,53536,1,0,0:0:0:0:
402,192,53612,128,0,53765:0:0:0:0:
182,192,53612,1,0,0:0:0:0:
109,192,53689,128,0,53727:0:0:0:0:
36,192,53689,128,0,53918:0:0:0:0:
182,192,53727,128,0,53765:0:0:0:0:
256,192,53765,128,0,53803:0:0:0:0:
329,192,53803,128,0,53995:0:0:0:0:
109,192,53842,1,0,0:0:0:0:
402,192,53842,1,0,0:0:0:0:
256,192,53918,128,0,54033:0:0:0:0:
402,192,53995,128,0,54530:0:0:0:0:
182,192,53995,128,0,54071:0:0:0:0:
475,192,53995,1,0,0:0:0:0:
109,192,54033,128,0,54090:0:0:0:0:
36,192,54071,128,0,54109:0:0:0:0:
256,192,54109,1,0,0:0:0:0:
182,192,54148,1,0,0:0:0:0:
329,192,54224,128,0,54377:0:0:0:0:
109,192,54224,1,0,0:0:0:0:
36,192,54301,128,0,54645:0:0:0:0:
475,192,54301,128,0,54530:0:0:0:0:
109,192,54339,128,0,54377:0:0:0:0:
182,192,54377,128,0,54416:0:0:0:0:
256,192,54416,128,0,54454:0:0:0:0:
329,192,54454,1,0,0:0:0:0:
182,192,54530,1,0,0:0:0:0:
109,192,54607,128,0,54683:0:0:0:0:
475,192,54607,1,0,0:0:0:0:
402,192,54607,1,0,0:0:0:0:
329,192,54607,128,0,54913:0:0:0:0:
182,192,54645,128,0,54703:0:0:0:0:
256,192,54683,128,0,54722:0:0:0:0:
109,192,54760,1,0,0:0:0:0:
402,192,54760,128,0,54913:0:0:0:0:
256,192,54837,1,0,0:0:0:0:
182,192,54913,128,0,55066:0:0:0:0:
109,192,54913,1,0,0:0:0:0:
36,192,54913,1,0,0:0:0:0:
475,192,54913,1,0,0:0:0:0:
256,192,54990,128,0,55143:0:0:0:0:
402,192,54990,1,0,0:0:0:0:
329,192,55066,128,0,55257:0:0:0:0:
109,192,55066,128,0,55104:0:0:0:0:
182,192,55143,128,0,55181:0:0:0:0:
402,192,55143,128,0,55181:0:0:0:0:
256,192,55219,128,0,55257:0:0:0:0:
109,192,55219,128,0,55372:0:0:0:0:
36,192,55219,1,0,0:0:0:0:
182,192,55296,128,0,55449:0:0:0:0:
475,192,55296,128,0,55372:0:0:0:0:
256,192,55372,128,0,55525:0:0:0:0:
36,192,55372,128,0,55411:0:0:0:0:
329,192,55372,128,0,55411:0:0:0:0:
109,192,55449,128,0,55487:0:0:0:0:
402,192,55449,128,0,55487:0:0:0:0:
475,192,55449,128,0,55487:0:0:0:0:
329,192,55525,128,0,55564:0:0:0:0:
182,192,55525,1,0,0:0:0:0:
36,192,55525,128,0,55717:0:0:0:0:
109,192,55602,128,0,55640:0:0:0:0:
402,192,55602,128,0,55640:0:0:0:0:
256,192,55602,1,0,0:0:0:0:
182,192,55678,128,0,55717:0:0:0:0:
475,192,55678,128,0,55717:0:0:0:0:
329,192,55678,1,0,0:0:0:0:
109,192,55755,128,0,55793:0:0:0:0:
256,192,55755,128,0,55908:0:0:0:0:
402,192,55755,128,0,55793:0:0:0:0:
182,192,55831,128,0,55946:0:0:0:0:
329,192,55831,128,0,55870:0:0:0:0:
36,192,55831,128,0,55870:0:0:0:0:
475,192,55870,128,0,55908:0:0:0:0:
402,192,55908,128,0,55946:0:0:0:0:
109,192,55908,1,0,0:0:0:0:
329,192,55946,128,0,55984:0:0:0:0:
256,192,55984,128,0,56023:0:0:0:0:
182,192,56023,128,0,56061:0:0:0:0:
109,192,56061,128,0,56099:0:0:0:0:
402,192,56061,1,0,0:0:0:0:
36,192,56099,128,0,56138:0:0:0:0:
329,192,56138,128,0,56291:0:0:0:0:
182,192,56138,1,0,0:0:0:0:
475,192,56138,1,0,0:0:0:0:
256,192,56214,128,0,56367:0:0:0:0:
109,192,56214,1,0,0:0:0:0:
402,192,56291,128,0,56329:0:0:0:0:
182,192,56291,128,0,56482:0:0:0:0:
475,192,56291,128,0,56329:0:0:0:0:
109,192,56367,128,0,56405:0:0:0:0:
329,192,56367,128,0,56405:0:0:0:0:
36,192,56367,128,0,56405:0:0:0:0:
402,192,56444,128,0,56597:0:0:0:0:
475,192,56444,1,0,0:0:0:0:
256,192,56444,128,0,56482:0:0:0:0:
329,192,56520,128,0,56673:0:0:0:0:
36,192,56520,128,0,56597:0:0:0:0:
109,192,56520,128,0,56597:0:0:0:0:
256,192,56597,128,0,56750:0:0:0:0:
182,192,56597,128,0,56635:0:0:0:0:
475,192,56597,128,0,56635:0:0:0:0:
109,192,56673,128,0,56712:0:0:0:0:
36,192,56673,128,0,56712:0:0:0:0:
402,192,56673,128,0,56712:0:0:0:0:
329,192,56750,1,0,0:0:0:0:
182,192,56750,128,0,56788:0:0:0:0:
475,192,56750,128,0,56941:0:0:0:0:
256,192,56826,1,0,0:0:0:0:
109,192,56826,128,0,56865:0:0:0:0:
402,192,56826,128,0,56865:0:0:0:0:
329,192,56903,128,0,56941:0:0:0:0:
182,192,56903,1,0,0:0:0:0:
36,192,56903,128,0,56941:0:0:0:0:
256,192,56979,128,0,57132:0:0:0:0:
402,192,56979,128,0,57018:0:0:0:0:
109,192,56979,128,0,57018:0:0:0:0:
329,192,57056,128,0,57171:0:0:0:0:
182,192,57056,128,0,57094:0:0:0:0:
475,192,57056,128,0,57094:0:0:0:0:
36,192,57094,128,0,57132:0:0:0:0:
109,192,57132,128,0,57171:0:0:0:0:
402,192,57132,1,0,0:0:0:0:
182,192,57171,128,0,57209:0:0:0:0:
256,192,57209,128,0,57247:0:0:0:0:
329,192,57247,128,0,57286:0:0:0:0:
402,192,57286,128,0,57324:0:0:0:0:
109,192,57286,1,0,0:0:0:0:
475,192,57324,128,0,57362:0:0:0:0:
256,192,57362,1,0,0:0:0:0:
182,192,57362,128,0,57439:0:0:0:0:
329,192,57362,128,0,57439:0:0:0:0:
109,192,57400,128,0,57477:0:0:0:0:
402,192,57439,128,0,57515:0:0:0:0:
36,192,57439,128,0,57630:0:0:0:0:
256,192,57477,128,0,57553:0:0:0:0:
182,192,57515,128,0,57592:0:0:0:0:
475,192,57515,128,0,57592:0:0:0:0:
109,192,57553,128,0,57630:0:0:0:0:
402,192,57592,128,0,57630:0:0:0:0:
329,192,57630,128,0,57706:0:0:0:0:
256,192,57668,1,0,0:0:0:0:
182,192,57668,128,0,57745:0:0:0:0:
402,192,57706,128,0,57783:0:0:0:0:
475,192,57745,128,0,57936:0:0:0:0:
109,192,57745,128,0,57821:0:0:0:0:
256,192,57783,128,0,57859:0:0:0:0:
329,192,57821,128,0,57898:0:0:0:0:
36,192,57821,128,0,57898:0:0:0:0:
402,192,57859,128,0,57936:0:0:0:0:
109,192,57898,128,0,57936:0:0:0:0:
182,192,57936,128,0,57974:0:0:0:0:
36,192,57974,1,0,0:0:0:0:
256,192,57974,128,0,58051:0:0:0:0:
402,192,58013,128,0,58089:0:0:0:0:
475,192,58013,128,0,58242:0:0:0:0:
182,192,58051,128,0,58089:0:0:0:0:
109,192,58089,128,0,58127:0:0:0:0:
329,192,58089,128,0,58127:0:0:0:0:
256,192,58127,128,0,58166:0:0:0:0:
36,192,58127,128,0,58242:0:0:0:0:
256,192,58204,128,0,58280:0:0:0:0:
182,192,58242,128,0,58280:0:0:0:0:
329,192,58242,128,0,58280:0:0:0:0:
109,192,58280,1,0,0:0:0:0:
402,192,58280,1,0,0:0:0:0:
36,192,58280,1,0,0:0:0:0:
475,192,58280,1,0,0:0:0:0:
182,192,58433,1,0,0:0:0:0:
256,192,58472,1,0,0:0:0:0:
329,192,58510,1,0,0:0:0:0:
475,192,58587,1,0,0:0:0:0:
402,192,58606,1,0,0:0:0:0:
329,192,58625,128,0,58778:0:0:0:0:
256,192,58644,1,0,0:0:0:0:
182,192,58663,128,0,58854:0:0:0:0:
109,192,58682,1,0,0:0:0:0:
36,192,58701,128,0,58931:0:0:0:0:
402,192,58740,128,0,58816:0:0:0:0:
475,192,58778,128,0,58854:0:0:0:0:
256,192,58816,128,0,58893:0:0:0:0:
329,192,58854,128,0,58931:0:0:0:0:
109,192,58893,128,0,58969:0:0:0:0:
402,192,58893,1,0,0:0:0:0:
182,192,58931,128,0,59007:0:0:0:0:
475,192,58969,128,0,59046:0:0:0:0:
256,192,58969,1,0,0:0:0:0:
36,192,59007,128,0,59084:0:0:0:0:
402,192,59007,128,0,59161:0:0:0:0:
329,192,59046,128,0,59122:0:0:0:0:
109,192,59046,1,0,0:0:0:0:
256,192,59084,128,0,59237:0:0:0:0:
475,192,59122,128,0,59352:0:0:0:0:
182,192,59122,128,0,59199:0:0:0:0:
109,192,59161,128,0,59314:0:0:0:0:
329,192,59199,128,0,59275:0:0:0:0:
36,192,59199,128,0,59275:0:0:0:0:
402,192,59237,128,0,59314:0:0:0:0:
182,192,59275,128,0,59352:0:0:0:0:
256,192,59314,128,0,59390:0:0:0:0:
36,192,59352,128,0,59505:0:0:0:0:
329,192,59352,128,0,59428:0:0:0:0:
109,192,59390,128,0,59505:0:0:0:0:
402,192,59390,128,0,59467:0:0:0:0:
182,192,59428,128,0,59505:0:0:0:0:
475,192,59428,128,0,59505:0:0:0:0:
329,192,59505,1,0,0:0:0:0:
36,192,59811,128,0,60041:0:0:0:0:
109,192,59811,128,0,60041:0:0:0:0:
182,192,59811,128,0,60041:0:0:0:0:
256,192,59811,128,0,60041:0:0:0:0:
329,192,59811,128,0,60041:0:0:0:0:
475,192,59811,128,0,60041:0:0:0:0:
402,192,59811,128,0,60041:0:0:0:0:
329,192,60117,128,0,60155:0:0:0:0:
329,192,60194,1,0,0:0:0:0:
182,192,60270,128,0,60308:0:0:0:0:
182,192,60347,1,0,0:0:0:0:
329,192,60347,1,0,0:0:0:0:
475,192,60423,128,0,60653:0:0:0:0:
256,192,60423,128,0,60653:0:0:0:0:
109,192,60423,128,0,60653:0:0:0:0:
36,192,60423,128,0,60653:0:0:0:0:
402,192,60423,128,0,60653:0:0:0:0:
329,192,60729,1,0,0:0:0:0:
402,192,60729,128,0,60768:0:0:0:0:
475,192,60729,128,0,60768:0:0:0:0:
256,192,60768,1,0,0:0:0:0:
182,192,60806,1,0,0:0:0:0:
329,192,60825,128,0,60959:0:0:0:0:
256,192,60863,128,0,60959:0:0:0:0:
182,192,60902,128,0,60959:0:0:0:0:
402,192,61036,1,0,0:0:0:0:
256,192,61074,1,0,0:0:0:0:
109,192,61112,1,0,0:0:0:0:
402,192,61131,128,0,61265:0:0:0:0:
256,192,61169,128,0,61265:0:0:0:0:
109,192,61208,128,0,61265:0:0:0:0:
475,192,61342,1,0,0:0:0:0:
329,192,61342,128,0,61380:0:0:0:0:
402,192,61342,128,0,61380:0:0:0:0:
256,192,61380,1,0,0:0:0:0:
36,192,61418,1,0,0:0:0:0:
475,192,61437,128,0,61571:0:0:0:0:
256,192,61476,128,0,61571:0:0:0:0:
36,192,61514,128,0,61571:0:0:0:0:
329,192,61571,1,0,0:0:0:0:
402,192,61648,128,0,61877:0:0:0:0:
329,192,61648,128,0,61877:0:0:0:0:
36,192,61648,1,0,0:0:0:0:
256,192,61648,1,0,0:0:0:0:
475,192,61648,128,0,61877:0:0:0:0:
182,192,61648,128,0,61724:0:0:0:0:
109,192,61648,1,0,0:0:0:0:
182,192,61801,128,0,61954:0:0:0:0:
475,192,61954,1,0,0:0:0:0:
182,192,62260,128,0,62375:0:0:0:0:
329,192,62260,1,0,0:0:0:0:
109,192,62260,128,0,62796:0:0:0:0:
36,192,62260,128,0,62796:0:0:0:0:
475,192,62260,128,0,62757:0:0:0:0:
402,192,62260,128,0,62528:0:0:0:0:
256,192,62260,128,0,62375:0:0:0:0:
182,192,62413,1,0,0:0:0:0:
329,192,62413,128,0,62681:0:0:0:0:
256,192,62566,128,0,62681:0:0:0:0:
402,192,62566,1,0,0:0:0:0:
182,192,62566,128,0,62796:0:0:0:0:
256,192,62719,1,0,0:0:0:0:
402,192,62719,128,0,62757:0:0:0:0:
402,192,62796,1,0,0:0:0:0:
475,192,62796,1,0,0:0:0:0:
182,192,62872,128,0,63102:0:0:0:0:
329,192,62872,128,0,63102:0:0:0:0:
256,192,62872,128,0,63102:0:0:0:0:
109,192,62872,128,0,63102:0:0:0:0:
36,192,62872,128,0,63102:0:0:0:0:
402,192,63178,128,0,63370:0:0:0:0:
475,192,63178,128,0,63217:0:0:0:0:
329,192,63178,1,0,0:0:0:0:
109,192,63178,1,0,0:0:0:0:
36,192,63178,1,0,0:0:0:0:
256,192,63217,1,0,0:0:0:0:
182,192,63255,128,0,63370:0:0:0:0:
256,192,63293,128,0,63370:0:0:0:0:
329,192,63331,128,0,63370:0:0:0:0:
475,192,63331,128,0,63523:0:0:0:0:
256,192,63484,1,0,0:0:0:0:
402,192,63484,128,0,63523:0:0:0:0:
329,192,63484,128,0,63676:0:0:0:0:
182,192,63523,1,0,0:0:0:0:
109,192,63561,128,0,63676:0:0:0:0:
182,192,63599,128,0,63676:0:0:0:0:
402,192,63638,128,0,63829:0:0:0:0:
256,192,63638,128,0,63676:0:0:0:0:
329,192,63791,128,0,63829:0:0:0:0:
182,192,63791,1,0,0:0:0:0:
256,192,63791,128,0,64020:0:0:0:0:
475,192,63791,1,0,0:0:0:0:
109,192,63829,1,0,0:0:0:0:
36,192,63867,128,0,64020:0:0:0:0:
109,192,63905,128,0,64020:0:0:0:0:
182,192,63944,128,0,64020:0:0:0:0:
329,192,63944,128,0,64058:0:0:0:0:
402,192,64020,128,0,64097:0:0:0:0:
182,192,64097,128,0,64632:0:0:0:0:
475,192,64097,128,0,64479:0:0:0:0:
256,192,64097,128,0,64135:0:0:0:0:
109,192,64097,128,0,64326:0:0:0:0:
36,192,64097,128,0,64173:0:0:0:0:
329,192,64135,128,0,64173:0:0:0:0:
402,192,64173,128,0,64212:0:0:0:0:
256,192,64212,128,0,64403:0:0:0:0:
329,192,64250,128,0,64365:0:0:0:0:
36,192,64250,128,0,64632:0:0:0:0:
402,192,64403,128,0,64556:0:0:0:0:
109,192,64403,128,0,64479:0:0:0:0:
329,192,64479,128,0,64632:0:0:0:0:
475,192,64556,128,0,64939:0:0:0:0:
109,192,64556,128,0,64632:0:0:0:0:
402,192,64632,128,0,64939:0:0:0:0:
329,192,64709,128,0,64939:0:0:0:0:
256,192,64709,128,0,64939:0:0:0:0:
182,192,64709,128,0,64939:0:0:0:0:
109,192,64709,128,0,64939:0:0:0:0:
36,192,64709,128,0,64939:0:0:0:0:
402,192,65015,1,0,0:0:0:0:
475,192,65015,128,0,65066:0:0:0:0:
109,192,65015,128,0,65168:0:0:0:0:
182,192,65015,1,0,0:0:0:0:
36,192,65015,128,0,65168:0:0:0:0:
256,192,65066,128,0,65321:0:0:0:0:
329,192,65066,128,0,65117:0:0:0:0:
402,192,65117,128,0,65168:0:0:0:0:
475,192,65168,128,0,65627:0:0:0:0:
329,192,65245,128,0,65321:0:0:0:0:
402,192,65245,1,0,0:0:0:0:
109,192,65245,1,0,0:0:0:0:
182,192,65321,128,0,65423:0:0:0:0:
109,192,65321,128,0,65576:0:0:0:0:
36,192,65321,128,0,65576:0:0:0:0:
402,192,65423,128,0,65627:0:0:0:0:
329,192,65423,128,0,65474:0:0:0:0:
256,192,65474,128,0,65525:0:0:0:0:
182,192,65525,128,0,65576:0:0:0:0:
329,192,65576,128,0,65627:0:0:0:0:
256,192,65627,1,0,0:0:0:0:
182,192,65627,1,0,0:0:0:0:
109,192,65627,1,0,0:0:0:0:
36,192,65627,1,0,0:0:0:0:
256,192,65704,128,0,65742:0:0:0:0:
402,192,65704,1,0,0:0:0:0:
182,192,65742,128,0,65780:0:0:0:0:
109,192,65780,128,0,65819:0:0:0:0:
402,192,65780,128,0,65857:0:0:0:0:
329,192,65819,128,0,65895:0:0:0:0:
256,192,65857,128,0,66087:0:0:0:0:
109,192,65895,1,0,0:0:0:0:
182,192,65933,128,0,66354:0:0:0:0:
36,192,65933,128,0,66087:0:0:0:0:
402,192,65933,128,0,66240:0:0:0:0:
475,192,65933,128,0,66240:0:0:0:0:
36,192,66163,1,0,0:0:0:0:
109,192,66163,1,0,0:0:0:0:
329,192,66240,128,0,66278:0:0:0:0:
109,192,66240,1,0,0:0:0:0:
36,192,66240,1,0,0:0:0:0:
256,192,66316,128,0,66393:0:0:0:0:
475,192,66316,128,0,66354:0:0:0:0:
329,192,66354,128,0,66431:0:0:0:0:
402,192,66393,128,0,66661:0:0:0:0:
109,192,66393,128,0,66431:0:0:0:0:
36,192,66393,128,0,66431:0:0:0:0:
182,192,66469,128,0,66584:0:0:0:0:
256,192,66469,1,0,0:0:0:0:
256,192,66546,128,0,66584:0:0:0:0:
475,192,66546,1,0,0:0:0:0:
36,192,66546,1,0,0:0:0:0:
329,192,66622,128,0,66699:0:0:0:0:
109,192,66622,128,0,66661:0:0:0:0:
256,192,66661,128,0,66737:0:0:0:0:
182,192,66699,128,0,66852:0:0:0:0:
475,192,66699,128,0,66737:0:0:0:0:
36,192,66699,128,0,66775:0:0:0:0:
402,192,66775,128,0,66890:0:0:0:0:
329,192,66775,1,0,0:0:0:0:
329,192,66852,128,0,66890:0:0:0:0:
36,192,66852,128,0,66967:0:0:0:0:
109,192,66890,128,0,66967:0:0:0:0:
182,192,66928,128,0,66967:0:0:0:0:
402,192,67005,128,0,67043:0:0:0:0:
329,192,67005,128,0,67081:0:0:0:0:
256,192,67005,128,0,67120:0:0:0:0:
182,192,67158,128,0,67426:0:0:0:0:
329,192,67158,1,0,0:0:0:0:
402,192,67158,128,0,67196:0:0:0:0:
36,192,67158,128,0,67273:0:0:0:0:
109,192,67158,128,0,67273:0:0:0:0:
475,192,67158,128,0,67541:0:0:0:0:
256,192,67234,128,0,67311:0:0:0:0:
109,192,67311,128,0,67349:0:0:0:0:
36,192,67311,1,0,0:0:0:0:
402,192,67311,1,0,0:0:0:0:
256,192,67388,128,0,67541:0:0:0:0:
36,192,67464,128,0,67655:0:0:0:0:
329,192,67464,128,0,67617:0:0:0:0:
402,192,67464,128,0,67617:0:0:0:0:
182,192,67541,128,0,67579:0:0:0:0:
109,192,67541,128,0,67579:0:0:0:0:
256,192,67617,128,0,67808:0:0:0:0:
475,192,67617,1,0,0:0:0:0:
329,192,67694,128,0,67732:0:0:0:0:
182,192,67694,128,0,67732:0:0:0:0:
402,192,67694,1,0,0:0:0:0:
475,192,67770,128,0,68000:0:0:0:0:
109,192,67770,1,0,0:0:0:0:
36,192,67770,1,0,0:0:0:0:
182,192,67808,128,0,67885:0:0:0:0:
329,192,67847,128,0,67885:0:0:0:0:
402,192,67847,128,0,67885:0:0:0:0:
36,192,67923,128,0,68115:0:0:0:0:
256,192,67923,1,0,0:0:0:0:
329,192,67962,128,0,68038:0:0:0:0:
109,192,68000,128,0,68038:0:0:0:0:
182,192,68000,128,0,68038:0:0:0:0:
256,192,68076,128,0,68268:0:0:0:0:
402,192,68076,1,0,0:0:0:0:
475,192,68076,1,0,0:0:0:0:
329,192,68153,128,0,68191:0:0:0:0:
182,192,68153,128,0,68191:0:0:0:0:
475,192,68229,128,0,68536:0:0:0:0:
36,192,68229,1,0,0:0:0:0:
109,192,68268,128,0,68344:0:0:0:0:
402,192,68306,128,0,68344:0:0:0:0:
329,192,68306,128,0,68344:0:0:0:0:
256,192,68382,128,0,68536:0:0:0:0:
182,192,68382,128,0,68536:0:0:0:0:
109,192,68382,128,0,68536:0:0:0:0:
36,192,68382,128,0,68536:0:0:0:0:
256,192,68689,1,0,0:0:0:0:
36,192,68842,128,0,68995:0:0:0:0:
256,192,68842,128,0,68995:0:0:0:0:
329,192,68842,128,0,68995:0:0:0:0:
402,192,68842,128,0,68995:0:0:0:0:
475,192,68842,128,0,68995:0:0:0:0:
109,192,69148,128,0,69186:0:0:0:0:
256,192,69148,128,0,69530:0:0:0:0:
36,192,69148,128,0,69186:0:0:0:0:
475,192,69148,128,0,69263:0:0:0:0:
182,192,69148,1,0,0:0:0:0:
182,192,69224,128,0,69530:0:0:0:0:
475,192,69301,128,0,69339:0:0:0:0:
402,192,69301,128,0,69339:0:0:0:0:
36,192,69301,128,0,69530:0:0:0:0:
329,192,69301,1,0,0:0:0:0:
329,192,69377,128,0,69530:0:0:0:0:
475,192,69607,128,0,70028:0:0:0:0:
36,192,69607,128,0,69875:0:0:0:0:
109,192,69607,128,0,69875:0:0:0:0:
182,192,69607,128,0,69875:0:0:0:0:
329,192,69607,1,0,0:0:0:0:
256,192,69607,128,0,69683:0:0:0:0:
402,192,69607,128,0,70028:0:0:0:0:
256,192,69760,128,0,69951:0:0:0:0:
329,192,69837,128,0,70028:0:0:0:0:
182,192,69913,128,0,69951:0:0:0:0:
256,192,69990,128,0,70028:0:0:0:0:
329,192,70066,128,0,70104:0:0:0:0:
329,192,70143,1,0,0:0:0:0:
182,192,70143,1,0,0:0:0:0:
36,192,70219,128,0,70449:0:0:0:0:
256,192,70219,128,0,70449:0:0:0:0:
402,192,70219,128,0,70449:0:0:0:0:
475,192,70219,128,0,70449:0:0:0:0:
109,192,70219,128,0,70449:0:0:0:0:
182,192,70525,1,0,0:0:0:0:
109,192,70525,128,0,70564:0:0:0:0:
36,192,70525,128,0,70564:0:0:0:0:
256,192,70564,1,0,0:0:0:0:
329,192,70602,1,0,0:0:0:0:
182,192,70621,128,0,70755:0:0:0:0:
256,192,70659,128,0,70755:0:0:0:0:
329,192,70697,128,0,70755:0:0:0:0:
109,192,70831,1,0,0:0:0:0:
256,192,70870,1,0,0:0:0:0:
402,192,70908,1,0,0:0:0:0:
109,192,70927,128,0,71061:0:0:0:0:
256,192,70965,128,0,71061:0:0:0:0:
402,192,71004,128,0,71061:0:0:0:0:
36,192,71138,1,0,0:0:0:0:
182,192,71138,128,0,71176:0:0:0:0:
109,192,71138,128,0,71176:0:0:0:0:
256,192,71176,1,0,0:0:0:0:
475,192,71214,1,0,0:0:0:0:
36,192,71233,128,0,71367:0:0:0:0:
256,192,71271,128,0,71367:0:0:0:0:
475,192,71310,128,0,71367:0:0:0:0:
182,192,71367,1,0,0:0:0:0:
109,192,71444,128,0,71673:0:0:0:0:
182,192,71444,128,0,71673:0:0:0:0:
475,192,71444,1,0,0:0:0:0:
256,192,71444,1,0,0:0:0:0:
36,192,71444,128,0,71673:0:0:0:0:
329,192,71444,128,0,71520:0:0:0:0:
402,192,71444,1,0,0:0:0:0:
329,192,71597,128,0,71750:0:0:0:0:
36,192,71750,1,0,0:0:0:0:
329,192,72056,128,0,72171:0:0:0:0:
182,192,72056,1,0,0:0:0:0:
402,192,72056,128,0,72592:0:0:0:0:
475,192,72056,128,0,72592:0:0:0:0:
36,192,72056,128,0,72553:0:0:0:0:
109,192,72056,128,0,72324:0:0:0:0:
256,192,72056,128,0,72171:0:0:0:0:
329,192,72209,1,0,0:0:0:0:
182,192,72209,128,0,72477:0:0:0:0:
256,192,72362,128,0,72477:0:0:0:0:
109,192,72362,1,0,0:0:0:0:
329,192,72362,128,0,72592:0:0:0:0:
256,192,72515,1,0,0:0:0:0:
109,192,72515,128,0,72553:0:0:0:0:
109,192,72592,1,0,0:0:0:0:
36,192,72592,1,0,0:0:0:0:
329,192,72668,128,0,72898:0:0:0:0:
182,192,72668,128,0,72898:0:0:0:0:
256,192,72668,128,0,72898:0:0:0:0:
402,192,72668,128,0,72898:0:0:0:0:
475,192,72668,128,0,72898:0:0:0:0:
109,192,72974,128,0,73166:0:0:0:0:
36,192,72974,128,0,73013:0:0:0:0:
182,192,72974,1,0,0:0:0:0:
402,192,72974,1,0,0:0:0:0:
475,192,72974,1,0,0:0:0:0:
256,192,73013,1,0,0:0:0:0:
329,192,73051,128,0,73166:0:0:0:0:
256,192,73089,128,0,73166:0:0:0:0:
182,192,73127,128,0,73166:0:0:0:0:
36,192,73127,128,0,73319:0:0:0:0:
256,192,73280,1,0,0:0:0:0:
182,192,73280,128,0,73357:0:0:0:0:
329,192,73319,1,0,0:0:0:0:
402,192,73357,128,0,73472:0:0:0:0:
109,192,73357,128,0,73433:0:0:0:0:
329,192,73395,128,0,73472:0:0:0:0:
256,192,73433,128,0,73472:0:0:0:0:
36,192,73433,128,0,74122:0:0:0:0:
109,192,73510,128,0,73663:0:0:0:0:
329,192,73587,1,0,0:0:0:0:
182,192,73587,1,0,0:0:0:0:
256,192,73587,128,0,73663:0:0:0:0:
402,192,73625,1,0,0:0:0:0:
475,192,73663,128,0,73816:0:0:0:0:
182,192,73663,128,0,73740:0:0:0:0:
402,192,73701,128,0,73816:0:0:0:0:
329,192,73740,128,0,73816:0:0:0:0:
109,192,73740,128,0,74046:0:0:0:0:
182,192,73816,128,0,73969:0:0:0:0:
256,192,73893,1,0,0:0:0:0:
329,192,73893,1,0,0:0:0:0:
402,192,73893,128,0,74007:0:0:0:0:
475,192,73893,128,0,74007:0:0:0:0:
256,192,73969,128,0,74046:0:0:0:0:
182,192,74046,128,0,74122:0:0:0:0:
402,192,74046,128,0,74084:0:0:0:0:
475,192,74046,128,0,74084:0:0:0:0:
109,192,74122,128,0,74199:0:0:0:0:
329,192,74122,128,0,74237:0:0:0:0:
256,192,74122,128,0,74237:0:0:0:0:
36,192,74199,128,0,74275:0:0:0:0:
475,192,74199,128,0,74275:0:0:0:0:
402,192,74275,128,0,74352:0:0:0:0:
256,192,74275,128,0,74314:0:0:0:0:
182,192,74275,128,0,74314:0:0:0:0:
329,192,74352,128,0,74428:0:0:0:0:
109,192,74352,128,0,74428:0:0:0:0:
36,192,74352,128,0,74428:0:0:0:0:
256,192,74428,128,0,74505:0:0:0:0:
182,192,74505,128,0,74773:0:0:0:0:
109,192,74505,128,0,74773:0:0:0:0:
36,192,74505,128,0,74773:0:0:0:0:
402,192,74505,128,0,74773:0:0:0:0:
475,192,74505,128,0,74773:0:0:0:0:
329,192,74505,128,0,74773:0:0:0:0:
182,192,74811,128,0,74849:0:0:0:0:
256,192,74811,128,0,74849:0:0:0:0:
329,192,74811,128,0,74849:0:0:0:0:
256,192,74888,1,0,0:0:0:0:
36,192,74964,128,0,75232:0:0:0:0:
475,192,74964,128,0,75232:0:0:0:0:
329,192,74964,128,0,75232:0:0:0:0:
402,192,74964,128,0,75232:0:0:0:0:
182,192,74964,128,0,75232:0:0:0:0:
109,192,74964,128,0,75232:0:0:0:0:
256,192,75270,128,0,75308:0:0:0:0:
329,192,75270,128,0,75308:0:0:0:0:
182,192,75270,128,0,75308:0:0:0:0:
256,192,75347,1,0,0:0:0:0:
182,192,75423,128,0,75538:0:0:0:0:
109,192,75423,128,0,75538:0:0:0:0:
36,192,75423,128,0,75538:0:0:0:0:
475,192,75423,128,0,75538:0:0:0:0:
329,192,75423,128,0,75538:0:0:0:0:
402,192,75423,128,0,75538:0:0:0:0:
256,192,75576,1,0,0:0:0:0:
109,192,75576,1,0,0:0:0:0:
402,192,75576,1,0,0:0:0:0:
36,192,75576,1,0,0:0:0:0:
182,192,75615,128,0,75691:0:0:0:0:
329,192,75615,128,0,75691:0:0:0:0:
109,192,75729,1,0,0:0:0:0:
402,192,75729,1,0,0:0:0:0:
475,192,75729,1,0,0:0:0:0:
256,192,75729,128,0,75844:0:0:0:0:
182,192,75882,128,0,75997:0:0:0:0:
36,192,75882,128,0,75997:0:0:0:0:
475,192,75882,128,0,75997:0:0:0:0:
329,192,75882,128,0,75997:0:0:0:0:
402,192,75882,128,0,75997:0:0:0:0:
109,192,75882,128,0,75997:0:0:0:0:
256,192,76036,1,0,0:0:0:0:
109,192,76036,1,0,0:0:0:0:
402,192,76036,1,0,0:0:0:0:
475,192,76036,1,0,0:0:0:0:
329,192,76074,128,0,76150:0:0:0:0:
182,192,76074,128,0,76150:0:0:0:0:
109,192,76189,1,0,0:0:0:0:
402,192,76189,1,0,0:0:0:0:
36,192,76189,1,0,0:0:0:0:
256,192,76189,128,0,76303:0:0:0:0:
109,192,76342,128,0,76393:0:0:0:0:
36,192,76342,128,0,76393:0:0:0:0:
402,192,76342,128,0,76393:0:0:0:0:
475,192,76342,128,0,76393:0:0:0:0:
256,192,76342,1,0,0:0:0:0:
256,192,76444,1,0,0:0:0:0:
182,192,76444,1,0,0:0:0:0:
329,192,76444,1,0,0:0:0:0:
182,192,76546,1,0,0:0:0:0:
256,192,76546,1,0,0:0:0:0:
329,192,76546,1,0,0:0:0:0:
109,192,76648,128,0,76724:0:0:0:0:
182,192,76654,128,0,76718:0:0:0:0:
256,192,76661,128,0,76712:0:0:0:0:
329,192,76667,128,0,76705:0:0:0:0:
402,192,76750,128,0,76826:0:0:0:0:
329,192,76756,128,0,76820:0:0:0:0:
256,192,76763,128,0,76814:0:0:0:0:
182,192,76769,128,0,76807:0:0:0:0:
109,192,76852,128,0,76928:0:0:0:0:
182,192,76858,128,0,76922:0:0:0:0:
256,192,76865,128,0,76916:0:0:0:0:
329,192,76871,128,0,76909:0:0:0:0:
36,192,76954,128,0,77183:0:0:0:0:
475,192,76954,128,0,77183:0:0:0:0:
402,192,76954,1,0,0:0:0:0:
36,192,77260,1,0,0:0:0:0:
109,192,77260,1,0,0:0:0:0:
256,192,77260,1,0,0:0:0:0:
36,192,77413,128,0,77643:0:0:0:0:
475,192,77413,128,0,77643:0:0:0:0:
256,192,77413,1,0,0:0:0:0:
329,192,77490,1,0,0:0:0:0:
182,192,77490,1,0,0:0:0:0:
256,192,77566,1,0,0:0:0:0:
182,192,77643,1,0,0:0:0:0:
329,192,77643,1,0,0:0:0:0:
475,192,77719,1,0,0:0:0:0:
256,192,77719,1,0,0:0:0:0:
402,192,77719,1,0,0:0:0:0:
475,192,77872,128,0,78102:0:0:0:0:
36,192,77872,128,0,78102:0:0:0:0:
109,192,77872,1,0,0:0:0:0:
402,192,77872,1,0,0:0:0:0:
256,192,77872,1,0,0:0:0:0:
182,192,77949,1,0,0:0:0:0:
329,192,78025,1,0,0:0:0:0:
182,192,78102,1,0,0:0:0:0:
256,192,78178,128,0,78255:0:0:0:0:
329,192,78178,128,0,78255:0:0:0:0:
402,192,78178,128,0,78255:0:0:0:0:
475,192,78178,128,0,78255:0:0:0:0:
109,192,78178,128,0,78484:0:0:0:0:
182,192,78331,128,0,78484:0:0:0:0:
256,192,78331,128,0,78484:0:0:0:0:
329,192,78331,128,0,78484:0:0:0:0:
402,192,78331,128,0,78484:0:0:0:0:
36,192,78484,1,0,0:0:0:0:
475,192,78484,1,0,0:0:0:0:
36,192,78638,128,0,78791:0:0:0:0:
109,192,78638,128,0,78791:0:0:0:0:
256,192,78638,128,0,78791:0:0:0:0:
182,192,78638,128,0,78791:0:0:0:0:
329,192,78638,1,0,0:0:0:0:
475,192,78714,128,0,78791:0:0:0:0:
329,192,78791,128,0,78867:0:0:0:0:
402,192,78867,128,0,78944:0:0:0:0:
475,192,78944,128,0,79250:0:0:0:0:
329,192,78944,128,0,79250:0:0:0:0:
182,192,78944,128,0,79250:0:0:0:0:
36,192,78944,128,0,79250:0:0:0:0:
256,192,78944,1,0,0:0:0:0:
109,192,79097,1,0,0:0:0:0:
402,192,79097,1,0,0:0:0:0:
256,192,79097,128,0,79250:0:0:0:0:
475,192,79403,1,0,0:0:0:0:
109,192,79403,1,0,0:0:0:0:
36,192,79403,1,0,0:0:0:0:
402,192,79403,1,0,0:0:0:0:
475,192,79479,128,0,80245:0:0:0:0:
256,192,79479,128,0,79632:0:0:0:0:
182,192,79479,128,0,79632:0:0:0:0:
109,192,79479,128,0,79824:0:0:0:0:
36,192,79479,128,0,79766:0:0:0:0:
329,192,79479,128,0,79632:0:0:0:0:
402,192,79479,128,0,79594:0:0:0:0:
402,192,79671,128,0,79747:0:0:0:0:
256,192,79709,1,0,0:0:0:0:
329,192,79709,1,0,0:0:0:0:
182,192,79709,1,0,0:0:0:0:
182,192,79766,128,0,79881:0:0:0:0:
256,192,79843,128,0,79919:0:0:0:0:
36,192,79862,1,0,0:0:0:0:
329,192,79891,128,0,79948:0:0:0:0:
109,192,79919,1,0,0:0:0:0:
402,192,79929,128,0,79967:0:0:0:0:
182,192,79958,1,0,0:0:0:0:
256,192,79986,1,0,0:0:0:0:
329,192,80006,1,0,0:0:0:0:
402,192,80015,1,0,0:0:0:0:
36,192,80053,1,0,0:0:0:0:
109,192,80092,1,0,0:0:0:0:
182,192,80130,1,0,0:0:0:0:
256,192,80168,128,0,80474:0:0:0:0:
329,192,80168,128,0,80245:0:0:0:0:
402,192,80168,128,0,80245:0:0:0:0:
109,192,80245,1,0,0:0:0:0:
36,192,80283,1,0,0:0:0:0:
182,192,80321,128,0,80513:0:0:0:0:
402,192,80321,1,0,0:0:0:0:
329,192,80321,128,0,80359:0:0:0:0:
109,192,80359,128,0,80551:0:0:0:0:
475,192,80398,128,0,80474:0:0:0:0:
402,192,80436,128,0,80474:0:0:0:0:
329,192,80474,1,0,0:0:0:0:
36,192,80551,1,0,0:0:0:0:
475,192,80627,128,0,80723:0:0:0:0:
402,192,80627,1,0,0:0:0:0:
329,192,80637,1,0,0:0:0:0:
256,192,80656,1,0,0:0:0:0:
182,192,80685,1,0,0:0:0:0:
402,192,80713,128,0,80752:0:0:0:0:
109,192,80723,1,0,0:0:0:0:
329,192,80733,128,0,80790:0:0:0:0:
256,192,80761,128,0,80838:0:0:0:0:
36,192,80780,1,0,0:0:0:0:
182,192,80800,128,0,81058:0:0:0:0:
109,192,80857,128,0,80991:0:0:0:0:
475,192,80895,128,0,80972:0:0:0:0:
36,192,80933,128,0,81342:0:0:0:0:
329,192,80933,1,0,0:0:0:0:
402,192,80933,1,0,0:0:0:0:
256,192,80991,128,0,81106:0:0:0:0:
329,192,81067,128,0,81144:0:0:0:0:
109,192,81087,1,0,0:0:0:0:
402,192,81115,128,0,81173:0:0:0:0:
182,192,81144,1,0,0:0:0:0:
475,192,81153,128,0,81192:0:0:0:0:
256,192,81182,1,0,0:0:0:0:
329,192,81211,1,0,0:0:0:0:
402,192,81230,1,0,0:0:0:0:
475,192,81240,1,0,0:0:0:0:
109,192,81265,128,0,81316:0:0:0:0:
109,192,81367,1,0,0:0:0:0:
36,192,81393,1,0,0:0:0:0:
329,192,81393,128,0,81469:0:0:0:0:
475,192,81393,128,0,81469:0:0:0:0:
402,192,81393,128,0,81469:0:0:0:0:
329,192,81546,1,0,0:0:0:0:
402,192,81546,1,0,0:0:0:0:
475,192,81546,1,0,0:0:0:0:
256,192,81546,128,0,81699:0:0:0:0:
182,192,81546,128,0,81699:0:0:0:0:
109,192,81546,128,0,81699:0:0:0:0:
36,192,81546,128,0,81699:0:0:0:0:
109,192,81852,128,0,82005:0:0:0:0:
402,192,81852,128,0,82005:0:0:0:0:
182,192,81852,128,0,81890:0:0:0:0:
36,192,81852,128,0,81890:0:0:0:0:
329,192,81852,128,0,81890:0:0:0:0:
475,192,81852,128,0,81890:0:0:0:0:
256,192,81928,1,0,0:0:0:0:
36,192,82005,128,0,82120:0:0:0:0:
182,192,82005,128,0,82120:0:0:0:0:
329,192,82005,128,0,82120:0:0:0:0:
475,192,82005,128,0,82120:0:0:0:0:
402,192,82081,128,0,82158:0:0:0:0:
256,192,82081,128,0,82311:0:0:0:0:
109,192,82081,128,0,82158:0:0:0:0:
475,192,82158,1,0,0:0:0:0:
329,192,82158,1,0,0:0:0:0:
182,192,82158,1,0,0:0:0:0:
36,192,82158,1,0,0:0:0:0:
182,192,82311,128,0,82388:0:0:0:0:
329,192,82311,128,0,82388:0:0:0:0:
109,192,82349,128,0,82388:0:0:0:0:
402,192,82349,128,0,82388:0:0:0:0:
36,192,82388,1,0,0:0:0:0:
475,192,82388,1,0,0:0:0:0:
256,192,82464,1,0,0:0:0:0:
182,192,82502,1,0,0:0:0:0:
329,192,82502,1,0,0:0:0:0:
256,192,82541,1,0,0:0:0:0:
109,192,82617,128,0,82655:0:0:0:0:
182,192,82617,128,0,82694:0:0:0:0:
402,192,82617,128,0,82655:0:0:0:0:
36,192,82617,1,0,0:0:0:0:
475,192,82617,1,0,0:0:0:0:
329,192,82617,128,0,82694:0:0:0:0:
36,192,82694,1,0,0:0:0:0:
475,192,82732,128,0,82808:0:0:0:0:
402,192,82751,128,0,82789:0:0:0:0:
329,192,82770,1,0,0:0:0:0:
256,192,82770,1,0,0:0:0:0:
182,192,82770,1,0,0:0:0:0:
475,192,82847,1,0,0:0:0:0:
36,192,82923,128,0,83000:0:0:0:0:
109,192,82942,128,0,82981:0:0:0:0:
182,192,82962,1,0,0:0:0:0:
329,192,83000,1,0,0:0:0:0:
36,192,83038,1,0,0:0:0:0:
475,192,83076,128,0,83115:0:0:0:0:
402,192,83088,128,0,83127:0:0:0:0:
329,192,83101,128,0,83139:0:0:0:0:
256,192,83114,128,0,83152:0:0:0:0:
182,192,83127,128,0,83166:0:0:0:0:
109,192,83139,128,0,83178:0:0:0:0:
109,192,83229,1,0,0:0:0:0:
256,192,83255,1,0,0:0:0:0:
402,192,83280,1,0,0:0:0:0:
402,192,83382,128,0,83560:0:0:0:0:
329,192,83394,128,0,83547:0:0:0:0:
256,192,83407,128,0,83535:0:0:0:0:
182,192,83420,128,0,83522:0:0:0:0:
109,192,83433,128,0,83509:0:0:0:0:
36,192,83445,128,0,83496:0:0:0:0:
36,192,83536,1,0,0:0:0:0:
182,192,83561,1,0,0:0:0:0:
329,192,83587,1,0,0:0:0:0:
475,192,83611,1,0,0:0:0:0:
36,192,83689,128,0,83765:0:0:0:0:
256,192,83689,128,0,83803:0:0:0:0:
402,192,83689,128,0,83803:0:0:0:0:
109,192,83689,128,0,83727:0:0:0:0:
475,192,83765,128,0,83880:0:0:0:0:
182,192,83765,128,0,83880:0:0:0:0:
402,192,83842,128,0,83880:0:0:0:0:
109,192,83842,1,0,0:0:0:0:
256,192,83842,1,0,0:0:0:0:
36,192,83842,1,0,0:0:0:0:
182,192,83918,1,0,0:0:0:0:
329,192,83918,128,0,83956:0:0:0:0:
475,192,83995,128,0,84071:0:0:0:0:
256,192,83995,128,0,84109:0:0:0:0:
109,192,83995,128,0,84109:0:0:0:0:
402,192,83995,128,0,84033:0:0:0:0:
329,192,84071,128,0,84186:0:0:0:0:
36,192,84071,128,0,84186:0:0:0:0:
109,192,84148,128,0,84186:0:0:0:0:
256,192,84148,1,0,0:0:0:0:
475,192,84148,1,0,0:0:0:0:
329,192,84224,1,0,0:0:0:0:
182,192,84224,128,0,84263:0:0:0:0:
109,192,84301,128,0,84530:0:0:0:0:
36,192,84301,128,0,84530:0:0:0:0:
256,192,84301,128,0,84530:0:0:0:0:
402,192,84301,128,0,84530:0:0:0:0:
475,192,84301,128,0,84530:0:0:0:0:
182,192,84607,128,0,84862:0:0:0:0:
329,192,84607,128,0,84658:0:0:0:0:
402,192,84607,128,0,84658:0:0:0:0:
109,192,84658,128,0,84709:0:0:0:0:
36,192,84658,128,0,84709:0:0:0:0:
329,192,84709,1,0,0:0:0:0:
36,192,84760,1,0,0:0:0:0:
256,192,84760,128,0,84811:0:0:0:0:
475,192,84837,1,0,0:0:0:0:
329,192,84837,128,0,84964:0:0:0:0:
256,192,84913,128,0,85168:0:0:0:0:
402,192,84913,128,0,84964:0:0:0:0:
475,192,84913,128,0,84964:0:0:0:0:
36,192,84913,128,0,85245:0:0:0:0:
109,192,84964,128,0,85015:0:0:0:0:
182,192,84964,128,0,85015:0:0:0:0:
402,192,85015,1,0,0:0:0:0:
329,192,85066,128,0,85117:0:0:0:0:
109,192,85066,1,0,0:0:0:0:
402,192,85143,128,0,85270:0:0:0:0:
109,192,85219,128,0,85270:0:0:0:0:
329,192,85219,1,0,0:0:0:0:
475,192,85219,128,0,85474:0:0:0:0:
182,192,85245,128,0,85296:0:0:0:0:
256,192,85270,128,0,85321:0:0:0:0:
329,192,85296,128,0,85372:0:0:0:0:
36,192,85321,128,0,85372:0:0:0:0:
109,192,85347,128,0,85398:0:0:0:0:
182,192,85372,128,0,85678:0:0:0:0:
329,192,85423,1,0,0:0:0:0:
402,192,85474,1,0,0:0:0:0:
256,192,85525,128,0,85678:0:0:0:0:
109,192,85525,128,0,85678:0:0:0:0:
36,192,85525,128,0,85882:0:0:0:0:
475,192,85525,1,0,0:0:0:0:
329,192,85755,1,0,0:0:0:0:
256,192,85755,1,0,0:0:0:0:
329,192,85831,128,0,86087:0:0:0:0:
182,192,85831,128,0,85882:0:0:0:0:
109,192,85831,128,0,85882:0:0:0:0:
475,192,85882,128,0,85933:0:0:0:0:
402,192,85882,128,0,85933:0:0:0:0:
182,192,85933,1,0,0:0:0:0:
475,192,85984,1,0,0:0:0:0:
256,192,85984,128,0,86036:0:0:0:0:
182,192,86061,128,0,86189:0:0:0:0:
109,192,86138,128,0,86189:0:0:0:0:
256,192,86138,128,0,86393:0:0:0:0:
36,192,86138,128,0,86189:0:0:0:0:
475,192,86138,128,0,86673:0:0:0:0:
329,192,86189,128,0,86240:0:0:0:0:
402,192,86189,128,0,86240:0:0:0:0:
109,192,86240,1,0,0:0:0:0:
402,192,86291,1,0,0:0:0:0:
182,192,86291,128,0,86342:0:0:0:0:
109,192,86367,128,0,86495:0:0:0:0:
329,192,86444,128,0,86558:0:0:0:0:
36,192,86444,128,0,86495:0:0:0:0:
256,192,86482,128,0,86558:0:0:0:0:
182,192,86520,128,0,86558:0:0:0:0:
182,192,86597,1,0,0:0:0:0:
36,192,86597,128,0,86673:0:0:0:0:
109,192,86597,128,0,86635:0:0:0:0:
402,192,86597,128,0,86673:0:0:0:0:
329,192,86635,128,0,86673:0:0:0:0:
256,192,86673,1,0,0:0:0:0:
475,192,86750,128,0,86979:0:0:0:0:
329,192,86750,128,0,86979:0:0:0:0:
182,192,86750,128,0,86979:0:0:0:0:
36,192,86750,128,0,87209:0:0:0:0:
402,192,86750,128,0,86979:0:0:0:0:
256,192,86750,128,0,86979:0:0:0:0:
109,192,86750,128,0,87209:0:0:0:0:
256,192,87056,1,0,0:0:0:0:
402,192,87056,128,0,87107:0:0:0:0:
329,192,87056,128,0,87107:0:0:0:0:
475,192,87107,128,0,87158:0:0:0:0:
256,192,87158,128,0,87311:0:0:0:0:
182,192,87158,128,0,87260:0:0:0:0:
402,192,87209,128,0,87362:0:0:0:0:
329,192,87209,1,0,0:0:0:0:
475,192,87260,128,0,87464:0:0:0:0:
109,192,87286,1,0,0:0:0:0:
36,192,87286,128,0,87515:0:0:0:0:
182,192,87362,1,0,0:0:0:0:
329,192,87362,128,0,87413:0:0:0:0:
256,192,87362,128,0,87413:0:0:0:0:
402,192,87413,128,0,87464:0:0:0:0:
182,192,87464,128,0,87617:0:0:0:0:
109,192,87464,128,0,87566:0:0:0:0:
329,192,87515,128,0,87668:0:0:0:0:
256,192,87515,1,0,0:0:0:0:
475,192,87566,128,0,87898:0:0:0:0:
402,192,87566,128,0,87770:0:0:0:0:
109,192,87668,1,0,0:0:0:0:
182,192,87668,128,0,87719:0:0:0:0:
256,192,87668,128,0,87719:0:0:0:0:
329,192,87719,128,0,87770:0:0:0:0:
109,192,87770,128,0,87923:0:0:0:0:
36,192,87770,128,0,87898:0:0:0:0:
182,192,87821,1,0,0:0:0:0:
256,192,87821,128,0,87872:0:0:0:0:
329,192,87872,128,0,87949:0:0:0:0:
402,192,87872,128,0,87923:0:0:0:0:
256,192,87974,1,0,0:0:0:0:
36,192,87974,128,0,88127:0:0:0:0:
475,192,87974,128,0,88127:0:0:0:0:
402,192,88000,128,0,88127:0:0:0:0:
109,192,88000,128,0,88127:0:0:0:0:
329,192,88025,128,0,88127:0:0:0:0:
182,192,88025,128,0,88127:0:0:0:0:
256,192,88127,128,0,88204:0:0:0:0:
182,192,88204,1,0,0:0:0:0:
329,192,88204,1,0,0:0:0:0:
256,192,88280,1,0,0:0:0:0:
402,192,88280,1,0,0:0:0:0:
109,192,88280,1,0,0:0:0:0:
36,192,88280,1,0,0:0:0:0:
475,192,88280,1,0,0:0:0:0:
475,192,88433,1,0,0:0:0:0:
36,192,88433,1,0,0:0:0:0:
329,192,88433,128,0,88472:0:0:0:0:
402,192,88433,128,0,88472:0:0:0:0:
109,192,88433,128,0,88472:0:0:0:0:
182,192,88433,128,0,88472:0:0:0:0:
256,192,88510,1,0,0:0:0:0:
182,192,88587,1,0,0:0:0:0:
329,192,88587,1,0,0:0:0:0:
256,192,88663,1,0,0:0:0:0:
36,192,88740,128,0,88778:0:0:0:0:
329,192,88740,128,0,88778:0:0:0:0:
475,192,88740,128,0,88778:0:0:0:0:
182,192,88740,128,0,88778:0:0:0:0:
109,192,88740,1,0,0:0:0:0:
402,192,88740,1,0,0:0:0:0:
36,192,88893,128,0,89122:0:0:0:0:
475,192,88893,128,0,89122:0:0:0:0:
329,192,88893,128,0,89199:0:0:0:0:
182,192,88893,128,0,89199:0:0:0:0:
109,192,88893,128,0,88931:0:0:0:0:
402,192,88893,128,0,88931:0:0:0:0:
256,192,88969,1,0,0:0:0:0:
402,192,89046,1,0,0:0:0:0:
109,192,89046,1,0,0:0:0:0:
256,192,89122,128,0,89199:0:0:0:0:
36,192,89199,5,0,0:0:0:0:
402,192,89199,1,0,0:0:0:0:
475,192,89199,1,0,0:0:0:0:
109,192,89199,1,0,0:0:0:0:
36,192,89275,128,0,90041:0:0:0:0:
256,192,89275,128,0,89428:0:0:0:0:
329,192,89275,128,0,89428:0:0:0:0:
402,192,89275,128,0,89620:0:0:0:0:
475,192,89275,128,0,89562:0:0:0:0:
182,192,89275,128,0,89428:0:0:0:0:
109,192,89275,128,0,89390:0:0:0:0:
109,192,89467,128,0,89543:0:0:0:0:
256,192,89505,1,0,0:0:0:0:
182,192,89505,1,0,0:0:0:0:
329,192,89505,1,0,0:0:0:0:
329,192,89562,128,0,89677:0:0:0:0:
256,192,89639,128,0,89715:0:0:0:0:
475,192,89658,1,0,0:0:0:0:
182,192,89687,128,0,89744:0:0:0:0:
402,192,89715,1,0,0:0:0:0:
109,192,89725,128,0,89763:0:0:0:0:
329,192,89754,1,0,0:0:0:0:
256,192,89782,1,0,0:0:0:0:
182,192,89802,1,0,0:0:0:0:
109,192,89811,1,0,0:0:0:0:
475,192,89849,1,0,0:0:0:0:
402,192,89888,1,0,0:0:0:0:
329,192,89926,1,0,0:0:0:0:
256,192,89964,128,0,90270:0:0:0:0:
182,192,89964,128,0,90041:0:0:0:0:
109,192,89964,128,0,90041:0:0:0:0:
402,192,90041,1,0,0:0:0:0:
475,192,90079,1,0,0:0:0:0:
329,192,90117,128,0,90308:0:0:0:0:
109,192,90117,1,0,0:0:0:0:
182,192,90117,128,0,90155:0:0:0:0:
402,192,90155,128,0,90347:0:0:0:0:
36,192,90194,128,0,90270:0:0:0:0:
109,192,90232,128,0,90270:0:0:0:0:
182,192,90270,1,0,0:0:0:0:
475,192,90347,1,0,0:0:0:0:
36,192,90423,128,0,90519:0:0:0:0:
109,192,90423,1,0,0:0:0:0:
182,192,90433,1,0,0:0:0:0:
256,192,90452,1,0,0:0:0:0:
329,192,90481,1,0,0:0:0:0:
109,192,90509,128,0,90548:0:0:0:0:
402,192,90519,1,0,0:0:0:0:
182,192,90529,128,0,90586:0:0:0:0:
256,192,90557,128,0,90634:0:0:0:0:
475,192,90576,1,0,0:0:0:0:
329,192,90595,128,0,90854:0:0:0:0:
402,192,90653,128,0,90787:0:0:0:0:
36,192,90691,128,0,90768:0:0:0:0:
475,192,90729,128,0,91138:0:0:0:0:
182,192,90729,1,0,0:0:0:0:
109,192,90729,1,0,0:0:0:0:
256,192,90787,128,0,90902:0:0:0:0:
182,192,90863,128,0,90940:0:0:0:0:
402,192,90882,1,0,0:0:0:0:
109,192,90911,128,0,90969:0:0:0:0:
329,192,90940,1,0,0:0:0:0:
36,192,90949,128,0,90988:0:0:0:0:
256,192,90978,1,0,0:0:0:0:
182,192,91007,1,0,0:0:0:0:
109,192,91026,1,0,0:0:0:0:
36,192,91036,1,0,0:0:0:0:
402,192,91061,128,0,91112:0:0:0:0:
256,192,91112,1,0,0:0:0:0:
329,192,91138,1,0,0:0:0:0:
402,192,91163,1,0,0:0:0:0:
475,192,91189,1,0,0:0:0:0:
182,192,91189,128,0,91265:0:0:0:0:
36,192,91189,128,0,91265:0:0:0:0:
109,192,91189,128,0,91265:0:0:0:0:
182,192,91342,1,0,0:0:0:0:
109,192,91342,1,0,0:0:0:0:
36,192,91342,1,0,0:0:0:0:
256,192,91342,128,0,91495:0:0:0:0:
329,192,91342,128,0,91495:0:0:0:0:
402,192,91342,128,0,91495:0:0:0:0:
475,192,91342,128,0,91495:0:0:0:0:
36,192,91648,128,0,92183:0:0:0:0:
109,192,91648,128,0,91724:0:0:0:0:
182,192,91648,128,0,91686:0:0:0:0:
256,192,91648,1,0,0:0:0:0:
475,192,91648,128,0,91877:0:0:0:0:
402,192,91686,128,0,91877:0:0:0:0:
329,192,91724,128,0,91877:0:0:0:0:
256,192,91763,128,0,91877:0:0:0:0:
182,192,91801,128,0,91877:0:0:0:0:
109,192,91839,128,0,91877:0:0:0:0:
475,192,91954,128,0,92337:0:0:0:0:
402,192,91954,128,0,92030:0:0:0:0:
329,192,91954,128,0,91992:0:0:0:0:
256,192,91954,1,0,0:0:0:0:
109,192,91992,128,0,92183:0:0:0:0:
182,192,92030,128,0,92183:0:0:0:0:
256,192,92069,128,0,92183:0:0:0:0:
329,192,92107,128,0,92183:0:0:0:0:
402,192,92145,128,0,92183:0:0:0:0:
402,192,92260,128,0,92337:0:0:0:0:
329,192,92260,128,0,92298:0:0:0:0:
109,192,92260,128,0,92375:0:0:0:0:
182,192,92298,128,0,92375:0:0:0:0:
256,192,92337,128,0,92375:0:0:0:0:
475,192,92413,128,0,92490:0:0:0:0:
36,192,92413,128,0,92643:0:0:0:0:
109,192,92413,1,0,0:0:0:0:
402,192,92413,1,0,0:0:0:0:
256,192,92451,128,0,92528:0:0:0:0:
329,192,92490,128,0,92528:0:0:0:0:
182,192,92566,128,0,92604:0:0:0:0:
109,192,92566,128,0,92643:0:0:0:0:
475,192,92566,1,0,0:0:0:0:
402,192,92566,128,0,92681:0:0:0:0:
329,192,92604,128,0,92681:0:0:0:0:
256,192,92643,128,0,92681:0:0:0:0:
475,192,92719,128,0,93102:0:0:0:0:
109,192,92719,1,0,0:0:0:0:
402,192,92719,1,0,0:0:0:0:
256,192,92757,128,0,92834:0:0:0:0:
182,192,92796,128,0,92834:0:0:0:0:
402,192,92872,128,0,93025:0:0:0:0:
329,192,92872,1,0,0:0:0:0:
36,192,92872,128,0,92949:0:0:0:0:
256,192,92949,128,0,93025:0:0:0:0:
109,192,92949,128,0,93025:0:0:0:0:
329,192,93025,128,0,93255:0:0:0:0:
36,192,93025,128,0,93408:0:0:0:0:
182,192,93025,1,0,0:0:0:0:
402,192,93102,128,0,93178:0:0:0:0:
256,192,93102,1,0,0:0:0:0:
475,192,93178,128,0,93255:0:0:0:0:
109,192,93178,128,0,93331:0:0:0:0:
182,192,93178,1,0,0:0:0:0:
256,192,93255,128,0,93331:0:0:0:0:
402,192,93255,128,0,93331:0:0:0:0:
182,192,93331,128,0,93561:0:0:0:0:
329,192,93331,1,0,0:0:0:0:
475,192,93331,128,0,93408:0:0:0:0:
256,192,93408,1,0,0:0:0:0:
109,192,93408,128,0,93484:0:0:0:0:
36,192,93484,128,0,93561:0:0:0:0:
329,192,93484,1,0,0:0:0:0:
475,192,93484,128,0,93638:0:0:0:0:
402,192,93484,128,0,93561:0:0:0:0:
109,192,93561,128,0,93638:0:0:0:0:
256,192,93561,128,0,93638:0:0:0:0:
36,192,93638,128,0,93791:0:0:0:0:
182,192,93638,1,0,0:0:0:0:
329,192,93638,128,0,93714:0:0:0:0:
475,192,93714,1,0,0:0:0:0:
256,192,93714,128,0,93867:0:0:0:0:
402,192,93791,1,0,0:0:0:0:
109,192,93791,1,0,0:0:0:0:
182,192,93791,128,0,93867:0:0:0:0:
329,192,93791,128,0,93867:0:0:0:0:
109,192,93867,128,0,93905:0:0:0:0:
402,192,93867,128,0,93905:0:0:0:0:
36,192,93867,128,0,93905:0:0:0:0:
475,192,93867,128,0,93905:0:0:0:0:
329,192,93944,128,0,93982:0:0:0:0:
256,192,93944,128,0,93982:0:0:0:0:
182,192,93944,128,0,93982:0:0:0:0:
182,192,94020,1,0,0:0:0:0:
329,192,94020,1,0,0:0:0:0:
256,192,94097,128,0,94326:0:0:0:0:
109,192,94097,128,0,94326:0:0:0:0:
36,192,94097,128,0,94326:0:0:0:0:
402,192,94097,128,0,94326:0:0:0:0:
475,192,94097,128,0,94326:0:0:0:0:
329,192,94403,1,0,0:0:0:0:
256,192,94403,1,0,0:0:0:0:
182,192,94403,1,0,0:0:0:0:
36,192,94403,1,0,0:0:0:0:
182,192,94556,128,0,94594:0:0:0:0:
256,192,94556,128,0,94594:0:0:0:0:
329,192,94556,128,0,94594:0:0:0:0:
402,192,94556,128,0,94594:0:0:0:0:
475,192,94556,128,0,94594:0:0:0:0:
109,192,94556,128,0,94594:0:0:0:0:
475,192,94632,1,0,0:0:0:0:
36,192,94709,128,0,94747:0:0:0:0:
109,192,94709,128,0,94747:0:0:0:0:
182,192,94709,128,0,94747:0:0:0:0:
256,192,94709,128,0,94747:0:0:0:0:
329,192,94709,128,0,94747:0:0:0:0:
402,192,94709,128,0,94747:0:0:0:0:
36,192,94786,1,0,0:0:0:0:
182,192,94862,1,0,0:0:0:0:
329,192,94862,1,0,0:0:0:0:
402,192,94862,1,0,0:0:0:0:
475,192,94862,1,0,0:0:0:0:
475,192,95015,128,0,95053:0:0:0:0:
402,192,95015,128,0,95053:0:0:0:0:
329,192,95015,128,0,95053:0:0:0:0:
256,192,95015,128,0,95053:0:0:0:0:
182,192,95015,128,0,95053:0:0:0:0:
109,192,95015,128,0,95053:0:0:0:0:
36,192,95015,128,0,95053:0:0:0:0:
256,192,95092,1,0,0:0:0:0:
109,192,95168,1,0,0:0:0:0:
36,192,95168,1,0,0:0:0:0:
402,192,95168,1,0,0:0:0:0:
475,192,95168,1,0,0:0:0:0:
109,192,95321,1,0,0:0:0:0:
36,192,95321,1,0,0:0:0:0:
402,192,95321,1,0,0:0:0:0:
475,192,95321,1,0,0:0:0:0:
182,192,95474,128,0,95513:0:0:0:0:
109,192,95474,128,0,95513:0:0:0:0:
36,192,95474,128,0,95513:0:0:0:0:
256,192,95474,128,0,95513:0:0:0:0:
475,192,95474,128,0,95513:0:0:0:0:
402,192,95474,128,0,95513:0:0:0:0:
182,192,95551,1,0,0:0:0:0:
475,192,95627,128,0,95666:0:0:0:0:
402,192,95627,128,0,95666:0:0:0:0:
329,192,95627,128,0,95666:0:0:0:0:
256,192,95627,128,0,95666:0:0:0:0:
109,192,95627,128,0,95666:0:0:0:0:
36,192,95627,128,0,95666:0:0:0:0:
329,192,95704,1,0,0:0:0:0:
182,192,95780,1,0,0:0:0:0:
36,192,95780,1,0,0:0:0:0:
109,192,95780,1,0,0:0:0:0:
475,192,95780,1,0,0:0:0:0:
256,192,95933,128,0,95972:0:0:0:0:
182,192,95933,128,0,96546:0:0:0:0:
109,192,95933,128,0,96495:0:0:0:0:
36,192,95933,128,0,96444:0:0:0:0:
329,192,95933,128,0,96597:0:0:0:0:
402,192,95933,128,0,96648:0:0:0:0:
475,192,95933,128,0,96699:0:0:0:0:
256,192,96036,1,0,0:0:0:0:
256,192,96138,1,0,0:0:0:0:
256,192,96240,1,0,0:0:0:0:
256,192,96342,1,0,0:0:0:0:
256,192,96444,1,0,0:0:0:0:
36,192,96546,128,0,96801:0:0:0:0:
256,192,96546,128,0,96801:0:0:0:0:
109,192,96597,128,0,96801:0:0:0:0:
182,192,96648,128,0,96801:0:0:0:0:
329,192,96699,128,0,97158:0:0:0:0:
402,192,96750,128,0,97107:0:0:0:0:
475,192,96801,128,0,97056:0:0:0:0:
256,192,96852,1,0,0:0:0:0:
109,192,96852,1,0,0:0:0:0:
182,192,97005,128,0,97260:0:0:0:0:
256,192,97005,128,0,97362:0:0:0:0:
109,192,97056,128,0,97260:0:0:0:0:
36,192,97107,128,0,97260:0:0:0:0:
475,192,97158,128,0,97362:0:0:0:0:
402,192,97209,128,0,97362:0:0:0:0:
329,192,97260,128,0,97362:0:0:0:0:
182,192,97311,1,0,0:0:0:0:
36,192,97311,1,0,0:0:0:0:
109,192,97464,128,0,97668:0:0:0:0:
182,192,97464,128,0,97668:0:0:0:0:
256,192,97464,128,0,97668:0:0:0:0:
329,192,97464,128,0,97668:0:0:0:0:
402,192,97464,128,0,97668:0:0:0:0:
36,192,97770,128,0,98918:0:0:0:0:
109,192,97770,128,0,98421:0:0:0:0:
182,192,97770,128,0,98382:0:0:0:0:
256,192,97770,128,0,98344:0:0:0:0:
329,192,97770,128,0,98306:0:0:0:0:
402,192,97770,128,0,98459:0:0:0:0:
475,192,97770,128,0,98689:0:0:0:0:
329,192,98382,128,0,98497:0:0:0:0:
256,192,98421,128,0,98536:0:0:0:0:
182,192,98459,128,0,98574:0:0:0:0:
109,192,98497,128,0,98880:0:0:0:0:
402,192,98536,128,0,98612:0:0:0:0:
329,192,98574,128,0,98650:0:0:0:0:
256,192,98612,128,0,98689:0:0:0:0:
182,192,98650,128,0,98842:0:0:0:0:
402,192,98689,128,0,98727:0:0:0:0:
329,192,98727,128,0,98765:0:0:0:0:
256,192,98765,128,0,98803:0:0:0:0:
475,192,98803,1,0,0:0:0:0:
402,192,98842,1,0,0:0:0:0:
329,192,98880,1,0,0:0:0:0:
256,192,98918,1,0,0:0:0:0:
182,192,98995,128,0,100793:0:0:0:0:
109,192,98995,128,0,103854:0:0:0:0:
329,192,98995,128,0,100793:0:0:0:0:
402,192,98995,128,0,103854:0:0:0:0:
475,192,98995,128,0,101405:0:0:0:0:
36,192,98995,128,0,100793:0:0:0:0:
329,192,100831,128,0,101405:0:0:0:0:
182,192,100831,128,0,101405:0:0:0:0:
36,192,100831,128,0,103854:0:0:0:0:
475,192,101444,128,0,103854:0:0:0:0:
329,192,101444,128,0,103854:0:0:0:0:
182,192,101444,128,0,103854:0:0:0:0:
182,192,104027,128,0,104486:0:0:0:0:
256,192,104033,128,0,104135:0:0:0:0:
329,192,104039,128,0,104141:0:0:0:0:
402,192,104046,128,0,104148:0:0:0:0:
402,192,104186,128,0,104288:0:0:0:0:
329,192,104192,128,0,104294:0:0:0:0:
256,192,104199,128,0,104301:0:0:0:0:
256,192,104339,128,0,104479:0:0:0:0:
329,192,104345,128,0,104473:0:0:0:0:
402,192,104352,128,0,104467:0:0:0:0:
329,192,104639,128,0,105098:0:0:0:0:
256,192,104645,128,0,104747:0:0:0:0:
182,192,104652,128,0,104754:0:0:0:0:
109,192,104658,128,0,104760:0:0:0:0:
109,192,104798,128,0,104900:0:0:0:0:
182,192,104805,128,0,104907:0:0:0:0:
256,192,104811,128,0,104913:0:0:0:0:
256,192,104951,128,0,105092:0:0:0:0:
182,192,104958,128,0,105085:0:0:0:0:
109,192,104964,128,0,105079:0:0:0:0:
182,192,105251,128,0,105710:0:0:0:0:
256,192,105257,128,0,105359:0:0:0:0:
329,192,105264,128,0,105366:0:0:0:0:
402,192,105270,128,0,105372:0:0:0:0:
402,192,105411,128,0,105513:0:0:0:0:
329,192,105417,128,0,105519:0:0:0:0:
256,192,105423,128,0,105525:0:0:0:0:
256,192,105564,128,0,105704:0:0:0:0:
329,192,105570,128,0,105697:0:0:0:0:
402,192,105576,128,0,105691:0:0:0:0:
256,192,105863,128,0,106322:0:0:0:0:
182,192,105870,128,0,105972:0:0:0:0:
329,192,105870,128,0,105972:0:0:0:0:
109,192,105876,128,0,105978:0:0:0:0:
402,192,105876,128,0,105978:0:0:0:0:
36,192,105882,128,0,105984:0:0:0:0:
475,192,105882,128,0,105984:0:0:0:0:
36,192,106023,128,0,106125:0:0:0:0:
475,192,106023,128,0,106125:0:0:0:0:
109,192,106029,128,0,106131:0:0:0:0:
402,192,106029,128,0,106131:0:0:0:0:
182,192,106036,128,0,106138:0:0:0:0:
329,192,106036,128,0,106138:0:0:0:0:
329,192,106176,128,0,106316:0:0:0:0:
182,192,106176,128,0,106316:0:0:0:0:
109,192,106182,128,0,106310:0:0:0:0:
402,192,106182,128,0,106308:0:0:0:0:
36,192,106189,128,0,106303:0:0:0:0:
475,192,106189,128,0,106303:0:0:0:0:
402,192,106476,128,0,106935:0:0:0:0:
329,192,106482,128,0,106584:0:0:0:0:
256,192,106488,128,0,106590:0:0:0:0:
182,192,106495,128,0,106597:0:0:0:0:
182,192,106635,128,0,106737:0:0:0:0:
256,192,106641,128,0,106743:0:0:0:0:
329,192,106648,128,0,106750:0:0:0:0:
329,192,106788,128,0,106928:0:0:0:0:
256,192,106794,128,0,106922:0:0:0:0:
182,192,106801,128,0,106916:0:0:0:0:
109,192,107088,128,0,107547:0:0:0:0:
182,192,107094,128,0,107196:0:0:0:0:
256,192,107101,128,0,107203:0:0:0:0:
329,192,107107,128,0,107209:0:0:0:0:
329,192,107247,128,0,107349:0:0:0:0:
256,192,107254,128,0,107356:0:0:0:0:
182,192,107260,128,0,107362:0:0:0:0:
182,192,107400,128,0,107541:0:0:0:0:
256,192,107407,128,0,107534:0:0:0:0:
329,192,107413,128,0,107528:0:0:0:0:
36,192,107719,128,0,107834:0:0:0:0:
109,192,107719,128,0,107834:0:0:0:0:
182,192,107719,128,0,107834:0:0:0:0:
329,192,107719,128,0,107834:0:0:0:0:
402,192,107719,128,0,107834:0:0:0:0:
475,192,107719,128,0,107834:0:0:0:0:
182,192,107872,128,0,107987:0:0:0:0:
109,192,107872,128,0,107987:0:0:0:0:
36,192,107872,128,0,107987:0:0:0:0:
329,192,107872,128,0,107987:0:0:0:0:
402,192,107872,128,0,107987:0:0:0:0:
475,192,107872,128,0,107987:0:0:0:0:
475,192,108025,128,0,108140:0:0:0:0:
402,192,108025,128,0,108140:0:0:0:0:
329,192,108025,128,0,108140:0:0:0:0:
182,192,108025,128,0,108140:0:0:0:0:
109,192,108025,128,0,108140:0:0:0:0:
36,192,108025,128,0,108140:0:0:0:0:
36,192,108331,128,0,108370:0:0:0:0:
475,192,108331,128,0,108370:0:0:0:0:
109,192,108351,1,0,0:0:0:0:
402,192,108351,1,0,0:0:0:0:
475,192,108484,128,0,108523:0:0:0:0:
36,192,108484,128,0,108523:0:0:0:0:
109,192,108504,1,0,0:0:0:0:
402,192,108504,1,0,0:0:0:0:
36,192,108638,128,0,108676:0:0:0:0:
475,192,108638,128,0,108676:0:0:0:0:
109,192,108657,1,0,0:0:0:0:
402,192,108657,1,0,0:0:0:0:
36,192,108791,128,0,108905:0:0:0:0:
109,192,108791,128,0,108905:0:0:0:0:
182,192,108791,128,0,108905:0:0:0:0:
256,192,108791,128,0,108905:0:0:0:0:
402,192,108791,128,0,109058:0:0:0:0:
475,192,108791,128,0,109058:0:0:0:0:
329,192,108791,128,0,109058:0:0:0:0:
256,192,108944,128,0,109058:0:0:0:0:
182,192,108944,1,0,0:0:0:0:
109,192,108944,1,0,0:0:0:0:
36,192,108944,1,0,0:0:0:0:
256,192,109097,1,0,0:0:0:0:
475,192,109097,128,0,109212:0:0:0:0:
329,192,109097,128,0,109212:0:0:0:0:
402,192,109097,128,0,109212:0:0:0:0:
402,192,109403,128,0,109824:0:0:0:0:
256,192,109403,1,0,0:0:0:0:
182,192,109403,128,0,109441:0:0:0:0:
109,192,109403,128,0,109518:0:0:0:0:
329,192,109441,128,0,109518:0:0:0:0:
256,192,109479,128,0,109518:0:0:0:0:
182,192,109556,128,0,109671:0:0:0:0:
36,192,109556,128,0,109671:0:0:0:0:
109,192,109594,128,0,109632:0:0:0:0:
109,192,109709,128,0,109824:0:0:0:0:
182,192,109747,128,0,109824:0:0:0:0:
256,192,109786,128,0,109824:0:0:0:0:
475,192,109862,128,0,109977:0:0:0:0:
329,192,109862,128,0,109977:0:0:0:0:
402,192,109862,1,0,0:0:0:0:
475,192,110015,1,0,0:0:0:0:
329,192,110015,1,0,0:0:0:0:
36,192,110015,1,0,0:0:0:0:
182,192,110015,1,0,0:0:0:0:
402,192,110015,128,0,110283:0:0:0:0:
109,192,110015,128,0,110359:0:0:0:0:
256,192,110015,128,0,110053:0:0:0:0:
256,192,110092,1,0,0:0:0:0:
36,192,110168,128,0,110513:0:0:0:0:
329,192,110168,128,0,110436:0:0:0:0:
182,192,110168,128,0,110206:0:0:0:0:
402,192,110321,1,0,0:0:0:0:
475,192,110321,1,0,0:0:0:0:
256,192,110321,128,0,110589:0:0:0:0:
109,192,110398,1,0,0:0:0:0:
182,192,110398,1,0,0:0:0:0:
329,192,110474,1,0,0:0:0:0:
402,192,110474,1,0,0:0:0:0:
182,192,110513,128,0,110589:0:0:0:0:
109,192,110551,128,0,110589:0:0:0:0:
36,192,110551,128,0,110589:0:0:0:0:
256,192,110627,128,0,110704:0:0:0:0:
329,192,110627,128,0,110666:0:0:0:0:
182,192,110627,128,0,110742:0:0:0:0:
475,192,110627,1,0,0:0:0:0:
402,192,110666,1,0,0:0:0:0:
329,192,110704,1,0,0:0:0:0:
182,192,110780,1,0,0:0:0:0:
475,192,110780,128,0,110857:0:0:0:0:
109,192,110819,1,0,0:0:0:0:
36,192,110857,1,0,0:0:0:0:
36,192,110933,128,0,110984:0:0:0:0:
329,192,110933,1,0,0:0:0:0:
329,192,110984,1,0,0:0:0:0:
109,192,111087,1,0,0:0:0:0:
402,192,111163,1,0,0:0:0:0:
182,192,111240,128,0,111431:0:0:0:0:
36,192,111240,128,0,111354:0:0:0:0:
256,192,111240,128,0,111354:0:0:0:0:
329,192,111240,128,0,111431:0:0:0:0:
475,192,111240,128,0,111354:0:0:0:0:
256,192,111393,128,0,111431:0:0:0:0:
402,192,111546,128,0,111584:0:0:0:0:
256,192,111565,128,0,111603:0:0:0:0:
109,192,111584,128,0,111622:0:0:0:0:
402,192,111622,1,0,0:0:0:0:
256,192,111641,1,0,0:0:0:0:
109,192,111661,1,0,0:0:0:0:
402,192,111699,1,0,0:0:0:0:
475,192,111775,1,0,0:0:0:0:
256,192,111775,128,0,111814:0:0:0:0:
182,192,111775,128,0,111814:0:0:0:0:
329,192,111775,1,0,0:0:0:0:
109,192,111852,1,0,0:0:0:0:
402,192,111852,1,0,0:0:0:0:
36,192,111928,1,0,0:0:0:0:
182,192,111928,1,0,0:0:0:0:
109,192,112005,1,0,0:0:0:0:
475,192,112005,128,0,112426:0:0:0:0:
402,192,112005,128,0,112426:0:0:0:0:
329,192,112005,128,0,112426:0:0:0:0:
256,192,112005,128,0,112043:0:0:0:0:
256,192,112081,1,0,0:0:0:0:
182,192,112158,128,0,112311:0:0:0:0:
109,192,112158,128,0,112311:0:0:0:0:
36,192,112158,128,0,112311:0:0:0:0:
402,192,112464,1,0,0:0:0:0:
475,192,112464,1,0,0:0:0:0:
329,192,112464,1,0,0:0:0:0:
256,192,112464,1,0,0:0:0:0:
36,192,112464,1,0,0:0:0:0:
182,192,112464,1,0,0:0:0:0:
109,192,112464,128,0,112655:0:0:0:0:
36,192,112617,128,0,112655:0:0:0:0:
329,192,112617,128,0,112732:0:0:0:0:
256,192,112617,128,0,112885:0:0:0:0:
182,192,112617,128,0,112655:0:0:0:0:
182,192,112770,128,0,112885:0:0:0:0:
329,192,112770,128,0,112808:0:0:0:0:
402,192,112770,128,0,112808:0:0:0:0:
475,192,112770,128,0,112808:0:0:0:0:
182,192,112923,1,0,0:0:0:0:
329,192,112923,128,0,113000:0:0:0:0:
402,192,112923,128,0,113000:0:0:0:0:
475,192,112923,128,0,113000:0:0:0:0:
256,192,112923,1,0,0:0:0:0:
36,192,112949,128,0,113076:0:0:0:0:
109,192,112974,128,0,113076:0:0:0:0:
182,192,113000,128,0,113076:0:0:0:0:
109,192,113229,1,0,0:0:0:0:
36,192,113229,1,0,0:0:0:0:
475,192,113229,1,0,0:0:0:0:
402,192,113229,1,0,0:0:0:0:
182,192,113229,128,0,113306:0:0:0:0:
256,192,113229,128,0,113306:0:0:0:0:
329,192,113229,128,0,113306:0:0:0:0:
256,192,113382,1,0,0:0:0:0:
182,192,113382,128,0,113459:0:0:0:0:
109,192,113382,128,0,113459:0:0:0:0:
36,192,113382,128,0,113459:0:0:0:0:
475,192,113382,128,0,113536:0:0:0:0:
329,192,113382,1,0,0:0:0:0:
329,192,113459,128,0,113536:0:0:0:0:
402,192,113536,128,0,113689:0:0:0:0:
256,192,113536,128,0,113689:0:0:0:0:
109,192,113536,128,0,113689:0:0:0:0:
329,192,113689,1,0,0:0:0:0:
182,192,113689,128,0,113727:0:0:0:0:
36,192,113689,128,0,113803:0:0:0:0:
475,192,113727,1,0,0:0:0:0:
182,192,113765,1,0,0:0:0:0:
256,192,113784,1,0,0:0:0:0:
329,192,113803,1,0,0:0:0:0:
36,192,113842,1,0,0:0:0:0:
182,192,113880,1,0,0:0:0:0:
402,192,113918,1,0,0:0:0:0:
475,192,113995,128,0,114109:0:0:0:0:
329,192,113995,128,0,114109:0:0:0:0:
109,192,114033,1,0,0:0:0:0:
256,192,114071,1,0,0:0:0:0:
109,192,114109,1,0,0:0:0:0:
329,192,114148,1,0,0:0:0:0:
36,192,114224,1,0,0:0:0:0:
329,192,114301,128,0,114352:0:0:0:0:
256,192,114301,128,0,114607:0:0:0:0:
182,192,114352,128,0,114403:0:0:0:0:
329,192,114403,128,0,114454:0:0:0:0:
182,192,114454,128,0,114505:0:0:0:0:
329,192,114505,128,0,114607:0:0:0:0:
182,192,114556,128,0,114607:0:0:0:0:
109,192,114607,1,0,0:0:0:0:
36,192,114607,1,0,0:0:0:0:
402,192,114607,1,0,0:0:0:0:
475,192,114607,1,0,0:0:0:0:
256,192,114760,1,0,0:0:0:0:
109,192,114913,128,0,114951:0:0:0:0:
36,192,114913,128,0,114951:0:0:0:0:
256,192,114913,128,0,114951:0:0:0:0:
182,192,114913,128,0,114951:0:0:0:0:
475,192,114913,128,0,115219:0:0:0:0:
329,192,114913,128,0,115181:0:0:0:0:
402,192,114913,1,0,0:0:0:0:
182,192,115066,128,0,115296:0:0:0:0:
109,192,115066,128,0,115296:0:0:0:0:
36,192,115066,128,0,115296:0:0:0:0:
329,192,115219,1,0,0:0:0:0:
475,192,115257,1,0,0:0:0:0:
256,192,115296,1,0,0:0:0:0:
402,192,115334,1,0,0:0:0:0:
256,192,115372,128,0,115525:0:0:0:0:
182,192,115372,128,0,115525:0:0:0:0:
109,192,115372,128,0,115525:0:0:0:0:
36,192,115372,128,0,115525:0:0:0:0:
329,192,115372,128,0,115525:0:0:0:0:
329,192,115678,1,0,0:0:0:0:
256,192,115678,1,0,0:0:0:0:
182,192,115678,1,0,0:0:0:0:
36,192,115678,1,0,0:0:0:0:
109,192,115678,1,0,0:0:0:0:
36,192,115831,128,0,115984:0:0:0:0:
109,192,115831,128,0,115984:0:0:0:0:
182,192,115831,128,0,115984:0:0:0:0:
329,192,115831,128,0,115984:0:0:0:0:
256,192,115831,128,0,115984:0:0:0:0:
329,192,116061,1,0,0:0:0:0:
402,192,116099,1,0,0:0:0:0:
475,192,116138,128,0,116252:0:0:0:0:
256,192,116291,128,0,117400:0:0:0:0:
402,192,116291,128,0,116329:0:0:0:0:
109,192,116329,1,0,0:0:0:0:
182,192,116329,1,0,0:0:0:0:
402,192,116367,1,0,0:0:0:0:
329,192,116444,128,0,116482:0:0:0:0:
36,192,116482,1,0,0:0:0:0:
109,192,116482,1,0,0:0:0:0:
329,192,116520,1,0,0:0:0:0:
182,192,116597,128,0,116635:0:0:0:0:
475,192,116635,1,0,0:0:0:0:
402,192,116635,1,0,0:0:0:0:
182,192,116673,1,0,0:0:0:0:
109,192,116750,128,0,116788:0:0:0:0:
402,192,116788,1,0,0:0:0:0:
329,192,116788,1,0,0:0:0:0:
109,192,116826,1,0,0:0:0:0:
36,192,116903,128,0,116941:0:0:0:0:
329,192,116941,1,0,0:0:0:0:
182,192,116979,128,0,117056:0:0:0:0:
36,192,116979,1,0,0:0:0:0:
182,192,117362,128,0,117400:0:0:0:0:
36,192,117362,128,0,117400:0:0:0:0:
109,192,117362,128,0,117400:0:0:0:0:
329,192,117362,128,0,117400:0:0:0:0:
402,192,117362,128,0,117400:0:0:0:0:
475,192,117362,128,0,117400:0:0:0:0:
256,192,117439,1,0,0:0:0:0:
36,192,117515,128,0,117668:0:0:0:0:
182,192,117515,128,0,117553:0:0:0:0:
329,192,117553,128,0,117592:0:0:0:0:
182,192,117592,1,0,0:0:0:0:
329,192,117630,1,0,0:0:0:0:
109,192,117668,128,0,117821:0:0:0:0:
256,192,117668,128,0,117821:0:0:0:0:
402,192,117668,128,0,117783:0:0:0:0:
182,192,117821,128,0,117936:0:0:0:0:
329,192,117821,128,0,117936:0:0:0:0:
475,192,117821,128,0,118013:0:0:0:0:
402,192,117821,1,0,0:0:0:0:
402,192,117974,128,0,118013:0:0:0:0:
329,192,117974,128,0,118013:0:0:0:0:
182,192,117974,128,0,118013:0:0:0:0:
36,192,117974,128,0,118127:0:0:0:0:
109,192,117974,128,0,118395:0:0:0:0:
256,192,117974,128,0,118127:0:0:0:0:
475,192,118127,1,0,0:0:0:0:
182,192,118127,128,0,118395:0:0:0:0:
329,192,118127,128,0,118395:0:0:0:0:
402,192,118127,128,0,118395:0:0:0:0:
256,192,118280,128,0,118395:0:0:0:0:
36,192,118280,128,0,118395:0:0:0:0:
475,192,118280,128,0,118395:0:0:0:0:
36,192,118433,1,0,0:0:0:0:
475,192,118433,1,0,0:0:0:0:
329,192,118433,1,0,0:0:0:0:
256,192,118433,1,0,0:0:0:0:
182,192,118433,1,0,0:0:0:0:
182,192,118587,1,0,0:0:0:0:
109,192,118587,1,0,0:0:0:0:
36,192,118587,1,0,0:0:0:0:
329,192,118587,1,0,0:0:0:0:
475,192,118587,1,0,0:0:0:0:
402,192,118587,1,0,0:0:0:0:
256,192,118625,128,0,118701:0:0:0:0:
182,192,118740,1,0,0:0:0:0:
109,192,118740,1,0,0:0:0:0:
36,192,118740,1,0,0:0:0:0:
475,192,118740,1,0,0:0:0:0:
402,192,118740,1,0,0:0:0:0:
329,192,118740,1,0,0:0:0:0:
256,192,118893,1,0,0:0:0:0:
182,192,118944,1,0,0:0:0:0:
256,192,118995,1,0,0:0:0:0:
329,192,119046,1,0,0:0:0:0:
475,192,119046,128,0,119773:0:0:0:0:
329,192,119122,1,0,0:0:0:0:
256,192,119161,1,0,0:0:0:0:
182,192,119199,1,0,0:0:0:0:
36,192,119199,1,0,0:0:0:0:
109,192,119199,1,0,0:0:0:0:
402,192,119199,128,0,119773:0:0:0:0:
256,192,119352,128,0,119620:0:0:0:0:
109,192,119352,128,0,119505:0:0:0:0:
182,192,119352,128,0,119505:0:0:0:0:
256,192,119658,1,0,0:0:0:0:
402,192,119811,1,0,0:0:0:0:
329,192,119811,1,0,0:0:0:0:
256,192,119811,1,0,0:0:0:0:
182,192,119811,1,0,0:0:0:0:
109,192,119811,1,0,0:0:0:0:
36,192,119811,1,0,0:0:0:0:
475,192,119811,1,0,0:0:0:0:
36,192,119888,128,0,119926:0:0:0:0:
109,192,119888,128,0,119926:0:0:0:0:
182,192,119888,128,0,119926:0:0:0:0:
256,192,119888,128,0,120079:0:0:0:0:
329,192,119964,1,0,0:0:0:0:
402,192,119964,1,0,0:0:0:0:
475,192,119964,1,0,0:0:0:0:
329,192,120041,128,0,120079:0:0:0:0:
402,192,120041,128,0,120079:0:0:0:0:
475,192,120041,128,0,120079:0:0:0:0:
109,192,120117,1,0,0:0:0:0:
182,192,120117,128,0,120194:0:0:0:0:
256,192,120155,1,0,0:0:0:0:
402,192,120194,1,0,0:0:0:0:
36,192,120270,1,0,0:0:0:0:
109,192,120270,128,0,120347:0:0:0:0:
182,192,120308,1,0,0:0:0:0:
329,192,120347,1,0,0:0:0:0:
36,192,120423,1,0,0:0:0:0:
256,192,120423,1,0,0:0:0:0:
475,192,120423,128,0,120729:0:0:0:0:
329,192,120500,1,0,0:0:0:0:
109,192,120576,128,0,120768:0:0:0:0:
182,192,120595,128,0,120653:0:0:0:0:
256,192,120615,128,0,120672:0:0:0:0:
329,192,120634,128,0,120691:0:0:0:0:
402,192,120653,128,0,120710:0:0:0:0:
182,192,120729,128,0,120768:0:0:0:0:
36,192,120729,128,0,121036:0:0:0:0:
182,192,120806,1,0,0:0:0:0:
475,192,120882,128,0,120921:0:0:0:0:
329,192,120882,128,0,121036:0:0:0:0:
475,192,120959,1,0,0:0:0:0:
256,192,121036,1,0,0:0:0:0:
182,192,121036,1,0,0:0:0:0:
109,192,121036,1,0,0:0:0:0:
402,192,121036,128,0,121342:0:0:0:0:
256,192,121112,128,0,121342:0:0:0:0:
109,192,121112,128,0,121342:0:0:0:0:
182,192,121112,128,0,121227:0:0:0:0:
475,192,121150,1,0,0:0:0:0:
329,192,121189,1,0,0:0:0:0:
36,192,121227,128,0,121265:0:0:0:0:
475,192,121265,128,0,121342:0:0:0:0:
182,192,121303,1,0,0:0:0:0:
36,192,121342,1,0,0:0:0:0:
329,192,121418,1,0,0:0:0:0:
36,192,121495,1,0,0:0:0:0:
329,192,121571,1,0,0:0:0:0:
109,192,121648,128,0,121686:0:0:0:0:
256,192,121648,128,0,121686:0:0:0:0:
109,192,121724,1,0,0:0:0:0:
402,192,121801,1,0,0:0:0:0:
256,192,121839,1,0,0:0:0:0:
109,192,121877,1,0,0:0:0:0:
256,192,121916,1,0,0:0:0:0:
329,192,121954,128,0,122030:0:0:0:0:
475,192,121954,128,0,122107:0:0:0:0:
182,192,122030,1,0,0:0:0:0:
402,192,122107,1,0,0:0:0:0:
329,192,122126,1,0,0:0:0:0:
256,192,122145,1,0,0:0:0:0:
182,192,122164,1,0,0:0:0:0:
109,192,122183,1,0,0:0:0:0:
329,192,122260,1,0,0:0:0:0:
402,192,122260,1,0,0:0:0:0:
475,192,122260,1,0,0:0:0:0:
36,192,122260,128,0,122872:0:0:0:0:
182,192,122298,1,0,0:0:0:0:
475,192,122337,128,0,122413:0:0:0:0:
109,192,122413,1,0,0:0:0:0:
256,192,122413,1,0,0:0:0:0:
182,192,122413,1,0,0:0:0:0:
402,192,122451,1,0,0:0:0:0:
109,192,122490,128,0,122566:0:0:0:0:
475,192,122566,128,0,122949:0:0:0:0:
329,192,122566,128,0,122604:0:0:0:0:
402,192,122566,128,0,122604:0:0:0:0:
256,192,122566,128,0,122604:0:0:0:0:
109,192,122643,128,0,122834:0:0:0:0:
256,192,122719,1,0,0:0:0:0:
329,192,122719,1,0,0:0:0:0:
402,192,122719,1,0,0:0:0:0:
182,192,122757,128,0,122796:0:0:0:0:
402,192,122796,128,0,122949:0:0:0:0:
182,192,122872,128,0,123102:0:0:0:0:
109,192,122911,128,0,123102:0:0:0:0:
36,192,122949,128,0,123102:0:0:0:0:
329,192,123025,1,0,0:0:0:0:
402,192,123025,1,0,0:0:0:0:
475,192,123025,1,0,0:0:0:0:
256,192,123064,1,0,0:0:0:0:
329,192,123102,128,0,123178:0:0:0:0:
182,192,123178,1,0,0:0:0:0:
109,192,123178,1,0,0:0:0:0:
256,192,123178,1,0,0:0:0:0:
36,192,123178,1,0,0:0:0:0:
36,192,123255,1,0,0:0:0:0:
109,192,123255,1,0,0:0:0:0:
256,192,123331,128,0,123370:0:0:0:0:
329,192,123331,128,0,123370:0:0:0:0:
402,192,123331,128,0,123370:0:0:0:0:
109,192,123408,1,0,0:0:0:0:
475,192,123484,128,0,123714:0:0:0:0:
402,192,123484,128,0,123523:0:0:0:0:
329,192,123484,1,0,0:0:0:0:
182,192,123523,128,0,123638:0:0:0:0:
109,192,123523,128,0,123599:0:0:0:0:
36,192,123523,128,0,123561:0:0:0:0:
256,192,123561,128,0,123638:0:0:0:0:
329,192,123599,128,0,123638:0:0:0:0:
36,192,123638,1,0,0:0:0:0:
402,192,123676,128,0,123714:0:0:0:0:
329,192,123714,1,0,0:0:0:0:
36,192,123791,128,0,124020:0:0:0:0:
109,192,123791,128,0,123829:0:0:0:0:
182,192,123791,1,0,0:0:0:0:
402,192,123829,128,0,123905:0:0:0:0:
329,192,123829,128,0,123944:0:0:0:0:
475,192,123829,128,0,123867:0:0:0:0:
256,192,123867,128,0,123944:0:0:0:0:
182,192,123905,128,0,123944:0:0:0:0:
475,192,123944,1,0,0:0:0:0:
109,192,123982,128,0,124020:0:0:0:0:
182,192,124020,1,0,0:0:0:0:
402,192,124097,128,0,124135:0:0:0:0:
475,192,124097,128,0,124135:0:0:0:0:
256,192,124135,128,0,124173:0:0:0:0:
109,192,124173,128,0,124212:0:0:0:0:
36,192,124173,128,0,124212:0:0:0:0:
402,192,124250,1,0,0:0:0:0:
109,192,124326,1,0,0:0:0:0:
329,192,124403,1,0,0:0:0:0:
402,192,124403,1,0,0:0:0:0:
475,192,124403,1,0,0:0:0:0:
182,192,124403,1,0,0:0:0:0:
36,192,124479,1,0,0:0:0:0:
475,192,124556,1,0,0:0:0:0:
402,192,124556,1,0,0:0:0:0:
329,192,124556,1,0,0:0:0:0:
182,192,124556,1,0,0:0:0:0:
36,192,124632,1,0,0:0:0:0:
109,192,124709,1,0,0:0:0:0:
182,192,124709,1,0,0:0:0:0:
329,192,124709,128,0,124900:0:0:0:0:
402,192,124709,128,0,124900:0:0:0:0:
475,192,124709,128,0,124900:0:0:0:0:
256,192,124709,128,0,124747:0:0:0:0:
256,192,124786,1,0,0:0:0:0:
109,192,124862,128,0,125053:0:0:0:0:
36,192,124862,128,0,125359:0:0:0:0:
402,192,124939,1,0,0:0:0:0:
329,192,125015,128,0,125053:0:0:0:0:
256,192,125015,128,0,125053:0:0:0:0:
182,192,125015,128,0,125053:0:0:0:0:
256,192,125092,1,0,0:0:0:0:
402,192,125130,1,0,0:0:0:0:
475,192,125168,1,0,0:0:0:0:
182,192,125168,128,0,125245:0:0:0:0:
109,192,125168,128,0,125245:0:0:0:0:
402,192,125245,128,0,125283:0:0:0:0:
329,192,125245,128,0,125283:0:0:0:0:
475,192,125245,128,0,125589:0:0:0:0:
182,192,125283,128,0,125436:0:0:0:0:
256,192,125321,128,0,125436:0:0:0:0:
329,192,125359,128,0,125436:0:0:0:0:
36,192,125398,1,0,0:0:0:0:
329,192,125474,128,0,125589:0:0:0:0:
182,192,125474,128,0,125513:0:0:0:0:
256,192,125474,128,0,125513:0:0:0:0:
36,192,125513,128,0,125666:0:0:0:0:
109,192,125551,128,0,125666:0:0:0:0:
182,192,125589,128,0,125666:0:0:0:0:
329,192,125627,128,0,125704:0:0:0:0:
402,192,125627,128,0,125666:0:0:0:0:
475,192,125627,1,0,0:0:0:0:
256,192,125666,128,0,125704:0:0:0:0:
182,192,125704,1,0,0:0:0:0:
402,192,125780,1,0,0:0:0:0:
36,192,125857,1,0,0:0:0:0:
109,192,125895,1,0,0:0:0:0:
182,192,125933,1,0,0:0:0:0:
329,192,125933,1,0,0:0:0:0:
402,192,125933,128,0,126087:0:0:0:0:
475,192,125933,128,0,126087:0:0:0:0:
256,192,125933,1,0,0:0:0:0:
36,192,126010,1,0,0:0:0:0:
182,192,126087,128,0,126163:0:0:0:0:
256,192,126087,128,0,126125:0:0:0:0:
329,192,126087,1,0,0:0:0:0:
109,192,126125,128,0,126163:0:0:0:0:
36,192,126163,1,0,0:0:0:0:
256,192,126240,128,0,126278:0:0:0:0:
402,192,126240,128,0,126278:0:0:0:0:
109,192,126316,1,0,0:0:0:0:
256,192,126393,128,0,126431:0:0:0:0:
402,192,126393,128,0,126431:0:0:0:0:
109,192,126469,1,0,0:0:0:0:
256,192,126546,128,0,126852:0:0:0:0:
402,192,126546,128,0,126584:0:0:0:0:
109,192,126622,1,0,0:0:0:0:
329,192,126699,128,0,126852:0:0:0:0:
475,192,126699,128,0,126737:0:0:0:0:
182,192,126775,1,0,0:0:0:0:
402,192,126852,128,0,126903:0:0:0:0:
475,192,126852,128,0,126903:0:0:0:0:
36,192,126903,1,0,0:0:0:0:
256,192,126903,1,0,0:0:0:0:
402,192,126954,128,0,127005:0:0:0:0:
475,192,126954,128,0,127005:0:0:0:0:
109,192,127005,1,0,0:0:0:0:
256,192,127005,1,0,0:0:0:0:
402,192,127056,128,0,127107:0:0:0:0:
475,192,127056,128,0,127107:0:0:0:0:
182,192,127107,1,0,0:0:0:0:
256,192,127107,1,0,0:0:0:0:
109,192,127158,1,0,0:0:0:0:
36,192,127158,1,0,0:0:0:0:
329,192,127158,1,0,0:0:0:0:
402,192,127158,1,0,0:0:0:0:
475,192,127158,1,0,0:0:0:0:
109,192,127311,128,0,127426:0:0:0:0:
36,192,127311,128,0,127426:0:0:0:0:
256,192,127311,128,0,127732:0:0:0:0:
402,192,127311,1,0,0:0:0:0:
182,192,127311,1,0,0:0:0:0:
182,192,127464,128,0,127579:0:0:0:0:
329,192,127464,128,0,127579:0:0:0:0:
402,192,127617,128,0,127732:0:0:0:0:
475,192,127617,128,0,127732:0:0:0:0:
109,192,127617,1,0,0:0:0:0:
329,192,127617,1,0,0:0:0:0:
182,192,127770,1,0,0:0:0:0:
36,192,127770,1,0,0:0:0:0:
256,192,127770,1,0,0:0:0:0:
475,192,127770,1,0,0:0:0:0:
402,192,127770,1,0,0:0:0:0:
329,192,127847,1,0,0:0:0:0:
182,192,127923,128,0,127962:0:0:0:0:
109,192,127923,128,0,127962:0:0:0:0:
36,192,127923,128,0,128268:0:0:0:0:
329,192,128000,1,0,0:0:0:0:
402,192,128000,1,0,0:0:0:0:
182,192,128076,1,0,0:0:0:0:
329,192,128153,1,0,0:0:0:0:
109,192,128229,128,0,128268:0:0:0:0:
182,192,128229,128,0,128268:0:0:0:0:
256,192,128229,128,0,128268:0:0:0:0:
329,192,128306,1,0,0:0:0:0:
109,192,128382,1,0,0:0:0:0:
36,192,128382,1,0,0:0:0:0:
475,192,128382,128,0,128612:0:0:0:0:
182,192,128382,1,0,0:0:0:0:
256,192,128382,128,0,128561:0:0:0:0:
36,192,128459,1,0,0:0:0:0:
182,192,128536,128,0,128587:0:0:0:0:
109,192,128561,128,0,128714:0:0:0:0:
402,192,128587,128,0,128638:0:0:0:0:
329,192,128612,128,0,128803:0:0:0:0:
475,192,128689,1,0,0:0:0:0:
256,192,128689,128,0,128803:0:0:0:0:
109,192,128765,1,0,0:0:0:0:
182,192,128765,128,0,128803:0:0:0:0:
36,192,128765,128,0,129148:0:0:0:0:
182,192,128842,1,0,0:0:0:0:
329,192,128842,1,0,0:0:0:0:
475,192,128918,1,0,0:0:0:0:
256,192,128995,128,0,129033:0:0:0:0:
109,192,128995,128,0,129148:0:0:0:0:
182,192,128995,128,0,129109:0:0:0:0:
256,192,129071,1,0,0:0:0:0:
402,192,129148,1,0,0:0:0:0:
256,192,129186,1,0,0:0:0:0:
109,192,129224,1,0,0:0:0:0:
329,192,129301,1,0,0:0:0:0:
475,192,129301,1,0,0:0:0:0:
182,192,129377,1,0,0:0:0:0:
329,192,129454,1,0,0:0:0:0:
256,192,129454,128,0,129798:0:0:0:0:
182,192,129530,1,0,0:0:0:0:
109,192,129607,1,0,0:0:0:0:
36,192,129607,1,0,0:0:0:0:
329,192,129607,128,0,129645:0:0:0:0:
402,192,129607,128,0,129645:0:0:0:0:
475,192,129607,128,0,129645:0:0:0:0:
402,192,129683,1,0,0:0:0:0:
182,192,129760,128,0,129798:0:0:0:0:
109,192,129760,128,0,129798:0:0:0:0:
36,192,129760,128,0,129798:0:0:0:0:
402,192,129837,1,0,0:0:0:0:
36,192,129913,1,0,0:0:0:0:
182,192,129913,128,0,130066:0:0:0:0:
256,192,129951,128,0,129990:0:0:0:0:
329,192,129990,1,0,0:0:0:0:
475,192,129990,128,0,130066:0:0:0:0:
36,192,130066,1,0,0:0:0:0:
329,192,130066,128,0,130219:0:0:0:0:
256,192,130104,128,0,130143:0:0:0:0:
182,192,130143,1,0,0:0:0:0:
475,192,130143,128,0,130219:0:0:0:0:
109,192,130219,128,0,130334:0:0:0:0:
256,192,130257,128,0,130334:0:0:0:0:
402,192,130296,128,0,130334:0:0:0:0:
182,192,130372,1,0,0:0:0:0:
256,192,130391,1,0,0:0:0:0:
402,192,130411,1,0,0:0:0:0:
475,192,130430,1,0,0:0:0:0:
329,192,130449,128,0,130525:0:0:0:0:
36,192,130525,1,0,0:0:0:0:
109,192,130576,128,0,130678:0:0:0:0:
329,192,130602,1,0,0:0:0:0:
182,192,130602,128,0,130678:0:0:0:0:
475,192,130678,1,0,0:0:0:0:
402,192,130729,128,0,130831:0:0:0:0:
182,192,130755,1,0,0:0:0:0:
329,192,130755,128,0,130831:0:0:0:0:
36,192,130831,1,0,0:0:0:0:
475,192,130831,1,0,0:0:0:0:
109,192,130831,128,0,131138:0:0:0:0:
256,192,130831,1,0,0:0:0:0:
402,192,130908,128,0,130984:0:0:0:0:
256,192,130946,128,0,131023:0:0:0:0:
36,192,130984,128,0,131061:0:0:0:0:
475,192,131023,128,0,131061:0:0:0:0:
329,192,131061,128,0,131099:0:0:0:0:
182,192,131099,128,0,131138:0:0:0:0:
475,192,131138,1,0,0:0:0:0:
402,192,131138,1,0,0:0:0:0:
256,192,131138,128,0,131405:0:0:0:0:
36,192,131176,1,0,0:0:0:0:
182,192,131214,1,0,0:0:0:0:
402,192,131252,1,0,0:0:0:0:
109,192,131252,1,0,0:0:0:0:
329,192,131291,1,0,0:0:0:0:
475,192,131329,1,0,0:0:0:0:
182,192,131367,128,0,131405:0:0:0:0:
109,192,131367,128,0,131405:0:0:0:0:
36,192,131367,128,0,131405:0:0:0:0:
109,192,131444,1,0,0:0:0:0:
402,192,131444,1,0,0:0:0:0:
256,192,131520,1,0,0:0:0:0:
402,192,131597,128,0,131635:0:0:0:0:
329,192,131597,128,0,131635:0:0:0:0:
475,192,131597,128,0,131635:0:0:0:0:
36,192,131597,128,0,131979:0:0:0:0:
109,192,131597,128,0,131979:0:0:0:0:
329,192,131673,1,0,0:0:0:0:
182,192,131673,1,0,0:0:0:0:
475,192,131750,128,0,131979:0:0:0:0:
402,192,131750,128,0,131979:0:0:0:0:
256,192,131750,1,0,0:0:0:0:
256,192,131826,1,0,0:0:0:0:
329,192,131903,128,0,131979:0:0:0:0:
256,192,131941,128,0,131979:0:0:0:0:
182,192,131979,1,0,0:0:0:0:
109,192,132056,1,0,0:0:0:0:
36,192,132056,1,0,0:0:0:0:
475,192,132056,1,0,0:0:0:0:
182,192,132056,1,0,0:0:0:0:
402,192,132056,1,0,0:0:0:0:
329,192,132132,1,0,0:0:0:0:
256,192,132209,128,0,132477:0:0:0:0:
109,192,132209,128,0,132324:0:0:0:0:
182,192,132209,1,0,0:0:0:0:
402,192,132286,1,0,0:0:0:0:
182,192,132362,128,0,132477:0:0:0:0:
109,192,132362,1,0,0:0:0:0:
36,192,132362,128,0,132400:0:0:0:0:
475,192,132439,1,0,0:0:0:0:
182,192,132515,128,0,132630:0:0:0:0:
109,192,132515,128,0,132630:0:0:0:0:
36,192,132515,128,0,132630:0:0:0:0:
329,192,132515,128,0,132553:0:0:0:0:
256,192,132515,128,0,132592:0:0:0:0:
475,192,132553,128,0,132668:0:0:0:0:
402,192,132592,128,0,132668:0:0:0:0:
329,192,132630,128,0,132668:0:0:0:0:
109,192,132668,1,0,0:0:0:0:
256,192,132745,1,0,0:0:0:0:
36,192,132821,128,0,132859:0:0:0:0:
109,192,132821,128,0,132859:0:0:0:0:
182,192,132821,128,0,132859:0:0:0:0:
402,192,132821,128,0,132859:0:0:0:0:
329,192,132898,1,0,0:0:0:0:
109,192,132974,128,0,133051:0:0:0:0:
182,192,132974,128,0,133051:0:0:0:0:
36,192,132974,128,0,133280:0:0:0:0:
256,192,132974,128,0,133013:0:0:0:0:
475,192,132974,128,0,133013:0:0:0:0:
402,192,133013,128,0,133051:0:0:0:0:
329,192,133051,128,0,133089:0:0:0:0:
256,192,133089,128,0,133204:0:0:0:0:
182,192,133127,1,0,0:0:0:0:
402,192,133127,128,0,133204:0:0:0:0:
475,192,133127,128,0,133204:0:0:0:0:
109,192,133127,128,0,133242:0:0:0:0:
329,192,133204,1,0,0:0:0:0:
256,192,133280,1,0,0:0:0:0:
182,192,133280,128,0,133319:0:0:0:0:
475,192,133280,128,0,133357:0:0:0:0:
109,192,133319,128,0,133510:0:0:0:0:
402,192,133357,1,0,0:0:0:0:
36,192,133357,128,0,133433:0:0:0:0:
329,192,133382,1,0,0:0:0:0:
256,192,133408,1,0,0:0:0:0:
475,192,133433,1,0,0:0:0:0:
182,192,133433,128,0,133587:0:0:0:0:
256,192,133510,128,0,133587:0:0:0:0:
329,192,133587,128,0,133625:0:0:0:0:
36,192,133587,128,0,133663:0:0:0:0:
402,192,133625,128,0,133816:0:0:0:0:
109,192,133663,1,0,0:0:0:0:
475,192,133663,128,0,133740:0:0:0:0:
182,192,133689,1,0,0:0:0:0:
256,192,133714,1,0,0:0:0:0:
36,192,133740,1,0,0:0:0:0:
329,192,133740,128,0,133893:0:0:0:0:
256,192,133816,128,0,133893:0:0:0:0:
109,192,133893,128,0,133944:0:0:0:0:
402,192,133944,128,0,133995:0:0:0:0:
256,192,133969,128,0,134071:0:0:0:0:
109,192,133995,128,0,134046:0:0:0:0:
402,192,134046,128,0,134097:0:0:0:0:
109,192,134097,128,0,134148:0:0:0:0:
256,192,134122,128,0,134224:0:0:0:0:
402,192,134148,128,0,134199:0:0:0:0:
109,192,134199,128,0,134250:0:0:0:0:
182,192,134199,128,0,134250:0:0:0:0:
36,192,134199,128,0,134250:0:0:0:0:
329,192,134275,1,0,0:0:0:0:
182,192,134352,1,0,0:0:0:0:
36,192,134352,1,0,0:0:0:0:
109,192,134352,1,0,0:0:0:0:
329,192,134428,1,0,0:0:0:0:
402,192,134505,128,0,134543:0:0:0:0:
475,192,134505,128,0,134543:0:0:0:0:
256,192,134505,128,0,134543:0:0:0:0:
329,192,134505,128,0,134543:0:0:0:0:
182,192,134505,128,0,134696:0:0:0:0:
109,192,134581,1,0,0:0:0:0:
256,192,134658,128,0,134849:0:0:0:0:
402,192,134658,128,0,134773:0:0:0:0:
475,192,134658,128,0,134888:0:0:0:0:
36,192,134696,128,0,134734:0:0:0:0:
109,192,134734,128,0,134773:0:0:0:0:
182,192,134773,128,0,134811:0:0:0:0:
36,192,134811,1,0,0:0:0:0:
329,192,134811,128,0,134849:0:0:0:0:
402,192,134849,128,0,134888:0:0:0:0:
182,192,134849,1,0,0:0:0:0:
329,192,134888,1,0,0:0:0:0:
256,192,134926,128,0,134964:0:0:0:0:
109,192,134964,128,0,135041:0:0:0:0:
36,192,134964,128,0,135041:0:0:0:0:
402,192,134964,128,0,135041:0:0:0:0:
475,192,134964,128,0,135041:0:0:0:0:
256,192,135041,1,0,0:0:0:0:
36,192,135155,1,0,0:0:0:0:
109,192,135194,1,0,0:0:0:0:
402,192,135232,1,0,0:0:0:0:
475,192,135270,1,0,0:0:0:0:
256,192,135308,128,0,135576:0:0:0:0:
256,192,135729,1,0,0:0:0:0:
475,192,135729,1,0,0:0:0:0:
109,192,135729,1,0,0:0:0:0:
36,192,135729,1,0,0:0:0:0:
256,192,135882,128,0,136992:0:0:0:0:
475,192,135882,128,0,136303:0:0:0:0:
109,192,136036,128,0,136150:0:0:0:0:
36,192,136036,128,0,136456:0:0:0:0:
329,192,136074,128,0,136112:0:0:0:0:
329,192,136189,128,0,136609:0:0:0:0:
402,192,136189,128,0,136303:0:0:0:0:
109,192,136227,128,0,136265:0:0:0:0:
109,192,136342,128,0,136763:0:0:0:0:
182,192,136342,128,0,136456:0:0:0:0:
402,192,136380,128,0,136418:0:0:0:0:
402,192,136495,128,0,136877:0:0:0:0:
475,192,136495,128,0,136609:0:0:0:0:
182,192,136533,128,0,136571:0:0:0:0:
182,192,136648,128,0,136763:0:0:0:0:
36,192,136648,128,0,136763:0:0:0:0:
475,192,136686,128,0,136724:0:0:0:0:
329,192,136801,128,0,136877:0:0:0:0:
475,192,136801,128,0,136877:0:0:0:0:
36,192,136839,128,0,136877:0:0:0:0:
329,192,136954,128,0,136992:0:0:0:0:
475,192,136954,128,0,137145:0:0:0:0:
402,192,136954,128,0,136992:0:0:0:0:
182,192,136954,128,0,136992:0:0:0:0:
109,192,136954,128,0,136992:0:0:0:0:
36,192,136954,128,0,137260:0:0:0:0:
182,192,137030,1,0,0:0:0:0:
256,192,137107,128,0,137337:0:0:0:0:
329,192,137107,128,0,137145:0:0:0:0:
402,192,137107,128,0,137145:0:0:0:0:
109,192,137107,128,0,137260:0:0:0:0:
402,192,137183,1,0,0:0:0:0:
475,192,137260,128,0,137451:0:0:0:0:
329,192,137260,128,0,137337:0:0:0:0:
109,192,137337,1,0,0:0:0:0:
36,192,137337,1,0,0:0:0:0:
182,192,137413,128,0,137604:0:0:0:0:
36,192,137413,128,0,137757:0:0:0:0:
402,192,137413,128,0,137451:0:0:0:0:
329,192,137413,128,0,137451:0:0:0:0:
256,192,137413,128,0,137451:0:0:0:0:
402,192,137566,128,0,137604:0:0:0:0:
475,192,137566,128,0,137834:0:0:0:0:
329,192,137566,128,0,137604:0:0:0:0:
256,192,137566,128,0,137604:0:0:0:0:
109,192,137566,128,0,137604:0:0:0:0:
329,192,137643,1,0,0:0:0:0:
256,192,137719,128,0,137949:0:0:0:0:
182,192,137719,128,0,137757:0:0:0:0:
109,192,137719,128,0,137757:0:0:0:0:
402,192,137719,128,0,137815:0:0:0:0:
109,192,137796,1,0,0:0:0:0:
182,192,137872,128,0,137949:0:0:0:0:
36,192,137872,128,0,138064:0:0:0:0:
329,192,137872,128,0,137911:0:0:0:0:
402,192,137891,128,0,137930:0:0:0:0:
475,192,137911,128,0,138446:0:0:0:0:
109,192,138025,128,0,138064:0:0:0:0:
182,192,138025,128,0,138064:0:0:0:0:
329,192,138025,128,0,138064:0:0:0:0:
402,192,138025,128,0,138064:0:0:0:0:
256,192,138025,128,0,138064:0:0:0:0:
109,192,138178,128,0,138370:0:0:0:0:
329,192,138178,128,0,138370:0:0:0:0:
402,192,138178,128,0,138293:0:0:0:0:
182,192,138178,128,0,138293:0:0:0:0:
36,192,138255,128,0,138676:0:0:0:0:
256,192,138255,128,0,138446:0:0:0:0:
182,192,138331,128,0,138599:0:0:0:0:
402,192,138331,128,0,138599:0:0:0:0:
109,192,138408,128,0,138523:0:0:0:0:
329,192,138408,128,0,138523:0:0:0:0:
475,192,138484,128,0,138886:0:0:0:0:
256,192,138484,128,0,138676:0:0:0:0:
329,192,138561,128,0,138810:0:0:0:0:
109,192,138561,128,0,138810:0:0:0:0:
402,192,138638,128,0,138752:0:0:0:0:
182,192,138638,128,0,138752:0:0:0:0:
36,192,138714,128,0,139116:0:0:0:0:
256,192,138714,128,0,138886:0:0:0:0:
182,192,138791,128,0,139039:0:0:0:0:
402,192,138791,128,0,139039:0:0:0:0:
109,192,138867,128,0,138963:0:0:0:0:
329,192,138867,128,0,138963:0:0:0:0:
256,192,138944,128,0,139116:0:0:0:0:
475,192,138944,128,0,139345:0:0:0:0:
109,192,139020,128,0,139269:0:0:0:0:
329,192,139020,128,0,139269:0:0:0:0:
182,192,139097,128,0,139192:0:0:0:0:
402,192,139097,128,0,139192:0:0:0:0:
36,192,139173,128,0,139479:0:0:0:0:
256,192,139173,128,0,139479:0:0:0:0:
182,192,139250,128,0,139345:0:0:0:0:
402,192,139250,128,0,139345:0:0:0:0:
329,192,139326,128,0,139403:0:0:0:0:
109,192,139326,128,0,139403:0:0:0:0:
182,192,139403,128,0,139556:0:0:0:0:
475,192,139403,1,0,0:0:0:0:
402,192,139403,128,0,139632:0:0:0:0:
109,192,139479,128,0,139709:0:0:0:0:
329,192,139479,128,0,139556:0:0:0:0:
36,192,139556,128,0,139632:0:0:0:0:
256,192,139556,128,0,139594:0:0:0:0:
182,192,139632,128,0,139786:0:0:0:0:
329,192,139632,128,0,139671:0:0:0:0:
256,192,139709,128,0,139939:0:0:0:0:
402,192,139709,128,0,139747:0:0:0:0:
329,192,139786,128,0,139862:0:0:0:0:
475,192,139786,128,0,139824:0:0:0:0:
182,192,139862,128,0,140092:0:0:0:0:
402,192,139862,128,0,139900:0:0:0:0:
109,192,139939,128,0,140015:0:0:0:0:
329,192,139939,128,0,139977:0:0:0:0:
256,192,140015,128,0,140168:0:0:0:0:
475,192,140015,1,0,0:0:0:0:
36,192,140015,128,0,140398:0:0:0:0:
402,192,140015,128,0,140053:0:0:0:0:
329,192,140092,128,0,140321:0:0:0:0:
109,192,140092,128,0,140130:0:0:0:0:
402,192,140168,128,0,140245:0:0:0:0:
182,192,140168,128,0,140206:0:0:0:0:
256,192,140245,128,0,140474:0:0:0:0:
475,192,140245,128,0,140283:0:0:0:0:
182,192,140321,128,0,140398:0:0:0:0:
402,192,140321,128,0,140359:0:0:0:0:
329,192,140398,128,0,140551:0:0:0:0:
109,192,140398,128,0,140436:0:0:0:0:
402,192,140474,128,0,140627:0:0:0:0:
182,192,140474,128,0,140513:0:0:0:0:
475,192,140551,128,0,143153:0:0:0:0:
109,192,140551,128,0,140589:0:0:0:0:
329,192,140627,1,0,0:0:0:0:
256,192,140627,128,0,141163:0:0:0:0:
182,192,140627,128,0,141163:0:0:0:0:
36,192,140627,1,0,0:0:0:0:
402,192,141087,128,0,141163:0:0:0:0:
329,192,141087,128,0,141852:0:0:0:0:
109,192,141087,128,0,141928:0:0:0:0:
256,192,141240,1,0,0:0:0:0:
36,192,141240,1,0,0:0:0:0:
182,192,141546,1,0,0:0:0:0:
256,192,141699,1,0,0:0:0:0:
182,192,141852,128,0,142234:0:0:0:0:
36,192,141852,1,0,0:0:0:0:
402,192,141852,1,0,0:0:0:0:
256,192,141928,128,0,141967:0:0:0:0:
402,192,142005,1,0,0:0:0:0:
329,192,142005,1,0,0:0:0:0:
109,192,142005,128,0,142043:0:0:0:0:
256,192,142081,128,0,142120:0:0:0:0:
109,192,142158,128,0,142541:0:0:0:0:
36,192,142234,128,0,142273:0:0:0:0:
402,192,142311,1,0,0:0:0:0:
329,192,142311,1,0,0:0:0:0:
182,192,142311,128,0,142349:0:0:0:0:
36,192,142388,128,0,142426:0:0:0:0:
182,192,142464,128,0,142847:0:0:0:0:
402,192,142464,1,0,0:0:0:0:
256,192,142541,128,0,142579:0:0:0:0:
402,192,142617,1,0,0:0:0:0:
329,192,142617,1,0,0:0:0:0:
109,192,142617,128,0,142655:0:0:0:0:
256,192,142694,128,0,142732:0:0:0:0:
402,192,142770,1,0,0:0:0:0:
109,192,142770,128,0,143076:0:0:0:0:
329,192,142770,1,0,0:0:0:0:
36,192,142847,128,0,142885:0:0:0:0:
182,192,142923,128,0,142962:0:0:0:0:
36,192,143000,128,0,143612:0:0:0:0:
402,192,143076,128,0,143229:0:0:0:0:
256,192,143076,1,0,0:0:0:0:
182,192,143076,1,0,0:0:0:0:
329,192,143153,128,0,143382:0:0:0:0:
256,192,143229,128,0,143306:0:0:0:0:
402,192,143306,128,0,143536:0:0:0:0:
475,192,143382,128,0,143459:0:0:0:0:
329,192,143459,128,0,143612:0:0:0:0:
256,192,143536,128,0,143765:0:0:0:0:
182,192,143612,128,0,143689:0:0:0:0:
329,192,143689,128,0,143918:0:0:0:0:
36,192,143689,1,0,0:0:0:0:
109,192,143689,1,0,0:0:0:0:
475,192,143689,1,0,0:0:0:0:
402,192,143765,128,0,143842:0:0:0:0:
256,192,143842,128,0,143995:0:0:0:0:
182,192,143918,128,0,144148:0:0:0:0:
109,192,143995,128,0,144071:0:0:0:0:
256,192,144071,128,0,144301:0:0:0:0:
329,192,144148,128,0,144224:0:0:0:0:
182,192,144224,128,0,144377:0:0:0:0:
36,192,144301,128,0,144683:0:0:0:0:
475,192,144301,128,0,144339:0:0:0:0:
109,192,144301,128,0,148127:0:0:0:0:
402,192,144339,128,0,144416:0:0:0:0:
329,192,144377,128,0,144492:0:0:0:0:
256,192,144416,128,0,144607:0:0:0:0:
182,192,144454,1,0,0:0:0:0:
402,192,144492,128,0,144530:0:0:0:0:
475,192,144530,128,0,144760:0:0:0:0:
329,192,144607,128,0,144645:0:0:0:0:
402,192,144645,128,0,144760:0:0:0:0:
182,192,144683,128,0,144760:0:0:0:0:
256,192,144722,128,0,144760:0:0:0:0:
36,192,144760,128,0,144798:0:0:0:0:
329,192,144760,1,0,0:0:0:0:
182,192,144913,1,0,0:0:0:0:
475,192,144913,1,0,0:0:0:0:
256,192,144913,1,0,0:0:0:0:
402,192,144913,1,0,0:0:0:0:
36,192,145066,128,0,145104:0:0:0:0:
402,192,145066,1,0,0:0:0:0:
329,192,145066,1,0,0:0:0:0:
36,192,145219,128,0,145257:0:0:0:0:
329,192,145219,1,0,0:0:0:0:
402,192,145219,1,0,0:0:0:0:
475,192,145525,128,0,147898:0:0:0:0:
36,192,145525,128,0,145678:0:0:0:0:
256,192,145525,1,0,0:0:0:0:
402,192,145525,1,0,0:0:0:0:
182,192,145525,128,0,145678:0:0:0:0:
329,192,145984,128,0,147898:0:0:0:0:
182,192,145984,1,0,0:0:0:0:
36,192,146138,1,0,0:0:0:0:
256,192,146138,1,0,0:0:0:0:
402,192,146138,1,0,0:0:0:0:
182,192,146444,1,0,0:0:0:0:
182,192,146597,128,0,146635:0:0:0:0:
256,192,146673,128,0,146712:0:0:0:0:
402,192,146750,128,0,146788:0:0:0:0:
36,192,146750,1,0,0:0:0:0:
256,192,146826,1,0,0:0:0:0:
182,192,146903,128,0,147056:0:0:0:0:
36,192,146979,1,0,0:0:0:0:
256,192,147056,128,0,147209:0:0:0:0:
402,192,147056,1,0,0:0:0:0:
182,192,147132,1,0,0:0:0:0:
402,192,147209,128,0,147362:0:0:0:0:
256,192,147286,1,0,0:0:0:0:
36,192,147362,1,0,0:0:0:0:
182,192,147362,1,0,0:0:0:0:
402,192,147439,1,0,0:0:0:0:
256,192,147515,1,0,0:0:0:0:
182,192,147515,1,0,0:0:0:0:
256,192,147821,1,0,0:0:0:0:
182,192,147821,1,0,0:0:0:0:
36,192,147974,128,0,148051:0:0:0:0:
475,192,147974,1,0,0:0:0:0:
402,192,147974,1,0,0:0:0:0:
329,192,147974,1,0,0:0:0:0:
182,192,148051,128,0,148280:0:0:0:0:
256,192,148127,128,0,148204:0:0:0:0:
109,192,148204,128,0,148433:0:0:0:0:
36,192,148280,128,0,148357:0:0:0:0:
182,192,148357,128,0,148510:0:0:0:0:
256,192,148433,128,0,148663:0:0:0:0:
329,192,148510,128,0,148587:0:0:0:0:
182,192,148587,128,0,148816:0:0:0:0:
402,192,148587,1,0,0:0:0:0:
36,192,148587,1,0,0:0:0:0:
475,192,148587,128,0,148740:0:0:0:0:
109,192,148663,128,0,148740:0:0:0:0:
256,192,148740,128,0,148893:0:0:0:0:
329,192,148816,128,0,149046:0:0:0:0:
475,192,148816,1,0,0:0:0:0:
402,192,148893,128,0,148969:0:0:0:0:
256,192,148969,128,0,149199:0:0:0:0:
182,192,149046,128,0,149122:0:0:0:0:
329,192,149122,128,0,149275:0:0:0:0:
402,192,149199,128,0,152949:0:0:0:0:
182,192,149199,1,0,0:0:0:0:
475,192,149199,1,0,0:0:0:0:
36,192,149199,128,0,149505:0:0:0:0:
109,192,149275,1,0,0:0:0:0:
182,192,149352,128,0,149390:0:0:0:0:
109,192,149428,128,0,149734:0:0:0:0:
182,192,149505,1,0,0:0:0:0:
256,192,149581,128,0,149620:0:0:0:0:
182,192,149658,128,0,149964:0:0:0:0:
256,192,149734,1,0,0:0:0:0:
329,192,149811,128,0,149849:0:0:0:0:
109,192,149811,1,0,0:0:0:0:
36,192,149811,1,0,0:0:0:0:
256,192,149888,128,0,150194:0:0:0:0:
329,192,149964,1,0,0:0:0:0:
475,192,150041,128,0,150079:0:0:0:0:
329,192,150117,128,0,150500:0:0:0:0:
182,192,150117,128,0,150194:0:0:0:0:
36,192,150117,128,0,150194:0:0:0:0:
109,192,150117,128,0,150500:0:0:0:0:
475,192,150194,1,0,0:0:0:0:
256,192,150270,1,0,0:0:0:0:
475,192,150347,128,0,150500:0:0:0:0:
36,192,150423,128,0,152796:0:0:0:0:
182,192,150423,128,0,150500:0:0:0:0:
256,192,150423,128,0,150500:0:0:0:0:
256,192,150729,1,0,0:0:0:0:
329,192,150729,1,0,0:0:0:0:
182,192,150882,128,0,152796:0:0:0:0:
475,192,151036,1,0,0:0:0:0:
329,192,151036,1,0,0:0:0:0:
256,192,151036,1,0,0:0:0:0:
109,192,151036,1,0,0:0:0:0:
329,192,151342,1,0,0:0:0:0:
256,192,151342,1,0,0:0:0:0:
109,192,151648,1,0,0:0:0:0:
256,192,151648,1,0,0:0:0:0:
475,192,151648,128,0,151686:0:0:0:0:
329,192,151724,128,0,151763:0:0:0:0:
109,192,151801,128,0,151839:0:0:0:0:
256,192,151877,128,0,151916:0:0:0:0:
329,192,151954,1,0,0:0:0:0:
475,192,151954,128,0,151992:0:0:0:0:
256,192,152030,128,0,152069:0:0:0:0:
109,192,152107,128,0,152145:0:0:0:0:
329,192,152183,128,0,152222:0:0:0:0:
475,192,152260,128,0,152298:0:0:0:0:
256,192,152260,1,0,0:0:0:0:
329,192,152337,128,0,152375:0:0:0:0:
109,192,152413,128,0,152451:0:0:0:0:
256,192,152490,128,0,152528:0:0:0:0:
109,192,152566,128,0,152604:0:0:0:0:
329,192,152643,128,0,152681:0:0:0:0:
256,192,152719,128,0,152757:0:0:0:0:
475,192,152796,128,0,152834:0:0:0:0:
329,192,152872,128,0,153025:0:0:0:0:
182,192,152872,1,0,0:0:0:0:
109,192,152872,1,0,0:0:0:0:
36,192,152872,128,0,152911:0:0:0:0:
256,192,152949,128,0,153178:0:0:0:0:
182,192,153025,128,0,153102:0:0:0:0:
402,192,153025,1,0,0:0:0:0:
475,192,153025,128,0,153064:0:0:0:0:
36,192,153025,1,0,0:0:0:0:
329,192,153102,128,0,153331:0:0:0:0:
402,192,153178,128,0,153255:0:0:0:0:
475,192,153178,1,0,0:0:0:0:
109,192,153178,128,0,153217:0:0:0:0:
182,192,153178,1,0,0:0:0:0:
256,192,153255,128,0,153408:0:0:0:0:
182,192,153331,128,0,153561:0:0:0:0:
402,192,153331,1,0,0:0:0:0:
475,192,153331,128,0,153370:0:0:0:0:
36,192,153331,1,0,0:0:0:0:
109,192,153408,128,0,153484:0:0:0:0:
256,192,153484,128,0,153714:0:0:0:0:
475,192,153484,1,0,0:0:0:0:
402,192,153484,128,0,153523:0:0:0:0:
329,192,153561,128,0,153638:0:0:0:0:
182,192,153638,128,0,153791:0:0:0:0:
402,192,153638,1,0,0:0:0:0:
475,192,153638,128,0,153676:0:0:0:0:
36,192,153638,1,0,0:0:0:0:
109,192,153714,128,0,153944:0:0:0:0:
36,192,153791,128,0,153867:0:0:0:0:
475,192,153791,1,0,0:0:0:0:
256,192,153791,1,0,0:0:0:0:
329,192,153791,128,0,153829:0:0:0:0:
402,192,153791,1,0,0:0:0:0:
182,192,153867,128,0,154097:0:0:0:0:
256,192,153944,128,0,154020:0:0:0:0:
329,192,153944,1,0,0:0:0:0:
402,192,153944,128,0,153982:0:0:0:0:
109,192,154020,128,0,154173:0:0:0:0:
475,192,154020,1,0,0:0:0:0:
36,192,154097,128,0,155321:0:0:0:0:
256,192,154097,1,0,0:0:0:0:
329,192,154097,128,0,154135:0:0:0:0:
402,192,154097,128,0,154135:0:0:0:0:
182,192,154173,1,0,0:0:0:0:
109,192,154250,1,0,0:0:0:0:
329,192,154250,1,0,0:0:0:0:
402,192,154250,128,0,154288:0:0:0:0:
475,192,154250,128,0,154288:0:0:0:0:
256,192,154326,1,0,0:0:0:0:
182,192,154403,1,0,0:0:0:0:
402,192,154403,1,0,0:0:0:0:
475,192,154403,128,0,154441:0:0:0:0:
109,192,154403,128,0,154441:0:0:0:0:
329,192,154479,1,0,0:0:0:0:
256,192,154556,1,0,0:0:0:0:
475,192,154556,1,0,0:0:0:0:
109,192,154556,128,0,154594:0:0:0:0:
182,192,154556,128,0,154594:0:0:0:0:
329,192,154632,1,0,0:0:0:0:
402,192,154709,1,0,0:0:0:0:
475,192,154709,1,0,0:0:0:0:
256,192,154786,1,0,0:0:0:0:
182,192,154862,1,0,0:0:0:0:
109,192,154862,1,0,0:0:0:0:
329,192,154862,128,0,154900:0:0:0:0:
402,192,154862,128,0,154900:0:0:0:0:
475,192,154939,1,0,0:0:0:0:
109,192,155015,1,0,0:0:0:0:
182,192,155015,1,0,0:0:0:0:
256,192,155015,128,0,155053:0:0:0:0:
329,192,155015,128,0,155053:0:0:0:0:
402,192,155092,1,0,0:0:0:0:
109,192,155168,1,0,0:0:0:0:
475,192,155168,1,0,0:0:0:0:
182,192,155168,128,0,155206:0:0:0:0:
256,192,155168,128,0,155206:0:0:0:0:
256,192,155321,128,0,155780:0:0:0:0:
402,192,155321,128,0,155359:0:0:0:0:
475,192,155321,128,0,155359:0:0:0:0:
182,192,155321,128,0,155398:0:0:0:0:
109,192,155321,1,0,0:0:0:0:
329,192,155398,128,0,155436:0:0:0:0:
36,192,155398,128,0,155436:0:0:0:0:
475,192,155474,1,0,0:0:0:0:
109,192,155474,128,0,155513:0:0:0:0:
182,192,155474,128,0,155513:0:0:0:0:
402,192,155551,128,0,155589:0:0:0:0:
329,192,155551,128,0,155589:0:0:0:0:
475,192,155627,1,0,0:0:0:0:
109,192,155627,128,0,155666:0:0:0:0:
36,192,155627,128,0,155666:0:0:0:0:
182,192,155704,128,0,155742:0:0:0:0:
329,192,155704,128,0,155857:0:0:0:0:
475,192,155780,128,0,157464:0:0:0:0:
402,192,155780,128,0,155857:0:0:0:0:
36,192,155780,128,0,155819:0:0:0:0:
109,192,155780,128,0,155819:0:0:0:0:
182,192,155857,128,0,155895:0:0:0:0:
256,192,155857,128,0,155895:0:0:0:0:
36,192,155933,1,0,0:0:0:0:
402,192,155933,128,0,155972:0:0:0:0:
329,192,155933,128,0,155972:0:0:0:0:
109,192,156010,128,0,156048:0:0:0:0:
256,192,156010,128,0,156048:0:0:0:0:
402,192,156087,1,0,0:0:0:0:
329,192,156087,128,0,156125:0:0:0:0:
36,192,156087,128,0,156125:0:0:0:0:
182,192,156163,128,0,156201:0:0:0:0:
256,192,156163,128,0,156201:0:0:0:0:
109,192,156240,128,0,156278:0:0:0:0:
36,192,156240,1,0,0:0:0:0:
402,192,156240,128,0,156278:0:0:0:0:
256,192,156316,128,0,156354:0:0:0:0:
329,192,156316,128,0,156354:0:0:0:0:
402,192,156393,1,0,0:0:0:0:
109,192,156393,128,0,156431:0:0:0:0:
36,192,156393,128,0,156431:0:0:0:0:
182,192,156469,128,0,156507:0:0:0:0:
329,192,156469,128,0,156507:0:0:0:0:
256,192,156546,128,0,156737:0:0:0:0:
402,192,156546,128,0,156890:0:0:0:0:
36,192,156546,128,0,157464:0:0:0:0:
109,192,156546,128,0,156584:0:0:0:0:
182,192,156699,128,0,157043:0:0:0:0:
109,192,156699,1,0,0:0:0:0:
329,192,156699,128,0,156737:0:0:0:0:
329,192,156852,128,0,157196:0:0:0:0:
256,192,156852,1,0,0:0:0:0:
109,192,156852,128,0,156890:0:0:0:0:
109,192,157005,128,0,157464:0:0:0:0:
256,192,157005,128,0,157043:0:0:0:0:
402,192,157005,1,0,0:0:0:0:
256,192,157158,128,0,157464:0:0:0:0:
402,192,157158,128,0,157196:0:0:0:0:
182,192,157158,128,0,157196:0:0:0:0:
402,192,157311,128,0,157464:0:0:0:0:
329,192,157311,128,0,157349:0:0:0:0:
182,192,157311,1,0,0:0:0:0:
329,192,157464,1,0,0:0:0:0:
329,192,157617,1,0,0:0:0:0:
36,192,157770,128,0,157923:0:0:0:0:
109,192,157770,128,0,157847:0:0:0:0:
182,192,157770,128,0,157808:0:0:0:0:
256,192,157770,1,0,0:0:0:0:
475,192,157847,128,0,158000:0:0:0:0:
402,192,157847,128,0,157923:0:0:0:0:
329,192,157847,128,0,157885:0:0:0:0:
109,192,157923,1,0,0:0:0:0:
182,192,157942,1,0,0:0:0:0:
256,192,157962,1,0,0:0:0:0:
329,192,157981,1,0,0:0:0:0:
36,192,158000,128,0,158076:0:0:0:0:
402,192,158000,1,0,0:0:0:0:
109,192,158038,128,0,158095:0:0:0:0:
475,192,158076,128,0,158153:0:0:0:0:
182,192,158076,128,0,158115:0:0:0:0:
402,192,158115,128,0,158172:0:0:0:0:
329,192,158153,128,0,158191:0:0:0:0:
109,192,158229,128,0,158280:0:0:0:0:
256,192,158229,128,0,158280:0:0:0:0:
182,192,158249,1,0,0:0:0:0:
329,192,158306,128,0,158357:0:0:0:0:
36,192,158306,128,0,158357:0:0:0:0:
402,192,158325,1,0,0:0:0:0:
256,192,158382,128,0,158433:0:0:0:0:
475,192,158382,128,0,158433:0:0:0:0:
182,192,158382,128,0,158433:0:0:0:0:
402,192,158459,128,0,158510:0:0:0:0:
109,192,158459,128,0,158510:0:0:0:0:
36,192,158478,1,0,0:0:0:0:
182,192,158536,128,0,158587:0:0:0:0:
329,192,158536,128,0,158587:0:0:0:0:
256,192,158555,1,0,0:0:0:0:
36,192,158612,128,0,158663:0:0:0:0:
475,192,158612,128,0,158663:0:0:0:0:
402,192,158631,1,0,0:0:0:0:
256,192,158689,128,0,158995:0:0:0:0:
109,192,158689,128,0,158740:0:0:0:0:
182,192,158708,1,0,0:0:0:0:
475,192,158765,1,0,0:0:0:0:
329,192,158765,128,0,158816:0:0:0:0:
36,192,158842,128,0,159148:0:0:0:0:
109,192,158842,1,0,0:0:0:0:
402,192,158842,128,0,158893:0:0:0:0:
182,192,158918,128,0,159071:0:0:0:0:
475,192,158918,128,0,158969:0:0:0:0:
329,192,158995,128,0,159301:0:0:0:0:
109,192,158995,128,0,159071:0:0:0:0:
402,192,158995,1,0,0:0:0:0:
475,192,159071,128,0,159224:0:0:0:0:
256,192,159071,1,0,0:0:0:0:
109,192,159148,128,0,159454:0:0:0:0:
182,192,159148,1,0,0:0:0:0:
402,192,159148,128,0,159224:0:0:0:0:
256,192,159224,128,0,159377:0:0:0:0:
36,192,159224,1,0,0:0:0:0:
475,192,159301,1,0,0:0:0:0:
402,192,159301,128,0,159607:0:0:0:0:
182,192,159301,128,0,159377:0:0:0:0:
36,192,159377,128,0,159530:0:0:0:0:
329,192,159377,1,0,0:0:0:0:
475,192,159454,128,0,159530:0:0:0:0:
256,192,159454,1,0,0:0:0:0:
182,192,159454,128,0,159760:0:0:0:0:
329,192,159530,128,0,159683:0:0:0:0:
109,192,159530,1,0,0:0:0:0:
36,192,159607,1,0,0:0:0:0:
256,192,159607,128,0,159683:0:0:0:0:
475,192,159607,128,0,163013:0:0:0:0:
109,192,159683,128,0,159837:0:0:0:0:
402,192,159683,1,0,0:0:0:0:
329,192,159760,1,0,0:0:0:0:
36,192,159760,128,0,159837:0:0:0:0:
256,192,159760,128,0,160028:0:0:0:0:
182,192,159837,1,0,0:0:0:0:
402,192,159837,128,0,159990:0:0:0:0:
109,192,159913,1,0,0:0:0:0:
329,192,159913,128,0,159990:0:0:0:0:
36,192,159913,128,0,160104:0:0:0:0:
182,192,159990,128,0,160104:0:0:0:0:
402,192,160066,128,0,160168:0:0:0:0:
109,192,160066,128,0,160104:0:0:0:0:
329,192,160117,128,0,160168:0:0:0:0:
256,192,160168,1,0,0:0:0:0:
36,192,160219,128,0,160372:0:0:0:0:
109,192,160219,128,0,160296:0:0:0:0:
182,192,160219,128,0,160257:0:0:0:0:
256,192,160296,128,0,160334:0:0:0:0:
402,192,160296,128,0,160449:0:0:0:0:
329,192,160296,128,0,160372:0:0:0:0:
109,192,160372,1,0,0:0:0:0:
182,192,160398,1,0,0:0:0:0:
256,192,160423,1,0,0:0:0:0:
329,192,160449,1,0,0:0:0:0:
36,192,160449,128,0,160564:0:0:0:0:
109,192,160487,128,0,160564:0:0:0:0:
182,192,160525,128,0,160564:0:0:0:0:
329,192,160678,128,0,160729:0:0:0:0:
182,192,160678,128,0,160729:0:0:0:0:
256,192,160697,1,0,0:0:0:0:
109,192,160755,128,0,160806:0:0:0:0:
402,192,160755,128,0,160806:0:0:0:0:
36,192,160774,1,0,0:0:0:0:
182,192,160831,128,0,160882:0:0:0:0:
256,192,160831,128,0,160882:0:0:0:0:
36,192,160908,128,0,160959:0:0:0:0:
329,192,160908,128,0,160959:0:0:0:0:
402,192,160927,1,0,0:0:0:0:
256,192,160984,128,0,161036:0:0:0:0:
109,192,160984,128,0,161036:0:0:0:0:
182,192,161004,1,0,0:0:0:0:
402,192,161061,128,0,161112:0:0:0:0:
36,192,161080,1,0,0:0:0:0:
329,192,161138,128,0,161189:0:0:0:0:
182,192,161138,128,0,161189:0:0:0:0:
256,192,161157,1,0,0:0:0:0:
109,192,161214,128,0,161265:0:0:0:0:
402,192,161291,128,0,161597:0:0:0:0:
36,192,161291,128,0,161342:0:0:0:0:
182,192,161291,128,0,161342:0:0:0:0:
329,192,161291,128,0,161367:0:0:0:0:
256,192,161367,128,0,161520:0:0:0:0:
109,192,161444,128,0,161750:0:0:0:0:
329,192,161444,1,0,0:0:0:0:
36,192,161444,128,0,161520:0:0:0:0:
182,192,161520,1,0,0:0:0:0:
329,192,161597,128,0,161903:0:0:0:0:
256,192,161597,128,0,161673:0:0:0:0:
36,192,161597,1,0,0:0:0:0:
182,192,161673,128,0,161826:0:0:0:0:
402,192,161673,1,0,0:0:0:0:
36,192,161750,128,0,162056:0:0:0:0:
256,192,161750,1,0,0:0:0:0:
402,192,161826,128,0,161979:0:0:0:0:
109,192,161826,1,0,0:0:0:0:
256,192,161903,128,0,162209:0:0:0:0:
182,192,161903,128,0,161979:0:0:0:0:
109,192,161979,128,0,162132:0:0:0:0:
329,192,161979,1,0,0:0:0:0:
402,192,162056,1,0,0:0:0:0:
182,192,162056,1,0,0:0:0:0:
329,192,162132,128,0,162286:0:0:0:0:
36,192,162132,1,0,0:0:0:0:
182,192,162209,128,0,162477:0:0:0:0:
109,192,162209,128,0,162286:0:0:0:0:
402,192,162209,128,0,162286:0:0:0:0:
256,192,162286,1,0,0:0:0:0:
36,192,162286,128,0,162439:0:0:0:0:
329,192,162362,1,0,0:0:0:0:
402,192,162362,128,0,162553:0:0:0:0:
109,192,162362,1,0,0:0:0:0:
256,192,162439,128,0,162553:0:0:0:0:
36,192,162515,128,0,162617:0:0:0:0:
329,192,162515,128,0,162553:0:0:0:0:
109,192,162566,128,0,162617:0:0:0:0:
182,192,162617,1,0,0:0:0:0:
402,192,162668,128,0,162821:0:0:0:0:
329,192,162668,128,0,162745:0:0:0:0:
256,192,162668,128,0,162706:0:0:0:0:
182,192,162745,128,0,162783:0:0:0:0:
36,192,162745,128,0,162898:0:0:0:0:
109,192,162745,128,0,162821:0:0:0:0:
329,192,162821,1,0,0:0:0:0:
256,192,162847,1,0,0:0:0:0:
182,192,162872,1,0,0:0:0:0:
109,192,162898,1,0,0:0:0:0:
402,192,162898,128,0,163013:0:0:0:0:
329,192,162936,128,0,163013:0:0:0:0:
256,192,162974,128,0,163013:0:0:0:0:
402,192,163127,128,0,163178:0:0:0:0:
256,192,163127,128,0,163178:0:0:0:0:
36,192,163127,128,0,163178:0:0:0:0:
329,192,163146,1,0,0:0:0:0:
182,192,163204,128,0,163255:0:0:0:0:
475,192,163204,128,0,163255:0:0:0:0:
109,192,163223,1,0,0:0:0:0:
256,192,163280,128,0,163331:0:0:0:0:
36,192,163280,128,0,163331:0:0:0:0:
329,192,163280,128,0,163331:0:0:0:0:
109,192,163357,128,0,163408:0:0:0:0:
402,192,163357,128,0,163408:0:0:0:0:
475,192,163376,1,0,0:0:0:0:
329,192,163433,128,0,163484:0:0:0:0:
182,192,163433,128,0,163484:0:0:0:0:
256,192,163453,1,0,0:0:0:0:
475,192,163510,128,0,163561:0:0:0:0:
36,192,163510,128,0,163561:0:0:0:0:
109,192,163529,1,0,0:0:0:0:
256,192,163587,128,0,163893:0:0:0:0:
402,192,163587,128,0,163638:0:0:0:0:
329,192,163606,1,0,0:0:0:0:
36,192,163663,1,0,0:0:0:0:
182,192,163663,128,0,163714:0:0:0:0:
475,192,163740,128,0,164046:0:0:0:0:
402,192,163740,1,0,0:0:0:0:
109,192,163740,128,0,163791:0:0:0:0:
329,192,163816,128,0,163969:0:0:0:0:
36,192,163816,128,0,163867:0:0:0:0:
182,192,163893,128,0,164199:0:0:0:0:
402,192,163893,128,0,163969:0:0:0:0:
109,192,163893,1,0,0:0:0:0:
36,192,163969,128,0,164122:0:0:0:0:
256,192,163969,1,0,0:0:0:0:
402,192,164046,128,0,164352:0:0:0:0:
329,192,164046,1,0,0:0:0:0:
109,192,164046,128,0,164122:0:0:0:0:
256,192,164122,128,0,164275:0:0:0:0:
475,192,164122,1,0,0:0:0:0:
36,192,164199,1,0,0:0:0:0:
109,192,164199,128,0,164505:0:0:0:0:
329,192,164199,128,0,164275:0:0:0:0:
475,192,164275,128,0,164428:0:0:0:0:
182,192,164275,1,0,0:0:0:0:
36,192,164352,128,0,164428:0:0:0:0:
256,192,164352,1,0,0:0:0:0:
329,192,164352,128,0,164658:0:0:0:0:
182,192,164428,128,0,164581:0:0:0:0:
402,192,164428,1,0,0:0:0:0:
475,192,164505,1,0,0:0:0:0:
256,192,164505,128,0,164581:0:0:0:0:
36,192,164505,128,0,167260:0:0:0:0:
402,192,164581,128,0,164734:0:0:0:0:
109,192,164581,1,0,0:0:0:0:
182,192,164658,1,0,0:0:0:0:
475,192,164658,128,0,164734:0:0:0:0:
256,192,164658,128,0,164926:0:0:0:0:
329,192,164734,1,0,0:0:0:0:
109,192,164734,128,0,164888:0:0:0:0:
402,192,164811,1,0,0:0:0:0:
182,192,164811,128,0,164888:0:0:0:0:
475,192,164811,128,0,165002:0:0:0:0:
329,192,164888,128,0,165002:0:0:0:0:
109,192,164964,128,0,165066:0:0:0:0:
402,192,164964,128,0,165002:0:0:0:0:
182,192,165015,128,0,165066:0:0:0:0:
256,192,165066,1,0,0:0:0:0:
475,192,165117,128,0,165270:0:0:0:0:
402,192,165117,128,0,165194:0:0:0:0:
329,192,165117,128,0,165155:0:0:0:0:
256,192,165194,128,0,165232:0:0:0:0:
109,192,165194,128,0,165347:0:0:0:0:
182,192,165194,128,0,165270:0:0:0:0:
402,192,165270,1,0,0:0:0:0:
329,192,165296,1,0,0:0:0:0:
256,192,165321,1,0,0:0:0:0:
182,192,165347,1,0,0:0:0:0:
475,192,165347,128,0,165462:0:0:0:0:
402,192,165385,128,0,165462:0:0:0:0:
329,192,165423,128,0,165462:0:0:0:0:
182,192,165576,128,0,165627:0:0:0:0:
329,192,165576,128,0,165627:0:0:0:0:
256,192,165595,1,0,0:0:0:0:
402,192,165653,128,0,165704:0:0:0:0:
109,192,165653,128,0,165704:0:0:0:0:
475,192,165672,1,0,0:0:0:0:
329,192,165729,128,0,165780:0:0:0:0:
256,192,165729,128,0,165780:0:0:0:0:
475,192,165806,128,0,165857:0:0:0:0:
182,192,165806,128,0,165857:0:0:0:0:
109,192,165825,1,0,0:0:0:0:
256,192,165882,128,0,165933:0:0:0:0:
402,192,165882,128,0,165933:0:0:0:0:
329,192,165902,1,0,0:0:0:0:
109,192,165959,128,0,166010:0:0:0:0:
475,192,165978,1,0,0:0:0:0:
182,192,166036,128,0,166087:0:0:0:0:
329,192,166036,128,0,166087:0:0:0:0:
256,192,166055,1,0,0:0:0:0:
402,192,166112,128,0,166163:0:0:0:0:
109,192,166189,128,0,166495:0:0:0:0:
475,192,166189,128,0,166240:0:0:0:0:
329,192,166189,128,0,166240:0:0:0:0:
182,192,166189,128,0,166265:0:0:0:0:
256,192,166265,128,0,166418:0:0:0:0:
402,192,166342,128,0,166648:0:0:0:0:
182,192,166342,1,0,0:0:0:0:
475,192,166342,128,0,166418:0:0:0:0:
329,192,166418,1,0,0:0:0:0:
182,192,166495,128,0,166801:0:0:0:0:
256,192,166495,128,0,166571:0:0:0:0:
475,192,166495,1,0,0:0:0:0:
329,192,166571,128,0,166724:0:0:0:0:
109,192,166571,1,0,0:0:0:0:
475,192,166648,128,0,166954:0:0:0:0:
256,192,166648,1,0,0:0:0:0:
109,192,166724,128,0,166877:0:0:0:0:
402,192,166724,1,0,0:0:0:0:
256,192,166801,128,0,167107:0:0:0:0:
329,192,166801,128,0,166877:0:0:0:0:
402,192,166877,128,0,167030:0:0:0:0:
182,192,166877,1,0,0:0:0:0:
109,192,166954,1,0,0:0:0:0:
329,192,166954,1,0,0:0:0:0:
182,192,167030,128,0,167183:0:0:0:0:
475,192,167030,128,0,167260:0:0:0:0:
402,192,167107,128,0,167260:0:0:0:0:
109,192,167107,128,0,167183:0:0:0:0:
329,192,167145,128,0,167260:0:0:0:0:
256,192,167183,1,0,0:0:0:0:
182,192,167260,1,0,0:0:0:0:
109,192,167260,1,0,0:0:0:0:
402,192,167566,128,0,167796:0:0:0:0:
256,192,167566,128,0,167604:0:0:0:0:
36,192,167566,128,0,167604:0:0:0:0:
109,192,167566,128,0,167604:0:0:0:0:
329,192,167566,128,0,167604:0:0:0:0:
475,192,167566,128,0,167604:0:0:0:0:
182,192,167643,1,0,0:0:0:0:
256,192,167681,1,0,0:0:0:0:
329,192,167719,128,0,167796:0:0:0:0:
36,192,167719,128,0,167796:0:0:0:0:
109,192,167757,128,0,167949:0:0:0:0:
182,192,167796,128,0,167911:0:0:0:0:
36,192,167872,128,0,168408:0:0:0:0:
329,192,167872,128,0,167987:0:0:0:0:
402,192,167872,128,0,167911:0:0:0:0:
475,192,167872,128,0,167911:0:0:0:0:
256,192,167949,128,0,168025:0:0:0:0:
182,192,167987,128,0,168064:0:0:0:0:
109,192,168025,128,0,168102:0:0:0:0:
402,192,168025,1,0,0:0:0:0:
329,192,168064,1,0,0:0:0:0:
256,192,168102,1,0,0:0:0:0:
329,192,168178,128,0,168217:0:0:0:0:
475,192,168178,128,0,168408:0:0:0:0:
182,192,168178,128,0,168217:0:0:0:0:
402,192,168178,128,0,168217:0:0:0:0:
109,192,168178,128,0,168217:0:0:0:0:
256,192,168255,1,0,0:0:0:0:
329,192,168293,1,0,0:0:0:0:
402,192,168331,128,0,168408:0:0:0:0:
109,192,168331,128,0,168408:0:0:0:0:
182,192,168370,128,0,168561:0:0:0:0:
256,192,168408,128,0,168523:0:0:0:0:
109,192,168484,128,0,169020:0:0:0:0:
402,192,168484,128,0,168599:0:0:0:0:
475,192,168484,128,0,168523:0:0:0:0:
36,192,168484,128,0,168523:0:0:0:0:
329,192,168561,128,0,168638:0:0:0:0:
256,192,168599,128,0,168676:0:0:0:0:
182,192,168638,128,0,168714:0:0:0:0:
475,192,168638,1,0,0:0:0:0:
402,192,168676,1,0,0:0:0:0:
329,192,168714,1,0,0:0:0:0:
402,192,168791,128,0,168829:0:0:0:0:
182,192,168791,128,0,168829:0:0:0:0:
256,192,168791,128,0,168829:0:0:0:0:
475,192,168791,128,0,168829:0:0:0:0:
36,192,168791,128,0,169020:0:0:0:0:
329,192,168867,1,0,0:0:0:0:
402,192,168905,1,0,0:0:0:0:
475,192,168944,128,0,169020:0:0:0:0:
182,192,168944,128,0,169020:0:0:0:0:
256,192,168982,128,0,169173:0:0:0:0:
329,192,169020,128,0,169135:0:0:0:0:
182,192,169097,128,0,169403:0:0:0:0:
475,192,169097,128,0,169212:0:0:0:0:
109,192,169097,128,0,169135:0:0:0:0:
36,192,169097,128,0,169135:0:0:0:0:
402,192,169173,128,0,169250:0:0:0:0:
329,192,169212,128,0,169288:0:0:0:0:
256,192,169250,128,0,169326:0:0:0:0:
36,192,169250,1,0,0:0:0:0:
475,192,169288,1,0,0:0:0:0:
402,192,169326,1,0,0:0:0:0:
475,192,169403,128,0,169441:0:0:0:0:
329,192,169403,128,0,169632:0:0:0:0:
36,192,169403,128,0,169786:0:0:0:0:
109,192,169403,128,0,169441:0:0:0:0:
256,192,169403,128,0,169441:0:0:0:0:
182,192,169479,1,0,0:0:0:0:
109,192,169518,1,0,0:0:0:0:
256,192,169556,128,0,169632:0:0:0:0:
402,192,169556,1,0,0:0:0:0:
475,192,169556,1,0,0:0:0:0:
182,192,169594,128,0,169786:0:0:0:0:
475,192,169709,128,0,169939:0:0:0:0:
256,192,169709,128,0,169747:0:0:0:0:
109,192,169709,128,0,169786:0:0:0:0:
402,192,169709,128,0,169747:0:0:0:0:
329,192,169786,1,0,0:0:0:0:
256,192,169824,1,0,0:0:0:0:
402,192,169862,128,0,169939:0:0:0:0:
36,192,169862,1,0,0:0:0:0:
109,192,169862,1,0,0:0:0:0:
329,192,169900,128,0,169939:0:0:0:0:
256,192,170015,128,0,170053:0:0:0:0:
475,192,170015,128,0,170053:0:0:0:0:
402,192,170015,128,0,170053:0:0:0:0:
182,192,170015,128,0,170053:0:0:0:0:
109,192,170015,128,0,170245:0:0:0:0:
36,192,170015,128,0,170053:0:0:0:0:
329,192,170092,1,0,0:0:0:0:
256,192,170130,1,0,0:0:0:0:
182,192,170168,128,0,170245:0:0:0:0:
475,192,170168,128,0,170245:0:0:0:0:
402,192,170206,128,0,170398:0:0:0:0:
329,192,170245,128,0,170359:0:0:0:0:
475,192,170321,128,0,170857:0:0:0:0:
182,192,170321,128,0,170436:0:0:0:0:
109,192,170321,128,0,170359:0:0:0:0:
36,192,170321,128,0,170359:0:0:0:0:
256,192,170398,128,0,170474:0:0:0:0:
329,192,170436,128,0,170513:0:0:0:0:
402,192,170474,128,0,170551:0:0:0:0:
109,192,170474,1,0,0:0:0:0:
182,192,170513,1,0,0:0:0:0:
256,192,170551,1,0,0:0:0:0:
182,192,170627,128,0,170666:0:0:0:0:
36,192,170627,128,0,170857:0:0:0:0:
329,192,170627,128,0,170666:0:0:0:0:
109,192,170627,128,0,170666:0:0:0:0:
402,192,170627,128,0,170666:0:0:0:0:
256,192,170704,1,0,0:0:0:0:
182,192,170742,1,0,0:0:0:0:
109,192,170780,128,0,170857:0:0:0:0:
402,192,170780,128,0,170857:0:0:0:0:
329,192,170819,128,0,171010:0:0:0:0:
256,192,170857,128,0,170972:0:0:0:0:
402,192,170933,128,0,171469:0:0:0:0:
109,192,170933,128,0,171048:0:0:0:0:
36,192,170933,128,0,170972:0:0:0:0:
475,192,170933,128,0,170972:0:0:0:0:
182,192,171010,128,0,171087:0:0:0:0:
256,192,171048,128,0,171125:0:0:0:0:
329,192,171087,128,0,171163:0:0:0:0:
36,192,171087,1,0,0:0:0:0:
109,192,171125,1,0,0:0:0:0:
182,192,171163,1,0,0:0:0:0:
109,192,171240,128,0,171278:0:0:0:0:
329,192,171240,128,0,171278:0:0:0:0:
256,192,171240,128,0,171278:0:0:0:0:
36,192,171240,128,0,171278:0:0:0:0:
475,192,171240,128,0,171469:0:0:0:0:
182,192,171316,1,0,0:0:0:0:
109,192,171354,1,0,0:0:0:0:
36,192,171393,128,0,171469:0:0:0:0:
329,192,171393,128,0,171469:0:0:0:0:
256,192,171431,128,0,171622:0:0:0:0:
182,192,171469,128,0,171584:0:0:0:0:
329,192,171546,128,0,171852:0:0:0:0:
36,192,171546,128,0,171661:0:0:0:0:
402,192,171546,128,0,171584:0:0:0:0:
475,192,171546,128,0,171584:0:0:0:0:
109,192,171622,128,0,171699:0:0:0:0:
182,192,171661,128,0,171737:0:0:0:0:
256,192,171699,128,0,171775:0:0:0:0:
475,192,171699,1,0,0:0:0:0:
36,192,171737,1,0,0:0:0:0:
109,192,171775,1,0,0:0:0:0:
36,192,171852,128,0,171890:0:0:0:0:
182,192,171852,128,0,172081:0:0:0:0:
475,192,171852,128,0,172234:0:0:0:0:
402,192,171852,128,0,171890:0:0:0:0:
256,192,171852,128,0,171890:0:0:0:0:
329,192,171928,1,0,0:0:0:0:
402,192,171967,1,0,0:0:0:0:
256,192,172005,128,0,172081:0:0:0:0:
109,192,172005,1,0,0:0:0:0:
36,192,172005,1,0,0:0:0:0:
329,192,172043,128,0,172234:0:0:0:0:
402,192,172158,128,0,172234:0:0:0:0:
256,192,172158,128,0,172196:0:0:0:0:
36,192,172158,128,0,172388:0:0:0:0:
109,192,172158,128,0,172196:0:0:0:0:
182,192,172234,1,0,0:0:0:0:
256,192,172273,1,0,0:0:0:0:
402,192,172311,1,0,0:0:0:0:
475,192,172311,1,0,0:0:0:0:
109,192,172311,128,0,172388:0:0:0:0:
182,192,172349,128,0,172388:0:0:0:0:
109,192,172464,128,0,172694:0:0:0:0:
256,192,172464,128,0,172502:0:0:0:0:
36,192,172464,128,0,172502:0:0:0:0:
402,192,172464,128,0,172502:0:0:0:0:
182,192,172464,128,0,172502:0:0:0:0:
475,192,172464,128,0,172694:0:0:0:0:
329,192,172541,1,0,0:0:0:0:
256,192,172579,1,0,0:0:0:0:
182,192,172617,128,0,172694:0:0:0:0:
36,192,172617,128,0,172694:0:0:0:0:
402,192,172655,128,0,172847:0:0:0:0:
329,192,172694,128,0,172808:0:0:0:0:
36,192,172770,128,0,173306:0:0:0:0:
182,192,172770,128,0,172885:0:0:0:0:
109,192,172770,128,0,172808:0:0:0:0:
475,192,172770,128,0,173000:0:0:0:0:
256,192,172847,128,0,172923:0:0:0:0:
329,192,172885,128,0,172962:0:0:0:0:
402,192,172923,128,0,173000:0:0:0:0:
109,192,172923,1,0,0:0:0:0:
182,192,172962,1,0,0:0:0:0:
256,192,173000,1,0,0:0:0:0:
182,192,173076,128,0,173115:0:0:0:0:
475,192,173076,128,0,173306:0:0:0:0:
329,192,173076,128,0,173115:0:0:0:0:
109,192,173076,128,0,173115:0:0:0:0:
402,192,173076,128,0,173115:0:0:0:0:
256,192,173153,1,0,0:0:0:0:
182,192,173191,1,0,0:0:0:0:
109,192,173229,128,0,173306:0:0:0:0:
402,192,173229,128,0,173306:0:0:0:0:
329,192,173268,128,0,173459:0:0:0:0:
256,192,173306,128,0,173421:0:0:0:0:
402,192,173382,128,0,173918:0:0:0:0:
109,192,173382,128,0,173497:0:0:0:0:
475,192,173382,128,0,173421:0:0:0:0:
36,192,173382,128,0,173421:0:0:0:0:
182,192,173459,128,0,173536:0:0:0:0:
256,192,173497,128,0,173574:0:0:0:0:
329,192,173536,128,0,173612:0:0:0:0:
36,192,173536,1,0,0:0:0:0:
109,192,173574,1,0,0:0:0:0:
182,192,173612,1,0,0:0:0:0:
109,192,173689,128,0,173727:0:0:0:0:
329,192,173689,128,0,173727:0:0:0:0:
256,192,173689,128,0,173727:0:0:0:0:
475,192,173689,128,0,173727:0:0:0:0:
36,192,173689,128,0,173918:0:0:0:0:
182,192,173765,1,0,0:0:0:0:
109,192,173803,1,0,0:0:0:0:
475,192,173842,128,0,173918:0:0:0:0:
329,192,173842,128,0,173918:0:0:0:0:
256,192,173880,128,0,174071:0:0:0:0:
182,192,173918,128,0,174033:0:0:0:0:
329,192,173995,128,0,174301:0:0:0:0:
36,192,173995,128,0,174109:0:0:0:0:
475,192,173995,128,0,174033:0:0:0:0:
402,192,173995,128,0,174109:0:0:0:0:
109,192,174071,128,0,174148:0:0:0:0:
182,192,174109,128,0,174186:0:0:0:0:
256,192,174148,128,0,174224:0:0:0:0:
475,192,174148,1,0,0:0:0:0:
36,192,174186,1,0,0:0:0:0:
109,192,174224,1,0,0:0:0:0:
475,192,174301,128,0,174339:0:0:0:0:
182,192,174301,128,0,174530:0:0:0:0:
36,192,174301,128,0,174837:0:0:0:0:
402,192,174301,128,0,174339:0:0:0:0:
256,192,174301,128,0,174339:0:0:0:0:
329,192,174377,1,0,0:0:0:0:
402,192,174416,1,0,0:0:0:0:
256,192,174454,128,0,174530:0:0:0:0:
109,192,174454,1,0,0:0:0:0:
475,192,174454,1,0,0:0:0:0:
329,192,174492,128,0,174683:0:0:0:0:
475,192,174607,128,0,174837:0:0:0:0:
256,192,174607,128,0,174645:0:0:0:0:
402,192,174607,128,0,174683:0:0:0:0:
109,192,174607,128,0,174645:0:0:0:0:
182,192,174683,1,0,0:0:0:0:
256,192,174722,1,0,0:0:0:0:
109,192,174760,128,0,174837:0:0:0:0:
402,192,174760,1,0,0:0:0:0:
329,192,174760,1,0,0:0:0:0:
182,192,174798,128,0,174837:0:0:0:0:
402,192,174913,128,0,175143:0:0:0:0:
256,192,174913,128,0,174951:0:0:0:0:
475,192,174913,128,0,174951:0:0:0:0:
109,192,174913,128,0,174951:0:0:0:0:
329,192,174913,128,0,174951:0:0:0:0:
36,192,174913,128,0,175143:0:0:0:0:
182,192,174990,1,0,0:0:0:0:
256,192,175028,1,0,0:0:0:0:
329,192,175066,128,0,175143:0:0:0:0:
475,192,175066,128,0,175143:0:0:0:0:
109,192,175104,128,0,175296:0:0:0:0:
182,192,175143,128,0,175257:0:0:0:0:
475,192,175219,128,0,175755:0:0:0:0:
329,192,175219,128,0,175334:0:0:0:0:
402,192,175219,128,0,175257:0:0:0:0:
36,192,175219,128,0,175449:0:0:0:0:
256,192,175296,128,0,175372:0:0:0:0:
182,192,175334,128,0,175411:0:0:0:0:
109,192,175372,128,0,175449:0:0:0:0:
402,192,175372,1,0,0:0:0:0:
329,192,175411,1,0,0:0:0:0:
256,192,175449,1,0,0:0:0:0:
329,192,175525,128,0,175564:0:0:0:0:
36,192,175525,128,0,175755:0:0:0:0:
182,192,175525,128,0,175564:0:0:0:0:
402,192,175525,128,0,175564:0:0:0:0:
109,192,175525,128,0,175564:0:0:0:0:
256,192,175602,1,0,0:0:0:0:
329,192,175640,1,0,0:0:0:0:
402,192,175678,128,0,175755:0:0:0:0:
109,192,175678,128,0,175755:0:0:0:0:
182,192,175717,128,0,175908:0:0:0:0:
256,192,175755,128,0,175870:0:0:0:0:
109,192,175831,128,0,176367:0:0:0:0:
402,192,175831,128,0,175946:0:0:0:0:
36,192,175831,128,0,175870:0:0:0:0:
475,192,175831,128,0,175870:0:0:0:0:
329,192,175908,128,0,175984:0:0:0:0:
256,192,175946,128,0,176023:0:0:0:0:
182,192,175984,128,0,176061:0:0:0:0:
475,192,175984,1,0,0:0:0:0:
402,192,176023,1,0,0:0:0:0:
329,192,176061,1,0,0:0:0:0:
402,192,176138,128,0,176176:0:0:0:0:
182,192,176138,128,0,176176:0:0:0:0:
256,192,176138,128,0,176176:0:0:0:0:
36,192,176138,128,0,176176:0:0:0:0:
475,192,176138,128,0,176367:0:0:0:0:
329,192,176214,1,0,0:0:0:0:
402,192,176252,1,0,0:0:0:0:
36,192,176291,128,0,176367:0:0:0:0:
182,192,176291,128,0,176367:0:0:0:0:
256,192,176329,128,0,176520:0:0:0:0:
329,192,176367,128,0,176482:0:0:0:0:
182,192,176444,128,0,176750:0:0:0:0:
475,192,176444,128,0,176558:0:0:0:0:
36,192,176444,128,0,176482:0:0:0:0:
109,192,176444,128,0,176558:0:0:0:0:
402,192,176520,128,0,176597:0:0:0:0:
329,192,176558,128,0,176635:0:0:0:0:
256,192,176597,128,0,176673:0:0:0:0:
36,192,176597,1,0,0:0:0:0:
475,192,176635,1,0,0:0:0:0:
402,192,176673,1,0,0:0:0:0:
36,192,176750,128,0,176788:0:0:0:0:
329,192,176750,128,0,176979:0:0:0:0:
475,192,176750,128,0,177286:0:0:0:0:
109,192,176750,128,0,176788:0:0:0:0:
256,192,176750,128,0,176788:0:0:0:0:
182,192,176826,1,0,0:0:0:0:
109,192,176865,1,0,0:0:0:0:
256,192,176903,128,0,176979:0:0:0:0:
402,192,176903,1,0,0:0:0:0:
36,192,176903,1,0,0:0:0:0:
182,192,176941,128,0,177132:0:0:0:0:
36,192,177056,128,0,177286:0:0:0:0:
256,192,177056,128,0,177094:0:0:0:0:
109,192,177056,128,0,177132:0:0:0:0:
402,192,177056,128,0,177094:0:0:0:0:
329,192,177132,1,0,0:0:0:0:
256,192,177171,1,0,0:0:0:0:
402,192,177209,128,0,177286:0:0:0:0:
109,192,177209,1,0,0:0:0:0:
182,192,177209,1,0,0:0:0:0:
329,192,177247,128,0,177286:0:0:0:0:
109,192,177362,128,0,178472:0:0:0:0:
36,192,177362,128,0,180959:0:0:0:0:
402,192,177362,128,0,178472:0:0:0:0:
475,192,177362,128,0,181036:0:0:0:0:
182,192,177362,1,0,0:0:0:0:
329,192,177362,128,0,177592:0:0:0:0:
256,192,177439,128,0,177515:0:0:0:0:
182,192,177515,1,0,0:0:0:0:
256,192,177592,1,0,0:0:0:0:
182,192,177668,128,0,177898:0:0:0:0:
329,192,177668,1,0,0:0:0:0:
256,192,177745,128,0,177821:0:0:0:0:
329,192,177821,1,0,0:0:0:0:
256,192,177898,1,0,0:0:0:0:
329,192,177974,128,0,178204:0:0:0:0:
182,192,177974,1,0,0:0:0:0:
256,192,178051,128,0,178127:0:0:0:0:
182,192,178127,1,0,0:0:0:0:
256,192,178204,1,0,0:0:0:0:
182,192,178280,128,0,178319:0:0:0:0:
329,192,178280,128,0,178319:0:0:0:0:
256,192,178357,128,0,178395:0:0:0:0:
329,192,178433,128,0,178472:0:0:0:0:
182,192,178433,128,0,178472:0:0:0:0:
256,192,178510,128,0,179696:0:0:0:0:
109,192,178587,128,0,178740:0:0:0:0:
402,192,178587,1,0,0:0:0:0:
182,192,178587,1,0,0:0:0:0:
329,192,178663,128,0,178740:0:0:0:0:
182,192,178740,1,0,0:0:0:0:
402,192,178740,128,0,178816:0:0:0:0:
109,192,178816,1,0,0:0:0:0:
329,192,178816,128,0,179046:0:0:0:0:
182,192,178893,1,0,0:0:0:0:
402,192,178893,128,0,178969:0:0:0:0:
109,192,178969,128,0,179046:0:0:0:0:
402,192,179046,1,0,0:0:0:0:
182,192,179046,128,0,179122:0:0:0:0:
329,192,179122,1,0,0:0:0:0:
109,192,179122,128,0,179352:0:0:0:0:
402,192,179199,1,0,0:0:0:0:
182,192,179199,128,0,179275:0:0:0:0:
329,192,179275,128,0,179505:0:0:0:0:
182,192,179352,1,0,0:0:0:0:
402,192,179352,128,0,179428:0:0:0:0:
109,192,179428,1,0,0:0:0:0:
402,192,179505,128,0,179543:0:0:0:0:
182,192,179505,128,0,179543:0:0:0:0:
109,192,179581,128,0,179620:0:0:0:0:
329,192,179581,128,0,179620:0:0:0:0:
402,192,179658,128,0,179696:0:0:0:0:
182,192,179658,128,0,179696:0:0:0:0:
329,192,179734,128,0,179773:0:0:0:0:
109,192,179734,128,0,179773:0:0:0:0:
402,192,179811,1,0,0:0:0:0:
256,192,179811,128,0,180041:0:0:0:0:
182,192,179811,1,0,0:0:0:0:
329,192,179888,128,0,179964:0:0:0:0:
109,192,179888,1,0,0:0:0:0:
402,192,179964,128,0,180117:0:0:0:0:
182,192,179964,128,0,180041:0:0:0:0:
109,192,180041,1,0,0:0:0:0:
329,192,180041,128,0,180194:0:0:0:0:
182,192,180117,128,0,180270:0:0:0:0:
256,192,180117,128,0,180194:0:0:0:0:
109,192,180194,128,0,180423:0:0:0:0:
402,192,180194,1,0,0:0:0:0:
329,192,180270,1,0,0:0:0:0:
256,192,180270,1,0,0:0:0:0:
182,192,180347,128,0,180500:0:0:0:0:
402,192,180347,1,0,0:0:0:0:
329,192,180423,128,0,180576:0:0:0:0:
256,192,180423,128,0,180500:0:0:0:0:
402,192,180500,128,0,180729:0:0:0:0:
109,192,180500,1,0,0:0:0:0:
182,192,180576,1,0,0:0:0:0:
256,192,180576,1,0,0:0:0:0:
329,192,180653,128,0,180806:0:0:0:0:
109,192,180653,1,0,0:0:0:0:
182,192,180729,128,0,180806:0:0:0:0:
256,192,180729,128,0,180806:0:0:0:0:
109,192,180806,128,0,180882:0:0:0:0:
402,192,180806,128,0,180882:0:0:0:0:
182,192,180882,128,0,181036:0:0:0:0:
256,192,180882,128,0,182183:0:0:0:0:
329,192,180882,128,0,180959:0:0:0:0:
402,192,180959,128,0,181112:0:0:0:0:
109,192,180959,128,0,181112:0:0:0:0:
329,192,181036,128,0,181189:0:0:0:0:
36,192,181036,128,0,181112:0:0:0:0:
182,192,181112,1,0,0:0:0:0:
475,192,181112,128,0,181189:0:0:0:0:
109,192,181189,1,0,0:0:0:0:
36,192,181189,128,0,181342:0:0:0:0:
402,192,181189,128,0,181265:0:0:0:0:
182,192,181265,128,0,181495:0:0:0:0:
329,192,181265,128,0,181342:0:0:0:0:
475,192,181342,1,0,0:0:0:0:
109,192,181342,128,0,181418:0:0:0:0:
402,192,181342,128,0,181418:0:0:0:0:
329,192,181418,1,0,0:0:0:0:
36,192,181418,128,0,181495:0:0:0:0:
402,192,181495,1,0,0:0:0:0:
475,192,181495,128,0,181648:0:0:0:0:
109,192,181495,128,0,181571:0:0:0:0:
329,192,181571,128,0,181801:0:0:0:0:
182,192,181571,128,0,181648:0:0:0:0:
36,192,181648,1,0,0:0:0:0:
402,192,181648,128,0,181724:0:0:0:0:
109,192,181648,128,0,181724:0:0:0:0:
182,192,181724,1,0,0:0:0:0:
475,192,181724,128,0,181801:0:0:0:0:
109,192,181801,1,0,0:0:0:0:
36,192,181801,128,0,182030:0:0:0:0:
402,192,181801,128,0,181877:0:0:0:0:
329,192,181877,128,0,181954:0:0:0:0:
182,192,181877,1,0,0:0:0:0:
475,192,181954,1,0,0:0:0:0:
109,192,181954,128,0,182030:0:0:0:0:
402,192,181954,128,0,182030:0:0:0:0:
182,192,182030,128,0,182069:0:0:0:0:
329,192,182030,128,0,182069:0:0:0:0:
402,192,182107,128,0,182145:0:0:0:0:
109,192,182107,128,0,182145:0:0:0:0:
36,192,182107,128,0,182145:0:0:0:0:
475,192,182107,128,0,182145:0:0:0:0:
329,192,182183,128,0,182222:0:0:0:0:
182,192,182183,128,0,182222:0:0:0:0:
36,192,182260,128,0,182337:0:0:0:0:
402,192,182260,1,0,0:0:0:0:
256,192,182260,128,0,182337:0:0:0:0:
475,192,182260,128,0,182337:0:0:0:0:
109,192,182337,128,0,182413:0:0:0:0:
329,192,182337,128,0,182413:0:0:0:0:
182,192,182413,128,0,182490:0:0:0:0:
36,192,182413,128,0,182796:0:0:0:0:
475,192,182413,1,0,0:0:0:0:
402,192,182413,128,0,182566:0:0:0:0:
256,192,182490,128,0,182566:0:0:0:0:
109,192,182490,128,0,182719:0:0:0:0:
329,192,182566,1,0,0:0:0:0:
475,192,182566,128,0,182643:0:0:0:0:
182,192,182566,128,0,182643:0:0:0:0:
402,192,182643,128,0,182719:0:0:0:0:
256,192,182643,1,0,0:0:0:0:
329,192,182719,128,0,182796:0:0:0:0:
475,192,182719,128,0,183102:0:0:0:0:
182,192,182719,128,0,182796:0:0:0:0:
402,192,182796,128,0,183025:0:0:0:0:
109,192,182796,128,0,182872:0:0:0:0:
182,192,182872,1,0,0:0:0:0:
329,192,182872,128,0,182949:0:0:0:0:
36,192,182872,128,0,182949:0:0:0:0:
256,192,182949,1,0,0:0:0:0:
109,192,182949,128,0,183178:0:0:0:0:
329,192,183025,1,0,0:0:0:0:
182,192,183025,128,0,183102:0:0:0:0:
36,192,183025,128,0,183255:0:0:0:0:
402,192,183102,1,0,0:0:0:0:
256,192,183102,1,0,0:0:0:0:
475,192,183178,1,0,0:0:0:0:
329,192,183178,128,0,183217:0:0:0:0:
256,192,183217,128,0,183255:0:0:0:0:
182,192,183255,128,0,183293:0:0:0:0:
402,192,183255,128,0,183331:0:0:0:0:
109,192,183293,128,0,183331:0:0:0:0:
36,192,183331,128,0,183370:0:0:0:0:
256,192,183331,1,0,0:0:0:0:
475,192,183370,128,0,183408:0:0:0:0:
402,192,183408,128,0,183446:0:0:0:0:
109,192,183408,128,0,183484:0:0:0:0:
329,192,183446,128,0,183484:0:0:0:0:
475,192,183484,128,0,183638:0:0:0:0:
256,192,183484,128,0,183561:0:0:0:0:
329,192,183561,128,0,183638:0:0:0:0:
36,192,183561,128,0,183714:0:0:0:0:
256,192,183638,1,0,0:0:0:0:
109,192,183638,128,0,183867:0:0:0:0:
402,192,183638,128,0,183714:0:0:0:0:
475,192,183714,128,0,183791:0:0:0:0:
182,192,183714,128,0,183791:0:0:0:0:
36,192,183791,128,0,183944:0:0:0:0:
402,192,183791,1,0,0:0:0:0:
256,192,183791,128,0,183867:0:0:0:0:
475,192,183867,128,0,184020:0:0:0:0:
182,192,183867,128,0,183944:0:0:0:0:
402,192,183944,128,0,184173:0:0:0:0:
109,192,183944,128,0,184020:0:0:0:0:
256,192,183944,1,0,0:0:0:0:
329,192,184020,128,0,184097:0:0:0:0:
36,192,184020,128,0,184097:0:0:0:0:
475,192,184097,128,0,184250:0:0:0:0:
256,192,184097,128,0,184173:0:0:0:0:
109,192,184097,1,0,0:0:0:0:
329,192,184173,128,0,184250:0:0:0:0:
36,192,184173,128,0,184479:0:0:0:0:
256,192,184250,1,0,0:0:0:0:
402,192,184250,128,0,184326:0:0:0:0:
109,192,184250,128,0,184441:0:0:0:0:
475,192,184326,128,0,184403:0:0:0:0:
182,192,184326,128,0,184403:0:0:0:0:
256,192,184403,128,0,184441:0:0:0:0:
402,192,184403,1,0,0:0:0:0:
182,192,184441,128,0,184479:0:0:0:0:
109,192,184479,128,0,184518:0:0:0:0:
329,192,184479,128,0,184556:0:0:0:0:
36,192,184518,128,0,184556:0:0:0:0:
475,192,184556,128,0,184594:0:0:0:0:
182,192,184556,128,0,184632:0:0:0:0:
402,192,184594,128,0,184632:0:0:0:0:
329,192,184632,128,0,184671:0:0:0:0:
109,192,184632,1,0,0:0:0:0:
256,192,184671,128,0,184709:0:0:0:0:
475,192,184709,128,0,184786:0:0:0:0:
36,192,184709,1,0,0:0:0:0:
182,192,184709,128,0,184824:0:0:0:0:
402,192,184747,128,0,184900:0:0:0:0:
329,192,184786,128,0,184862:0:0:0:0:
109,192,184786,128,0,184900:0:0:0:0:
256,192,184824,1,0,0:0:0:0:
475,192,184862,128,0,184977:0:0:0:0:
36,192,184862,128,0,184977:0:0:0:0:
329,192,184900,128,0,184939:0:0:0:0:
256,192,184939,128,0,184977:0:0:0:0:
182,192,184977,128,0,185015:0:0:0:0:
36,192,185015,128,0,185092:0:0:0:0:
475,192,185015,1,0,0:0:0:0:
329,192,185015,128,0,185130:0:0:0:0:
109,192,185053,128,0,185206:0:0:0:0:
182,192,185092,128,0,185168:0:0:0:0:
402,192,185092,128,0,185206:0:0:0:0:
256,192,185130,1,0,0:0:0:0:
36,192,185168,128,0,185283:0:0:0:0:
475,192,185168,128,0,185283:0:0:0:0:
182,192,185206,128,0,185245:0:0:0:0:
256,192,185245,128,0,185283:0:0:0:0:
329,192,185283,128,0,185321:0:0:0:0:
475,192,185321,128,0,185398:0:0:0:0:
36,192,185321,128,0,185398:0:0:0:0:
402,192,185359,128,0,185436:0:0:0:0:
109,192,185359,128,0,185436:0:0:0:0:
329,192,185398,128,0,185474:0:0:0:0:
182,192,185398,128,0,185474:0:0:0:0:
256,192,185436,128,0,185551:0:0:0:0:
36,192,185474,128,0,185513:0:0:0:0:
475,192,185474,128,0,185513:0:0:0:0:
329,192,185513,128,0,185589:0:0:0:0:
182,192,185513,128,0,185589:0:0:0:0:
109,192,185551,128,0,185627:0:0:0:0:
402,192,185551,128,0,185627:0:0:0:0:
36,192,185627,1,0,0:0:0:0:
475,192,185627,1,0,0:0:0:0:
402,192,185780,1,0,0:0:0:0:
256,192,185819,1,0,0:0:0:0:
109,192,185857,1,0,0:0:0:0:
475,192,185933,128,0,186220:0:0:0:0:
402,192,185953,128,0,186240:0:0:0:0:
329,192,185972,128,0,186067:0:0:0:0:
256,192,185991,128,0,186087:0:0:0:0:
182,192,186010,128,0,186106:0:0:0:0:
329,192,186125,128,0,186259:0:0:0:0:
256,192,186144,128,0,186278:0:0:0:0:
182,192,186163,128,0,186412:0:0:0:0:
109,192,186182,128,0,186431:0:0:0:0:
36,192,186201,128,0,186450:0:0:0:0:
475,192,186278,128,0,186469:0:0:0:0:
402,192,186297,128,0,186488:0:0:0:0:
329,192,186316,128,0,186374:0:0:0:0:
256,192,186335,128,0,186393:0:0:0:0:
329,192,186431,128,0,186507:0:0:0:0:
256,192,186450,128,0,186527:0:0:0:0:
182,192,186469,128,0,186546:0:0:0:0:
109,192,186488,128,0,186565:0:0:0:0:
36,192,186507,128,0,186584:0:0:0:0:
475,192,186546,128,0,186584:0:0:0:0:
329,192,186584,128,0,186622:0:0:0:0:
182,192,186622,128,0,186661:0:0:0:0:
402,192,186661,128,0,186737:0:0:0:0:
256,192,186699,128,0,186775:0:0:0:0:
109,192,186737,128,0,186814:0:0:0:0:
475,192,186775,128,0,186852:0:0:0:0:
329,192,186814,128,0,186890:0:0:0:0:
182,192,186852,128,0,186928:0:0:0:0:
402,192,186928,128,0,186967:0:0:0:0:
256,192,186967,128,0,187005:0:0:0:0:
109,192,187005,128,0,187043:0:0:0:0:
182,192,187158,128,0,187234:0:0:0:0:
329,192,187158,128,0,187196:0:0:0:0:
402,192,187158,128,0,187234:0:0:0:0:
475,192,187158,128,0,187388:0:0:0:0:
109,192,187196,128,0,187311:0:0:0:0:
36,192,187234,128,0,187502:0:0:0:0:
256,192,187234,1,0,0:0:0:0:
182,192,187311,1,0,0:0:0:0:
402,192,187311,128,0,187388:0:0:0:0:
329,192,187349,128,0,187388:0:0:0:0:
256,192,187388,1,0,0:0:0:0:
109,192,187464,128,0,187541:0:0:0:0:
329,192,187464,1,0,0:0:0:0:
182,192,187502,128,0,187655:0:0:0:0:
402,192,187502,1,0,0:0:0:0:
475,192,187541,128,0,188153:0:0:0:0:
256,192,187541,128,0,187617:0:0:0:0:
329,192,187617,1,0,0:0:0:0:
109,192,187617,128,0,187694:0:0:0:0:
36,192,187655,128,0,187828:0:0:0:0:
256,192,187694,1,0,0:0:0:0:
402,192,187732,128,0,187847:0:0:0:0:
109,192,187770,128,0,187866:0:0:0:0:
329,192,187770,128,0,187808:0:0:0:0:
182,192,187828,128,0,187904:0:0:0:0:
256,192,187885,128,0,188000:0:0:0:0:
329,192,187904,128,0,187981:0:0:0:0:
402,192,187923,128,0,187962:0:0:0:0:
36,192,187923,1,0,0:0:0:0:
182,192,187962,128,0,188019:0:0:0:0:
109,192,188000,128,0,188134:0:0:0:0:
182,192,188076,128,0,188172:0:0:0:0:
329,192,188076,1,0,0:0:0:0:
402,192,188076,128,0,188115:0:0:0:0:
256,192,188134,128,0,188210:0:0:0:0:
329,192,188191,128,0,188306:0:0:0:0:
402,192,188210,128,0,188287:0:0:0:0:
475,192,188229,128,0,188268:0:0:0:0:
109,192,188229,1,0,0:0:0:0:
256,192,188268,128,0,188325:0:0:0:0:
182,192,188306,128,0,188382:0:0:0:0:
109,192,188344,128,0,188440:0:0:0:0:
36,192,188382,128,0,188536:0:0:0:0:
475,192,188382,1,0,0:0:0:0:
402,192,188402,128,0,188478:0:0:0:0:
329,192,188421,1,0,0:0:0:0:
256,192,188459,128,0,188612:0:0:0:0:
182,192,188497,1,0,0:0:0:0:
475,192,188536,128,0,188612:0:0:0:0:
109,192,188536,1,0,0:0:0:0:
402,192,188555,1,0,0:0:0:0:
329,192,188612,128,0,188765:0:0:0:0:
36,192,188612,1,0,0:0:0:0:
475,192,188689,1,0,0:0:0:0:
256,192,188689,128,0,188803:0:0:0:0:
109,192,188689,1,0,0:0:0:0:
402,192,188765,128,0,188918:0:0:0:0:
182,192,188765,128,0,188842:0:0:0:0:
109,192,188822,128,0,188861:0:0:0:0:
329,192,188842,128,0,188937:0:0:0:0:
36,192,188842,1,0,0:0:0:0:
256,192,188918,128,0,188976:0:0:0:0:
182,192,188956,128,0,188995:0:0:0:0:
109,192,188976,1,0,0:0:0:0:
36,192,188995,128,0,189186:0:0:0:0:
329,192,188995,128,0,189033:0:0:0:0:
402,192,188995,128,0,189071:0:0:0:0:
475,192,188995,128,0,189109:0:0:0:0:
256,192,189071,1,0,0:0:0:0:
109,192,189109,128,0,189186:0:0:0:0:
329,192,189129,1,0,0:0:0:0:
182,192,189148,128,0,189339:0:0:0:0:
402,192,189167,1,0,0:0:0:0:
475,192,189186,1,0,0:0:0:0:
36,192,189224,128,0,189263:0:0:0:0:
109,192,189224,128,0,189301:0:0:0:0:
256,192,189224,128,0,189492:0:0:0:0:
402,192,189301,128,0,189377:0:0:0:0:
329,192,189301,128,0,189416:0:0:0:0:
475,192,189301,128,0,189339:0:0:0:0:
182,192,189377,128,0,189435:0:0:0:0:
109,192,189416,128,0,189454:0:0:0:0:
36,192,189454,1,0,0:0:0:0:
329,192,189454,128,0,189511:0:0:0:0:
402,192,189492,128,0,189530:0:0:0:0:
475,192,189530,1,0,0:0:0:0:
109,192,189607,128,0,189683:0:0:0:0:
182,192,189607,128,0,189645:0:0:0:0:
329,192,189607,128,0,189683:0:0:0:0:
36,192,189607,128,0,189837:0:0:0:0:
402,192,189645,128,0,189760:0:0:0:0:
475,192,189683,128,0,189951:0:0:0:0:
256,192,189683,1,0,0:0:0:0:
329,192,189760,1,0,0:0:0:0:
109,192,189760,128,0,189837:0:0:0:0:
182,192,189798,128,0,189837:0:0:0:0:
256,192,189837,1,0,0:0:0:0:
402,192,189913,128,0,189990:0:0:0:0:
182,192,189913,1,0,0:0:0:0:
329,192,189951,128,0,190104:0:0:0:0:
109,192,189951,1,0,0:0:0:0:
36,192,189990,128,0,190334:0:0:0:0:
256,192,189990,128,0,190066:0:0:0:0:
182,192,190066,1,0,0:0:0:0:
402,192,190066,128,0,190143:0:0:0:0:
475,192,190104,128,0,190277:0:0:0:0:
256,192,190143,1,0,0:0:0:0:
109,192,190181,128,0,190296:0:0:0:0:
402,192,190219,128,0,190315:0:0:0:0:
182,192,190219,128,0,190257:0:0:0:0:
329,192,190277,128,0,190353:0:0:0:0:
256,192,190334,128,0,190372:0:0:0:0:
182,192,190353,128,0,190544:0:0:0:0:
109,192,190372,128,0,190411:0:0:0:0:
475,192,190372,1,0,0:0:0:0:
402,192,190411,1,0,0:0:0:0:
36,192,190525,1,0,0:0:0:0:
256,192,190525,128,0,190564:0:0:0:0:
329,192,190544,128,0,190583:0:0:0:0:
402,192,190564,128,0,190602:0:0:0:0:
109,192,190564,1,0,0:0:0:0:
109,192,190678,128,0,190717:0:0:0:0:
402,192,190678,1,0,0:0:0:0:
182,192,190697,128,0,190736:0:0:0:0:
256,192,190717,128,0,190755:0:0:0:0:
475,192,190717,1,0,0:0:0:0:
36,192,190831,128,0,190870:0:0:0:0:
109,192,190831,128,0,190908:0:0:0:0:
475,192,190831,128,0,190946:0:0:0:0:
402,192,190831,128,0,190908:0:0:0:0:
329,192,190831,128,0,190870:0:0:0:0:
182,192,190870,128,0,191023:0:0:0:0:
256,192,190908,128,0,190984:0:0:0:0:
109,192,190984,128,0,191176:0:0:0:0:
475,192,190984,128,0,191061:0:0:0:0:
36,192,191023,128,0,191138:0:0:0:0:
402,192,191023,128,0,191080:0:0:0:0:
329,192,191061,128,0,191099:0:0:0:0:
256,192,191099,1,0,0:0:0:0:
182,192,191138,128,0,191214:0:0:0:0:
402,192,191138,1,0,0:0:0:0:
475,192,191138,1,0,0:0:0:0:
256,192,191176,128,0,191329:0:0:0:0:
329,192,191214,128,0,191291:0:0:0:0:
402,192,191252,128,0,191405:0:0:0:0:
182,192,191291,128,0,191367:0:0:0:0:
475,192,191291,128,0,191367:0:0:0:0:
109,192,191329,128,0,191558:0:0:0:0:
329,192,191367,128,0,191444:0:0:0:0:
256,192,191405,128,0,191482:0:0:0:0:
182,192,191444,128,0,191597:0:0:0:0:
36,192,191444,128,0,191520:0:0:0:0:
475,192,191444,128,0,191482:0:0:0:0:
402,192,191482,128,0,191520:0:0:0:0:
329,192,191520,128,0,191673:0:0:0:0:
256,192,191558,128,0,191635:0:0:0:0:
402,192,191597,128,0,191788:0:0:0:0:
36,192,191597,128,0,191673:0:0:0:0:
475,192,191635,128,0,191750:0:0:0:0:
109,192,191635,128,0,191692:0:0:0:0:
182,192,191673,128,0,191712:0:0:0:0:
256,192,191712,1,0,0:0:0:0:
329,192,191750,128,0,191826:0:0:0:0:
109,192,191750,1,0,0:0:0:0:
36,192,191750,1,0,0:0:0:0:
256,192,191788,128,0,191941:0:0:0:0:
182,192,191826,128,0,191903:0:0:0:0:
109,192,191865,128,0,192018:0:0:0:0:
329,192,191903,128,0,191979:0:0:0:0:
36,192,191903,128,0,191979:0:0:0:0:
402,192,191941,128,0,192018:0:0:0:0:
475,192,191979,128,0,192158:0:0:0:0:
182,192,191979,128,0,192037:0:0:0:0:
256,192,192018,128,0,192056:0:0:0:0:
329,192,192056,1,0,0:0:0:0:
402,192,192132,128,0,192183:0:0:0:0:
109,192,192132,1,0,0:0:0:0:
36,192,192132,1,0,0:0:0:0:
329,192,192158,128,0,192209:0:0:0:0:
256,192,192183,128,0,192234:0:0:0:0:
182,192,192209,128,0,192260:0:0:0:0:
109,192,192234,128,0,192286:0:0:0:0:
36,192,192260,128,0,192592:0:0:0:0:
402,192,192286,1,0,0:0:0:0:
475,192,192286,1,0,0:0:0:0:
182,192,192362,128,0,192413:0:0:0:0:
109,192,192362,128,0,192439:0:0:0:0:
256,192,192362,1,0,0:0:0:0:
475,192,192439,128,0,192974:0:0:0:0:
329,192,192439,128,0,192490:0:0:0:0:
402,192,192439,128,0,192515:0:0:0:0:
109,192,192490,128,0,192592:0:0:0:0:
182,192,192515,128,0,192592:0:0:0:0:
256,192,192541,128,0,192592:0:0:0:0:
329,192,192566,1,0,0:0:0:0:
402,192,192592,1,0,0:0:0:0:
36,192,192668,128,0,192745:0:0:0:0:
109,192,192668,128,0,192719:0:0:0:0:
182,192,192668,1,0,0:0:0:0:
402,192,192745,128,0,192974:0:0:0:0:
256,192,192745,128,0,192796:0:0:0:0:
329,192,192745,128,0,192821:0:0:0:0:
36,192,192796,128,0,193382:0:0:0:0:
109,192,192821,128,0,192898:0:0:0:0:
182,192,192847,128,0,192898:0:0:0:0:
256,192,192872,1,0,0:0:0:0:
329,192,192898,1,0,0:0:0:0:
109,192,192974,128,0,193051:0:0:0:0:
182,192,192974,128,0,193025:0:0:0:0:
256,192,192974,1,0,0:0:0:0:
475,192,193051,128,0,193280:0:0:0:0:
329,192,193051,128,0,193102:0:0:0:0:
402,192,193051,128,0,193127:0:0:0:0:
109,192,193102,128,0,193204:0:0:0:0:
182,192,193127,128,0,193204:0:0:0:0:
256,192,193153,128,0,193204:0:0:0:0:
329,192,193178,1,0,0:0:0:0:
402,192,193204,1,0,0:0:0:0:
182,192,193280,1,0,0:0:0:0:
256,192,193280,1,0,0:0:0:0:
329,192,193280,1,0,0:0:0:0:
402,192,193357,1,0,0:0:0:0:
475,192,193357,1,0,0:0:0:0:
109,192,193357,128,0,193408:0:0:0:0:
182,192,193382,128,0,193433:0:0:0:0:
256,192,193408,128,0,193459:0:0:0:0:
329,192,193433,128,0,193484:0:0:0:0:
402,192,193459,128,0,193510:0:0:0:0:
475,192,193484,128,0,193816:0:0:0:0:
109,192,193510,1,0,0:0:0:0:
36,192,193510,1,0,0:0:0:0:
402,192,193587,128,0,193663:0:0:0:0:
329,192,193587,128,0,193638:0:0:0:0:
256,192,193587,1,0,0:0:0:0:
36,192,193663,128,0,194199:0:0:0:0:
109,192,193663,128,0,193740:0:0:0:0:
182,192,193663,128,0,193714:0:0:0:0:
402,192,193714,128,0,193816:0:0:0:0:
329,192,193740,128,0,193816:0:0:0:0:
256,192,193765,128,0,193816:0:0:0:0:
182,192,193791,1,0,0:0:0:0:
109,192,193816,1,0,0:0:0:0:
475,192,193893,128,0,193969:0:0:0:0:
402,192,193893,128,0,193944:0:0:0:0:
329,192,193893,1,0,0:0:0:0:
109,192,193969,128,0,194199:0:0:0:0:
182,192,193969,128,0,194046:0:0:0:0:
256,192,193969,128,0,194020:0:0:0:0:
475,192,194020,128,0,194122:0:0:0:0:
402,192,194046,128,0,194122:0:0:0:0:
329,192,194071,128,0,194122:0:0:0:0:
256,192,194097,1,0,0:0:0:0:
182,192,194122,1,0,0:0:0:0:
329,192,194199,128,0,194275:0:0:0:0:
402,192,194199,128,0,194237:0:0:0:0:
256,192,194199,128,0,194390:0:0:0:0:
475,192,194199,1,0,0:0:0:0:
182,192,194275,128,0,194333:0:0:0:0:
109,192,194314,128,0,194352:0:0:0:0:
329,192,194352,128,0,194409:0:0:0:0:
36,192,194352,1,0,0:0:0:0:
402,192,194390,128,0,194428:0:0:0:0:
475,192,194428,1,0,0:0:0:0:
36,192,194505,1,0,0:0:0:0:
109,192,194505,128,0,194734:0:0:0:0:
256,192,194505,1,0,0:0:0:0:
329,192,194505,128,0,194581:0:0:0:0:
182,192,194581,128,0,194658:0:0:0:0:
402,192,194581,128,0,194734:0:0:0:0:
475,192,194581,128,0,194658:0:0:0:0:
36,192,194658,128,0,194888:0:0:0:0:
256,192,194658,128,0,194811:0:0:0:0:
329,192,194658,1,0,0:0:0:0:
475,192,194734,1,0,0:0:0:0:
182,192,194734,128,0,195117:0:0:0:0:
329,192,194811,128,0,194888:0:0:0:0:
402,192,194811,128,0,194888:0:0:0:0:
109,192,194811,128,0,194888:0:0:0:0:
256,192,194888,1,0,0:0:0:0:
475,192,194888,128,0,195117:0:0:0:0:
329,192,194964,1,0,0:0:0:0:
109,192,194964,128,0,195423:0:0:0:0:
36,192,194964,128,0,195041:0:0:0:0:
402,192,194964,1,0,0:0:0:0:
329,192,195041,128,0,195194:0:0:0:0:
256,192,195041,128,0,195194:0:0:0:0:
36,192,195117,1,0,0:0:0:0:
402,192,195117,128,0,195423:0:0:0:0:
182,192,195194,1,0,0:0:0:0:
475,192,195194,1,0,0:0:0:0:
256,192,195270,1,0,0:0:0:0:
36,192,195270,128,0,195729:0:0:0:0:
329,192,195270,1,0,0:0:0:0:
256,192,195347,128,0,195500:0:0:0:0:
182,192,195347,128,0,195500:0:0:0:0:
475,192,195347,128,0,195500:0:0:0:0:
329,192,195423,128,0,195653:0:0:0:0:
109,192,195500,1,0,0:0:0:0:
402,192,195500,1,0,0:0:0:0:
256,192,195576,1,0,0:0:0:0:
182,192,195576,1,0,0:0:0:0:
475,192,195576,1,0,0:0:0:0:
109,192,195653,128,0,195729:0:0:0:0:
402,192,195653,128,0,195882:0:0:0:0:
182,192,195653,128,0,195882:0:0:0:0:
329,192,195729,128,0,195806:0:0:0:0:
256,192,195729,128,0,195806:0:0:0:0:
475,192,195729,128,0,196112:0:0:0:0:
109,192,195806,128,0,196112:0:0:0:0:
36,192,195806,128,0,195959:0:0:0:0:
329,192,195882,1,0,0:0:0:0:
256,192,195882,1,0,0:0:0:0:
182,192,195959,128,0,196112:0:0:0:0:
256,192,196036,128,0,196112:0:0:0:0:
402,192,196036,128,0,196112:0:0:0:0:
36,192,196036,128,0,196112:0:0:0:0:
329,192,196036,128,0,196265:0:0:0:0:
182,192,196189,128,0,196265:0:0:0:0:
256,192,196189,128,0,196265:0:0:0:0:
36,192,196189,128,0,196571:0:0:0:0:
109,192,196189,128,0,196265:0:0:0:0:
402,192,196189,128,0,196571:0:0:0:0:
475,192,196189,128,0,196265:0:0:0:0:
182,192,196342,1,0,0:0:0:0:
329,192,196418,128,0,196571:0:0:0:0:
475,192,196418,128,0,196571:0:0:0:0:
109,192,196495,128,0,196571:0:0:0:0:
182,192,196495,128,0,196571:0:0:0:0:
256,192,196495,128,0,196571:0:0:0:0:
475,192,196648,128,0,196877:0:0:0:0:
329,192,196648,128,0,196877:0:0:0:0:
402,192,196648,128,0,196877:0:0:0:0:
256,192,196648,128,0,196877:0:0:0:0:
182,192,196648,128,0,196877:0:0:0:0:
109,192,196648,128,0,196877:0:0:0:0:
36,192,196648,128,0,196877:0:0:0:0:
329,192,196954,128,0,197030:0:0:0:0:
182,192,196954,128,0,196992:0:0:0:0:
109,192,196954,128,0,197030:0:0:0:0:
36,192,196954,128,0,197183:0:0:0:0:
402,192,196992,128,0,197107:0:0:0:0:
475,192,197030,128,0,197298:0:0:0:0:
256,192,197030,1,0,0:0:0:0:
329,192,197107,1,0,0:0:0:0:
109,192,197107,128,0,197183:0:0:0:0:
182,192,197145,128,0,197183:0:0:0:0:
256,192,197183,1,0,0:0:0:0:
402,192,197260,128,0,197337:0:0:0:0:
182,192,197260,1,0,0:0:0:0:
329,192,197298,128,0,197451:0:0:0:0:
109,192,197298,1,0,0:0:0:0:
36,192,197337,128,0,197949:0:0:0:0:
256,192,197337,128,0,197413:0:0:0:0:
182,192,197413,1,0,0:0:0:0:
402,192,197413,128,0,197490:0:0:0:0:
475,192,197451,128,0,197624:0:0:0:0:
256,192,197490,1,0,0:0:0:0:
109,192,197528,128,0,197643:0:0:0:0:
402,192,197566,128,0,197662:0:0:0:0:
182,192,197566,128,0,197604:0:0:0:0:
329,192,197624,128,0,197700:0:0:0:0:
256,192,197681,128,0,197796:0:0:0:0:
182,192,197700,128,0,197777:0:0:0:0:
109,192,197719,128,0,197757:0:0:0:0:
475,192,197719,1,0,0:0:0:0:
329,192,197757,128,0,197815:0:0:0:0:
402,192,197796,128,0,197930:0:0:0:0:
329,192,197872,128,0,197968:0:0:0:0:
182,192,197872,1,0,0:0:0:0:
109,192,197872,128,0,197911:0:0:0:0:
256,192,197930,128,0,198006:0:0:0:0:
182,192,197987,128,0,198102:0:0:0:0:
109,192,198006,128,0,198083:0:0:0:0:
36,192,198025,128,0,198064:0:0:0:0:
402,192,198025,1,0,0:0:0:0:
256,192,198064,128,0,198121:0:0:0:0:
329,192,198102,128,0,198178:0:0:0:0:
402,192,198140,128,0,198236:0:0:0:0:
475,192,198178,128,0,198331:0:0:0:0:
36,192,198178,1,0,0:0:0:0:
109,192,198197,128,0,198274:0:0:0:0:
182,192,198217,1,0,0:0:0:0:
256,192,198255,128,0,198408:0:0:0:0:
329,192,198293,1,0,0:0:0:0:
36,192,198331,128,0,198408:0:0:0:0:
402,192,198331,1,0,0:0:0:0:
109,192,198351,1,0,0:0:0:0:
182,192,198408,128,0,198561:0:0:0:0:
475,192,198408,1,0,0:0:0:0:
36,192,198484,1,0,0:0:0:0:
256,192,198484,128,0,198599:0:0:0:0:
402,192,198484,1,0,0:0:0:0:
109,192,198561,128,0,198714:0:0:0:0:
329,192,198561,128,0,198638:0:0:0:0:
402,192,198618,128,0,198657:0:0:0:0:
182,192,198638,128,0,198733:0:0:0:0:
475,192,198638,1,0,0:0:0:0:
256,192,198714,128,0,198771:0:0:0:0:
329,192,198752,128,0,198791:0:0:0:0:
402,192,198771,1,0,0:0:0:0:
475,192,198791,128,0,198982:0:0:0:0:
182,192,198791,128,0,198829:0:0:0:0:
109,192,198791,128,0,198867:0:0:0:0:
36,192,198791,128,0,198905:0:0:0:0:
256,192,198867,1,0,0:0:0:0:
402,192,198905,128,0,198982:0:0:0:0:
182,192,198925,1,0,0:0:0:0:
329,192,198944,128,0,199135:0:0:0:0:
109,192,198963,1,0,0:0:0:0:
36,192,198982,1,0,0:0:0:0:
475,192,199020,128,0,199058:0:0:0:0:
402,192,199020,128,0,199097:0:0:0:0:
256,192,199020,128,0,199288:0:0:0:0:
109,192,199097,128,0,199173:0:0:0:0:
182,192,199097,128,0,199212:0:0:0:0:
36,192,199097,128,0,199135:0:0:0:0:
329,192,199173,128,0,199231:0:0:0:0:
402,192,199212,128,0,199250:0:0:0:0:
475,192,199250,1,0,0:0:0:0:
182,192,199250,128,0,199307:0:0:0:0:
109,192,199288,128,0,199326:0:0:0:0:
36,192,199326,1,0,0:0:0:0:
329,192,199403,128,0,199441:0:0:0:0:
182,192,199403,128,0,199479:0:0:0:0:
475,192,199403,128,0,199632:0:0:0:0:
402,192,199403,128,0,199479:0:0:0:0:
109,192,199441,128,0,199556:0:0:0:0:
256,192,199479,1,0,0:0:0:0:
36,192,199479,128,0,199939:0:0:0:0:
402,192,199556,128,0,199632:0:0:0:0:
182,192,199556,1,0,0:0:0:0:
329,192,199594,128,0,199632:0:0:0:0:
256,192,199632,1,0,0:0:0:0:
182,192,199709,128,0,199747:0:0:0:0:
329,192,199709,128,0,199786:0:0:0:0:
109,192,199709,128,0,199786:0:0:0:0:
402,192,199747,128,0,199862:0:0:0:0:
256,192,199786,1,0,0:0:0:0:
475,192,199786,128,0,200092:0:0:0:0:
109,192,199862,128,0,199939:0:0:0:0:
329,192,199862,1,0,0:0:0:0:
182,192,199900,128,0,199939:0:0:0:0:
256,192,199939,1,0,0:0:0:0:
36,192,200015,1,0,0:0:0:0:
402,192,200015,1,0,0:0:0:0:
109,192,200015,128,0,200092:0:0:0:0:
182,192,200015,128,0,200053:0:0:0:0:
329,192,200053,128,0,200245:0:0:0:0:
256,192,200092,1,0,0:0:0:0:
36,192,200168,128,0,200398:0:0:0:0:
402,192,200168,128,0,200206:0:0:0:0:
109,192,200168,128,0,200206:0:0:0:0:
475,192,200168,1,0,0:0:0:0:
256,192,200206,128,0,200283:0:0:0:0:
182,192,200245,128,0,200283:0:0:0:0:
475,192,200321,1,0,0:0:0:0:
109,192,200321,1,0,0:0:0:0:
329,192,200321,128,0,200359:0:0:0:0:
402,192,200321,128,0,200398:0:0:0:0:
182,192,200359,128,0,200551:0:0:0:0:
256,192,200398,1,0,0:0:0:0:
109,192,200474,128,0,200513:0:0:0:0:
402,192,200474,128,0,200513:0:0:0:0:
36,192,200474,1,0,0:0:0:0:
475,192,200474,128,0,200627:0:0:0:0:
256,192,200513,128,0,200589:0:0:0:0:
329,192,200551,128,0,200704:0:0:0:0:
109,192,200627,128,0,200857:0:0:0:0:
182,192,200627,1,0,0:0:0:0:
402,192,200627,1,0,0:0:0:0:
36,192,200627,128,0,200704:0:0:0:0:
475,192,200704,128,0,200857:0:0:0:0:
256,192,200704,1,0,0:0:0:0:
182,192,200780,128,0,200857:0:0:0:0:
402,192,200780,128,0,200857:0:0:0:0:
329,192,200819,128,0,201010:0:0:0:0:
256,192,200857,128,0,200933:0:0:0:0:
36,192,200857,128,0,200933:0:0:0:0:
402,192,200933,128,0,201163:0:0:0:0:
475,192,200933,128,0,201010:0:0:0:0:
109,192,200933,1,0,0:0:0:0:
182,192,200933,128,0,201010:0:0:0:0:
36,192,201010,128,0,201163:0:0:0:0:
256,192,201010,1,0,0:0:0:0:
329,192,201087,128,0,201201:0:0:0:0:
109,192,201087,128,0,201163:0:0:0:0:
182,192,201125,128,0,201316:0:0:0:0:
256,192,201163,128,0,201240:0:0:0:0:
475,192,201163,128,0,201240:0:0:0:0:
36,192,201240,128,0,201316:0:0:0:0:
109,192,201240,128,0,201469:0:0:0:0:
402,192,201240,128,0,201316:0:0:0:0:
329,192,201278,1,0,0:0:0:0:
256,192,201316,1,0,0:0:0:0:
475,192,201316,128,0,201469:0:0:0:0:
182,192,201393,128,0,201507:0:0:0:0:
402,192,201393,128,0,201699:0:0:0:0:
329,192,201393,128,0,201469:0:0:0:0:
256,192,201469,128,0,201546:0:0:0:0:
36,192,201469,128,0,201546:0:0:0:0:
475,192,201546,128,0,201775:0:0:0:0:
329,192,201546,128,0,201622:0:0:0:0:
109,192,201546,128,0,201622:0:0:0:0:
182,192,201584,1,0,0:0:0:0:
36,192,201622,128,0,201775:0:0:0:0:
256,192,201622,128,0,201775:0:0:0:0:
182,192,201699,128,0,201775:0:0:0:0:
329,192,201699,128,0,201775:0:0:0:0:
402,192,201775,1,0,0:0:0:0:
109,192,201775,1,0,0:0:0:0:
475,192,201852,128,0,202081:0:0:0:0:
329,192,201852,128,0,202081:0:0:0:0:
36,192,201852,128,0,202081:0:0:0:0:
256,192,201852,128,0,202081:0:0:0:0:
182,192,201852,128,0,202081:0:0:0:0:
329,192,202158,1,0,0:0:0:0:
402,192,202158,1,0,0:0:0:0:
475,192,202158,1,0,0:0:0:0:
109,192,202158,1,0,0:0:0:0:
182,192,202158,1,0,0:0:0:0:
36,192,202158,1,0,0:0:0:0:
256,192,202158,1,0,0:0:0:0:
36,192,202311,128,0,203000:0:0:0:0:
475,192,202311,128,0,202694:0:0:0:0:
402,192,202311,128,0,202541:0:0:0:0:
329,192,202311,128,0,202388:0:0:0:0:
182,192,202311,128,0,202388:0:0:0:0:
109,192,202311,128,0,202388:0:0:0:0:
109,192,202464,1,0,0:0:0:0:
182,192,202464,1,0,0:0:0:0:
329,192,202464,128,0,202770:0:0:0:0:
256,192,202541,128,0,202617:0:0:0:0:
402,192,202617,128,0,202847:0:0:0:0:
182,192,202617,128,0,202694:0:0:0:0:
109,192,202694,128,0,202770:0:0:0:0:
475,192,202770,128,0,202847:0:0:0:0:
182,192,202770,128,0,203000:0:0:0:0:
256,192,202770,128,0,202847:0:0:0:0:
329,192,202847,128,0,202923:0:0:0:0:
402,192,202923,128,0,203000:0:0:0:0:
475,192,202923,128,0,203000:0:0:0:0:
109,192,202923,128,0,203000:0:0:0:0:
256,192,203000,1,0,0:0:0:0:
329,192,203076,1,0,0:0:0:0:
109,192,203076,1,0,0:0:0:0:
402,192,203076,128,0,203306:0:0:0:0:
182,192,203076,128,0,203153:0:0:0:0:
36,192,203076,128,0,203153:0:0:0:0:
475,192,203076,1,0,0:0:0:0:
256,192,203153,128,0,203382:0:0:0:0:
36,192,203229,1,0,0:0:0:0:
109,192,203229,128,0,203306:0:0:0:0:
329,192,203229,128,0,203306:0:0:0:0:
475,192,203229,128,0,203918:0:0:0:0:
182,192,203306,128,0,203918:0:0:0:0:
402,192,203382,1,0,0:0:0:0:
109,192,203382,1,0,0:0:0:0:
329,192,203382,128,0,203612:0:0:0:0:
36,192,203382,128,0,203612:0:0:0:0:
256,192,203459,1,0,0:0:0:0:
402,192,203536,128,0,203612:0:0:0:0:
109,192,203536,128,0,203612:0:0:0:0:
256,192,203612,128,0,203765:0:0:0:0:
329,192,203689,1,0,0:0:0:0:
36,192,203689,1,0,0:0:0:0:
402,192,203765,128,0,203918:0:0:0:0:
109,192,203765,128,0,203918:0:0:0:0:
36,192,203842,128,0,204224:0:0:0:0:
329,192,203842,128,0,204224:0:0:0:0:
475,192,203995,1,0,0:0:0:0:
182,192,203995,1,0,0:0:0:0:
256,192,203995,1,0,0:0:0:0:
109,192,204071,128,0,204224:0:0:0:0:
402,192,204071,128,0,204224:0:0:0:0:
256,192,204148,1,0,0:0:0:0:
182,192,204148,128,0,204224:0:0:0:0:
475,192,204148,128,0,204224:0:0:0:0:
36,192,204301,128,0,204530:0:0:0:0:
475,192,204301,128,0,204530:0:0:0:0:
256,192,204301,128,0,204530:0:0:0:0:
402,192,204301,128,0,204530:0:0:0:0:
109,192,204301,128,0,204530:0:0:0:0:
182,192,204607,1,0,0:0:0:0:
109,192,204607,1,0,0:0:0:0:
36,192,204607,1,0,0:0:0:0:
402,192,204607,1,0,0:0:0:0:
329,192,204607,1,0,0:0:0:0:
475,192,204607,1,0,0:0:0:0:
256,192,204607,1,0,0:0:0:0:
475,192,204760,128,0,205449:0:0:0:0:
36,192,204760,128,0,205143:0:0:0:0:
109,192,204760,128,0,204990:0:0:0:0:
182,192,204760,128,0,204837:0:0:0:0:
329,192,204760,128,0,204837:0:0:0:0:
402,192,204760,128,0,204837:0:0:0:0:
256,192,204913,1,0,0:0:0:0:
402,192,204913,1,0,0:0:0:0:
329,192,204913,1,0,0:0:0:0:
182,192,204913,128,0,205219:0:0:0:0:
109,192,205066,128,0,205296:0:0:0:0:
329,192,205066,128,0,205143:0:0:0:0:
36,192,205219,128,0,205296:0:0:0:0:
329,192,205219,1,0,0:0:0:0:
402,192,205219,128,0,205449:0:0:0:0:
256,192,205219,128,0,205296:0:0:0:0:
182,192,205296,128,0,205372:0:0:0:0:
329,192,205372,128,0,205449:0:0:0:0:
109,192,205372,128,0,205449:0:0:0:0:
36,192,205372,128,0,205449:0:0:0:0:
256,192,205449,1,0,0:0:0:0:
36,192,205525,128,0,205602:0:0:0:0:
402,192,205525,128,0,205831:0:0:0:0:
475,192,205525,128,0,205602:0:0:0:0:
109,192,205525,128,0,205831:0:0:0:0:
182,192,205525,1,0,0:0:0:0:
329,192,205525,1,0,0:0:0:0:
329,192,205678,128,0,205831:0:0:0:0:
256,192,205678,128,0,205831:0:0:0:0:
182,192,205678,128,0,205831:0:0:0:0:
475,192,205831,1,0,0:0:0:0:
36,192,205831,1,0,0:0:0:0:
182,192,205984,128,0,206214:0:0:0:0:
329,192,205984,128,0,206214:0:0:0:0:
109,192,205984,128,0,206023:0:0:0:0:
402,192,205984,128,0,206023:0:0:0:0:
256,192,205984,1,0,0:0:0:0:
36,192,205984,1,0,0:0:0:0:
475,192,205984,1,0,0:0:0:0:
256,192,206138,128,0,206214:0:0:0:0:
36,192,206291,1,0,0:0:0:0:
475,192,206291,1,0,0:0:0:0:
182,192,206291,128,0,206329:0:0:0:0:
109,192,206291,128,0,206329:0:0:0:0:
329,192,206291,128,0,206329:0:0:0:0:
402,192,206291,128,0,206329:0:0:0:0:
256,192,206367,1,0,0:0:0:0:
402,192,206444,1,0,0:0:0:0:
182,192,206444,128,0,206482:0:0:0:0:
109,192,206444,1,0,0:0:0:0:
36,192,206444,128,0,206482:0:0:0:0:
329,192,206444,128,0,206482:0:0:0:0:
475,192,206444,128,0,206482:0:0:0:0:
256,192,206520,1,0,0:0:0:0:
329,192,206597,1,0,0:0:0:0:
182,192,206597,1,0,0:0:0:0:
36,192,206597,128,0,206635:0:0:0:0:
109,192,206597,128,0,206635:0:0:0:0:
402,192,206597,128,0,206635:0:0:0:0:
475,192,206597,128,0,206635:0:0:0:0:
36,192,206750,128,0,206788:0:0:0:0:
109,192,206769,128,0,206807:0:0:0:0:
182,192,206788,128,0,206922:0:0:0:0:
256,192,206807,128,0,206845:0:0:0:0:
329,192,206826,128,0,206865:0:0:0:0:
402,192,206845,128,0,206884:0:0:0:0:
475,192,206865,128,0,206999:0:0:0:0:
109,192,206903,128,0,206941:0:0:0:0:
36,192,206922,128,0,207362:0:0:0:0:
402,192,206979,128,0,207018:0:0:0:0:
329,192,206999,128,0,207152:0:0:0:0:
109,192,207056,128,0,207094:0:0:0:0:
182,192,207075,128,0,207113:0:0:0:0:
256,192,207094,128,0,207228:0:0:0:0:
402,192,207132,128,0,207171:0:0:0:0:
475,192,207152,128,0,207305:0:0:0:0:
182,192,207209,128,0,207247:0:0:0:0:
109,192,207228,128,0,207381:0:0:0:0:
402,192,207286,128,0,207324:0:0:0:0:
329,192,207305,128,0,207439:0:0:0:0:
182,192,207362,128,0,207534:0:0:0:0:
256,192,207381,128,0,207419:0:0:0:0:
402,192,207419,128,0,207611:0:0:0:0:
475,192,207439,128,0,207802:0:0:0:0:
109,192,207515,128,0,207553:0:0:0:0:
36,192,207534,128,0,207687:0:0:0:0:
329,192,207592,128,0,207630:0:0:0:0:
256,192,207611,128,0,207745:0:0:0:0:
109,192,207668,128,0,207879:0:0:0:0:
182,192,207687,128,0,207726:0:0:0:0:
329,192,207726,128,0,207936:0:0:0:0:
402,192,207745,128,0,207783:0:0:0:0:
36,192,207821,128,0,207859:0:0:0:0:
182,192,207859,128,0,207993:0:0:0:0:
256,192,207879,128,0,207917:0:0:0:0:
402,192,207917,128,0,208070:0:0:0:0:
475,192,207936,128,0,208051:0:0:0:0:
109,192,207974,128,0,208146:0:0:0:0:
36,192,207993,128,0,208357:0:0:0:0:
329,192,208051,128,0,208089:0:0:0:0:
256,192,208070,128,0,208223:0:0:0:0:
182,192,208089,128,0,208127:0:0:0:0:
475,192,208127,128,0,208166:0:0:0:0:
402,192,208146,128,0,208185:0:0:0:0:
329,192,208166,128,0,208300:0:0:0:0:
182,192,208204,128,0,208242:0:0:0:0:
109,192,208223,128,0,208376:0:0:0:0:
402,192,208280,128,0,208453:0:0:0:0:
475,192,208300,128,0,208663:0:0:0:0:
182,192,208357,128,0,208395:0:0:0:0:
256,192,208376,128,0,208529:0:0:0:0:
329,192,208395,128,0,208433:0:0:0:0:
36,192,208433,128,0,208472:0:0:0:0:
109,192,208453,128,0,208491:0:0:0:0:
182,192,208472,128,0,208606:0:0:0:0:
329,192,208510,128,0,208548:0:0:0:0:
402,192,208529,128,0,208682:0:0:0:0:
109,192,208587,128,0,208625:0:0:0:0:
36,192,208606,128,0,208740:0:0:0:0:
329,192,208663,128,0,208701:0:0:0:0:
256,192,208682,128,0,208797:0:0:0:0:
109,192,208720,128,0,208759:0:0:0:0:
182,192,208740,128,0,208893:0:0:0:0:
329,192,208778,128,0,208816:0:0:0:0:
402,192,208797,128,0,208835:0:0:0:0:
475,192,208816,128,0,208950:0:0:0:0:
109,192,208874,128,0,208912:0:0:0:0:
36,192,208893,128,0,209046:0:0:0:0:
402,192,208931,128,0,208969:0:0:0:0:
329,192,208950,128,0,208988:0:0:0:0:
256,192,208969,128,0,209103:0:0:0:0:
109,192,209027,128,0,209065:0:0:0:0:
182,192,209046,128,0,209084:0:0:0:0:
329,192,209084,128,0,209122:0:0:0:0:
402,192,209103,128,0,209141:0:0:0:0:
475,192,209122,128,0,209161:0:0:0:0:
36,192,209199,128,0,209237:0:0:0:0:
109,192,209218,128,0,209256:0:0:0:0:
182,192,209237,128,0,209390:0:0:0:0:
256,192,209256,128,0,209371:0:0:0:0:
329,192,209275,128,0,209352:0:0:0:0:
402,192,209294,128,0,209333:0:0:0:0:
475,192,209314,128,0,209447:0:0:0:0:
109,192,209352,128,0,209409:0:0:0:0:
36,192,209371,128,0,209792:0:0:0:0:
402,192,209428,128,0,209467:0:0:0:0:
329,192,209447,128,0,209486:0:0:0:0:
256,192,209467,128,0,209601:0:0:0:0:
182,192,209486,128,0,209581:0:0:0:0:
109,192,209505,128,0,209562:0:0:0:0:
329,192,209581,128,0,209715:0:0:0:0:
402,192,209601,128,0,209696:0:0:0:0:
475,192,209620,128,0,209677:0:0:0:0:
256,192,209696,128,0,209734:0:0:0:0:
182,192,209715,128,0,209830:0:0:0:0:
109,192,209734,128,0,209811:0:0:0:0:
256,192,209811,128,0,209964:0:0:0:0:
329,192,209830,128,0,209868:0:0:0:0:
402,192,209849,128,0,209888:0:0:0:0:
475,192,209868,128,0,210041:0:0:0:0:
182,192,209945,128,0,209983:0:0:0:0:
109,192,209964,128,0,210117:0:0:0:0:
36,192,209983,128,0,210404:0:0:0:0:
402,192,210021,128,0,210060:0:0:0:0:
329,192,210041,128,0,210175:0:0:0:0:
182,192,210098,128,0,210136:0:0:0:0:
256,192,210117,128,0,210155:0:0:0:0:
402,192,210155,128,0,210289:0:0:0:0:
475,192,210175,128,0,210270:0:0:0:0:
329,192,210270,128,0,210308:0:0:0:0:
256,192,210289,128,0,210328:0:0:0:0:
182,192,210308,128,0,210442:0:0:0:0:
109,192,210328,128,0,210423:0:0:0:0:
256,192,210423,128,0,210462:0:0:0:0:
329,192,210442,128,0,210481:0:0:0:0:
402,192,210462,128,0,210615:0:0:0:0:
475,192,210481,128,0,210595:0:0:0:0:
36,192,210500,128,0,210538:0:0:0:0:
109,192,210519,128,0,210557:0:0:0:0:
182,192,210538,128,0,210672:0:0:0:0:
329,192,210595,128,0,210749:0:0:0:0:
256,192,210615,128,0,210653:0:0:0:0:
109,192,210653,128,0,210691:0:0:0:0:
36,192,210672,128,0,211361:0:0:0:0:
402,192,210729,128,0,210768:0:0:0:0:
475,192,210749,128,0,210882:0:0:0:0:
109,192,210768,128,0,210806:0:0:0:0:
182,192,210787,128,0,210825:0:0:0:0:
256,192,210806,128,0,210940:0:0:0:0:
402,192,210863,128,0,210902:0:0:0:0:
329,192,210882,128,0,210978:0:0:0:0:
182,192,210921,128,0,210959:0:0:0:0:
109,192,210940,128,0,211055:0:0:0:0:
402,192,210959,128,0,210997:0:0:0:0:
475,192,210978,128,0,211016:0:0:0:0:
182,192,211036,128,0,211074:0:0:0:0:
256,192,211055,128,0,211093:0:0:0:0:
329,192,211074,128,0,211169:0:0:0:0:
402,192,211093,128,0,211150:0:0:0:0:
475,192,211112,128,0,211667:0:0:0:0:
256,192,211150,128,0,211284:0:0:0:0:
182,192,211169,128,0,211265:0:0:0:0:
109,192,211189,128,0,211246:0:0:0:0:
329,192,211265,128,0,211303:0:0:0:0:
402,192,211284,128,0,211322:0:0:0:0:
109,192,211342,128,0,211380:0:0:0:0:
182,192,211361,128,0,211399:0:0:0:0:
256,192,211380,128,0,211476:0:0:0:0:
329,192,211399,128,0,211456:0:0:0:0:
402,192,211418,128,0,211648:0:0:0:0:
182,192,211456,128,0,211590:0:0:0:0:
109,192,211476,128,0,211571:0:0:0:0:
36,192,211495,128,0,211552:0:0:0:0:
256,192,211571,128,0,211609:0:0:0:0:
329,192,211590,128,0,211629:0:0:0:0:
182,192,211648,128,0,211686:0:0:0:0:
109,192,211648,128,0,211724:0:0:0:0:
36,192,211648,128,0,211801:0:0:0:0:
329,192,211724,128,0,211763:0:0:0:0:
402,192,211724,128,0,211801:0:0:0:0:
475,192,211724,128,0,211877:0:0:0:0:
182,192,211801,1,0,0:0:0:0:
256,192,211839,1,0,0:0:0:0:
329,192,211877,1,0,0:0:0:0:
329,192,211954,128,0,212209:0:0:0:0:
182,192,211954,128,0,212005:0:0:0:0:
475,192,211954,1,0,0:0:0:0:
109,192,211954,128,0,212005:0:0:0:0:
36,192,211954,128,0,212005:0:0:0:0:
402,192,212005,128,0,212056:0:0:0:0:
36,192,212056,1,0,0:0:0:0:
256,192,212107,128,0,212158:0:0:0:0:
109,192,212107,1,0,0:0:0:0:
475,192,212158,1,0,0:0:0:0:
182,192,212183,1,0,0:0:0:0:
256,192,212260,128,0,212490:0:0:0:0:
109,192,212260,128,0,212311:0:0:0:0:
36,192,212260,128,0,212592:0:0:0:0:
475,192,212260,128,0,212490:0:0:0:0:
329,192,212311,128,0,212362:0:0:0:0:
402,192,212311,1,0,0:0:0:0:
109,192,212362,1,0,0:0:0:0:
182,192,212413,128,0,212464:0:0:0:0:
402,192,212413,128,0,212490:0:0:0:0:
109,192,212490,128,0,212566:0:0:0:0:
329,192,212490,1,0,0:0:0:0:
402,192,212566,128,0,212617:0:0:0:0:
475,192,212566,128,0,212796:0:0:0:0:
329,192,212592,128,0,212643:0:0:0:0:
256,192,212617,128,0,212668:0:0:0:0:
182,192,212643,128,0,212700:0:0:0:0:
109,192,212668,128,0,212719:0:0:0:0:
36,192,212694,128,0,212745:0:0:0:0:
402,192,212694,1,0,0:0:0:0:
329,192,212719,128,0,213025:0:0:0:0:
256,192,212745,1,0,0:0:0:0:
182,192,212770,1,0,0:0:0:0:
109,192,212796,1,0,0:0:0:0:
36,192,212821,1,0,0:0:0:0:
256,192,212872,128,0,213025:0:0:0:0:
475,192,212872,1,0,0:0:0:0:
402,192,212872,1,0,0:0:0:0:
182,192,212949,128,0,213025:0:0:0:0:
182,192,213102,1,0,0:0:0:0:
256,192,213102,1,0,0:0:0:0:
329,192,213102,1,0,0:0:0:0:
182,192,213178,128,0,213433:0:0:0:0:
329,192,213178,128,0,213229:0:0:0:0:
402,192,213178,128,0,213229:0:0:0:0:
36,192,213178,1,0,0:0:0:0:
475,192,213178,128,0,213229:0:0:0:0:
109,192,213229,128,0,213280:0:0:0:0:
475,192,213280,1,0,0:0:0:0:
256,192,213331,128,0,213382:0:0:0:0:
402,192,213331,1,0,0:0:0:0:
36,192,213382,1,0,0:0:0:0:
329,192,213408,1,0,0:0:0:0:
402,192,213484,128,0,213536:0:0:0:0:
256,192,213484,128,0,213714:0:0:0:0:
475,192,213484,128,0,213816:0:0:0:0:
36,192,213484,128,0,213816:0:0:0:0:
182,192,213536,128,0,213587:0:0:0:0:
109,192,213536,1,0,0:0:0:0:
402,192,213587,1,0,0:0:0:0:
329,192,213638,128,0,213689:0:0:0:0:
109,192,213638,128,0,213714:0:0:0:0:
402,192,213714,128,0,213791:0:0:0:0:
182,192,213714,1,0,0:0:0:0:
109,192,213791,128,0,213842:0:0:0:0:
182,192,213816,128,0,213867:0:0:0:0:
256,192,213842,128,0,213893:0:0:0:0:
329,192,213867,128,0,213918:0:0:0:0:
402,192,213893,128,0,213944:0:0:0:0:
475,192,213918,128,0,213969:0:0:0:0:
109,192,213944,128,0,214020:0:0:0:0:
36,192,213944,1,0,0:0:0:0:
182,192,213982,128,0,214020:0:0:0:0:
256,192,214020,1,0,0:0:0:0:
182,192,214097,128,0,214326:0:0:0:0:
109,192,214097,128,0,214326:0:0:0:0:
36,192,214097,128,0,214326:0:0:0:0:
256,192,214097,128,0,214326:0:0:0:0:
329,192,214097,128,0,214326:0:0:0:0:
402,192,214097,128,0,214326:0:0:0:0:
475,192,214097,128,0,214326:0:0:0:0:
182,192,214403,1,0,0:0:0:0:
36,192,214403,1,0,0:0:0:0:
329,192,214403,128,0,214632:0:0:0:0:
475,192,214403,128,0,214441:0:0:0:0:
109,192,214479,1,0,0:0:0:0:
256,192,214479,128,0,214709:0:0:0:0:
402,192,214479,128,0,214518:0:0:0:0:
475,192,214556,1,0,0:0:0:0:
36,192,214556,128,0,214786:0:0:0:0:
182,192,214556,128,0,214594:0:0:0:0:
402,192,214632,128,0,214862:0:0:0:0:
109,192,214632,128,0,214671:0:0:0:0:
329,192,214709,128,0,214939:0:0:0:0:
182,192,214709,1,0,0:0:0:0:
475,192,214709,128,0,214747:0:0:0:0:
109,192,214786,128,0,215015:0:0:0:0:
256,192,214786,128,0,214824:0:0:0:0:
475,192,214862,128,0,215092:0:0:0:0:
36,192,214862,128,0,215092:0:0:0:0:
182,192,214862,128,0,214900:0:0:0:0:
256,192,214939,1,0,0:0:0:0:
402,192,214939,128,0,215168:0:0:0:0:
182,192,215015,128,0,215245:0:0:0:0:
329,192,215015,128,0,215053:0:0:0:0:
109,192,215092,128,0,215321:0:0:0:0:
256,192,215092,128,0,215130:0:0:0:0:
329,192,215168,1,0,0:0:0:0:
475,192,215168,1,0,0:0:0:0:
36,192,215168,128,0,215206:0:0:0:0:
402,192,215245,128,0,215283:0:0:0:0:
256,192,215245,1,0,0:0:0:0:
182,192,215321,128,0,215627:0:0:0:0:
36,192,215321,128,0,215551:0:0:0:0:
329,192,215321,128,0,215627:0:0:0:0:
475,192,215321,128,0,215551:0:0:0:0:
256,192,215398,128,0,215474:0:0:0:0:
109,192,215474,1,0,0:0:0:0:
402,192,215474,1,0,0:0:0:0:
256,192,215551,1,0,0:0:0:0:
109,192,215627,1,0,0:0:0:0:
402,192,215627,1,0,0:0:0:0:
475,192,215627,1,0,0:0:0:0:
36,192,215627,1,0,0:0:0:0:
36,192,215780,1,0,0:0:0:0:
475,192,215780,1,0,0:0:0:0:
182,192,215780,128,0,215819:0:0:0:0:
109,192,215780,128,0,215819:0:0:0:0:
402,192,215780,128,0,215819:0:0:0:0:
329,192,215780,128,0,215819:0:0:0:0:
256,192,215857,1,0,0:0:0:0:
329,192,215933,1,0,0:0:0:0:
182,192,215933,1,0,0:0:0:0:
256,192,216010,1,0,0:0:0:0:
475,192,216087,128,0,216125:0:0:0:0:
182,192,216087,128,0,216125:0:0:0:0:
36,192,216087,128,0,216125:0:0:0:0:
329,192,216087,128,0,216125:0:0:0:0:
402,192,216087,1,0,0:0:0:0:
109,192,216087,1,0,0:0:0:0:
109,192,216240,128,0,216469:0:0:0:0:
36,192,216240,128,0,216469:0:0:0:0:
182,192,216240,128,0,216469:0:0:0:0:
256,192,216240,128,0,216469:0:0:0:0:
329,192,216240,128,0,216469:0:0:0:0:
402,192,216240,128,0,216469:0:0:0:0:
475,192,216240,128,0,216469:0:0:0:0:
475,192,216546,128,0,216584:0:0:0:0:
402,192,216565,128,0,216603:0:0:0:0:
329,192,216584,128,0,216718:0:0:0:0:
256,192,216603,128,0,216641:0:0:0:0:
182,192,216622,128,0,216661:0:0:0:0:
109,192,216641,128,0,216680:0:0:0:0:
36,192,216661,128,0,216794:0:0:0:0:
402,192,216699,128,0,216737:0:0:0:0:
475,192,216718,128,0,217158:0:0:0:0:
109,192,216775,128,0,216814:0:0:0:0:
182,192,216794,128,0,216947:0:0:0:0:
402,192,216852,128,0,216890:0:0:0:0:
329,192,216871,128,0,216909:0:0:0:0:
256,192,216890,128,0,217024:0:0:0:0:
109,192,216928,128,0,216967:0:0:0:0:
36,192,216947,128,0,217101:0:0:0:0:
329,192,217005,128,0,217043:0:0:0:0:
402,192,217024,128,0,217177:0:0:0:0:
109,192,217081,128,0,217120:0:0:0:0:
182,192,217101,128,0,217234:0:0:0:0:
329,192,217158,128,0,217330:0:0:0:0:
256,192,217177,128,0,217215:0:0:0:0:
109,192,217215,128,0,217407:0:0:0:0:
36,192,217234,128,0,217598:0:0:0:0:
402,192,217311,128,0,217349:0:0:0:0:
475,192,217330,128,0,217483:0:0:0:0:
182,192,217388,128,0,217426:0:0:0:0:
256,192,217407,128,0,217541:0:0:0:0:
402,192,217464,128,0,217675:0:0:0:0:
329,192,217483,128,0,217521:0:0:0:0:
182,192,217521,128,0,217732:0:0:0:0:
109,192,217541,128,0,217579:0:0:0:0:
475,192,217617,128,0,217655:0:0:0:0:
329,192,217655,128,0,217789:0:0:0:0:
256,192,217675,128,0,217713:0:0:0:0:
109,192,217713,128,0,217866:0:0:0:0:
36,192,217732,128,0,217847:0:0:0:0:
402,192,217770,128,0,217942:0:0:0:0:
475,192,217789,128,0,218153:0:0:0:0:
182,192,217847,128,0,217885:0:0:0:0:
256,192,217866,128,0,218019:0:0:0:0:
329,192,217885,128,0,217923:0:0:0:0:
36,192,217923,128,0,217962:0:0:0:0:
109,192,217942,128,0,217981:0:0:0:0:
182,192,217962,128,0,218095:0:0:0:0:
329,192,218000,128,0,218038:0:0:0:0:
402,192,218019,128,0,218172:0:0:0:0:
109,192,218076,128,0,218249:0:0:0:0:
36,192,218095,128,0,218459:0:0:0:0:
329,192,218153,128,0,218191:0:0:0:0:
256,192,218172,128,0,218325:0:0:0:0:
182,192,218191,128,0,218229:0:0:0:0:
475,192,218229,128,0,218268:0:0:0:0:
402,192,218249,128,0,218287:0:0:0:0:
329,192,218268,128,0,218402:0:0:0:0:
182,192,218306,128,0,218344:0:0:0:0:
109,192,218325,128,0,218478:0:0:0:0:
402,192,218382,128,0,218421:0:0:0:0:
475,192,218402,128,0,218536:0:0:0:0:
182,192,218459,128,0,218497:0:0:0:0:
256,192,218478,128,0,218593:0:0:0:0:
402,192,218516,128,0,218555:0:0:0:0:
329,192,218536,128,0,218689:0:0:0:0:
182,192,218574,128,0,218612:0:0:0:0:
109,192,218593,128,0,218631:0:0:0:0:
36,192,218612,128,0,218746:0:0:0:0:
402,192,218669,128,0,218708:0:0:0:0:
475,192,218689,128,0,218842:0:0:0:0:
109,192,218727,128,0,218765:0:0:0:0:
182,192,218746,128,0,218784:0:0:0:0:
256,192,218765,128,0,218899:0:0:0:0:
402,192,218822,128,0,218861:0:0:0:0:
329,192,218842,128,0,218880:0:0:0:0:
182,192,218880,128,0,218918:0:0:0:0:
109,192,218899,128,0,218937:0:0:0:0:
36,192,218918,128,0,218956:0:0:0:0:
475,192,218995,128,0,219033:0:0:0:0:
402,192,219014,128,0,219052:0:0:0:0:
329,192,219033,128,0,219186:0:0:0:0:
256,192,219052,128,0,219167:0:0:0:0:
182,192,219071,128,0,219148:0:0:0:0:
109,192,219090,128,0,219129:0:0:0:0:
36,192,219109,128,0,219243:0:0:0:0:
402,192,219148,128,0,219205:0:0:0:0:
475,192,219167,128,0,219588:0:0:0:0:
109,192,219224,128,0,219263:0:0:0:0:
182,192,219243,128,0,219282:0:0:0:0:
256,192,219263,128,0,219396:0:0:0:0:
329,192,219282,128,0,219377:0:0:0:0:
402,192,219301,128,0,219358:0:0:0:0:
182,192,219377,128,0,219511:0:0:0:0:
109,192,219396,128,0,219492:0:0:0:0:
36,192,219416,128,0,219473:0:0:0:0:
256,192,219492,128,0,219530:0:0:0:0:
329,192,219511,128,0,219626:0:0:0:0:
402,192,219530,128,0,219607:0:0:0:0:
256,192,219607,128,0,219760:0:0:0:0:
182,192,219626,128,0,219664:0:0:0:0:
109,192,219645,128,0,219683:0:0:0:0:
36,192,219664,128,0,219837:0:0:0:0:
329,192,219741,128,0,219779:0:0:0:0:
402,192,219760,128,0,219913:0:0:0:0:
475,192,219779,128,0,220200:0:0:0:0:
109,192,219817,128,0,219856:0:0:0:0:
182,192,219837,128,0,219970:0:0:0:0:
329,192,219894,128,0,219932:0:0:0:0:
256,192,219913,128,0,219951:0:0:0:0:
109,192,219951,128,0,220085:0:0:0:0:
36,192,219970,128,0,220066:0:0:0:0:
182,192,220066,128,0,220104:0:0:0:0:
256,192,220085,128,0,220124:0:0:0:0:
329,192,220104,128,0,220238:0:0:0:0:
402,192,220124,128,0,220219:0:0:0:0:
256,192,220219,128,0,220257:0:0:0:0:
182,192,220238,128,0,220277:0:0:0:0:
109,192,220257,128,0,220411:0:0:0:0:
36,192,220277,128,0,220391:0:0:0:0:
475,192,220296,128,0,220334:0:0:0:0:
402,192,220315,128,0,220353:0:0:0:0:
329,192,220334,128,0,220468:0:0:0:0:
182,192,220391,128,0,220544:0:0:0:0:
256,192,220411,128,0,220449:0:0:0:0:
402,192,220449,128,0,220487:0:0:0:0:
475,192,220468,128,0,221157:0:0:0:0:
109,192,220525,128,0,220564:0:0:0:0:
36,192,220544,128,0,220678:0:0:0:0:
402,192,220564,128,0,220602:0:0:0:0:
329,192,220583,128,0,220621:0:0:0:0:
256,192,220602,128,0,220736:0:0:0:0:
109,192,220659,128,0,220697:0:0:0:0:
182,192,220678,128,0,220774:0:0:0:0:
329,192,220717,128,0,220755:0:0:0:0:
402,192,220736,128,0,220851:0:0:0:0:
109,192,220755,128,0,220793:0:0:0:0:
36,192,220774,128,0,220812:0:0:0:0:
329,192,220831,128,0,220870:0:0:0:0:
256,192,220851,128,0,220889:0:0:0:0:
182,192,220870,128,0,220965:0:0:0:0:
109,192,220889,128,0,220946:0:0:0:0:
36,192,220908,128,0,221463:0:0:0:0:
256,192,220946,128,0,221080:0:0:0:0:
329,192,220965,128,0,221061:0:0:0:0:
402,192,220984,128,0,221042:0:0:0:0:
182,192,221061,128,0,221099:0:0:0:0:
109,192,221080,128,0,221118:0:0:0:0:
402,192,221138,128,0,221176:0:0:0:0:
329,192,221157,128,0,221195:0:0:0:0:
256,192,221176,128,0,221271:0:0:0:0:
182,192,221195,128,0,221252:0:0:0:0:
109,192,221214,128,0,221444:0:0:0:0:
329,192,221252,128,0,221386:0:0:0:0:
402,192,221271,128,0,221367:0:0:0:0:
475,192,221291,128,0,221348:0:0:0:0:
256,192,221367,128,0,221405:0:0:0:0:
182,192,221386,128,0,221425:0:0:0:0:
475,192,221444,128,0,221597:0:0:0:0:
329,192,221444,128,0,221482:0:0:0:0:
402,192,221444,128,0,221520:0:0:0:0:
109,192,221520,128,0,221597:0:0:0:0:
36,192,221520,128,0,221673:0:0:0:0:
182,192,221520,128,0,221558:0:0:0:0:
402,192,221597,1,0,0:0:0:0:
256,192,221635,1,0,0:0:0:0:
109,192,221673,1,0,0:0:0:0:
475,192,221750,128,0,221826:0:0:0:0:
329,192,221750,1,0,0:0:0:0:
402,192,221750,128,0,221903:0:0:0:0:
36,192,221750,128,0,221979:0:0:0:0:
182,192,221750,1,0,0:0:0:0:
256,192,221826,1,0,0:0:0:0:
109,192,221826,128,0,221979:0:0:0:0:
475,192,221903,128,0,222286:0:0:0:0:
329,192,221903,128,0,222132:0:0:0:0:
182,192,221903,128,0,221979:0:0:0:0:
256,192,221979,128,0,222056:0:0:0:0:
402,192,221979,1,0,0:0:0:0:
182,192,222056,1,0,0:0:0:0:
109,192,222056,128,0,222209:0:0:0:0:
36,192,222056,128,0,222132:0:0:0:0:
256,192,222132,1,0,0:0:0:0:
402,192,222132,128,0,222286:0:0:0:0:
182,192,222209,128,0,222439:0:0:0:0:
329,192,222209,128,0,222286:0:0:0:0:
36,192,222209,128,0,222592:0:0:0:0:
256,192,222286,128,0,222362:0:0:0:0:
109,192,222286,1,0,0:0:0:0:
402,192,222362,128,0,222515:0:0:0:0:
329,192,222362,128,0,222439:0:0:0:0:
475,192,222362,1,0,0:0:0:0:
256,192,222439,1,0,0:0:0:0:
109,192,222439,128,0,222592:0:0:0:0:
329,192,222515,1,0,0:0:0:0:
182,192,222515,128,0,222592:0:0:0:0:
475,192,222515,128,0,222706:0:0:0:0:
256,192,222592,1,0,0:0:0:0:
402,192,222592,128,0,222706:0:0:0:0:
329,192,222668,128,0,222706:0:0:0:0:
36,192,222668,128,0,222706:0:0:0:0:
109,192,222668,128,0,222706:0:0:0:0:
182,192,222668,1,0,0:0:0:0:
256,192,222745,1,0,0:0:0:0:
109,192,222821,1,0,0:0:0:0:
329,192,222821,1,0,0:0:0:0:
402,192,222821,1,0,0:0:0:0:
256,192,222898,1,0,0:0:0:0:
182,192,222898,1,0,0:0:0:0:
475,192,222974,128,0,223051:0:0:0:0:
109,192,222974,128,0,223127:0:0:0:0:
36,192,222974,128,0,223204:0:0:0:0:
329,192,222974,1,0,0:0:0:0:
402,192,223051,128,0,223204:0:0:0:0:
256,192,223051,1,0,0:0:0:0:
475,192,223127,128,0,223510:0:0:0:0:
182,192,223127,128,0,223357:0:0:0:0:
329,192,223127,128,0,223204:0:0:0:0:
256,192,223204,128,0,223280:0:0:0:0:
109,192,223204,1,0,0:0:0:0:
329,192,223280,1,0,0:0:0:0:
402,192,223280,128,0,223433:0:0:0:0:
36,192,223280,128,0,223357:0:0:0:0:
256,192,223357,1,0,0:0:0:0:
109,192,223357,128,0,223510:0:0:0:0:
329,192,223433,128,0,223663:0:0:0:0:
182,192,223433,128,0,223510:0:0:0:0:
36,192,223433,128,0,223663:0:0:0:0:
256,192,223510,128,0,223587:0:0:0:0:
402,192,223510,1,0,0:0:0:0:
182,192,223587,128,0,223663:0:0:0:0:
475,192,223587,1,0,0:0:0:0:
109,192,223587,128,0,223816:0:0:0:0:
402,192,223663,128,0,223816:0:0:0:0:
256,192,223663,1,0,0:0:0:0:
475,192,223740,128,0,223816:0:0:0:0:
329,192,223740,128,0,223816:0:0:0:0:
182,192,223740,1,0,0:0:0:0:
36,192,223740,128,0,223816:0:0:0:0:
475,192,223893,1,0,0:0:0:0:
402,192,223893,128,0,224122:0:0:0:0:
256,192,223893,1,0,0:0:0:0:
182,192,223893,128,0,223969:0:0:0:0:
329,192,223969,128,0,224046:0:0:0:0:
109,192,223969,128,0,224122:0:0:0:0:
36,192,223969,128,0,224046:0:0:0:0:
475,192,224046,128,0,224275:0:0:0:0:
256,192,224046,128,0,224199:0:0:0:0:
182,192,224046,1,0,0:0:0:0:
36,192,224122,1,0,0:0:0:0:
329,192,224122,128,0,224505:0:0:0:0:
182,192,224199,128,0,224275:0:0:0:0:
109,192,224199,128,0,224275:0:0:0:0:
402,192,224199,128,0,224275:0:0:0:0:
256,192,224275,1,0,0:0:0:0:
36,192,224275,128,0,224505:0:0:0:0:
182,192,224352,1,0,0:0:0:0:
402,192,224352,128,0,224811:0:0:0:0:
475,192,224352,128,0,224428:0:0:0:0:
109,192,224352,1,0,0:0:0:0:
182,192,224428,128,0,224581:0:0:0:0:
256,192,224428,128,0,224581:0:0:0:0:
475,192,224505,1,0,0:0:0:0:
109,192,224505,128,0,224811:0:0:0:0:
329,192,224581,1,0,0:0:0:0:
36,192,224581,1,0,0:0:0:0:
256,192,224658,1,0,0:0:0:0:
475,192,224658,128,0,225117:0:0:0:0:
182,192,224658,1,0,0:0:0:0:
256,192,224734,128,0,224888:0:0:0:0:
329,192,224734,128,0,224888:0:0:0:0:
36,192,224734,128,0,224888:0:0:0:0:
182,192,224811,128,0,225041:0:0:0:0:
402,192,224888,1,0,0:0:0:0:
109,192,224888,1,0,0:0:0:0:
256,192,224964,1,0,0:0:0:0:
329,192,224964,1,0,0:0:0:0:
36,192,224964,1,0,0:0:0:0:
402,192,225041,128,0,225117:0:0:0:0:
109,192,225041,128,0,225270:0:0:0:0:
329,192,225041,128,0,225270:0:0:0:0:
182,192,225117,128,0,225194:0:0:0:0:
256,192,225117,128,0,225194:0:0:0:0:
36,192,225117,128,0,225500:0:0:0:0:
402,192,225194,128,0,225500:0:0:0:0:
475,192,225194,128,0,225347:0:0:0:0:
182,192,225270,1,0,0:0:0:0:
256,192,225270,1,0,0:0:0:0:
329,192,225347,128,0,225500:0:0:0:0:
256,192,225423,128,0,225500:0:0:0:0:
109,192,225423,128,0,225500:0:0:0:0:
475,192,225423,128,0,225500:0:0:0:0:
182,192,225423,128,0,225653:0:0:0:0:
329,192,225576,128,0,225653:0:0:0:0:
256,192,225576,128,0,225653:0:0:0:0:
475,192,225576,128,0,225959:0:0:0:0:
402,192,225576,128,0,225653:0:0:0:0:
109,192,225576,128,0,225959:0:0:0:0:
36,192,225576,128,0,225653:0:0:0:0:
329,192,225729,1,0,0:0:0:0:
182,192,225806,128,0,225959:0:0:0:0:
36,192,225806,128,0,225959:0:0:0:0:
402,192,225882,128,0,225959:0:0:0:0:
329,192,225882,128,0,225959:0:0:0:0:
256,192,225882,128,0,225959:0:0:0:0:
36,192,226036,128,0,226265:0:0:0:0:
182,192,226036,128,0,226265:0:0:0:0:
109,192,226036,128,0,226265:0:0:0:0:
256,192,226036,128,0,226265:0:0:0:0:
329,192,226036,128,0,226265:0:0:0:0:
402,192,226036,128,0,226265:0:0:0:0:
475,192,226036,128,0,226265:0:0:0:0:
256,192,226342,1,0,0:0:0:0:
182,192,226342,1,0,0:0:0:0:
109,192,226342,1,0,0:0:0:0:
36,192,226342,1,0,0:0:0:0:
475,192,226418,128,0,226571:0:0:0:0:
402,192,226418,128,0,226495:0:0:0:0:
329,192,226418,128,0,226456:0:0:0:0:
36,192,226495,128,0,226648:0:0:0:0:
182,192,226495,128,0,226533:0:0:0:0:
109,192,226495,128,0,226571:0:0:0:0:
329,192,226571,1,0,0:0:0:0:
256,192,226609,1,0,0:0:0:0:
182,192,226648,1,0,0:0:0:0:
475,192,226724,128,0,226954:0:0:0:0:
329,192,226724,128,0,226877:0:0:0:0:
402,192,226724,128,0,226801:0:0:0:0:
256,192,226801,128,0,227107:0:0:0:0:
109,192,226801,1,0,0:0:0:0:
36,192,226801,128,0,227030:0:0:0:0:
182,192,226877,1,0,0:0:0:0:
402,192,226954,128,0,227260:0:0:0:0:
109,192,226954,128,0,227183:0:0:0:0:
329,192,226954,1,0,0:0:0:0:
475,192,227030,1,0,0:0:0:0:
182,192,227030,128,0,227107:0:0:0:0:
329,192,227107,128,0,227413:0:0:0:0:
36,192,227107,128,0,227337:0:0:0:0:
256,192,227183,1,0,0:0:0:0:
475,192,227183,128,0,227260:0:0:0:0:
182,192,227260,128,0,227566:0:0:0:0:
109,192,227260,128,0,227337:0:0:0:0:
402,192,227337,1,0,0:0:0:0:
256,192,227337,128,0,227413:0:0:0:0:
36,192,227413,128,0,227643:0:0:0:0:
475,192,227413,128,0,227719:0:0:0:0:
109,192,227413,1,0,0:0:0:0:
329,192,227490,1,0,0:0:0:0:
402,192,227490,128,0,227566:0:0:0:0:
256,192,227566,128,0,227872:0:0:0:0:
109,192,227566,128,0,227643:0:0:0:0:
329,192,227643,128,0,227719:0:0:0:0:
182,192,227643,1,0,0:0:0:0:
36,192,227719,128,0,227949:0:0:0:0:
109,192,227719,1,0,0:0:0:0:
402,192,227719,128,0,227949:0:0:0:0:
182,192,227796,128,0,227872:0:0:0:0:
475,192,227796,128,0,227872:0:0:0:0:
109,192,227872,128,0,227949:0:0:0:0:
329,192,227872,128,0,228102:0:0:0:0:
475,192,227949,1,0,0:0:0:0:
256,192,227949,128,0,228025:0:0:0:0:
36,192,228025,128,0,228255:0:0:0:0:
182,192,228025,128,0,228255:0:0:0:0:
109,192,228025,1,0,0:0:0:0:
402,192,228025,128,0,228102:0:0:0:0:
475,192,228102,128,0,228331:0:0:0:0:
256,192,228102,1,0,0:0:0:0:
402,192,228178,1,0,0:0:0:0:
109,192,228178,128,0,228255:0:0:0:0:
329,192,228178,128,0,228255:0:0:0:0:
256,192,228255,128,0,228484:0:0:0:0:
329,192,228331,1,0,0:0:0:0:
402,192,228331,128,0,228561:0:0:0:0:
182,192,228331,128,0,228408:0:0:0:0:
36,192,228331,128,0,228561:0:0:0:0:
109,192,228408,128,0,228638:0:0:0:0:
475,192,228408,128,0,228484:0:0:0:0:
182,192,228484,1,0,0:0:0:0:
329,192,228484,128,0,228714:0:0:0:0:
256,192,228561,128,0,228638:0:0:0:0:
475,192,228561,128,0,228714:0:0:0:0:
36,192,228638,128,0,228714:0:0:0:0:
182,192,228638,128,0,228714:0:0:0:0:
402,192,228638,1,0,0:0:0:0:
256,192,228714,1,0,0:0:0:0:
109,192,228714,1,0,0:0:0:0:
329,192,228791,1,0,0:0:0:0:
402,192,228791,1,0,0:0:0:0:
475,192,228791,1,0,0:0:0:0:
182,192,228867,128,0,228905:0:0:0:0:
36,192,228867,128,0,229020:0:0:0:0:
109,192,228867,128,0,228944:0:0:0:0:
329,192,228944,128,0,228982:0:0:0:0:
402,192,228944,128,0,229020:0:0:0:0:
475,192,228944,128,0,229097:0:0:0:0:
182,192,229020,1,0,0:0:0:0:
256,192,229058,1,0,0:0:0:0:
329,192,229097,1,0,0:0:0:0:
36,192,229173,128,0,229403:0:0:0:0:
109,192,229173,128,0,229250:0:0:0:0:
182,192,229173,128,0,229326:0:0:0:0:
256,192,229250,128,0,229556:0:0:0:0:
402,192,229250,1,0,0:0:0:0:
475,192,229250,128,0,229479:0:0:0:0:
329,192,229326,1,0,0:0:0:0:
109,192,229403,128,0,229709:0:0:0:0:
402,192,229403,128,0,229632:0:0:0:0:
182,192,229403,1,0,0:0:0:0:
36,192,229479,1,0,0:0:0:0:
329,192,229479,128,0,229556:0:0:0:0:
182,192,229556,128,0,229862:0:0:0:0:
475,192,229556,128,0,229786:0:0:0:0:
256,192,229632,1,0,0:0:0:0:
36,192,229632,128,0,229709:0:0:0:0:
402,192,229709,128,0,229786:0:0:0:0:
329,192,229709,128,0,230015:0:0:0:0:
109,192,229786,1,0,0:0:0:0:
256,192,229786,128,0,229862:0:0:0:0:
402,192,229862,1,0,0:0:0:0:
36,192,229862,128,0,230168:0:0:0:0:
475,192,229862,128,0,229939:0:0:0:0:
182,192,229939,1,0,0:0:0:0:
109,192,229939,128,0,230015:0:0:0:0:
256,192,230015,128,0,230206:0:0:0:0:
475,192,230015,128,0,230053:0:0:0:0:
402,192,230053,128,0,230245:0:0:0:0:
182,192,230092,128,0,230245:0:0:0:0:
329,192,230092,128,0,230130:0:0:0:0:
109,192,230168,128,0,230436:0:0:0:0:
475,192,230168,128,0,230398:0:0:0:0:
329,192,230245,128,0,230283:0:0:0:0:
36,192,230245,128,0,230321:0:0:0:0:
256,192,230283,128,0,230513:0:0:0:0:
402,192,230321,128,0,230474:0:0:0:0:
182,192,230321,128,0,230359:0:0:0:0:
329,192,230398,128,0,230493:0:0:0:0:
36,192,230398,128,0,230474:0:0:0:0:
182,192,230474,128,0,230532:0:0:0:0:
475,192,230474,1,0,0:0:0:0:
109,192,230513,128,0,230646:0:0:0:0:
36,192,230551,128,0,230953:0:0:0:0:
182,192,230627,128,0,230666:0:0:0:0:
256,192,230646,128,0,230685:0:0:0:0:
329,192,230666,128,0,230761:0:0:0:0:
402,192,230685,128,0,230742:0:0:0:0:
475,192,230704,128,0,231259:0:0:0:0:
256,192,230742,128,0,230876:0:0:0:0:
182,192,230761,128,0,230857:0:0:0:0:
109,192,230780,128,0,230838:0:0:0:0:
329,192,230857,128,0,230895:0:0:0:0:
402,192,230876,128,0,230914:0:0:0:0:
109,192,230933,128,0,230972:0:0:0:0:
182,192,230953,128,0,230991:0:0:0:0:
256,192,230972,128,0,231067:0:0:0:0:
329,192,230991,128,0,231048:0:0:0:0:
402,192,231010,128,0,231240:0:0:0:0:
182,192,231048,128,0,231182:0:0:0:0:
109,192,231067,128,0,231163:0:0:0:0:
36,192,231087,128,0,231144:0:0:0:0:
256,192,231163,128,0,231201:0:0:0:0:
329,192,231182,128,0,231220:0:0:0:0:
36,192,231240,1,0,0:0:0:0:
109,192,231240,1,0,0:0:0:0:
182,192,231240,1,0,0:0:0:0:
402,192,231316,128,0,231393:0:0:0:0:
475,192,231316,128,0,231469:0:0:0:0:
329,192,231316,128,0,231354:0:0:0:0:
36,192,231393,128,0,231546:0:0:0:0:
182,192,231393,128,0,231431:0:0:0:0:
109,192,231393,128,0,231469:0:0:0:0:
402,192,231469,1,0,0:0:0:0:
256,192,231507,1,0,0:0:0:0:
109,192,231546,1,0,0:0:0:0:
402,192,231622,1,0,0:0:0:0:
329,192,231622,128,0,231699:0:0:0:0:
475,192,231622,128,0,231852:0:0:0:0:
36,192,231699,128,0,231928:0:0:0:0:
109,192,231699,1,0,0:0:0:0:
256,192,231699,128,0,232005:0:0:0:0:
182,192,231775,128,0,231852:0:0:0:0:
329,192,231775,1,0,0:0:0:0:
109,192,231852,128,0,232081:0:0:0:0:
402,192,231852,128,0,232158:0:0:0:0:
475,192,231928,1,0,0:0:0:0:
329,192,231928,128,0,232005:0:0:0:0:
36,192,232005,128,0,232234:0:0:0:0:
182,192,232005,128,0,232311:0:0:0:0:
256,192,232081,1,0,0:0:0:0:
475,192,232081,128,0,232158:0:0:0:0:
329,192,232158,128,0,232464:0:0:0:0:
109,192,232158,1,0,0:0:0:0:
402,192,232234,1,0,0:0:0:0:
256,192,232234,128,0,232311:0:0:0:0:
36,192,232311,128,0,232541:0:0:0:0:
475,192,232311,128,0,232617:0:0:0:0:
109,192,232311,128,0,232388:0:0:0:0:
402,192,232388,128,0,232464:0:0:0:0:
182,192,232388,1,0,0:0:0:0:
256,192,232464,128,0,232770:0:0:0:0:
109,192,232464,1,0,0:0:0:0:
182,192,232541,128,0,232617:0:0:0:0:
329,192,232541,1,0,0:0:0:0:
36,192,232617,128,0,232847:0:0:0:0:
109,192,232617,128,0,232694:0:0:0:0:
402,192,232617,128,0,232847:0:0:0:0:
475,192,232694,1,0,0:0:0:0:
329,192,232694,128,0,232770:0:0:0:0:
182,192,232770,128,0,233000:0:0:0:0:
109,192,232770,1,0,0:0:0:0:
475,192,232847,128,0,232923:0:0:0:0:
256,192,232847,128,0,232923:0:0:0:0:
36,192,232923,128,0,233153:0:0:0:0:
329,192,232923,128,0,233153:0:0:0:0:
402,192,232923,1,0,0:0:0:0:
109,192,232923,128,0,233000:0:0:0:0:
475,192,233000,128,0,233229:0:0:0:0:
256,192,233000,1,0,0:0:0:0:
402,192,233076,128,0,233153:0:0:0:0:
109,192,233076,1,0,0:0:0:0:
182,192,233076,128,0,233153:0:0:0:0:
256,192,233153,128,0,233382:0:0:0:0:
36,192,233229,128,0,233459:0:0:0:0:
182,192,233229,1,0,0:0:0:0:
402,192,233229,128,0,233459:0:0:0:0:
329,192,233229,128,0,233306:0:0:0:0:
109,192,233306,128,0,233382:0:0:0:0:
475,192,233306,1,0,0:0:0:0:
329,192,233382,1,0,0:0:0:0:
182,192,233382,128,0,233612:0:0:0:0:
256,192,233459,128,0,233536:0:0:0:0:
109,192,233459,1,0,0:0:0:0:
475,192,233459,128,0,233612:0:0:0:0:
329,192,233536,128,0,233612:0:0:0:0:
36,192,233536,128,0,233612:0:0:0:0:
402,192,233536,1,0,0:0:0:0:
256,192,233612,1,0,0:0:0:0:
109,192,233612,1,0,0:0:0:0:
329,192,233689,1,0,0:0:0:0:
402,192,233689,1,0,0:0:0:0:
475,192,233689,1,0,0:0:0:0:
109,192,233765,128,0,233842:0:0:0:0:
36,192,233765,128,0,233918:0:0:0:0:
182,192,233765,128,0,233803:0:0:0:0:
475,192,233842,128,0,233995:0:0:0:0:
402,192,233842,128,0,233918:0:0:0:0:
329,192,233842,128,0,233880:0:0:0:0:
109,192,233918,1,0,0:0:0:0:
256,192,233956,1,0,0:0:0:0:
402,192,233995,1,0,0:0:0:0:
109,192,234071,1,0,0:0:0:0:
182,192,234071,128,0,234148:0:0:0:0:
36,192,234071,128,0,234301:0:0:0:0:
475,192,234148,128,0,234377:0:0:0:0:
402,192,234148,1,0,0:0:0:0:
256,192,234148,128,0,234377:0:0:0:0:
182,192,234224,1,0,0:0:0:0:
329,192,234224,128,0,234301:0:0:0:0:
109,192,234301,128,0,234530:0:0:0:0:
402,192,234301,128,0,234454:0:0:0:0:
36,192,234377,1,0,0:0:0:0:
182,192,234377,128,0,234454:0:0:0:0:
475,192,234454,128,0,234683:0:0:0:0:
329,192,234454,128,0,234607:0:0:0:0:
256,192,234530,128,0,234607:0:0:0:0:
36,192,234530,128,0,234607:0:0:0:0:
182,192,234607,128,0,234760:0:0:0:0:
402,192,234607,1,0,0:0:0:0:
256,192,234683,1,0,0:0:0:0:
109,192,234683,128,0,234760:0:0:0:0:
475,192,234760,128,0,234837:0:0:0:0:
36,192,234760,1,0,0:0:0:0:
402,192,234760,1,0,0:0:0:0:
256,192,234837,1,0,0:0:0:0:
329,192,234913,1,0,0:0:0:0:
36,192,234913,128,0,234951:0:0:0:0:
475,192,234913,1,0,0:0:0:0:
402,192,234913,1,0,0:0:0:0:
109,192,234932,128,0,234970:0:0:0:0:
182,192,234951,128,0,235085:0:0:0:0:
109,192,235066,128,0,235104:0:0:0:0:
402,192,235066,1,0,0:0:0:0:
36,192,235085,128,0,235238:0:0:0:0:
109,192,235219,128,0,235257:0:0:0:0:
402,192,235219,1,0,0:0:0:0:
329,192,235219,1,0,0:0:0:0:
475,192,235219,1,0,0:0:0:0:
182,192,235238,128,0,235277:0:0:0:0:
329,192,235372,128,0,235411:0:0:0:0:
475,192,235372,1,0,0:0:0:0:
36,192,235372,1,0,0:0:0:0:
256,192,235391,128,0,235430:0:0:0:0:
182,192,235411,128,0,235544:0:0:0:0:
256,192,235525,128,0,235564:0:0:0:0:
329,192,235544,128,0,235583:0:0:0:0:
329,192,235678,128,0,236042:0:0:0:0:
182,192,235678,1,0,0:0:0:0:
109,192,235678,1,0,0:0:0:0:
36,192,235678,1,0,0:0:0:0:
402,192,235831,128,0,235870:0:0:0:0:
36,192,235831,1,0,0:0:0:0:
109,192,235831,1,0,0:0:0:0:
182,192,235831,1,0,0:0:0:0:
475,192,235851,128,0,236004:0:0:0:0:
402,192,235984,128,0,236023:0:0:0:0:
256,192,236138,1,0,0:0:0:0:
182,192,236138,1,0,0:0:0:0:
109,192,236138,1,0,0:0:0:0:
36,192,236138,1,0,0:0:0:0:
475,192,236214,128,0,236367:0:0:0:0:
402,192,236214,128,0,236291:0:0:0:0:
329,192,236214,128,0,236252:0:0:0:0:
36,192,236291,128,0,236444:0:0:0:0:
109,192,236291,128,0,236367:0:0:0:0:
182,192,236291,128,0,236329:0:0:0:0:
329,192,236367,1,0,0:0:0:0:
256,192,236405,1,0,0:0:0:0:
182,192,236444,1,0,0:0:0:0:
36,192,236597,128,0,236826:0:0:0:0:
475,192,236597,1,0,0:0:0:0:
402,192,236597,1,0,0:0:0:0:
182,192,236597,1,0,0:0:0:0:
256,192,236673,1,0,0:0:0:0:
475,192,236750,1,0,0:0:0:0:
329,192,236750,1,0,0:0:0:0:
109,192,236750,1,0,0:0:0:0:
475,192,236826,1,0,0:0:0:0:
36,192,236903,128,0,237132:0:0:0:0:
182,192,236903,1,0,0:0:0:0:
402,192,236903,1,0,0:0:0:0:
329,192,237056,1,0,0:0:0:0:
256,192,237056,1,0,0:0:0:0:
402,192,237056,1,0,0:0:0:0:
36,192,237209,128,0,237439:0:0:0:0:
256,192,237209,1,0,0:0:0:0:
475,192,237209,1,0,0:0:0:0:
402,192,237362,1,0,0:0:0:0:
256,192,237362,1,0,0:0:0:0:
109,192,237362,1,0,0:0:0:0:
402,192,237439,1,0,0:0:0:0:
182,192,237439,1,0,0:0:0:0:
36,192,237515,128,0,237745:0:0:0:0:
329,192,237515,1,0,0:0:0:0:
475,192,237515,1,0,0:0:0:0:
182,192,237592,1,0,0:0:0:0:
475,192,237668,1,0,0:0:0:0:
256,192,237668,1,0,0:0:0:0:
402,192,237668,1,0,0:0:0:0:
329,192,237745,1,0,0:0:0:0:
36,192,237821,128,0,238051:0:0:0:0:
256,192,237821,1,0,0:0:0:0:
182,192,237821,1,0,0:0:0:0:
402,192,237898,1,0,0:0:0:0:
256,192,237974,1,0,0:0:0:0:
329,192,237974,1,0,0:0:0:0:
109,192,237974,1,0,0:0:0:0:
329,192,238051,1,0,0:0:0:0:
36,192,238127,128,0,238357:0:0:0:0:
402,192,238127,1,0,0:0:0:0:
182,192,238127,1,0,0:0:0:0:
475,192,238280,1,0,0:0:0:0:
402,192,238280,1,0,0:0:0:0:
256,192,238280,1,0,0:0:0:0:
36,192,238433,128,0,238510:0:0:0:0:
182,192,238433,1,0,0:0:0:0:
329,192,238433,1,0,0:0:0:0:
36,192,238587,1,0,0:0:0:0:
109,192,238587,1,0,0:0:0:0:
402,192,238587,1,0,0:0:0:0:
475,192,238587,1,0,0:0:0:0:
329,192,238625,1,0,0:0:0:0:
256,192,238663,1,0,0:0:0:0:
182,192,238701,1,0,0:0:0:0:
475,192,238740,128,0,238969:0:0:0:0:
109,192,238740,1,0,0:0:0:0:
256,192,238778,1,0,0:0:0:0:
329,192,238816,1,0,0:0:0:0:
36,192,238893,1,0,0:0:0:0:
109,192,238893,1,0,0:0:0:0:
402,192,238893,1,0,0:0:0:0:
182,192,238893,1,0,0:0:0:0:
475,192,239046,128,0,239275:0:0:0:0:
329,192,239046,1,0,0:0:0:0:
109,192,239046,1,0,0:0:0:0:
182,192,239122,1,0,0:0:0:0:
36,192,239199,128,0,239352:0:0:0:0:
329,192,239199,1,0,0:0:0:0:
402,192,239199,1,0,0:0:0:0:
109,192,239237,128,0,239314:0:0:0:0:
256,192,239275,1,0,0:0:0:0:
475,192,239352,128,0,239581:0:0:0:0:
329,192,239352,1,0,0:0:0:0:
109,192,239390,128,0,239543:0:0:0:0:
182,192,239428,128,0,239505:0:0:0:0:
402,192,239428,1,0,0:0:0:0:
329,192,239505,1,0,0:0:0:0:
36,192,239581,128,0,239734:0:0:0:0:
256,192,239581,1,0,0:0:0:0:
109,192,239620,128,0,239696:0:0:0:0:
475,192,239658,128,0,239888:0:0:0:0:
182,192,239658,1,0,0:0:0:0:
329,192,239696,128,0,239849:0:0:0:0:
256,192,239734,128,0,239811:0:0:0:0:
402,192,239734,1,0,0:0:0:0:
109,192,239811,128,0,239964:0:0:0:0:
36,192,239811,1,0,0:0:0:0:
182,192,239849,128,0,239926:0:0:0:0:
256,192,239888,1,0,0:0:0:0:
475,192,239964,128,0,240194:0:0:0:0:
329,192,239964,1,0,0:0:0:0:
182,192,240002,128,0,240155:0:0:0:0:
256,192,240041,128,0,240117:0:0:0:0:
402,192,240041,1,0,0:0:0:0:
36,192,240117,1,0,0:0:0:0:
109,192,240194,128,0,240347:0:0:0:0:
329,192,240194,1,0,0:0:0:0:
182,192,240232,128,0,240308:0:0:0:0:
475,192,240270,128,0,240500:0:0:0:0:
256,192,240270,1,0,0:0:0:0:
402,192,240308,128,0,240462:0:0:0:0:
329,192,240347,128,0,240423:0:0:0:0:
36,192,240347,1,0,0:0:0:0:
182,192,240423,128,0,240576:0:0:0:0:
109,192,240423,1,0,0:0:0:0:
256,192,240462,128,0,240538:0:0:0:0:
36,192,240500,1,0,0:0:0:0:
475,192,240576,128,0,240806:0:0:0:0:
402,192,240576,1,0,0:0:0:0:
256,192,240615,128,0,240768:0:0:0:0:
329,192,240653,128,0,240729:0:0:0:0:
109,192,240653,1,0,0:0:0:0:
36,192,240729,1,0,0:0:0:0:
329,192,240806,128,0,240959:0:0:0:0:
182,192,240806,1,0,0:0:0:0:
402,192,240844,128,0,240959:0:0:0:0:
475,192,240882,128,0,240959:0:0:0:0:
109,192,240882,1,0,0:0:0:0:
256,192,240959,1,0,0:0:0:0:
402,192,241036,128,0,241380:0:0:0:0:
36,192,241036,128,0,241380:0:0:0:0:
329,192,241036,128,0,241074:0:0:0:0:
475,192,241036,128,0,241074:0:0:0:0:
182,192,241036,128,0,241380:0:0:0:0:
109,192,241189,128,0,241227:0:0:0:0:
329,192,241342,128,0,241380:0:0:0:0:
475,192,241342,128,0,241380:0:0:0:0:
475,192,241495,128,0,242183:0:0:0:0:
36,192,241495,128,0,241877:0:0:0:0:
109,192,241495,128,0,241724:0:0:0:0:
182,192,241495,128,0,241571:0:0:0:0:
402,192,241495,128,0,241571:0:0:0:0:
256,192,241648,1,0,0:0:0:0:
402,192,241648,1,0,0:0:0:0:
329,192,241648,1,0,0:0:0:0:
182,192,241648,128,0,242183:0:0:0:0:
329,192,241801,128,0,241877:0:0:0:0:
109,192,241801,128,0,242030:0:0:0:0:
36,192,241954,128,0,242183:0:0:0:0:
402,192,241954,128,0,242183:0:0:0:0:
329,192,241954,1,0,0:0:0:0:
256,192,241954,128,0,242030:0:0:0:0:
109,192,242107,128,0,242183:0:0:0:0:
329,192,242107,128,0,242183:0:0:0:0:
256,192,242183,1,0,0:0:0:0:
109,192,242260,1,0,0:0:0:0:
329,192,242260,1,0,0:0:0:0:
182,192,242260,1,0,0:0:0:0:
402,192,242260,1,0,0:0:0:0:
182,192,242413,128,0,242490:0:0:0:0:
36,192,242413,128,0,243102:0:0:0:0:
329,192,242413,128,0,243102:0:0:0:0:
475,192,242413,128,0,242490:0:0:0:0:
256,192,242413,128,0,242490:0:0:0:0:
109,192,242566,1,0,0:0:0:0:
402,192,242566,1,0,0:0:0:0:
256,192,242566,1,0,0:0:0:0:
182,192,242566,1,0,0:0:0:0:
475,192,242566,1,0,0:0:0:0:
109,192,242719,128,0,242796:0:0:0:0:
402,192,242719,128,0,242796:0:0:0:0:
182,192,242872,1,0,0:0:0:0:
475,192,242872,1,0,0:0:0:0:
256,192,242872,128,0,242949:0:0:0:0:
109,192,242949,128,0,243102:0:0:0:0:
402,192,242949,128,0,243102:0:0:0:0:
475,192,243025,128,0,243408:0:0:0:0:
182,192,243025,128,0,243408:0:0:0:0:
36,192,243178,1,0,0:0:0:0:
329,192,243178,1,0,0:0:0:0:
256,192,243178,128,0,243255:0:0:0:0:
402,192,243255,128,0,243408:0:0:0:0:
109,192,243255,128,0,243408:0:0:0:0:
256,192,243331,1,0,0:0:0:0:
329,192,243331,128,0,243408:0:0:0:0:
36,192,243331,128,0,243408:0:0:0:0:
36,192,243484,128,0,243829:0:0:0:0:
402,192,243484,128,0,243829:0:0:0:0:
109,192,243484,128,0,243523:0:0:0:0:
182,192,243484,128,0,243523:0:0:0:0:
109,192,243638,128,0,243676:0:0:0:0:
182,192,243638,128,0,243676:0:0:0:0:
109,192,243791,128,0,243829:0:0:0:0:
329,192,243791,128,0,243829:0:0:0:0:
475,192,243791,128,0,243829:0:0:0:0:
182,192,243791,128,0,243829:0:0:0:0:
36,192,243944,128,0,244632:0:0:0:0:
475,192,243944,128,0,244326:0:0:0:0:
402,192,243944,128,0,244173:0:0:0:0:
329,192,243944,128,0,244020:0:0:0:0:
109,192,243944,128,0,244020:0:0:0:0:
256,192,244097,1,0,0:0:0:0:
109,192,244097,1,0,0:0:0:0:
329,192,244097,128,0,244632:0:0:0:0:
182,192,244097,1,0,0:0:0:0:
402,192,244250,128,0,244479:0:0:0:0:
182,192,244250,128,0,244326:0:0:0:0:
475,192,244403,128,0,244632:0:0:0:0:
109,192,244403,128,0,244632:0:0:0:0:
182,192,244403,1,0,0:0:0:0:
256,192,244403,128,0,244479:0:0:0:0:
182,192,244556,128,0,244632:0:0:0:0:
402,192,244556,128,0,244632:0:0:0:0:
256,192,244632,1,0,0:0:0:0:
182,192,244709,128,0,245321:0:0:0:0:
109,192,244709,128,0,245398:0:0:0:0:
36,192,244709,128,0,245245:0:0:0:0:
329,192,244709,128,0,245398:0:0:0:0:
475,192,244709,128,0,245245:0:0:0:0:
402,192,244709,128,0,245321:0:0:0:0:
36,192,245321,128,0,245704:0:0:0:0:
256,192,245321,128,0,245474:0:0:0:0:
475,192,245321,128,0,245474:0:0:0:0:
182,192,245398,128,0,245627:0:0:0:0:
402,192,245398,128,0,245627:0:0:0:0:
109,192,245474,128,0,245551:0:0:0:0:
329,192,245474,128,0,245551:0:0:0:0:
256,192,245551,128,0,245704:0:0:0:0:
475,192,245551,128,0,245914:0:0:0:0:
329,192,245627,128,0,245857:0:0:0:0:
109,192,245627,128,0,245819:0:0:0:0:
402,192,245704,128,0,245780:0:0:0:0:
182,192,245704,128,0,245780:0:0:0:0:
36,192,245780,128,0,245857:0:0:0:0:
256,192,245780,128,0,245895:0:0:0:0:
182,192,245857,128,0,245914:0:0:0:0:
402,192,245857,128,0,245933:0:0:0:0:
109,192,245895,128,0,245933:0:0:0:0:
36,192,245933,1,0,0:0:0:0:
329,192,245933,1,0,0:0:0:0:
