osu file format v14

[General]
AudioFilename: audio.mp3
AudioLeadIn: 0
PreviewTime: 87691
Countdown: 0
SampleSet: Soft
StackLeniency: 0.7
Mode: 3
LetterboxInBreaks: 0
SpecialStyle: 0
WidescreenStoryboard: 0

[Editor]
DistanceSpacing: 1.4
BeatDivisor: 4
GridSize: 8
TimelineZoom: 1.3

[Metadata]
Title:Amazing Mirage
TitleUnicode:Amazing Mirage
Artist:lapix
ArtistUnicode:lapix
Creator:Spy
Version:Another
Source:beatmania IIDX 24 SINOBUZ
Tags:BEMANI KONAMI Hi-TECH FULLON Kuo Kyoka
BeatmapID:1111350
BeatmapSetID:523457

[Difficulty]
HPDrainRate:8
CircleSize:4
OverallDifficulty:8
ApproachRate:5
SliderMultiplier:1.4
SliderTickRate:1

[Events]
//Background and Video events
0,0,"BG.png",0,0
Video,-335,"BGA.mp4"
//Break Periods
//Storyboard Layer 0 (Background)
//Storyboard Layer 1 (Fail)
//Storyboard Layer 2 (Pass)
//Storyboard Layer 3 (Foreground)
//Storyboard Sound Samples
Sample,12397,0,"drum.wav",40
Sample,18083,0,"drum.wav",40
Sample,18182,0,"drum.wav",40
Sample,26319,0,"drum.wav",30
Sample,27103,0,"hihat.wav",40
Sample,27887,0,"drum.wav",30
Sample,28280,0,"hihat.wav",40
Sample,40829,0,"hihat.wav",40
Sample,51417,0,"hihat.wav",40
Sample,52593,0,"hihat.wav",40
Sample,53770,0,"bass.wav",50
Sample,54554,0,"hihat.wav",40
Sample,61025,0,"Cymbal.wav",50
Sample,61025,0,"bass.wav",50
Sample,61221,0,"drum.wav",40
Sample,61417,0,"drum.wav",40
Sample,61613,0,"drum.wav",40
Sample,61858,0,"drum.wav",40
Sample,61956,0,"drum.wav",40
Sample,62054,0,"drum.wav",40
Sample,62152,0,"drum.wav",40
Sample,62250,0,"drum.wav",40
Sample,62348,0,"drum.wav",40
Sample,62446,0,"drum.wav",40
Sample,62544,0,"drum.wav",40
Sample,72789,0,"drum.wav",40
Sample,73868,0,"drum.wav",40
Sample,74064,0,"drum.wav",40
Sample,79064,0,"bass.wav",50
Sample,82250,0,"bass.wav",50
Sample,88476,0,"boom.wav",70
Sample,91417,0,"bass.wav",50
Sample,97691,0,"bass.wav",50
Sample,99750,0,"drum.wav",40
Sample,99848,0,"bass.wav",50
Sample,103966,0,"bass.wav",50
Sample,110534,0,"bass.wav",50
Sample,110731,0,"bass.wav",50
Sample,111417,0,"hihat.wav",40
Sample,111711,0,"bass.wav",50
Sample,111809,0,"hihat.wav",40
Sample,112070,0,"bass.wav",50
Sample,112136,0,"bass.wav",50
Sample,112266,0,"bass.wav",50
Sample,112332,0,"bass.wav",50
Sample,112463,0,"bass.wav",50
Sample,112528,0,"bass.wav",50
Sample,112593,0,"bass.wav",50
Sample,112659,0,"bass.wav",50
Sample,112724,0,"bass.wav",50
Sample,112855,0,"bass.wav",50
Sample,112920,0,"bass.wav",50
Sample,112985,0,"bass.wav",50
Sample,113051,0,"bass.wav",50
Sample,113116,0,"bass.wav",50
Sample,113247,0,"bass.wav",50
Sample,113312,0,"bass.wav",50
Sample,113443,0,"bass.wav",50
Sample,113508,0,"bass.wav",50

[TimingPoints]
633,392.156862745098,4,2,1,50,1,0
25338,-66.6666666666667,4,2,1,50,0,0
25534,-133.333333333333,4,2,1,50,0,0
25731,-100,4,2,1,50,0,0
50436,-66.6666666666667,4,2,1,50,0,0
50633,-133.333333333333,4,2,1,50,0,0
50829,-100,4,2,1,50,0,0
88476,-100,4,2,1,50,0,1
113574,-100,4,2,1,50,0,0

[HitObjects]
64,192,633,5,0,0:0:0:50:bass.wav
448,192,633,1,0,0:0:0:50:Cymbal.wav
320,192,633,1,0,0:0:0:0:
448,192,1221,1,0,0:0:0:0:
448,192,1515,1,0,0:0:0:0:
448,192,1711,1,0,0:0:0:0:
192,192,1809,1,0,0:0:0:0:
64,192,2005,1,0,0:0:0:0:
192,192,2201,1,0,0:0:0:0:
448,192,2201,1,0,0:0:0:0:
320,192,2789,1,0,0:0:0:0:
320,192,3083,1,0,0:0:0:0:
320,192,3280,1,0,0:0:0:0:
192,192,3378,1,0,0:0:0:0:
64,192,3476,1,0,0:0:0:0:
192,192,3574,1,0,0:0:0:0:
320,192,3672,1,0,0:0:0:0:
448,192,3770,1,0,0:0:0:0:
64,192,3770,1,0,0:0:0:0:
192,192,4358,1,0,0:0:0:0:
192,192,4652,1,0,0:0:0:0:
192,192,4848,1,0,0:0:0:0:
448,192,4946,1,0,0:0:0:0:
320,192,5142,1,0,0:0:0:0:
64,192,5338,1,0,0:0:0:0:
448,192,5338,1,0,0:0:0:0:
320,192,5927,1,0,0:0:0:0:
64,192,6025,1,0,0:0:0:0:
192,192,6123,1,0,0:0:0:0:
320,192,6221,1,0,0:0:0:0:
448,192,6319,1,0,0:0:0:0:
320,192,6417,1,0,0:0:0:0:
64,192,6515,1,0,0:0:0:0:
192,192,6613,1,0,0:0:0:0:
320,192,6711,1,0,0:0:0:0:
192,192,6809,1,0,0:0:0:0:
64,192,6907,1,0,0:0:0:0:
448,192,6907,1,0,0:0:0:0:
448,192,7495,1,0,0:0:0:0:
448,192,7789,1,0,0:0:0:0:
448,192,7985,1,0,0:0:0:0:
192,192,8083,1,0,0:0:0:0:
320,192,8280,1,0,0:0:0:0:
64,192,8476,1,0,0:0:0:0:
448,192,8476,1,0,0:0:0:0:
64,192,9064,1,0,0:0:0:0:
320,192,9162,1,0,0:0:0:0:
64,192,9358,1,0,0:0:0:0:
320,192,9456,1,0,0:0:0:0:
192,192,9554,1,0,0:0:0:0:
448,192,9652,1,0,0:0:0:0:
320,192,9750,1,0,0:0:0:0:
448,192,9848,1,0,0:0:0:0:
320,192,10044,1,0,0:0:0:0:
64,192,10044,1,0,0:0:0:0:
320,192,10633,1,0,0:0:0:0:
64,192,10731,1,0,0:0:0:0:
320,192,10927,1,0,0:0:0:0:
64,192,11025,1,0,0:0:0:0:
192,192,11123,1,0,0:0:0:0:
448,192,11221,1,0,0:0:0:0:
320,192,11417,1,0,0:0:0:0:
192,192,11613,1,0,0:0:0:50:bass.wav
64,192,11613,1,0,0:0:0:0:
448,192,11613,1,0,0:0:0:0:
192,192,12201,5,0,0:0:0:0:
192,192,12495,1,0,0:0:0:40:drum.wav
448,192,12593,1,0,0:0:0:40:drum.wav
192,192,12691,1,0,0:0:0:40:drum.wav
320,192,12789,1,0,0:0:0:40:drum.wav
192,192,12985,1,0,0:0:0:40:drum.wav
64,192,13182,5,0,0:0:0:40:drum.wav
448,192,13182,1,0,0:0:0:50:bass.wav
320,192,13182,1,0,0:0:0:50:Cymbal.wav
192,192,13378,1,0,0:0:0:40:hihat.wav
64,192,13574,1,0,0:0:0:50:bass.wav
448,192,13574,1,0,0:0:0:50:snare.wav
320,192,13770,1,0,0:0:0:40:hihat.wav
192,192,13868,1,0,0:0:0:50:bass.wav
64,192,13868,1,0,0:0:0:0:
320,192,13966,1,0,0:0:0:40:hihat.wav
448,192,14064,1,0,0:0:0:50:bass.wav
64,192,14064,1,0,0:0:0:0:
192,192,14162,1,0,0:0:0:40:hihat.wav
64,192,14358,1,0,0:0:0:50:bass.wav
320,192,14358,1,0,0:0:0:50:snare.wav
448,192,14358,1,0,0:0:0:0:
192,192,14554,1,0,0:0:0:40:hihat.wav
320,192,14652,1,0,0:0:0:0:
448,192,14750,1,0,0:0:0:50:bass.wav
192,192,14750,1,0,0:0:0:0:
64,192,14848,1,0,0:0:0:0:
192,192,14946,1,0,0:0:0:40:hihat.wav
64,192,15142,1,0,0:0:0:50:snare.wav
320,192,15142,1,0,0:0:0:50:bass.wav
448,192,15142,1,0,0:0:0:0:
192,192,15240,1,0,0:0:0:0:
320,192,15338,1,0,0:0:0:40:hihat.wav
64,192,15436,1,0,0:0:0:50:bass.wav
448,192,15436,1,0,0:0:0:0:
192,192,15534,1,0,0:0:0:40:hihat.wav
320,192,15633,1,0,0:0:0:50:bass.wav
448,192,15633,1,0,0:0:0:0:
192,192,15731,1,0,0:0:0:40:hihat.wav
320,192,15829,1,0,0:0:0:0:
448,192,15927,1,0,0:0:0:50:bass.wav
64,192,15927,1,0,0:0:0:50:snare.wav
192,192,16025,1,0,0:0:0:50:bass.wav
320,192,16025,1,0,0:0:0:0:
64,192,16123,1,0,0:0:0:40:hihat.wav
192,192,16221,1,0,0:0:0:0:
448,192,16319,1,0,0:0:0:50:bass.wav
64,192,16319,1,0,0:0:0:0:
320,192,16319,1,0,0:0:0:0:
192,192,16515,1,0,0:0:0:40:hihat.wav
320,192,16613,1,0,0:0:0:0:
64,192,16711,1,0,0:0:0:50:snare.wav
448,192,16711,1,0,0:0:0:50:bass.wav
192,192,16711,1,0,0:0:0:0:
320,192,16809,1,0,0:0:0:0:
448,192,16907,1,0,0:0:0:40:hihat.wav
320,192,17005,1,0,0:0:0:50:bass.wav
64,192,17005,1,0,0:0:0:0:
192,192,17103,1,0,0:0:0:40:hihat.wav
448,192,17201,1,0,0:0:0:50:bass.wav
320,192,17201,1,0,0:0:0:0:
192,192,17299,1,0,0:0:0:40:hihat.wav
64,192,17495,1,0,0:0:0:50:snare.wav
448,192,17495,1,0,0:0:0:50:bass.wav
320,192,17495,1,0,0:0:0:0:
320,192,17691,1,0,0:0:0:40:hihat.wav
192,192,17789,1,0,0:0:0:0:
64,192,17887,1,0,0:0:0:50:bass.wav
448,192,17887,1,0,0:0:0:0:
192,192,18280,1,0,0:0:0:40:drum.wav
448,192,18280,1,0,0:0:0:0:
64,192,18378,1,0,0:0:0:40:drum.wav
192,192,18476,1,0,0:0:0:40:drum.wav
64,192,18574,1,0,0:0:0:40:drum.wav
192,192,18672,1,0,0:0:0:40:drum.wav
320,192,18770,1,0,0:0:0:0:
448,192,18868,1,0,0:0:0:0:
320,192,19064,1,0,0:0:0:40:drum.wav
448,192,19162,1,0,0:0:0:40:drum.wav
192,192,19260,1,0,0:0:0:40:drum.wav
64,192,19358,1,0,0:0:0:40:drum.wav
192,192,19456,1,0,0:0:0:50:Cymbal.wav
448,192,19456,1,0,0:0:0:50:bass.wav
320,192,19456,1,0,0:0:0:40:drum.wav
64,192,19750,1,0,0:0:0:50:bass.wav
192,192,19750,1,0,0:0:0:50:Cymbal.wav
448,192,19750,1,0,0:0:0:0:
320,192,20044,1,0,0:0:0:50:Cymbal.wav
448,192,20044,1,0,0:0:0:50:bass.wav
64,192,20044,1,0,0:0:0:0:
64,192,20338,1,0,0:0:0:50:bass.wav
192,192,20338,1,0,0:0:0:50:Cymbal.wav
320,192,20338,1,0,0:0:0:0:
64,192,20633,1,0,0:0:0:50:Cymbal.wav
448,192,20633,1,0,0:0:0:50:bass.wav
192,192,20633,1,0,0:0:0:0:
320,192,20927,1,0,0:0:0:50:bass.wav
448,192,20927,1,0,0:0:0:50:Cymbal.wav
64,192,20927,1,0,0:0:0:0:
192,192,21221,1,0,0:0:0:50:Cymbal.wav
320,192,21221,1,0,0:0:0:50:bass.wav
448,192,21221,1,0,0:0:0:0:
64,192,21515,1,0,0:0:0:50:bass.wav
192,192,21515,1,0,0:0:0:50:Cymbal.wav
320,192,21515,1,0,0:0:0:0:
64,192,21809,1,0,0:0:0:50:bass.wav
448,192,21809,1,0,0:0:0:40:drum.wav
192,192,21809,1,0,0:0:0:0:
64,192,22005,1,0,0:0:0:40:drum.wav
320,192,22005,1,0,0:0:0:50:bass.wav
192,192,22201,1,0,0:0:0:40:drum.wav
320,192,22201,1,0,0:0:0:50:bass.wav
64,192,22397,1,0,0:0:0:40:drum.wav
448,192,22397,1,0,0:0:0:50:bass.wav
64,192,22593,1,0,0:0:0:40:drum.wav
448,192,22593,1,0,0:0:0:50:bass.wav
320,192,22593,1,0,0:0:0:50:Cymbal.wav
192,192,22691,1,0,0:0:0:40:drum.wav
64,192,22789,1,0,0:0:0:40:drum.wav
320,192,22887,1,0,0:0:0:40:drum.wav
192,192,22985,1,0,0:0:0:40:drum.wav
448,192,23083,1,0,0:0:0:40:drum.wav
320,192,23182,1,0,0:0:0:40:drum.wav
64,192,23280,1,0,0:0:0:40:drum.wav
192,192,23378,1,0,0:0:0:40:drum.wav
448,192,23476,1,0,0:0:0:40:drum.wav
64,192,23574,1,0,0:0:0:40:drum.wav
320,192,23672,1,0,0:0:0:40:drum.wav
192,192,23770,1,0,0:0:0:40:drum.wav
448,192,23868,1,0,0:0:0:40:drum.wav
320,192,23966,1,0,0:0:0:40:drum.wav
64,192,24064,1,0,0:0:0:40:drum.wav
192,192,24162,1,0,0:0:0:40:drum.wav
448,192,24260,1,0,0:0:0:40:drum.wav
64,192,24358,1,0,0:0:0:40:drum.wav
320,192,24456,1,0,0:0:0:0:
192,192,24554,1,0,0:0:0:40:drum.wav
448,192,24652,1,0,0:0:0:0:
320,192,24750,1,0,0:0:0:40:drum.wav
448,192,24848,1,0,0:0:0:40:drum.wav
64,192,24946,1,0,0:0:0:40:drum.wav
320,192,24946,128,0,25338:0:0:0:50:bass.wav
192,192,24946,128,0,25338:0:0:0:0:
448,192,25338,128,0,25731:0:0:0:40:drum.wav
64,192,25338,128,0,25731:0:0:0:0:
192,192,25731,1,0,0:0:0:50:Cymbal.wav
320,192,25731,1,0,0:0:0:50:bass.wav
192,192,25927,1,0,0:0:0:40:hihat.wav
448,192,26123,1,0,0:0:0:50:bass.wav
64,192,26123,1,0,0:0:0:30:drum.wav
192,192,26221,1,0,0:0:0:30:drum.wav
320,192,26319,1,0,0:0:0:40:hihat.wav
192,192,26417,1,0,0:0:0:30:drum.wav
64,192,26515,1,0,0:0:0:50:bass.wav
320,192,26515,1,0,0:0:0:30:drum.wav
448,192,26613,1,0,0:0:0:0:
192,192,26711,1,0,0:0:0:40:hihat.wav
320,192,26809,1,0,0:0:0:0:
192,192,26907,1,0,0:0:0:50:bass.wav
64,192,26907,1,0,0:0:0:0:
320,192,27103,1,0,0:0:0:50:bass.wav
64,192,27299,1,0,0:0:0:50:bass.wav
320,192,27299,1,0,0:0:0:0:
448,192,27299,1,0,0:0:0:0:
192,192,27495,1,0,0:0:0:0:
192,192,27691,1,0,0:0:0:50:bass.wav
448,192,27691,1,0,0:0:0:30:drum.wav
320,192,27789,1,0,0:0:0:30:drum.wav
64,192,27887,1,0,0:0:0:40:hihat.wav
192,192,27985,1,0,0:0:0:30:drum.wav
320,192,28083,1,0,0:0:0:50:bass.wav
448,192,28083,1,0,0:0:0:30:drum.wav
192,192,28182,1,0,0:0:0:0:
320,192,28378,1,0,0:0:0:50:bass.wav
192,192,28378,1,0,0:0:0:0:
64,192,28476,1,0,0:0:0:50:bass.wav
448,192,28476,1,0,0:0:0:0:
192,192,28574,1,0,0:0:0:0:
320,192,28672,1,0,0:0:0:50:bass.wav
448,192,28672,1,0,0:0:0:40:hihat.wav
192,192,28868,1,0,0:0:0:0:
64,192,29064,1,0,0:0:0:50:bass.wav
320,192,29064,1,0,0:0:0:0:
192,192,29260,1,0,0:0:0:50:bass.wav
64,192,29260,1,0,0:0:0:50:Cymbal.wav
448,192,29260,1,0,0:0:0:0:
320,192,29456,1,0,0:0:0:40:hihat.wav
192,192,29554,1,0,0:0:0:0:
448,192,29652,1,0,0:0:0:50:bass.wav
64,192,29652,1,0,0:0:0:0:
320,192,29750,1,0,0:0:0:0:
448,192,29848,1,0,0:0:0:40:hihat.wav
320,192,29946,1,0,0:0:0:0:
192,192,30044,1,0,0:0:0:50:bass.wav
64,192,30044,1,0,0:0:0:0:
320,192,30240,1,0,0:0:0:40:hihat.wav
64,192,30240,1,0,0:0:0:50:bass.wav
64,192,30436,1,0,0:0:0:50:bass.wav
448,192,30436,1,0,0:0:0:0:
320,192,30632,1,0,0:0:0:0:
64,192,30829,1,0,0:0:0:50:bass.wav
448,192,30829,1,0,0:0:0:0:
192,192,31025,1,0,0:0:0:0:
320,192,31123,1,0,0:0:0:0:
192,192,31221,1,0,0:0:0:50:bass.wav
448,192,31221,1,0,0:0:0:0:
64,192,31221,1,0,0:0:0:0:
192,192,31417,1,0,0:0:0:50:bass.wav
64,192,31417,1,0,0:0:0:0:
448,192,31417,1,0,0:0:0:0:
320,192,31613,1,0,0:0:0:50:bass.wav
320,192,31711,1,0,0:0:0:50:bass.wav
192,192,31809,1,0,0:0:0:50:bass.wav
64,192,31907,1,0,0:0:0:50:bass.wav
448,192,32005,1,0,0:0:0:50:bass.wav
192,192,32005,1,0,0:0:0:50:Cymbal.wav
320,192,32005,1,0,0:0:0:0:
320,192,32201,1,0,0:0:0:40:hihat.wav
64,192,32397,1,0,0:0:0:50:bass.wav
448,192,32397,1,0,0:0:0:0:
192,192,32593,1,0,0:0:0:40:hihat.wav
320,192,32691,1,0,0:0:0:0:
192,192,32789,1,0,0:0:0:50:bass.wav
64,192,32789,1,0,0:0:0:0:
320,192,32887,1,0,0:0:0:0:
192,192,32985,1,0,0:0:0:40:hihat.wav
64,192,33083,1,0,0:0:0:0:
448,192,33182,1,0,0:0:0:50:bass.wav
192,192,33182,1,0,0:0:0:0:
320,192,33182,1,0,0:0:0:0:
64,192,33280,1,0,0:0:0:0:
192,192,33378,1,0,0:0:0:40:hihat.wav
448,192,33378,1,0,0:0:0:0:
320,192,33476,1,0,0:0:0:0:
192,192,33574,1,0,0:0:0:50:bass.wav
448,192,33574,1,0,0:0:0:50:Cymbal.wav
64,192,33574,1,0,0:0:0:0:
320,192,33770,1,0,0:0:0:40:hihat.wav
192,192,33868,1,0,0:0:0:0:
64,192,33966,1,0,0:0:0:50:bass.wav
448,192,33966,1,0,0:0:0:0:
320,192,34064,1,0,0:0:0:0:
192,192,34162,1,0,0:0:0:40:hihat.wav
320,192,34260,1,0,0:0:0:0:
192,192,34358,1,0,0:0:0:50:bass.wav
64,192,34358,1,0,0:0:0:0:
320,192,34456,1,0,0:0:0:0:
64,192,34554,1,0,0:0:0:50:bass.wav
448,192,34554,1,0,0:0:0:40:hihat.wav
192,192,34652,1,0,0:0:0:0:
320,192,34750,1,0,0:0:0:50:bass.wav
448,192,34750,1,0,0:0:0:0:
320,192,34946,1,0,0:0:0:0:
192,192,35044,1,0,0:0:0:0:
64,192,35142,1,0,0:0:0:50:bass.wav
448,192,35142,1,0,0:0:0:50:Cymbal.wav
320,192,35142,1,0,0:0:0:0:
64,192,35338,1,0,0:0:0:50:bass.wav
320,192,35338,1,0,0:0:0:50:Cymbal.wav
448,192,35338,1,0,0:0:0:0:
192,192,35534,1,0,0:0:0:0:
320,192,35731,1,0,0:0:0:0:
448,192,35927,1,0,0:0:0:50:bass.wav
64,192,35927,1,0,0:0:0:50:Cymbal.wav
192,192,35927,1,0,0:0:0:0:
64,192,36123,1,0,0:0:0:50:Cymbal.wav
192,192,36123,1,0,0:0:0:50:bass.wav
448,192,36123,1,0,0:0:0:0:
320,192,36319,1,0,0:0:0:0:
192,192,36384,1,0,0:0:0:0:
64,192,36449,1,0,0:0:0:0:
192,192,36515,1,0,0:0:0:0:
320,192,36580,1,0,0:0:0:0:
448,192,36646,1,0,0:0:0:0:
320,192,36711,1,0,0:0:0:50:bass.wav
64,192,36711,1,0,0:0:0:50:Cymbal.wav
192,192,36809,1,0,0:0:0:0:
320,192,37005,1,0,0:0:0:0:
64,192,37103,1,0,0:0:0:0:
192,192,37299,1,0,0:0:0:0:
320,192,37495,1,0,0:0:0:50:bass.wav
448,192,37495,1,0,0:0:0:0:
64,192,37495,1,0,0:0:0:0:
192,192,37691,1,0,0:0:0:0:
448,192,37887,128,0,38280:0:0:0:0:
64,192,38280,1,0,0:0:0:50:bass.wav
320,192,38280,1,0,0:0:0:50:Cymbal.wav
192,192,38476,1,0,0:0:0:40:hihat.wav
448,192,38476,1,0,0:0:0:0:
320,192,38672,1,0,0:0:0:50:bass.wav
448,192,38672,1,0,0:0:0:0:
64,192,38672,1,0,0:0:0:0:
192,192,38868,1,0,0:0:0:40:hihat.wav
64,192,38966,1,0,0:0:0:0:
320,192,39064,1,0,0:0:0:50:bass.wav
448,192,39064,1,0,0:0:0:0:
192,192,39162,1,0,0:0:0:0:
64,192,39260,1,0,0:0:0:40:hihat.wav
192,192,39358,1,0,0:0:0:0:
448,192,39456,1,0,0:0:0:50:bass.wav
64,192,39456,1,0,0:0:0:50:Cymbal.wav
320,192,39554,1,0,0:0:0:0:
448,192,39652,1,0,0:0:0:40:hihat.wav
192,192,39652,1,0,0:0:0:50:bass.wav
448,192,39848,1,0,0:0:0:50:Cymbal.wav
320,192,39848,1,0,0:0:0:50:bass.wav
64,192,39848,1,0,0:0:0:0:
320,192,40044,1,0,0:0:0:40:hihat.wav
64,192,40240,1,0,0:0:0:50:bass.wav
192,192,40240,1,0,0:0:0:0:
448,192,40436,1,0,0:0:0:40:hihat.wav
320,192,40534,1,0,0:0:0:0:
192,192,40633,1,0,0:0:0:50:bass.wav
64,192,40633,1,0,0:0:0:0:
320,192,40731,1,0,0:0:0:50:bass.wav
320,192,40927,1,0,0:0:0:0:
448,192,41025,1,0,0:0:0:50:bass.wav
192,192,41025,1,0,0:0:0:50:Cymbal.wav
64,192,41025,1,0,0:0:0:0:
448,192,41221,1,0,0:0:0:50:Cymbal.wav
192,192,41221,1,0,0:0:0:50:bass.wav
64,192,41221,1,0,0:0:0:0:
64,192,41417,1,0,0:0:0:50:bass.wav
320,192,41417,1,0,0:0:0:50:Cymbal.wav
448,192,41417,1,0,0:0:0:0:
192,192,41613,1,0,0:0:0:40:hihat.wav
64,192,41809,1,0,0:0:0:50:bass.wav
448,192,41809,1,0,0:0:0:0:
192,192,41907,1,0,0:0:0:0:
320,192,42005,1,0,0:0:0:40:hihat.wav
448,192,42005,1,0,0:0:0:50:bass.wav
192,192,42103,1,0,0:0:0:0:
64,192,42201,1,0,0:0:0:50:bass.wav
320,192,42201,1,0,0:0:0:0:
448,192,42299,1,0,0:0:0:0:
320,192,42397,1,0,0:0:0:40:hihat.wav
192,192,42495,1,0,0:0:0:0:
64,192,42593,1,0,0:0:0:50:bass.wav
448,192,42593,1,0,0:0:0:50:Cymbal.wav
320,192,42593,1,0,0:0:0:0:
192,192,42691,1,0,0:0:0:0:
64,192,42789,1,0,0:0:0:40:hihat.wav
448,192,42789,1,0,0:0:0:50:bass.wav
64,192,42985,1,0,0:0:0:50:bass.wav
320,192,42985,1,0,0:0:0:50:Cymbal.wav
192,192,42985,1,0,0:0:0:0:
192,192,43182,1,0,0:0:0:40:hihat.wav
320,192,43378,1,0,0:0:0:50:bass.wav
448,192,43378,1,0,0:0:0:50:Cymbal.wav
64,192,43378,1,0,0:0:0:0:
448,192,43574,1,0,0:0:0:40:hihat.wav
64,192,43770,1,0,0:0:0:50:bass.wav
192,192,43770,1,0,0:0:0:50:Cymbal.wav
448,192,43770,1,0,0:0:0:0:
320,192,43868,1,0,0:0:0:0:
448,192,43966,1,0,0:0:0:50:bass.wav
64,192,43966,1,0,0:0:0:50:Cymbal.wav
192,192,43966,1,0,0:0:0:0:
320,192,44064,1,0,0:0:0:0:
192,192,44162,1,0,0:0:0:50:bass.wav
64,192,44162,1,0,0:0:0:0:
448,192,44358,1,0,0:0:0:0:
320,192,44456,1,0,0:0:0:0:
64,192,44554,1,0,0:0:0:50:bass.wav
448,192,44554,1,0,0:0:0:50:Cymbal.wav
192,192,44554,1,0,0:0:0:0:
64,192,44750,1,0,0:0:0:40:hihat.wav
192,192,44946,1,0,0:0:0:50:bass.wav
448,192,44946,1,0,0:0:0:0:
448,192,45142,1,0,0:0:0:40:hihat.wav
320,192,45338,1,0,0:0:0:50:bass.wav
64,192,45338,1,0,0:0:0:0:
192,192,45436,1,0,0:0:0:0:
320,192,45534,1,0,0:0:0:40:hihat.wav
192,192,45633,1,0,0:0:0:0:
64,192,45731,1,0,0:0:0:50:bass.wav
448,192,45731,1,0,0:0:0:50:Cymbal.wav
320,192,45731,1,0,0:0:0:0:
192,192,45829,1,0,0:0:0:0:
64,192,45927,1,0,0:0:0:40:hihat.wav
320,192,45927,1,0,0:0:0:50:bass.wav
64,192,46123,1,0,0:0:0:50:bass.wav
448,192,46123,1,0,0:0:0:50:Cymbal.wav
192,192,46123,1,0,0:0:0:0:
192,192,46319,1,0,0:0:0:40:hihat.wav
64,192,46515,1,0,0:0:0:50:bass.wav
448,192,46515,1,0,0:0:0:0:
320,192,46515,1,0,0:0:0:0:
192,192,46711,1,0,0:0:0:40:hihat.wav
64,192,46711,1,0,0:0:0:50:bass.wav
320,192,46809,1,0,0:0:0:50:bass.wav
448,192,46809,1,0,0:0:0:0:
192,192,47005,1,0,0:0:0:50:bass.wav
320,192,47005,1,0,0:0:0:0:
320,192,47201,1,0,0:0:0:50:bass.wav
64,192,47201,1,0,0:0:0:0:
192,192,47397,1,0,0:0:0:50:bass.wav
448,192,47397,128,0,47691:0:0:0:0:
320,192,47691,1,0,0:0:0:50:bass.wav
64,192,47691,128,0,49260:0:0:0:50:Cymbal.wav
192,192,48083,1,0,0:0:0:0:
448,192,48476,1,0,0:0:0:50:bass.wav
320,192,48541,1,0,0:0:0:50:bass.wav
192,192,48606,1,0,0:0:0:50:bass.wav
320,192,48672,1,0,0:0:0:50:bass.wav
448,192,48737,1,0,0:0:0:50:bass.wav
320,192,48802,1,0,0:0:0:50:bass.wav
192,192,48868,1,0,0:0:0:50:bass.wav
448,192,48999,1,0,0:0:0:50:bass.wav
320,192,49129,1,0,0:0:0:50:bass.wav
448,192,49260,1,0,0:0:0:50:bass.wav
192,192,49260,1,0,0:0:0:50:Cymbal.wav
320,192,49391,1,0,0:0:0:0:
192,192,49456,1,0,0:0:0:50:bass.wav
64,192,49521,1,0,0:0:0:50:bass.wav
192,192,49587,1,0,0:0:0:50:bass.wav
448,192,49652,1,0,0:0:0:50:bass.wav
320,192,49701,1,0,0:0:0:50:bass.wav
192,192,49750,1,0,0:0:0:50:bass.wav
64,192,49799,1,0,0:0:0:50:bass.wav
448,192,49848,1,0,0:0:0:50:bass.wav
320,192,49897,1,0,0:0:0:50:bass.wav
192,192,49946,1,0,0:0:0:50:bass.wav
64,192,49995,1,0,0:0:0:50:bass.wav
192,192,50044,1,0,0:0:0:50:bass.wav
448,192,50044,1,0,0:0:0:0:
320,192,50240,1,0,0:0:0:0:
64,192,50436,1,0,0:0:0:70:Clap.wav
448,192,50436,1,0,0:0:0:50:bass.wav
64,192,50829,1,0,0:0:0:50:Cymbal.wav
192,192,50829,1,0,0:0:0:50:bass.wav
448,192,50829,1,0,0:0:0:0:
320,192,51025,1,0,0:0:0:40:hihat.wav
64,192,51221,1,0,0:0:0:50:bass.wav
448,192,51221,1,0,0:0:0:0:
320,192,51319,1,0,0:0:0:0:
192,192,51515,1,0,0:0:0:0:
448,192,51613,1,0,0:0:0:50:bass.wav
64,192,51613,1,0,0:0:0:0:
320,192,51711,1,0,0:0:0:0:
192,192,51809,1,0,0:0:0:40:hihat.wav
320,192,51907,1,0,0:0:0:0:
64,192,52005,1,0,0:0:0:50:bass.wav
448,192,52005,1,0,0:0:0:0:
320,192,52103,1,0,0:0:0:0:
192,192,52201,1,0,0:0:0:40:hihat.wav
64,192,52397,1,0,0:0:0:50:bass.wav
448,192,52397,1,0,0:0:0:0:
320,192,52495,1,0,0:0:0:0:
192,192,52691,1,0,0:0:0:0:
320,192,52789,1,0,0:0:0:50:bass.wav
448,192,52789,1,0,0:0:0:0:
192,192,52887,1,0,0:0:0:0:
64,192,52985,1,0,0:0:0:40:hihat.wav
192,192,53083,1,0,0:0:0:0:
64,192,53182,1,0,0:0:0:50:bass.wav
448,192,53182,1,0,0:0:0:0:
320,192,53280,1,0,0:0:0:0:
192,192,53378,1,0,0:0:0:40:hihat.wav
320,192,53476,1,0,0:0:0:0:
64,192,53574,1,0,0:0:0:50:bass.wav
448,192,53574,1,0,0:0:0:0:
192,192,53672,1,0,0:0:0:50:bass.wav
320,192,53770,1,0,0:0:0:40:hihat.wav
448,192,53868,1,0,0:0:0:50:bass.wav
64,192,53966,1,0,0:0:0:50:bass.wav
320,192,53966,1,0,0:0:0:0:
192,192,54162,1,0,0:0:0:40:hihat.wav
64,192,54358,1,0,0:0:0:50:bass.wav
320,192,54358,1,0,0:0:0:0:
448,192,54358,1,0,0:0:0:0:
192,192,54456,1,0,0:0:0:0:
320,192,54652,1,0,0:0:0:0:
64,192,54750,1,0,0:0:0:50:bass.wav
448,192,54750,1,0,0:0:0:0:
320,192,54848,1,0,0:0:0:0:
192,192,54946,1,0,0:0:0:40:hihat.wav
64,192,55044,1,0,0:0:0:0:
192,192,55142,1,0,0:0:0:50:bass.wav
448,192,55142,1,0,0:0:0:0:
64,192,55240,1,0,0:0:0:0:
192,192,55338,1,0,0:0:0:40:hihat.wav
320,192,55534,1,0,0:0:0:50:bass.wav
448,192,55534,1,0,0:0:0:0:
64,192,55534,1,0,0:0:0:0:
192,192,55632,1,0,0:0:0:0:
320,192,55731,1,0,0:0:0:40:hihat.wav
192,192,55829,1,0,0:0:0:0:
64,192,55927,1,0,0:0:0:50:bass.wav
448,192,55927,1,0,0:0:0:0:
192,192,56025,1,0,0:0:0:0:
320,192,56123,1,0,0:0:0:40:hihat.wav
448,192,56221,1,0,0:0:0:0:
320,192,56319,1,0,0:0:0:50:bass.wav
64,192,56319,1,0,0:0:0:0:
192,192,56417,1,0,0:0:0:0:
320,192,56515,1,0,0:0:0:40:hihat.wav
192,192,56613,1,0,0:0:0:0:
448,192,56711,1,0,0:0:0:50:bass.wav
320,192,56711,1,0,0:0:0:50:Cymbal.wav
64,192,56711,1,0,0:0:0:0:
192,192,56809,1,0,0:0:0:0:
64,192,56907,1,0,0:0:0:40:hihat.wav
448,192,56907,1,0,0:0:0:50:bass.wav
192,192,57103,1,0,0:0:0:50:Cymbal.wav
64,192,57103,1,0,0:0:0:50:bass.wav
320,192,57103,1,0,0:0:0:0:
448,192,57201,1,0,0:0:0:0:
320,192,57299,1,0,0:0:0:40:hihat.wav
64,192,57495,128,0,57691:0:0:0:50:bass.wav
448,192,57495,128,0,57691:0:0:0:0:
320,192,57887,1,0,0:0:0:50:Cymbal.wav
64,192,57887,1,0,0:0:0:50:bass.wav
448,192,57887,1,0,0:0:0:0:
192,192,58083,1,0,0:0:0:40:hihat.wav
64,192,58280,1,0,0:0:0:50:bass.wav
448,192,58280,1,0,0:0:0:0:
448,192,58476,1,0,0:0:0:50:bass.wav
64,192,58476,1,0,0:0:0:0:
64,192,58672,1,0,0:0:0:50:bass.wav
448,192,58672,1,0,0:0:0:50:Cymbal.wav
320,192,58672,1,0,0:0:0:0:
192,192,58868,1,0,0:0:0:50:bass.wav
320,192,58868,1,0,0:0:0:0:
64,192,59064,1,0,0:0:0:50:Cymbal.wav
192,192,59064,1,0,0:0:0:50:bass.wav
448,192,59064,1,0,0:0:0:0:
320,192,59162,1,0,0:0:0:0:
64,192,59260,1,0,0:0:0:50:bass.wav
448,192,59260,1,0,0:0:0:0:
192,192,59358,1,0,0:0:0:0:
320,192,59456,1,0,0:0:0:50:Cymbal.wav
448,192,59456,1,0,0:0:0:50:bass.wav
64,192,59456,1,0,0:0:0:0:
192,192,59554,1,0,0:0:0:0:
64,192,59652,1,0,0:0:0:50:bass.wav
448,192,59652,1,0,0:0:0:0:
320,192,59750,1,0,0:0:0:0:
192,192,59848,1,0,0:0:0:50:Cymbal.wav
64,192,59848,1,0,0:0:0:50:bass.wav
448,192,59848,1,0,0:0:0:0:
192,192,60044,1,0,0:0:0:50:bass.wav
320,192,60044,1,0,0:0:0:0:
64,192,60240,1,0,0:0:0:50:Cymbal.wav
448,192,60240,1,0,0:0:0:50:bass.wav
320,192,60240,1,0,0:0:0:0:
192,192,60338,1,0,0:0:0:50:bass.wav
320,192,60436,1,0,0:0:0:50:Cymbal.wav
448,192,60436,1,0,0:0:0:50:bass.wav
192,192,60534,1,0,0:0:0:50:bass.wav
64,192,60534,1,0,0:0:0:0:
320,192,60632,1,0,0:0:0:50:Cymbal.wav
448,192,60632,1,0,0:0:0:50:bass.wav
192,192,60731,1,0,0:0:0:50:bass.wav
64,192,60731,1,0,0:0:0:0:
320,192,60829,1,0,0:0:0:50:Cymbal.wav
448,192,60829,1,0,0:0:0:50:bass.wav
192,192,60927,1,0,0:0:0:50:bass.wav
64,192,60927,1,0,0:0:0:0:
448,192,61025,1,0,0:0:0:40:drum.wav
320,192,61074,1,0,0:0:0:40:drum.wav
192,192,61123,1,0,0:0:0:40:drum.wav
64,192,61172,1,0,0:0:0:40:drum.wav
448,192,61221,1,0,0:0:0:50:Cymbal.wav
320,192,61270,1,0,0:0:0:40:drum.wav
192,192,61319,1,0,0:0:0:40:drum.wav
64,192,61368,1,0,0:0:0:40:drum.wav
448,192,61417,1,0,0:0:0:50:Cymbal.wav
320,192,61466,1,0,0:0:0:40:drum.wav
192,192,61515,1,0,0:0:0:40:drum.wav
64,192,61564,1,0,0:0:0:40:drum.wav
448,192,61613,1,0,0:0:0:50:Cymbal.wav
320,192,61662,1,0,0:0:0:40:drum.wav
192,192,61711,1,0,0:0:0:40:drum.wav
64,192,61760,1,0,0:0:0:40:drum.wav
320,192,61809,1,0,0:0:0:40:drum.wav
192,192,61907,1,0,0:0:0:40:drum.wav
64,192,62005,1,0,0:0:0:40:drum.wav
192,192,62103,1,0,0:0:0:40:drum.wav
448,192,62201,1,0,0:0:0:40:drum.wav
320,192,62299,1,0,0:0:0:40:drum.wav
192,192,62397,1,0,0:0:0:40:drum.wav
448,192,62495,1,0,0:0:0:40:drum.wav
64,192,62593,1,0,0:0:0:50:bass.wav
320,192,62593,1,0,0:0:0:40:drum.wav
192,192,62593,1,0,0:0:0:50:Cymbal.wav
64,192,62724,1,0,0:0:0:50:bass.wav
192,192,62724,1,0,0:0:0:50:Cymbal.wav
448,192,62724,1,0,0:0:0:0:
320,192,62855,1,0,0:0:0:50:bass.wav
192,192,62855,1,0,0:0:0:50:Cymbal.wav
448,192,62855,1,0,0:0:0:0:
64,192,62985,1,0,0:0:0:50:bass.wav
448,192,62985,1,0,0:0:0:50:Cymbal.wav
320,192,62985,1,0,0:0:0:0:
192,192,63378,1,0,0:0:0:50:Cymbal.wav
64,192,63378,1,0,0:0:0:50:bass.wav
448,192,63378,1,0,0:0:0:70:Clap.wav
64,192,63770,1,0,0:0:0:70:Clap.wav
320,192,63966,1,0,0:0:0:0:
64,192,64162,1,0,0:0:0:70:Clap.wav
320,192,64260,1,0,0:0:0:0:
320,192,64456,1,0,0:0:0:0:
64,192,64554,1,0,0:0:0:70:Clap.wav
192,192,64750,1,0,0:0:0:0:
64,192,64946,1,0,0:0:0:70:Clap.wav
448,192,64946,1,0,0:0:0:0:
64,192,65338,1,0,0:0:0:70:Clap.wav
320,192,65534,1,0,0:0:0:0:
64,192,65731,1,0,0:0:0:70:Clap.wav
320,192,65829,1,0,0:0:0:0:
448,192,66025,1,0,0:0:0:70:Clap.wav
64,192,66123,1,0,0:0:0:70:Clap.wav
320,192,66123,1,0,0:0:0:0:
192,192,66319,1,0,0:0:0:70:Clap.wav
64,192,66515,1,0,0:0:0:70:Clap.wav
192,192,66515,1,0,0:0:0:0:
64,192,66907,1,0,0:0:0:70:Clap.wav
320,192,67103,1,0,0:0:0:0:
64,192,67299,1,0,0:0:0:70:Clap.wav
320,192,67397,1,0,0:0:0:0:
320,192,67593,1,0,0:0:0:0:
64,192,67691,1,0,0:0:0:70:Clap.wav
448,192,67691,1,0,0:0:0:0:
192,192,67887,1,0,0:0:0:0:
64,192,68083,1,0,0:0:0:70:Clap.wav
320,192,68083,1,0,0:0:0:0:
64,192,68476,1,0,0:0:0:70:Clap.wav
320,192,68672,1,0,0:0:0:0:
64,192,68868,1,0,0:0:0:70:Clap.wav
320,192,68966,1,0,0:0:0:0:
320,192,69162,1,0,0:0:0:0:
64,192,69260,1,0,0:0:0:70:Clap.wav
448,192,69260,1,0,0:0:0:0:
192,192,69456,1,0,0:0:0:0:
64,192,69652,1,0,0:0:0:70:Clap.wav
320,192,69652,1,0,0:0:0:50:Cymbal.wav
448,192,69652,1,0,0:0:0:50:bass.wav
192,192,69848,1,0,0:0:0:0:
320,192,69946,1,0,0:0:0:0:
448,192,70044,1,0,0:0:0:70:Clap.wav
192,192,70044,1,0,0:0:0:0:
320,192,70240,1,0,0:0:0:0:
64,192,70338,1,0,0:0:0:0:
448,192,70436,1,0,0:0:0:70:Clap.wav
320,192,70534,1,0,0:0:0:0:
64,192,70633,1,0,0:0:0:0:
192,192,70731,1,0,0:0:0:0:
448,192,70829,1,0,0:0:0:70:Clap.wav
320,192,71025,1,0,0:0:0:50:bass.wav
64,192,71025,1,0,0:0:0:50:Cymbal.wav
192,192,71025,1,0,0:0:0:0:
448,192,71221,1,0,0:0:0:70:Clap.wav
64,192,71221,1,0,0:0:0:50:bass.wav
192,192,71221,1,0,0:0:0:50:Cymbal.wav
320,192,71417,1,0,0:0:0:0:
192,192,71515,1,0,0:0:0:0:
448,192,71613,1,0,0:0:0:70:Clap.wav
320,192,71809,1,0,0:0:0:0:
64,192,71907,1,0,0:0:0:0:
448,192,72005,1,0,0:0:0:70:Clap.wav
320,192,72103,1,0,0:0:0:0:
64,192,72201,1,0,0:0:0:0:
192,192,72299,1,0,0:0:0:0:
448,192,72397,1,0,0:0:0:70:Clap.wav
320,192,72495,1,0,0:0:0:0:
192,192,72593,1,0,0:0:0:70:Clap.wav
320,192,72691,1,0,0:0:0:0:
448,192,72789,1,0,0:0:0:70:Clap.wav
64,192,72789,1,0,0:0:0:50:Cymbal.wav
192,192,72789,1,0,0:0:0:50:bass.wav
320,192,72887,1,0,0:0:0:40:drum.wav
64,192,72985,1,0,0:0:0:40:drum.wav
448,192,73083,1,0,0:0:0:40:drum.wav
192,192,73182,1,0,0:0:0:40:drum.wav
64,192,73378,1,0,0:0:0:40:drum.wav
192,192,73476,1,0,0:0:0:40:drum.wav
320,192,73574,1,0,0:0:0:40:drum.wav
448,192,73574,1,0,0:0:0:50:bass.wav
64,192,73574,1,0,0:0:0:50:Cymbal.wav
192,192,73672,1,0,0:0:0:40:drum.wav
320,192,73770,1,0,0:0:0:40:drum.wav
64,192,73966,1,0,0:0:0:40:drum.wav
192,192,74162,1,0,0:0:0:40:drum.wav
448,192,74162,1,0,0:0:0:50:bass.wav
64,192,74162,1,0,0:0:0:50:Cymbal.wav
64,192,74358,1,0,0:0:0:50:bass.wav
448,192,74358,1,0,0:0:0:50:Cymbal.wav
320,192,74358,1,0,0:0:0:0:
192,192,74456,1,0,0:0:0:0:
320,192,74554,1,0,0:0:0:0:
192,192,74652,1,0,0:0:0:0:
64,192,74750,1,0,0:0:0:50:Cymbal.wav
320,192,74750,1,0,0:0:0:50:bass.wav
448,192,74750,1,0,0:0:0:0:
192,192,74946,1,0,0:0:0:0:
448,192,75044,1,0,0:0:0:0:
64,192,75142,1,0,0:0:0:50:bass.wav
192,192,75142,1,0,0:0:0:50:Cymbal.wav
320,192,75142,1,0,0:0:0:0:
448,192,75240,1,0,0:0:0:0:
320,192,75338,1,0,0:0:0:0:
192,192,75436,1,0,0:0:0:50:Cymbal.wav
64,192,75436,1,0,0:0:0:50:bass.wav
448,192,75436,1,0,0:0:0:0:
320,192,75534,1,0,0:0:0:0:
448,192,75731,1,0,0:0:0:50:bass.wav
192,192,75731,1,0,0:0:0:50:Cymbal.wav
64,192,75731,1,0,0:0:0:0:
320,192,75927,1,0,0:0:0:50:Cymbal.wav
448,192,75927,1,0,0:0:0:50:bass.wav
64,192,75927,1,0,0:0:0:0:
192,192,76025,1,0,0:0:0:50:bass.wav
64,192,76123,1,0,0:0:0:50:bass.wav
448,192,76221,1,0,0:0:0:50:bass.wav
320,192,76319,1,0,0:0:0:50:bass.wav
64,192,76417,1,0,0:0:0:50:bass.wav
448,192,76515,1,0,0:0:0:50:bass.wav
192,192,76613,1,0,0:0:0:50:bass.wav
320,192,76711,1,0,0:0:0:50:bass.wav
64,192,76809,1,0,0:0:0:50:bass.wav
448,192,76907,1,0,0:0:0:50:bass.wav
192,192,77005,1,0,0:0:0:50:bass.wav
320,192,77103,1,0,0:0:0:50:bass.wav
64,192,77201,1,0,0:0:0:50:bass.wav
448,192,77299,1,0,0:0:0:50:bass.wav
192,192,77397,1,0,0:0:0:50:bass.wav
320,192,77495,1,0,0:0:0:50:bass.wav
448,192,77495,1,0,0:0:0:50:Cymbal.wav
64,192,77495,1,0,0:0:0:40:drum.wav
192,192,77593,1,0,0:0:0:40:drum.wav
320,192,77691,1,0,0:0:0:40:drum.wav
64,192,77789,1,0,0:0:0:40:drum.wav
448,192,77887,1,0,0:0:0:40:drum.wav
192,192,77985,1,0,0:0:0:40:drum.wav
320,192,78083,1,0,0:0:0:40:drum.wav
64,192,78182,1,0,0:0:0:40:drum.wav
448,192,78280,1,0,0:0:0:40:drum.wav
192,192,78378,1,0,0:0:0:40:drum.wav
320,192,78476,1,0,0:0:0:40:drum.wav
64,192,78574,1,0,0:0:0:40:drum.wav
192,192,78672,1,0,0:0:0:40:drum.wav
448,192,78770,1,0,0:0:0:40:drum.wav
320,192,78868,1,0,0:0:0:40:drum.wav
64,192,78966,1,0,0:0:0:40:drum.wav
320,192,79064,1,0,0:0:0:40:drum.wav
448,192,79064,1,0,0:0:0:50:Cymbal.wav
192,192,79162,1,0,0:0:0:50:bass.wav
64,192,79162,1,0,0:0:0:0:
320,192,79260,1,0,0:0:0:50:bass.wav
448,192,79260,1,0,0:0:0:0:
192,192,79358,1,0,0:0:0:50:bass.wav
64,192,79358,1,0,0:0:0:0:
320,192,79456,1,0,0:0:0:50:bass.wav
448,192,79456,1,0,0:0:0:0:
192,192,79554,1,0,0:0:0:50:bass.wav
64,192,79554,1,0,0:0:0:0:
320,192,79652,1,0,0:0:0:50:bass.wav
448,192,79652,1,0,0:0:0:0:
192,192,79750,1,0,0:0:0:50:bass.wav
64,192,79750,1,0,0:0:0:0:
320,192,79848,1,0,0:0:0:50:bass.wav
448,192,79848,1,0,0:0:0:0:
192,192,79946,1,0,0:0:0:50:bass.wav
64,192,79946,1,0,0:0:0:0:
320,192,80044,1,0,0:0:0:50:bass.wav
448,192,80044,1,0,0:0:0:0:
192,192,80142,1,0,0:0:0:50:bass.wav
64,192,80142,1,0,0:0:0:0:
320,192,80240,1,0,0:0:0:50:bass.wav
448,192,80240,1,0,0:0:0:0:
192,192,80338,1,0,0:0:0:50:bass.wav
64,192,80338,1,0,0:0:0:0:
448,192,80436,1,0,0:0:0:50:bass.wav
320,192,80436,1,0,0:0:0:0:
64,192,80534,1,0,0:0:0:50:bass.wav
192,192,80534,1,0,0:0:0:0:
448,192,80633,1,0,0:0:0:50:bass.wav
320,192,80633,1,0,0:0:0:0:
192,192,80763,1,0,0:0:0:0:
320,192,80829,1,0,0:0:0:50:bass.wav
448,192,80829,1,0,0:0:0:0:
192,192,80927,1,0,0:0:0:50:bass.wav
64,192,80927,1,0,0:0:0:0:
448,192,81123,1,0,0:0:0:50:bass.wav
64,192,81123,1,0,0:0:0:0:
320,192,81221,1,0,0:0:0:50:bass.wav
192,192,81221,1,0,0:0:0:0:
64,192,81417,1,0,0:0:0:50:bass.wav
192,192,81515,1,0,0:0:0:0:
320,192,81613,1,0,0:0:0:0:
448,192,81711,1,0,0:0:0:0:
320,192,81809,1,0,0:0:0:0:
64,192,81907,1,0,0:0:0:0:
192,192,82005,1,0,0:0:0:0:
320,192,82103,1,0,0:0:0:0:
64,192,82201,1,0,0:0:0:50:bass.wav
448,192,82201,1,0,0:0:0:50:Cymbal.wav
192,192,82201,1,0,0:0:0:0:
320,192,82299,1,0,0:0:0:50:bass.wav
192,192,82348,1,0,0:0:0:50:bass.wav
64,192,82397,1,0,0:0:0:50:bass.wav
448,192,82446,1,0,0:0:0:50:bass.wav
320,192,82495,1,0,0:0:0:50:bass.wav
192,192,82544,1,0,0:0:0:50:bass.wav
64,192,82593,1,0,0:0:0:50:bass.wav
448,192,82642,1,0,0:0:0:50:bass.wav
320,192,82691,1,0,0:0:0:50:bass.wav
192,192,82740,1,0,0:0:0:50:bass.wav
64,192,82789,1,0,0:0:0:50:bass.wav
448,192,82838,1,0,0:0:0:50:bass.wav
320,192,82887,1,0,0:0:0:50:bass.wav
192,192,82936,1,0,0:0:0:50:bass.wav
64,192,82985,1,0,0:0:0:50:bass.wav
448,192,83034,1,0,0:0:0:50:bass.wav
320,192,83083,1,0,0:0:0:50:bass.wav
192,192,83133,1,0,0:0:0:50:bass.wav
64,192,83182,1,0,0:0:0:50:bass.wav
448,192,83231,1,0,0:0:0:50:bass.wav
320,192,83280,1,0,0:0:0:50:bass.wav
192,192,83329,1,0,0:0:0:50:bass.wav
64,192,83378,1,0,0:0:0:50:bass.wav
448,192,83427,1,0,0:0:0:50:bass.wav
320,192,83476,1,0,0:0:0:50:bass.wav
192,192,83525,1,0,0:0:0:50:bass.wav
64,192,83574,1,0,0:0:0:50:bass.wav
448,192,83623,1,0,0:0:0:50:bass.wav
320,192,83672,1,0,0:0:0:50:bass.wav
192,192,83721,1,0,0:0:0:50:bass.wav
64,192,83770,1,0,0:0:0:50:bass.wav
448,192,83819,1,0,0:0:0:50:bass.wav
320,192,83868,1,0,0:0:0:50:bass.wav
192,192,83917,1,0,0:0:0:50:bass.wav
64,192,83966,1,0,0:0:0:50:bass.wav
448,192,84015,1,0,0:0:0:50:bass.wav
320,192,84064,1,0,0:0:0:50:bass.wav
192,192,84113,1,0,0:0:0:50:bass.wav
64,192,84162,1,0,0:0:0:50:bass.wav
448,192,84211,1,0,0:0:0:50:bass.wav
320,192,84260,1,0,0:0:0:50:bass.wav
192,192,84309,1,0,0:0:0:50:bass.wav
64,192,84358,1,0,0:0:0:50:bass.wav
448,192,84407,1,0,0:0:0:50:bass.wav
320,192,84456,1,0,0:0:0:50:bass.wav
192,192,84505,1,0,0:0:0:50:bass.wav
64,192,84554,1,0,0:0:0:50:bass.wav
448,192,84603,1,0,0:0:0:50:bass.wav
320,192,84652,1,0,0:0:0:50:bass.wav
192,192,84701,1,0,0:0:0:50:bass.wav
64,192,84750,1,0,0:0:0:50:bass.wav
448,192,84799,1,0,0:0:0:50:bass.wav
320,192,84848,1,0,0:0:0:50:bass.wav
192,192,84897,1,0,0:0:0:50:bass.wav
64,192,84946,1,0,0:0:0:50:bass.wav
448,192,84995,1,0,0:0:0:50:bass.wav
320,192,85044,1,0,0:0:0:50:bass.wav
192,192,85093,1,0,0:0:0:50:bass.wav
64,192,85142,1,0,0:0:0:50:bass.wav
448,192,85191,1,0,0:0:0:50:bass.wav
320,192,85240,1,0,0:0:0:50:bass.wav
192,192,85289,1,0,0:0:0:50:bass.wav
64,192,85338,1,0,0:0:0:50:bass.wav
320,192,85387,1,0,0:0:0:50:bass.wav
448,192,85436,1,0,0:0:0:50:bass.wav
64,192,85485,1,0,0:0:0:50:bass.wav
192,192,85534,1,0,0:0:0:50:bass.wav
320,192,85583,1,0,0:0:0:50:bass.wav
448,192,85633,1,0,0:0:0:50:bass.wav
64,192,85682,1,0,0:0:0:50:bass.wav
192,192,85731,1,0,0:0:0:50:bass.wav
320,192,85780,1,0,0:0:0:50:bass.wav
448,192,85829,1,0,0:0:0:50:bass.wav
64,192,85878,1,0,0:0:0:50:bass.wav
192,192,85927,1,0,0:0:0:50:bass.wav
320,192,85976,1,0,0:0:0:50:bass.wav
448,192,86025,1,0,0:0:0:50:bass.wav
64,192,86074,1,0,0:0:0:50:bass.wav
192,192,86123,1,0,0:0:0:50:bass.wav
320,192,86172,1,0,0:0:0:50:bass.wav
448,192,86221,1,0,0:0:0:50:bass.wav
64,192,86270,1,0,0:0:0:50:bass.wav
192,192,86319,1,0,0:0:0:50:bass.wav
448,192,86384,1,0,0:0:0:50:bass.wav
320,192,86449,1,0,0:0:0:50:bass.wav
192,192,86515,1,0,0:0:0:50:bass.wav
64,192,86646,1,0,0:0:0:50:bass.wav
192,192,86776,1,0,0:0:0:50:bass.wav
64,192,86907,1,0,0:0:0:50:bass.wav
448,192,86907,1,0,0:0:0:50:Cymbal.wav
320,192,86907,1,0,0:0:0:0:
192,192,87103,1,0,0:0:0:0:
64,192,87201,1,0,0:0:0:0:
192,192,87299,1,0,0:0:0:0:
320,192,87397,1,0,0:0:0:0:
448,192,87495,1,0,0:0:0:0:
320,192,87593,1,0,0:0:0:0:
64,192,87691,1,0,0:0:0:40:drum.wav
448,192,87691,1,0,0:0:0:0:
320,192,87789,1,0,0:0:0:40:drum.wav
192,192,87887,1,0,0:0:0:40:drum.wav
64,192,87985,1,0,0:0:0:40:drum.wav
320,192,88083,1,0,0:0:0:40:drum.wav
448,192,88182,1,0,0:0:0:40:drum.wav
320,192,88280,1,0,0:0:0:40:drum.wav
64,192,88280,1,0,0:0:0:0:
192,192,88378,1,0,0:0:0:40:drum.wav
320,192,88476,1,0,0:0:0:40:drum.wav
64,192,88476,1,0,0:0:0:50:Cymbal.wav
448,192,88476,1,0,0:0:0:50:bass.wav
192,192,88574,1,0,0:0:0:0:
320,192,88672,1,0,0:0:0:40:hihat.wav
192,192,88770,1,0,0:0:0:0:
64,192,88868,1,0,0:0:0:50:bass.wav
448,192,88868,1,0,0:0:0:0:
448,192,89064,1,0,0:0:0:40:hihat.wav
320,192,89162,1,0,0:0:0:0:
64,192,89260,1,0,0:0:0:50:bass.wav
192,192,89260,1,0,0:0:0:0:
320,192,89358,1,0,0:0:0:0:
448,192,89456,1,0,0:0:0:40:hihat.wav
320,192,89554,1,0,0:0:0:0:
64,192,89652,1,0,0:0:0:50:bass.wav
448,192,89652,1,0,0:0:0:0:
192,192,89750,1,0,0:0:0:0:
320,192,89848,1,0,0:0:0:40:hihat.wav
448,192,89946,1,0,0:0:0:0:
320,192,90044,1,0,0:0:0:50:bass.wav
64,192,90044,1,0,0:0:0:0:
192,192,90142,1,0,0:0:0:0:
64,192,90240,1,0,0:0:0:40:hihat.wav
192,192,90338,1,0,0:0:0:0:
320,192,90436,1,0,0:0:0:50:bass.wav
448,192,90436,1,0,0:0:0:0:
192,192,90534,1,0,0:0:0:0:
320,192,90633,1,0,0:0:0:40:hihat.wav
448,192,90731,1,0,0:0:0:0:
320,192,90829,1,0,0:0:0:50:bass.wav
64,192,90829,1,0,0:0:0:0:
192,192,90927,1,0,0:0:0:0:
64,192,91025,1,0,0:0:0:40:hihat.wav
192,192,91123,1,0,0:0:0:0:
448,192,91221,1,0,0:0:0:50:bass.wav
64,192,91221,1,0,0:0:0:0:
320,192,91319,1,0,0:0:0:50:bass.wav
192,192,91417,1,0,0:0:0:40:hihat.wav
320,192,91515,1,0,0:0:0:50:bass.wav
448,192,91613,1,0,0:0:0:50:bass.wav
64,192,91613,1,0,0:0:0:0:
192,192,91809,1,0,0:0:0:40:hihat.wav
320,192,91809,1,0,0:0:0:0:
64,192,92005,1,0,0:0:0:50:bass.wav
448,192,92005,1,0,0:0:0:0:
320,192,92005,1,0,0:0:0:0:
192,192,92201,1,0,0:0:0:40:hihat.wav
320,192,92299,1,0,0:0:0:0:
64,192,92397,1,0,0:0:0:50:bass.wav
448,192,92397,1,0,0:0:0:0:
192,192,92495,1,0,0:0:0:0:
320,192,92593,1,0,0:0:0:40:hihat.wav
192,192,92789,1,0,0:0:0:50:bass.wav
448,192,92789,1,0,0:0:0:0:
64,192,92789,1,0,0:0:0:0:
320,192,92985,1,0,0:0:0:40:hihat.wav
192,192,93083,1,0,0:0:0:0:
64,192,93182,1,0,0:0:0:50:bass.wav
448,192,93182,1,0,0:0:0:0:
320,192,93378,1,0,0:0:0:40:hihat.wav
192,192,93378,1,0,0:0:0:0:
64,192,93574,1,0,0:0:0:50:bass.wav
448,192,93574,1,0,0:0:0:0:
192,192,93770,1,0,0:0:0:40:hihat.wav
320,192,93868,1,0,0:0:0:0:
192,192,93966,1,0,0:0:0:50:bass.wav
64,192,93966,1,0,0:0:0:0:
320,192,94064,1,0,0:0:0:0:
448,192,94162,1,0,0:0:0:40:hihat.wav
192,192,94358,1,0,0:0:0:50:bass.wav
320,192,94358,1,0,0:0:0:0:
320,192,94554,1,0,0:0:0:40:hihat.wav
64,192,94554,1,0,0:0:0:50:bass.wav
192,192,94750,1,0,0:0:0:50:Cymbal.wav
448,192,94750,1,0,0:0:0:50:bass.wav
64,192,94750,1,0,0:0:0:0:
320,192,94848,1,0,0:0:0:0:
192,192,94946,1,0,0:0:0:40:hihat.wav
320,192,95044,1,0,0:0:0:0:
448,192,95142,1,0,0:0:0:50:bass.wav
64,192,95142,1,0,0:0:0:0:
320,192,95338,1,0,0:0:0:40:hihat.wav
192,192,95436,1,0,0:0:0:0:
64,192,95534,1,0,0:0:0:50:bass.wav
320,192,95534,1,0,0:0:0:0:
448,192,95633,1,0,0:0:0:0:
320,192,95731,1,0,0:0:0:40:hihat.wav
192,192,95829,1,0,0:0:0:0:
320,192,95927,1,0,0:0:0:50:bass.wav
64,192,95927,1,0,0:0:0:0:
192,192,96123,1,0,0:0:0:40:hihat.wav
448,192,96123,1,0,0:0:0:0:
320,192,96221,1,0,0:0:0:0:
192,192,96319,1,0,0:0:0:50:bass.wav
64,192,96319,1,0,0:0:0:0:
320,192,96417,1,0,0:0:0:0:
448,192,96515,1,0,0:0:0:40:hihat.wav
320,192,96613,1,0,0:0:0:0:
64,192,96711,1,0,0:0:0:50:bass.wav
448,192,96711,1,0,0:0:0:0:
192,192,96809,1,0,0:0:0:0:
320,192,96907,1,0,0:0:0:40:hihat.wav
192,192,97005,1,0,0:0:0:0:
64,192,97103,1,0,0:0:0:50:bass.wav
448,192,97103,1,0,0:0:0:0:
192,192,97201,1,0,0:0:0:0:
320,192,97299,1,0,0:0:0:40:hihat.wav
192,192,97397,1,0,0:0:0:0:
64,192,97495,1,0,0:0:0:50:bass.wav
448,192,97495,1,0,0:0:0:0:
320,192,97593,1,0,0:0:0:50:bass.wav
192,192,97691,1,0,0:0:0:40:hihat.wav
320,192,97789,1,0,0:0:0:50:bass.wav
192,192,97887,1,0,0:0:0:50:bass.wav
64,192,97887,1,0,0:0:0:50:Cymbal.wav
448,192,97887,1,0,0:0:0:0:
320,192,98083,1,0,0:0:0:40:hihat.wav
192,192,98083,1,0,0:0:0:0:
64,192,98280,1,0,0:0:0:50:bass.wav
448,192,98280,1,0,0:0:0:0:
192,192,98476,1,0,0:0:0:40:hihat.wav
320,192,98574,1,0,0:0:0:0:
64,192,98672,1,0,0:0:0:50:bass.wav
192,192,98672,1,0,0:0:0:50:Cymbal.wav
320,192,98770,1,0,0:0:0:0:
448,192,98868,1,0,0:0:0:40:hihat.wav
64,192,99064,1,0,0:0:0:50:bass.wav
320,192,99064,1,0,0:0:0:0:
192,192,99260,1,0,0:0:0:40:hihat.wav
320,192,99358,1,0,0:0:0:0:
64,192,99456,1,0,0:0:0:50:Cymbal.wav
192,192,99456,1,0,0:0:0:50:bass.wav
448,192,99456,1,0,0:0:0:0:
448,192,99652,128,0,99848:0:0:0:40:drum.wav
64,192,99652,128,0,99848:0:0:0:0:
192,192,99848,1,0,0:0:0:50:Cymbal.wav
320,192,99848,1,0,0:0:0:40:drum.wav
64,192,99946,1,0,0:0:0:50:bass.wav
192,192,100044,128,0,100240:0:0:0:50:bass.wav
320,192,100044,128,0,100240:0:0:0:0:
448,192,100240,1,0,0:0:0:50:Cymbal.wav
64,192,100240,1,0,0:0:0:50:bass.wav
320,192,100338,1,0,0:0:0:50:bass.wav
192,192,100436,1,0,0:0:0:50:bass.wav
320,192,100534,1,0,0:0:0:50:Cymbal.wav
64,192,100534,1,0,0:0:0:50:bass.wav
192,192,100633,1,0,0:0:0:0:
320,192,100731,1,0,0:0:0:50:bass.wav
448,192,100731,1,0,0:0:0:0:
192,192,100829,1,0,0:0:0:0:
320,192,100927,1,0,0:0:0:0:
448,192,101025,1,0,0:0:0:50:Cymbal.wav
64,192,101025,1,0,0:0:0:70:boom.wav
192,192,101025,1,0,0:0:0:50:bass.wav
320,192,101123,1,0,0:0:0:0:
192,192,101221,1,0,0:0:0:40:hihat.wav
320,192,101319,1,0,0:0:0:0:
64,192,101417,1,0,0:0:0:50:bass.wav
448,192,101417,1,0,0:0:0:0:
192,192,101515,1,0,0:0:0:0:
320,192,101613,1,0,0:0:0:40:hihat.wav
192,192,101711,1,0,0:0:0:0:
320,192,101809,1,0,0:0:0:50:bass.wav
448,192,101809,1,0,0:0:0:0:
192,192,101907,1,0,0:0:0:0:
64,192,102005,1,0,0:0:0:40:hihat.wav
192,192,102103,1,0,0:0:0:0:
448,192,102201,1,0,0:0:0:50:bass.wav
64,192,102201,1,0,0:0:0:0:
320,192,102299,1,0,0:0:0:0:
192,192,102397,1,0,0:0:0:40:hihat.wav
320,192,102495,1,0,0:0:0:0:
448,192,102593,1,0,0:0:0:50:bass.wav
64,192,102593,1,0,0:0:0:0:
192,192,102691,1,0,0:0:0:0:
320,192,102789,1,0,0:0:0:40:hihat.wav
192,192,102887,1,0,0:0:0:0:
64,192,102985,1,0,0:0:0:50:bass.wav
448,192,102985,1,0,0:0:0:0:
192,192,103083,1,0,0:0:0:0:
320,192,103182,1,0,0:0:0:40:hihat.wav
448,192,103280,1,0,0:0:0:0:
320,192,103378,1,0,0:0:0:50:bass.wav
64,192,103378,1,0,0:0:0:0:
192,192,103476,1,0,0:0:0:0:
320,192,103574,1,0,0:0:0:40:hihat.wav
192,192,103672,1,0,0:0:0:0:
320,192,103770,1,0,0:0:0:50:bass.wav
448,192,103770,1,0,0:0:0:0:
64,192,103868,1,0,0:0:0:50:bass.wav
192,192,103966,1,0,0:0:0:40:hihat.wav
320,192,104064,1,0,0:0:0:50:bass.wav
64,192,104162,1,0,0:0:0:50:bass.wav
448,192,104162,1,0,0:0:0:0:
192,192,104358,1,0,0:0:0:40:hihat.wav
320,192,104358,1,0,0:0:0:0:
64,192,104554,1,0,0:0:0:50:bass.wav
448,192,104554,1,0,0:0:0:0:
192,192,104750,1,0,0:0:0:40:hihat.wav
320,192,104848,1,0,0:0:0:0:
64,192,104946,1,0,0:0:0:50:bass.wav
448,192,104946,1,0,0:0:0:0:
320,192,105044,1,0,0:0:0:0:
192,192,105142,1,0,0:0:0:40:hihat.wav
64,192,105338,1,0,0:0:0:50:bass.wav
448,192,105338,1,0,0:0:0:0:
320,192,105338,1,0,0:0:0:0:
320,192,105534,1,0,0:0:0:40:hihat.wav
192,192,105632,1,0,0:0:0:0:
64,192,105731,1,0,0:0:0:50:bass.wav
448,192,105731,1,0,0:0:0:0:
320,192,105927,1,0,0:0:0:40:hihat.wav
192,192,105927,1,0,0:0:0:0:
64,192,106123,1,0,0:0:0:50:bass.wav
448,192,106123,1,0,0:0:0:0:
320,192,106319,1,0,0:0:0:40:hihat.wav
192,192,106417,1,0,0:0:0:0:
64,192,106515,1,0,0:0:0:50:bass.wav
448,192,106515,1,0,0:0:0:0:
192,192,106613,1,0,0:0:0:0:
320,192,106711,1,0,0:0:0:40:hihat.wav
448,192,106907,1,0,0:0:0:50:bass.wav
64,192,106907,1,0,0:0:0:0:
64,192,107103,1,0,0:0:0:40:hihat.wav
448,192,107103,1,0,0:0:0:50:bass.wav
192,192,107299,1,0,0:0:0:50:Cymbal.wav
320,192,107299,1,0,0:0:0:50:bass.wav
448,192,107299,1,0,0:0:0:0:
64,192,107397,1,0,0:0:0:0:
192,192,107495,1,0,0:0:0:40:hihat.wav
64,192,107593,1,0,0:0:0:0:
192,192,107691,1,0,0:0:0:50:bass.wav
448,192,107691,1,0,0:0:0:0:
320,192,107789,1,0,0:0:0:0:
192,192,107887,1,0,0:0:0:40:hihat.wav
320,192,107985,1,0,0:0:0:0:
448,192,108083,1,0,0:0:0:50:bass.wav
64,192,108083,1,0,0:0:0:0:
192,192,108182,1,0,0:0:0:0:
320,192,108280,1,0,0:0:0:40:hihat.wav
192,192,108378,1,0,0:0:0:0:
320,192,108476,1,0,0:0:0:50:bass.wav
448,192,108476,1,0,0:0:0:0:
192,192,108574,1,0,0:0:0:0:
320,192,108672,1,0,0:0:0:40:hihat.wav
448,192,108770,1,0,0:0:0:0:
64,192,108868,1,0,0:0:0:50:Cymbal.wav
320,192,108868,1,0,0:0:0:50:bass.wav
192,192,108966,1,0,0:0:0:0:
64,192,109064,1,0,0:0:0:40:hihat.wav
192,192,109162,1,0,0:0:0:0:
320,192,109260,1,0,0:0:0:50:bass.wav
448,192,109260,1,0,0:0:0:0:
192,192,109358,1,0,0:0:0:0:
320,192,109456,1,0,0:0:0:40:hihat.wav
448,192,109554,1,0,0:0:0:0:
320,192,109652,1,0,0:0:0:50:bass.wav
64,192,109652,1,0,0:0:0:0:
192,192,109750,1,0,0:0:0:0:
64,192,109848,1,0,0:0:0:40:hihat.wav
192,192,109946,1,0,0:0:0:0:
448,192,110044,1,0,0:0:0:50:bass.wav
64,192,110044,1,0,0:0:0:0:
320,192,110142,1,0,0:0:0:0:
192,192,110240,1,0,0:0:0:40:hihat.wav
320,192,110338,1,0,0:0:0:0:
64,192,110436,1,0,0:0:0:50:Cymbal.wav
448,192,110436,1,0,0:0:0:50:bass.wav
320,192,110632,1,0,0:0:0:50:bass.wav
192,192,110632,1,0,0:0:0:40:hihat.wav
448,192,110829,1,0,0:0:0:50:bass.wav
64,192,110829,1,0,0:0:0:0:
320,192,110927,1,0,0:0:0:50:bass.wav
64,192,111025,1,0,0:0:0:50:bass.wav
192,192,111025,1,0,0:0:0:40:hihat.wav
320,192,111123,1,0,0:0:0:50:bass.wav
192,192,111221,1,0,0:0:0:50:Cymbal.wav
448,192,111221,1,0,0:0:0:50:bass.wav
64,192,111319,1,0,0:0:0:50:bass.wav
192,192,111417,1,0,0:0:0:50:bass.wav
448,192,111515,1,0,0:0:0:50:bass.wav
320,192,111613,1,0,0:0:0:50:bass.wav
64,192,111613,1,0,0:0:0:0:
192,192,111809,1,0,0:0:0:50:bass.wav
320,192,111907,1,0,0:0:0:50:bass.wav
64,192,112005,1,0,0:0:0:50:Cymbal.wav
448,192,112005,1,0,0:0:0:50:bass.wav
320,192,112201,1,0,0:0:0:50:bass.wav
192,192,112201,1,0,0:0:0:40:hihat.wav
64,192,112397,5,0,0:0:0:50:Cymbal.wav
448,192,112397,1,0,0:0:0:50:bass.wav
320,192,112495,1,0,0:0:0:0:
192,192,112593,1,0,0:0:0:40:hihat.wav
320,192,112691,1,0,0:0:0:0:
64,192,112789,1,0,0:0:0:50:Cymbal.wav
448,192,112789,1,0,0:0:0:50:bass.wav
192,192,112887,1,0,0:0:0:0:
320,192,112985,1,0,0:0:0:40:hihat.wav
192,192,113083,1,0,0:0:0:0:
64,192,113182,1,0,0:0:0:50:Cymbal.wav
320,192,113182,1,0,0:0:0:50:bass.wav
192,192,113378,1,0,0:0:0:40:hihat.wav
448,192,113378,1,0,0:0:0:50:bass.wav
448,192,113574,5,0,0:0:0:50:Cymbal.wav
320,192,113574,1,0,0:0:0:50:bass.wav
64,192,113574,1,0,0:0:0:40:boom.wav
