osu file format v14

[General]
AudioFilename: audio.mp3
AudioLeadIn: 0
PreviewTime: 88562
Countdown: 0
SampleSet: Soft
StackLeniency: 0.7
Mode: 3
LetterboxInBreaks: 0
SpecialStyle: 0
WidescreenStoryboard: 1

[Editor]
DistanceSpacing: 1
BeatDivisor: 4
GridSize: 32
TimelineZoom: 2.4

[Metadata]
Title:Amazing Mirage
TitleUnicode:Amazing Mirage
Artist:lapix
ArtistUnicode:lapix
Creator:RiP46
Version:Ainer's Normal
Source:beatmania IIDX 24 SINOBUZ
Tags:ainer fawcro32 famoss hi-tech hitech fullon original soundtrack ost bemani konami SOUND VOLTEX EXCEED GEAR sdvx electronic instrumental video game コナステ版 Konasute セレクション 楽曲パック vol.1 selection music pack
BeatmapID:3947920
BeatmapSetID:1409447

[Difficulty]
HPDrainRate:7
CircleSize:4
OverallDifficulty:7
ApproachRate:5
SliderMultiplier:1.8
SliderTickRate:1

[Events]
//Background and Video events
0,0,"BG.jpg",0,0
//Break Periods
//Storyboard Layer 0 (Background)
//Storyboard Layer 1 (Fail)
//Storyboard Layer 2 (Pass)
//Storyboard Layer 3 (Foreground)
//Storyboard Layer 4 (Overlay)
//Storyboard Sound Samples
Sample,42141,0,"cymbal.wav",70
Sample,47729,0,"cymbal.wav",70
Sample,47925,0,"cymbal.wav",70
Sample,48121,0,"cymbal.wav",70
Sample,48317,0,"cymbal.wav",70
Sample,61356,0,"cymbal.wav",70
Sample,61552,0,"cymbal.wav",70
Sample,61749,0,"cymbal.wav",70
Sample,63513,0,"cymbal.wav",70
Sample,63644,0,"cymbal.wav",70
Sample,63775,0,"cymbal.wav",70

[TimingPoints]
1553,392.156862745098,4,2,1,40,1,0
7827,-100,4,2,1,50,0,0
12533,-100,4,2,1,60,0,0
26651,-100,4,2,1,50,0,0
39200,-100,4,2,1,60,0,0
48611,-100,4,2,1,50,0,0
51749,-100,4,2,1,60,0,0
64298,-100,4,2,1,40,0,0
76847,-100,4,2,1,50,0,0
89396,-100,4,2,1,60,0,1
114494,-100,4,2,1,60,0,0

[HitObjects]
64,192,1553,128,0,3121:0:0:0:70:kick07.wav
192,192,1553,1,0,0:0:0:0:
448,192,3121,128,0,4690:0:0:0:0:
192,192,4690,128,0,6258:0:0:0:0:
320,192,6258,128,0,7827:0:0:0:0:
448,192,7043,1,0,0:0:0:0:
192,192,7239,1,0,0:0:0:0:
64,192,7435,1,0,0:0:0:0:
448,192,7631,1,0,0:0:0:0:
64,192,7827,128,0,9396:0:0:0:0:
320,192,9396,128,0,10964:0:0:0:0:
192,192,10964,128,0,12533:0:0:0:0:
320,192,12533,1,2,0:0:0:0:
448,192,12533,128,0,13121:0:0:0:0:
64,192,13121,128,0,13317:0:0:0:0:
320,192,13317,1,0,0:0:0:0:
192,192,13513,1,8,0:0:0:0:
64,192,13709,1,8,0:0:0:0:
448,192,13709,1,0,0:0:0:0:
320,192,13905,1,8,0:0:0:0:
64,192,14102,1,2,0:0:0:0:
192,192,14102,1,4,0:0:0:0:
320,192,14494,1,8,0:0:0:0:
448,192,14494,1,0,0:0:0:0:
192,192,14788,1,2,0:0:0:0:
448,192,14984,1,2,0:0:0:0:
64,192,15278,1,8,0:0:0:0:
320,192,15278,1,0,0:0:0:0:
320,192,15670,1,2,0:0:0:0:
448,192,15670,1,0,0:0:0:0:
64,192,16062,1,8,0:0:0:0:
192,192,16062,1,0,0:0:0:0:
320,192,16356,1,2,0:0:0:0:
64,192,16553,1,2,0:0:0:0:
192,192,16847,1,8,0:0:0:0:
448,192,16847,1,0,0:0:0:0:
320,192,16945,1,2,0:0:0:0:
64,192,17239,1,2,0:0:0:0:
192,192,17239,1,0,0:0:0:0:
320,192,17631,1,8,0:0:0:0:
448,192,17631,1,0,0:0:0:0:
192,192,17925,1,2,0:0:0:0:
320,192,18121,1,2,0:0:0:0:
64,192,18415,1,8,0:0:0:0:
448,192,18415,1,0,0:0:0:0:
64,192,18807,128,2,19200:0:0:0:0:
320,192,19200,1,0,0:0:0:0:
192,192,19396,1,0,0:0:0:0:
448,192,19592,128,0,19788:0:0:0:0:
320,192,19788,128,0,19984:0:0:0:0:
64,192,19984,128,0,20180:0:0:0:0:
192,192,20180,128,0,20376:0:0:0:0:
320,192,20376,1,2,0:0:0:0:
448,192,20376,1,0,0:0:0:70:cymbal.wav
320,192,20670,1,2,0:0:0:0:
448,192,20670,1,0,0:0:0:70:cymbal.wav
64,192,20964,1,2,0:0:0:0:
192,192,20964,1,0,0:0:0:70:cymbal.wav
64,192,21258,1,2,0:0:0:0:
192,192,21258,1,0,0:0:0:70:cymbal.wav
320,192,21553,1,2,0:0:0:0:
448,192,21553,1,0,0:0:0:70:cymbal.wav
320,192,21847,1,2,0:0:0:0:
448,192,21847,1,0,0:0:0:70:cymbal.wav
64,192,22141,1,2,0:0:0:0:
192,192,22141,1,0,0:0:0:70:cymbal.wav
64,192,22435,1,2,0:0:0:0:
192,192,22435,1,0,0:0:0:70:cymbal.wav
320,192,22729,1,0,0:0:0:0:
320,192,22925,1,0,0:0:0:50:kick07.wav
192,192,23121,1,0,0:0:0:50:kick07.wav
192,192,23317,1,0,0:0:0:50:kick07.wav
320,192,23513,128,2,23905:0:0:0:0:
448,192,23513,1,4,0:0:0:0:
192,192,23905,128,0,24298:0:0:0:0:
448,192,24298,128,0,24690:0:0:0:0:
64,192,24690,128,0,25082:0:0:0:0:
192,192,25082,1,0,0:0:0:0:
320,192,25278,1,0,0:0:0:0:
320,192,25474,1,0,0:0:0:0:
320,192,25670,1,0,0:0:0:0:
64,192,25866,1,2,0:0:0:0:
192,192,25866,128,0,26258:0:0:0:0:
448,192,26258,1,0,0:0:0:0:
320,192,26651,128,2,27043:0:0:0:0:
448,192,26651,128,4,27043:0:0:0:0:
64,192,27043,1,2,0:0:0:0:
192,192,27043,1,0,0:0:0:0:
448,192,27239,128,0,27435:0:0:0:0:
64,192,27435,1,2,0:0:0:0:
192,192,27533,1,0,0:0:0:0:
448,192,27729,1,0,0:0:0:0:
64,192,27827,1,2,0:0:0:0:
320,192,27827,1,0,0:0:0:0:
192,192,28023,128,0,28219:0:0:0:0:
448,192,28219,128,2,28415:0:0:0:0:
64,192,28415,128,0,28611:0:0:0:0:
320,192,28611,1,2,0:0:0:0:
448,192,28611,1,0,0:0:0:0:
192,192,28807,128,0,29003:0:0:0:0:
320,192,29003,1,2,0:0:0:0:
64,192,29102,1,0,0:0:0:0:
448,192,29298,1,0,0:0:0:0:
64,192,29396,128,2,29592:0:0:0:0:
192,192,29396,128,0,29592:0:0:0:0:
320,192,29592,128,2,29788:0:0:0:0:
448,192,29592,128,0,29788:0:0:0:70:cymbal.wav
64,192,29788,128,0,29984:0:0:0:0:
320,192,29984,128,2,30180:0:0:0:0:
448,192,29984,1,0,0:0:0:0:
64,192,30180,1,2,0:0:0:0:
192,192,30180,128,4,30376:0:0:0:0:
448,192,30376,1,0,0:0:0:0:
320,192,30572,1,2,0:0:0:0:
64,192,30768,1,0,0:0:0:0:
192,192,30964,1,2,0:0:0:0:
448,192,30964,1,0,0:0:0:0:
320,192,31160,128,0,31356:0:0:0:0:
64,192,31356,128,2,31749:0:0:0:0:
192,192,31356,1,0,0:0:0:70:cymbal.wav
320,192,31749,128,2,32141:0:0:0:0:
448,192,31749,1,0,0:0:0:70:cymbal.wav
64,192,32141,1,2,0:0:0:0:
192,192,32141,1,0,0:0:0:70:cymbal.wav
320,192,32337,1,2,0:0:0:0:
448,192,32337,1,0,0:0:0:70:cymbal.wav
64,192,32533,1,0,0:0:0:0:
192,192,32631,1,0,0:0:0:0:
320,192,32729,1,0,0:0:0:0:
64,192,32925,128,4,33317:0:0:0:0:
192,192,32925,128,2,33317:0:0:0:0:
320,192,33317,1,2,0:0:0:0:
448,192,33317,1,0,0:0:0:70:cymbal.wav
64,192,33513,1,0,0:0:0:0:
320,192,33709,1,2,0:0:0:0:
192,192,33905,1,0,0:0:0:0:
64,192,34102,1,2,0:0:0:0:
448,192,34102,1,0,0:0:0:70:cymbal.wav
320,192,34298,128,2,34494:0:0:0:0:
64,192,34494,128,2,34690:0:0:0:0:
192,192,34494,128,4,34690:0:0:0:0:
448,192,34690,1,0,0:0:0:0:
192,192,34886,1,2,0:0:0:0:
320,192,34886,1,0,0:0:0:0:
64,192,35082,1,0,0:0:0:0:
448,192,35278,128,2,35474:0:0:0:0:
192,192,35474,128,2,35670:0:0:0:0:
320,192,35670,128,2,35866:0:0:0:0:
448,192,35670,1,0,0:0:0:0:
64,192,35866,128,0,36062:0:0:0:0:
320,192,36062,1,2,0:0:0:0:
448,192,36062,1,0,0:0:0:70:cymbal.wav
64,192,36258,1,2,0:0:0:0:
192,192,36258,1,0,0:0:0:70:cymbal.wav
448,192,36454,128,0,36651:0:0:0:0:
320,192,36651,128,0,36847:0:0:0:0:
64,192,36847,1,2,0:0:0:0:
192,192,36847,1,0,0:0:0:70:cymbal.wav
320,192,37043,1,2,0:0:0:0:
448,192,37043,1,0,0:0:0:70:cymbal.wav
192,192,37239,128,0,37631:0:0:0:0:
320,192,37631,1,2,0:0:0:0:
448,192,37631,1,0,0:0:0:70:cymbal.wav
64,192,37729,1,0,0:0:0:0:
448,192,37925,1,0,0:0:0:0:
192,192,38023,1,0,0:0:0:0:
320,192,38219,1,0,0:0:0:0:
64,192,38415,128,2,38611:0:0:0:0:
448,192,38415,128,0,39200:0:0:0:70:cymbal.wav
192,192,38611,128,0,38807:0:0:0:0:
320,192,38807,128,0,39200:0:0:0:0:
64,192,39200,128,4,39592:0:0:0:0:
192,192,39200,1,2,0:0:0:0:
320,192,39592,1,2,0:0:0:0:
448,192,39592,1,0,0:0:0:0:
192,192,39788,1,0,0:0:0:0:
448,192,39984,1,2,0:0:0:0:
64,192,40180,1,0,0:0:0:0:
192,192,40376,1,2,0:0:0:0:
320,192,40376,1,0,0:0:0:70:cymbal.wav
192,192,40572,1,2,0:0:0:0:
320,192,40768,1,2,0:0:0:0:
448,192,40768,128,4,41160:0:0:0:0:
64,192,41160,1,2,0:0:0:0:
192,192,41160,1,0,0:0:0:0:
320,192,41356,1,0,0:0:0:0:
64,192,41553,1,2,0:0:0:0:
448,192,41749,1,0,0:0:0:0:
192,192,41945,1,2,0:0:0:0:
320,192,41945,1,0,0:0:0:70:cymbal.wav
320,192,42141,1,2,0:0:0:0:
64,192,42337,1,4,0:0:0:0:
192,192,42337,128,2,42729:0:0:0:0:
320,192,42729,1,2,0:0:0:0:
448,192,42729,1,0,0:0:0:0:
64,192,42925,1,2,0:0:0:0:
320,192,43121,1,2,0:0:0:0:
192,192,43317,1,0,0:0:0:0:
64,192,43513,1,2,0:0:0:0:
448,192,43513,1,0,0:0:0:70:cymbal.wav
64,192,43709,1,2,0:0:0:0:
320,192,43905,128,2,44102:0:0:0:0:
448,192,43905,1,0,0:0:0:70:cymbal.wav
192,192,44102,128,0,44298:0:0:0:0:
320,192,44298,128,2,44494:0:0:0:0:
448,192,44298,1,0,0:0:0:70:cymbal.wav
192,192,44494,128,0,44690:0:0:0:0:
320,192,44690,1,2,0:0:0:0:
448,192,44690,1,0,0:0:0:70:cymbal.wav
64,192,44886,1,2,0:0:0:0:
192,192,44886,1,0,0:0:0:70:cymbal.wav
448,192,45082,128,0,45474:0:0:0:0:
64,192,45474,1,2,0:0:0:0:
192,192,45474,1,4,0:0:0:0:
320,192,45670,128,0,45866:0:0:0:0:
64,192,45866,1,2,0:0:0:0:
448,192,45866,1,0,0:0:0:0:
192,192,46062,128,0,46258:0:0:0:0:
448,192,46258,1,2,0:0:0:0:
320,192,46454,128,0,46651:0:0:0:0:
64,192,46651,1,2,0:0:0:0:
192,192,46651,1,0,0:0:0:70:cymbal.wav
192,192,46847,128,2,47043:0:0:0:0:
320,192,47043,1,4,0:0:0:0:
448,192,47043,1,2,0:0:0:0:
320,192,47239,128,0,47435:0:0:0:0:
64,192,47435,1,2,0:0:0:0:
192,192,47435,1,0,0:0:0:0:
320,192,47631,1,2,0:0:0:0:
192,192,47729,1,2,0:0:0:0:
320,192,47925,1,2,0:0:0:0:
192,192,48121,1,2,0:0:0:0:
320,192,48317,1,2,0:0:0:0:
64,192,48611,128,2,50180:0:0:0:0:
448,192,48611,1,4,0:0:0:0:
320,192,50180,128,2,50376:0:0:0:0:
448,192,50180,128,0,50964:0:0:0:70:cymbal.wav
192,192,50376,128,2,50572:0:0:0:0:
64,192,50572,128,2,50768:0:0:0:0:
320,192,50768,128,2,50964:0:0:0:0:
64,192,50964,128,2,51356:0:0:0:0:
192,192,50964,1,4,0:0:0:0:
320,192,51356,1,2,0:0:0:0:
448,192,51356,1,0,0:0:0:70:cymbal.wav
64,192,51749,1,4,0:0:0:0:
192,192,51749,128,2,52141:0:0:0:0:
320,192,52141,1,2,0:0:0:0:
448,192,52141,1,0,0:0:0:0:
64,192,52337,1,0,0:0:0:0:
448,192,52533,1,2,0:0:0:0:
192,192,52729,1,0,0:0:0:0:
64,192,52925,1,2,0:0:0:0:
320,192,52925,1,0,0:0:0:0:
448,192,53121,1,0,0:0:0:0:
192,192,53317,1,2,0:0:0:0:
320,192,53513,1,0,0:0:0:0:
64,192,53709,1,2,0:0:0:0:
192,192,53709,1,0,0:0:0:0:
448,192,53905,1,0,0:0:0:0:
64,192,54102,1,2,0:0:0:0:
320,192,54298,1,0,0:0:0:0:
192,192,54494,1,2,0:0:0:0:
448,192,54494,1,0,0:0:0:0:
64,192,54690,1,0,0:0:0:0:
320,192,54886,128,2,55278:0:0:0:0:
64,192,55278,1,2,0:0:0:0:
192,192,55278,1,0,0:0:0:0:
448,192,55474,1,0,0:0:0:0:
64,192,55670,1,2,0:0:0:0:
320,192,55866,1,0,0:0:0:0:
192,192,56062,1,2,0:0:0:0:
448,192,56062,1,0,0:0:0:0:
64,192,56258,1,0,0:0:0:0:
320,192,56454,1,2,0:0:0:0:
192,192,56651,1,0,0:0:0:0:
320,192,56847,1,2,0:0:0:0:
448,192,56847,1,0,0:0:0:0:
64,192,57043,1,0,0:0:0:0:
448,192,57239,1,2,0:0:0:0:
192,192,57435,1,0,0:0:0:0:
64,192,57631,1,2,0:0:0:0:
320,192,57631,1,0,0:0:0:70:cymbal.wav
320,192,57827,1,2,0:0:0:0:
64,192,58023,128,2,58415:0:0:0:0:
192,192,58023,1,0,0:0:0:70:cymbal.wav
320,192,58219,128,0,58415:0:0:0:0:
448,192,58415,1,2,0:0:0:0:
192,192,58513,1,0,0:0:0:0:
64,192,58709,1,0,0:0:0:0:
320,192,58807,1,2,0:0:0:0:
448,192,58807,128,0,59200:0:0:0:70:cymbal.wav
192,192,59003,128,0,59200:0:0:0:0:
64,192,59200,128,2,59396:0:0:0:0:
320,192,59396,128,2,59592:0:0:0:0:
64,192,59592,128,2,59788:0:0:0:0:
192,192,59592,128,0,59788:0:0:0:70:cymbal.wav
448,192,59788,1,2,0:0:0:0:
192,192,59984,128,2,60180:0:0:0:0:
320,192,59984,128,0,60180:0:0:0:70:cymbal.wav
64,192,60180,1,2,0:0:0:0:
320,192,60376,128,2,60572:0:0:0:0:
448,192,60376,128,0,60572:0:0:0:70:cymbal.wav
192,192,60572,1,2,0:0:0:0:
64,192,60768,128,2,60964:0:0:0:0:
448,192,60768,128,0,60964:0:0:0:70:cymbal.wav
320,192,60964,1,2,0:0:0:0:
64,192,61160,128,2,61945:0:0:0:0:
192,192,61160,128,0,61356:0:0:0:70:cymbal.wav
320,192,61356,128,2,61552:0:0:0:0:
448,192,61552,128,2,61749:0:0:0:0:
192,192,61749,128,2,61945:0:0:0:0:
320,192,61945,128,2,62729:0:0:0:0:
448,192,61945,128,0,62729:0:0:0:70:cymbal.wav
64,192,62729,128,0,63513:0:0:0:0:
192,192,63121,128,0,63513:0:0:0:0:
448,192,63513,1,2,0:0:0:0:
320,192,63644,1,2,0:0:0:0:
64,192,63775,1,2,0:0:0:0:
192,192,63905,1,2,0:0:0:0:
448,192,63905,1,0,0:0:0:70:cymbal.wav
64,192,64298,1,6,0:0:0:0:
192,192,64298,1,0,0:0:0:50:Clap.wav
64,192,64690,1,0,0:0:0:50:Clap.wav
64,192,65082,1,0,0:0:0:50:Clap.wav
64,192,65474,1,0,0:0:0:50:Clap.wav
320,192,65866,1,0,0:0:0:50:Clap.wav
320,192,66258,1,0,0:0:0:50:Clap.wav
320,192,66651,1,0,0:0:0:50:Clap.wav
320,192,67043,1,0,0:0:0:50:Clap.wav
64,192,67239,1,0,0:0:0:0:
192,192,67435,1,0,0:0:0:50:Clap.wav
192,192,67827,1,0,0:0:0:50:Clap.wav
192,192,68219,1,0,0:0:0:50:Clap.wav
192,192,68611,1,0,0:0:0:50:Clap.wav
448,192,69003,1,0,0:0:0:50:Clap.wav
448,192,69396,1,0,0:0:0:50:Clap.wav
448,192,69788,1,0,0:0:0:50:Clap.wav
448,192,70180,1,0,0:0:0:50:Clap.wav
320,192,70376,1,0,0:0:0:0:
64,192,70572,128,6,70964:0:0:0:0:
192,192,70572,1,0,0:0:0:50:Clap.wav
448,192,70964,128,0,71160:0:0:0:50:Clap.wav
320,192,71160,128,0,71356:0:0:0:0:
64,192,71356,128,0,71749:0:0:0:50:Clap.wav
448,192,71749,1,0,0:0:0:50:Clap.wav
64,192,71945,1,2,0:0:0:0:
192,192,71945,1,0,0:0:0:70:cymbal.wav
320,192,72141,1,6,0:0:0:0:
448,192,72141,128,0,72533:0:0:0:50:Clap.wav
64,192,72533,128,0,72729:0:0:0:50:Clap.wav
192,192,72729,128,0,72925:0:0:0:0:
448,192,72925,128,0,73317:0:0:0:50:Clap.wav
64,192,73317,1,0,0:0:0:50:Clap.wav
320,192,73513,1,0,0:0:0:0:
64,192,73709,128,6,74003:0:0:0:0:
192,192,73709,1,0,0:0:0:50:Clap.wav
448,192,74003,1,0,0:0:0:0:
320,192,74102,1,0,0:0:0:50:Clap.wav
192,192,74298,1,0,0:0:0:0:
320,192,74494,1,6,0:0:0:0:
448,192,74494,128,0,74886:0:0:0:50:Clap.wav
64,192,74690,1,0,0:0:0:0:
192,192,74886,1,0,0:0:0:50:Clap.wav
320,192,75082,1,2,0:0:0:0:
448,192,75082,1,0,0:0:0:70:cymbal.wav
64,192,75278,1,2,0:0:0:0:
192,192,75278,1,0,0:0:0:70:cymbal.wav
192,192,75670,1,2,0:0:0:0:
320,192,75670,1,0,0:0:0:70:cymbal.wav
320,192,76062,1,2,0:0:0:0:
448,192,76062,1,0,0:0:0:70:cymbal.wav
64,192,76356,1,2,0:0:0:0:
192,192,76356,1,0,0:0:0:70:cymbal.wav
320,192,76651,1,2,0:0:0:0:
448,192,76651,1,0,0:0:0:70:cymbal.wav
64,192,76847,1,2,0:0:0:0:
192,192,76847,1,4,0:0:0:0:
320,192,77043,1,2,0:0:0:0:
64,192,77239,1,2,0:0:0:0:
320,192,77435,1,2,0:0:0:0:
192,192,77631,1,2,0:0:0:0:
448,192,77827,1,2,0:0:0:0:
192,192,78023,1,2,0:0:0:0:
448,192,78219,1,2,0:0:0:0:
64,192,78415,128,2,78807:0:0:0:0:
320,192,78415,1,0,0:0:0:70:cymbal.wav
192,192,78807,128,0,79003:0:0:0:0:
320,192,79003,128,0,79200:0:0:0:0:
64,192,79200,1,0,0:0:0:0:
448,192,79396,1,0,0:0:0:0:
192,192,79494,1,0,0:0:0:0:
320,192,79690,1,0,0:0:0:0:
64,192,79788,1,0,0:0:0:0:
320,192,79984,1,2,0:0:0:0:
448,192,79984,1,0,0:0:0:0:
192,192,80180,1,2,0:0:0:0:
448,192,80376,1,2,0:0:0:0:
192,192,80572,1,2,0:0:0:0:
320,192,80768,1,2,0:0:0:0:
64,192,80964,1,2,0:0:0:0:
320,192,81160,1,2,0:0:0:0:
64,192,81356,1,2,0:0:0:0:
192,192,81553,1,2,0:0:0:0:
448,192,81553,1,0,0:0:0:0:
320,192,81749,1,2,0:0:0:0:
64,192,81847,1,2,0:0:0:0:
192,192,82043,1,2,0:0:0:0:
448,192,82141,1,2,0:0:0:0:
64,192,82337,128,8,83121:0:0:0:0:
320,192,82337,128,0,82533:0:0:0:0:
192,192,82533,128,8,82729:0:0:0:0:
448,192,82729,128,8,82925:0:0:0:0:
192,192,82925,128,8,83121:0:0:0:0:
320,192,83121,128,4,83317:0:0:0:0:
448,192,83121,1,2,0:0:0:0:
64,192,83317,128,2,83513:0:0:0:0:
448,192,83513,128,2,83709:0:0:0:0:
192,192,83709,128,2,83905:0:0:0:0:
64,192,83905,128,2,84102:0:0:0:0:
448,192,84102,128,2,84298:0:0:0:0:
192,192,84298,128,2,84494:0:0:0:0:
320,192,84494,128,2,84690:0:0:0:0:
448,192,84690,128,2,84886:0:0:0:0:
64,192,84886,128,2,85082:0:0:0:0:
320,192,85082,128,2,85278:0:0:0:0:
192,192,85278,128,2,85474:0:0:0:0:
64,192,85474,128,2,85670:0:0:0:0:
320,192,85670,128,2,85866:0:0:0:0:
192,192,85866,128,2,86062:0:0:0:0:
448,192,86062,128,2,86258:0:0:0:0:
64,192,86258,128,2,87043:0:0:0:0:
192,192,86258,128,0,86454:0:0:0:0:
320,192,86454,128,0,86651:0:0:0:0:
448,192,86651,128,0,86847:0:0:0:0:
192,192,86847,128,0,87043:0:0:0:0:
320,192,87043,128,0,87239:0:0:0:0:
448,192,87043,128,0,87827:0:0:0:0:
192,192,87239,128,0,87435:0:0:0:0:
64,192,87435,128,0,87631:0:0:0:0:
320,192,87631,128,0,87827:0:0:0:0:
64,192,87827,128,2,88611:0:0:0:0:
192,192,87827,1,4,0:0:0:0:
192,192,88219,128,0,88611:0:0:0:0:
320,192,88611,1,8,0:0:0:0:
448,192,88611,1,0,0:0:0:0:
320,192,89003,1,8,0:0:0:0:
64,192,89396,1,4,0:0:0:0:
192,192,89396,128,2,89592:0:0:0:0:
448,192,89592,128,0,89788:0:0:0:0:
64,192,89788,1,8,0:0:0:0:
320,192,89788,128,2,89984:0:0:0:0:
192,192,89984,128,0,90180:0:0:0:0:
448,192,90180,128,2,90376:0:0:0:0:
64,192,90376,128,0,90572:0:0:0:0:
320,192,90572,128,2,90768:0:0:0:0:
448,192,90572,1,8,0:0:0:0:
64,192,90768,128,0,90964:0:0:0:0:
320,192,90964,128,2,91160:0:0:0:0:
192,192,91160,128,0,91356:0:0:0:0:
64,192,91356,1,8,0:0:0:0:
448,192,91356,128,2,91553:0:0:0:0:
320,192,91553,128,0,91749:0:0:0:0:
192,192,91749,128,2,91945:0:0:0:0:
448,192,91945,128,0,92141:0:0:0:0:
64,192,92141,128,2,92337:0:0:0:0:
192,192,92141,1,8,0:0:0:0:
320,192,92337,128,8,92533:0:0:0:0:
64,192,92533,128,2,92729:0:0:0:0:
192,192,92533,128,0,92729:0:0:0:0:
448,192,92729,1,0,0:0:0:0:
320,192,92925,128,8,93121:0:0:0:0:
448,192,92925,128,2,93121:0:0:0:0:
64,192,93121,1,0,0:0:0:0:
192,192,93219,1,0,0:0:0:0:
448,192,93415,1,0,0:0:0:0:
320,192,93513,1,0,0:0:0:0:
64,192,93709,128,2,93905:0:0:0:0:
192,192,93709,128,8,93905:0:0:0:0:
320,192,94102,128,2,94298:0:0:0:0:
448,192,94102,128,0,94298:0:0:0:0:
64,192,94298,1,0,0:0:0:0:
64,192,94494,128,8,94690:0:0:0:0:
192,192,94494,128,2,94690:0:0:0:0:
448,192,94690,1,0,0:0:0:0:
320,192,94788,1,0,0:0:0:0:
64,192,94984,1,0,0:0:0:0:
192,192,95082,1,0,0:0:0:0:
320,192,95278,128,2,95474:0:0:0:0:
448,192,95278,128,8,95474:0:0:0:0:
64,192,95474,1,2,0:0:0:0:
64,192,95670,128,2,95866:0:0:0:0:
192,192,95670,1,4,0:0:0:0:
320,192,95866,128,0,96062:0:0:0:0:
192,192,96062,1,2,0:0:0:0:
448,192,96062,128,8,96258:0:0:0:0:
64,192,96258,128,0,96454:0:0:0:0:
320,192,96454,128,2,96651:0:0:0:0:
192,192,96651,128,0,96847:0:0:0:0:
320,192,96847,1,8,0:0:0:0:
448,192,96847,128,2,97043:0:0:0:0:
192,192,97043,128,0,97239:0:0:0:0:
448,192,97239,128,2,97435:0:0:0:0:
64,192,97435,128,0,97631:0:0:0:0:
192,192,97631,1,2,0:0:0:0:
320,192,97631,128,8,97827:0:0:0:0:
448,192,97827,128,0,98023:0:0:0:0:
64,192,98023,128,2,98219:0:0:0:0:
320,192,98219,128,0,98415:0:0:0:0:
64,192,98415,1,8,0:0:0:0:
192,192,98415,128,2,98611:0:0:0:0:
448,192,98611,128,8,98807:0:0:0:0:
64,192,98807,128,2,99003:0:0:0:0:
192,192,98807,128,4,99003:0:0:0:0:
320,192,99003,1,0,0:0:0:0:
320,192,99200,128,2,99396:0:0:0:0:
448,192,99200,128,8,99396:0:0:0:0:
192,192,99396,1,0,0:0:0:0:
64,192,99494,1,0,0:0:0:0:
320,192,99690,1,0,0:0:0:0:
448,192,99788,1,0,0:0:0:0:
64,192,99984,128,8,100180:0:0:0:0:
192,192,99984,128,2,100180:0:0:0:0:
320,192,100376,128,2,100572:0:0:0:0:
448,192,100376,128,0,100572:0:0:0:70:cymbal.wav
64,192,100572,128,0,100768:0:0:0:0:
320,192,100768,128,10,100964:0:0:0:0:
448,192,100768,128,0,100964:0:0:0:70:cymbal.wav
192,192,100964,128,2,101160:0:0:0:0:
64,192,101160,1,2,0:0:0:0:
448,192,101160,128,0,101356:0:0:0:70:cymbal.wav
320,192,101356,1,8,0:0:0:0:
64,192,101454,1,10,0:0:0:0:
192,192,101454,1,0,0:0:0:70:cymbal.wav
320,192,101651,128,2,101945:0:0:0:0:
64,192,101945,128,4,102141:0:0:0:0:
192,192,101945,128,2,102141:0:0:0:0:
448,192,102141,128,0,102337:0:0:0:0:
64,192,102337,128,8,102533:0:0:0:0:
320,192,102337,128,2,102533:0:0:0:0:
192,192,102533,128,0,102729:0:0:0:0:
448,192,102729,128,2,102925:0:0:0:0:
64,192,102925,128,0,103121:0:0:0:0:
320,192,103121,128,2,103317:0:0:0:0:
448,192,103121,128,8,103317:0:0:0:0:
64,192,103317,128,0,103513:0:0:0:0:
320,192,103513,128,2,103709:0:0:0:0:
192,192,103709,128,0,103905:0:0:0:0:
64,192,103905,128,8,104102:0:0:0:0:
448,192,103905,128,2,104102:0:0:0:0:
320,192,104102,128,0,104298:0:0:0:0:
192,192,104298,128,2,104494:0:0:0:0:
448,192,104494,128,0,104690:0:0:0:0:
64,192,104690,128,2,104886:0:0:0:0:
192,192,104690,128,8,104886:0:0:0:0:
320,192,104886,128,8,105082:0:0:0:0:
64,192,105082,128,2,105278:0:0:0:0:
192,192,105082,128,0,105278:0:0:0:0:
448,192,105278,1,0,0:0:0:0:
320,192,105474,128,8,105670:0:0:0:0:
448,192,105474,128,2,105670:0:0:0:0:
64,192,105670,1,0,0:0:0:0:
192,192,105768,128,0,105964:0:0:0:0:
448,192,105964,1,0,0:0:0:0:
320,192,106062,128,0,106258:0:0:0:0:
64,192,106258,128,2,106454:0:0:0:0:
192,192,106258,128,8,106454:0:0:0:0:
320,192,106651,128,2,106847:0:0:0:0:
448,192,106651,128,0,106847:0:0:0:0:
64,192,106847,1,0,0:0:0:0:
64,192,107043,128,8,107239:0:0:0:0:
192,192,107043,128,2,107239:0:0:0:0:
448,192,107239,1,0,0:0:0:0:
320,192,107337,128,0,107533:0:0:0:0:
64,192,107533,1,0,0:0:0:0:
192,192,107631,128,0,107827:0:0:0:0:
320,192,107827,128,2,108023:0:0:0:0:
448,192,107827,128,8,108023:0:0:0:0:
64,192,108023,1,2,0:0:0:0:
64,192,108219,128,2,108415:0:0:0:0:
192,192,108219,128,4,108415:0:0:0:0:
320,192,108415,128,0,108611:0:0:0:0:
192,192,108611,128,2,108807:0:0:0:0:
448,192,108611,128,8,108807:0:0:0:0:
64,192,108807,128,0,109003:0:0:0:0:
320,192,109003,128,2,109200:0:0:0:0:
192,192,109200,128,0,109396:0:0:0:0:
320,192,109396,128,8,109592:0:0:0:0:
448,192,109396,128,2,109592:0:0:0:0:
192,192,109592,128,0,109788:0:0:0:0:
448,192,109788,128,6,109984:0:0:0:0:
64,192,109984,128,0,110180:0:0:0:0:
192,192,110180,128,2,110376:0:0:0:0:
320,192,110180,128,8,110376:0:0:0:0:
448,192,110376,128,0,110572:0:0:0:0:
64,192,110572,128,2,110768:0:0:0:0:
320,192,110768,128,0,110964:0:0:0:0:
64,192,110964,128,8,111160:0:0:0:0:
192,192,110964,128,2,111160:0:0:0:0:
448,192,111160,128,8,111356:0:0:0:0:
64,192,111356,1,6,0:0:0:0:
192,192,111356,1,8,0:0:0:0:
320,192,111552,1,8,0:0:0:0:
64,192,111749,1,2,0:0:0:0:
448,192,111749,1,8,0:0:0:0:
192,192,111945,1,8,0:0:0:0:
320,192,112141,1,6,0:0:0:0:
448,192,112141,1,8,0:0:0:0:
192,192,112337,1,8,0:0:0:0:
64,192,112533,1,2,0:0:0:0:
448,192,112533,1,8,0:0:0:0:
320,192,112729,1,8,0:0:0:0:
64,192,112925,128,10,113709:0:0:0:0:
192,192,112925,128,4,113121:0:0:0:0:
448,192,113121,128,8,113317:0:0:0:0:
320,192,113317,128,14,113513:0:0:0:0:
192,192,113513,128,8,113709:0:0:0:0:
320,192,113709,128,10,113905:0:0:0:0:
448,192,113709,128,4,114494:0:0:0:0:
64,192,113905,128,8,114102:0:0:0:0:
192,192,114102,128,14,114298:0:0:0:0:
320,192,114298,128,10,114494:0:0:0:0:
64,192,114494,1,2,0:0:0:0:
192,192,114494,1,4,0:0:0:0:
