osu file format v14

[General]
AudioFilename: audio.mp3
AudioLeadIn: 0
PreviewTime: 88503
Countdown: 0
SampleSet: Soft
StackLeniency: 0.2
Mode: 0
LetterboxInBreaks: 0
WidescreenStoryboard: 1

[Editor]
DistanceSpacing: 1
BeatDivisor: 16
GridSize: 4
TimelineZoom: 8

[Metadata]
Title:Amazing Mirage
TitleUnicode:Amazing Mirage
Artist:lapix
ArtistUnicode:lapix
Creator:Lokidoki
Version:fanzhen's Another
Source:beatmania IIDX 24 SINOBUZ
Tags:nines rizen fanzhen0019 Hi-TECH FULLON original soundtrack ost bemani knightc0re knightcore testo nikakis electronic instrumental callionet
BeatmapID:1825258
BeatmapSetID:848697

[Difficulty]
HPDrainRate:8
CircleSize:4.7
OverallDifficulty:8
ApproachRate:9.5
SliderMultiplier:1.6
SliderTickRate:2

[Events]
//Background and Video events
0,0,"arzz.jpg",0,0
//Break Periods
2,64498,70047
//Storyboard Layer 0 (Background)
//Storyboard Layer 1 (Fail)
//Storyboard Layer 2 (Pass)
//Storyboard Layer 3 (Foreground)
//Storyboard Layer 4 (Overlay)
//Storyboard Sound Samples

[TimingPoints]
1553,392.156862745098,4,2,0,45,1,0
7043,-100,4,2,0,60,0,0
12533,-66.6666666666667,4,2,0,80,0,0
13121,-50,4,2,0,80,0,0
14102,-90.9090909090909,4,2,0,80,0,1
14200,-90.9090909090909,4,2,0,80,0,0
18807,-66.6666666666667,4,2,0,80,0,0
20964,-62.5,4,2,0,80,0,0
21553,-58.8235294117647,4,2,0,80,0,0
22141,-55.5555555555556,4,2,0,80,0,0
22729,-52.6315789473684,4,2,0,80,0,0
23513,-90.9090909090909,4,2,0,80,0,0
25866,-200,4,2,0,80,0,0
26258,-50,4,2,0,80,0,0
26651,-90.9090909090909,4,2,0,80,0,0
29396,-66.6666666666667,4,2,0,80,0,0
29984,-90.9090909090909,4,2,0,80,0,0
32925,-83.3333333333333,4,2,0,80,0,0
36062,-66.6666666666667,4,2,0,80,0,0
39200,-71.4285714285714,4,2,0,80,0,1
41945,-52.6315789473684,4,2,0,80,0,1
42337,-71.4285714285714,4,2,0,80,0,1
43513,-55.5555555555556,4,2,0,80,0,1
43905,-58.8235294117647,4,2,0,80,0,1
44102,-55.5555555555556,4,2,0,80,0,1
44298,-52.6315789473684,4,2,0,80,0,1
44494,-50,4,2,0,80,0,1
45474,-66.6666666666667,4,2,0,80,0,1
48611,-71.4285714285714,4,2,0,80,0,0
51356,-50,4,2,0,80,0,0
51749,-66.6666666666667,4,2,0,80,0,0
61160,-50,4,2,0,80,0,0
62729,-50,4,2,0,50,0,0
63513,-90.9090909090909,4,2,0,80,0,0
64298,-90.9090909090909,4,2,0,60,0,0
78415,-66.6666666666667,4,2,0,60,0,0
79984,-66.6666666666667,4,2,0,70,0,0
83121,-66.6666666666667,4,2,0,80,0,0
89396,-58.8235294117647,4,1,0,80,0,1
101749,-71.4285714285714,4,1,0,80,0,0
101945,-52.6315789473684,4,1,0,80,0,1
114494,-71.4285714285714,4,2,0,80,0,0

[Colours]
Combo1 : 168,255,81
Combo2 : 255,98,98
Combo3 : 255,255,149
Combo4 : 255,181,255

[HitObjects]
468,316,1553,5,4,0:1:0:0:
468,316,2141,2,0,B|376:324|376:324|352:308,1,120,2|0,0:0|0:0,0:0:0:0:
168,296,2631,1,2,0:0:0:0:
188,304,2729,2,2,L|108:312,1,80,0|2,0:0|0:0,0:0:0:0:
28,60,3121,5,2,0:0:0:0:
28,60,3709,2,0,B|88:68|88:68|148:28,1,120,2|0,0:0|0:0,0:0:0:0:
312,100,4200,1,2,0:0:0:0:
296,112,4298,2,2,P|284:80|296:32,1,80,0|2,0:0|0:0,0:0:0:0:
460,16,4690,5,2,0:0:0:0:
460,16,5278,2,0,P|476:64|456:136,1,120,2|0,0:0|0:0,0:0:0:0:
304,240,5768,1,2,0:0:0:0:
288,228,5866,2,2,B|328:220|328:220|368:240,1,80,0|2,0:0|0:0,0:0:0:0:
184,336,6258,5,2,0:0:0:0:
184,336,6847,2,0,P|163:343|144:340,1,40,2|0,0:0|0:0,0:0:0:0:
56,264,7043,5,0,0:0:0:0:
68,280,7141,1,2,0:0:0:0:
88,276,7239,1,0,0:0:0:0:
96,260,7337,1,2,0:0:0:0:
100,196,7435,5,2,0:0:0:0:
120,152,7533,1,0,0:0:0:0:
164,136,7631,1,2,0:0:0:0:
208,152,7729,1,2,0:0:0:0:
168,208,7827,6,0,B|144:112|192:144|164:48,1,160,0|0,3:0|0:0,0:0:0:0:
84,24,8415,1,2,0:0:0:0:
244,76,8709,1,0,3:0:0:0:
84,24,8905,1,0,0:0:0:0:
84,24,9003,6,2,P|48:24|32:36,1,40,0|0,3:0|0:0,0:0:0:0:
244,76,9200,2,2,P|263:81|282:77,1,40,2|0,0:0|0:0,0:0:0:0:
444,40,9396,6,0,B|520:72|520:72|444:116,1,160,0|0,3:0|0:0,0:0:0:0:
400,172,9984,1,2,0:0:0:0:
372,0,10278,1,0,3:0:0:0:
400,172,10474,1,2,0:0:0:0:
400,172,10572,6,2,P|376:176|352:172,1,40,0|0,3:0|0:0,0:0:0:0:
372,0,10768,2,2,P|348:0|328:12,1,40,0|0,3:0|0:0,0:0:0:0:
264,52,10964,6,0,L|104:40,1,160,0|0,3:0|0:0,0:0:0:0:
48,84,11553,1,2,0:0:0:0:
256,156,11847,1,0,3:0:0:0:
112,224,12043,1,2,0:0:0:0:
112,224,12141,6,2,P|100:248|100:268,1,40,0|0,3:0|0:0,0:0:0:0:
260,328,12337,2,2,P|272:352|272:372,1,40,0|0,3:0|0:0,0:0:0:0:
176,340,12533,6,0,P|208:256|344:352,1,300.000011444092,0|0,1:0|0:0,0:0:0:0:
260,328,13121,6,2,B|244:304|244:304|256:160,1,160,0|0,1:0|1:0,0:1:0:0:
336,76,13415,5,0,1:0:0:0:
408,84,13513,1,0,0:0:0:0:
340,100,13611,1,0,1:0:0:0:
268,96,13709,2,2,B|244:88|244:88|176:92,1,80,0|0,1:0|0:0,0:1:0:0:
80,16,13905,2,2,B|56:24|56:24|-12:20,1,80,0|0,1:0|0:0,0:1:0:0:
24,220,14102,6,0,P|16:272|32:312,1,88.000002685547,4|0,1:2|0:0,0:0:0:0:
96,344,14494,1,2,1:1:0:0:
204,184,14690,1,0,1:0:0:0:
180,176,14788,2,0,P|160:172|128:180,1,44.0000013427735,0|0,1:0|0:0,0:0:0:0:
172,260,14984,5,0,1:0:0:0:
176,288,15082,1,0,0:0:0:0:
180,316,15180,1,0,1:0:0:0:
256,328,15278,2,0,P|268:312|268:280,1,44.0000013427735,2|0,1:1|0:0,0:0:0:0:
104,240,15474,2,0,P|92:256|92:288,1,44.0000013427735,0|0,1:0|0:0,0:0:0:0:
328,240,15670,6,0,L|432:236,1,88.000002685547,0|0,1:0|0:0,0:0:0:0:
480,192,16062,1,2,1:0:0:0:
256,200,16258,1,0,1:0:0:0:
256,200,16356,2,0,P|244:164|248:148,1,44.0000013427735,0|0,1:0|0:0,0:0:0:0:
316,84,16553,5,0,1:0:0:0:
387,93,16651,5,0,1:0:0:0:
359,27,16749,5,0,1:0:0:0:
404,108,16847,6,0,P|432:116|456:112,1,44.0000013427735,2|0,1:0|0:0,1:0:0:0:
208,28,17043,2,2,P|179:36|156:32,1,44.0000013427735,0|0,1:0|0:0,1:0:0:0:
24,80,17239,6,0,B|60:104|60:104|116:92,1,88.000002685547,0|0,1:0|0:0,0:0:0:0:
0,0,17631,2,0,P|32:8|56:4,2,44.0000013427735,2|0|0,1:0|0:0|1:0,0:0:0:0:
40,184,17925,1,0,1:0:0:0:
44,196,18023,5,0,0:0:0:0:
80,220,18121,1,0,1:0:0:0:
124,220,18219,1,0,1:0:0:0:
164,200,18317,1,0,0:0:0:0:
180,160,18415,2,0,L|184:116,1,44.0000013427735,2|0,1:0|0:0,0:0:0:0:
52,292,18611,2,2,L|56:336,1,44.0000013427735,0|0,1:0|0:0,1:0:0:0:
212,260,18807,6,0,P|233:257|248:264,6,30.0000011444092,0|0|0|0|0|0|0,1:0|3:0|3:0|3:0|3:0|3:0|3:0,3:0:0:0:
288,312,19200,6,0,P|264:340|224:344,1,60.0000022888184,0|0,1:0|1:0,0:0:0:0:
336,144,19396,6,0,P|323:109|340:72,1,60.0000022888184,0|0,1:0|0:0,0:0:0:0:
464,248,19592,5,0,1:0:0:0:
496,276,19690,1,2,1:0:0:0:
512,316,19788,1,0,0:0:0:0:
508,356,19886,1,0,1:0:0:0:
508,196,19984,6,0,L|512:124,1,60.0000022888184,2|0,1:0|0:0,0:0:0:0:
325,27,20180,2,2,L|329:99,1,60.0000022888184,0|0,1:0|0:0,1:0:0:0:
247,155,20376,6,0,P|199:191|135:183,1,120.000004577637,4|0,1:0|0:0,0:0:0:0:
37,218,20670,6,2,P|83:182|142:186,1,120.000004577637,4|0,1:2|0:0,0:1:0:0:
251,262,20964,6,0,P|312:293|384:269,1,128,4|0,1:0|0:0,0:0:0:0:
484,299,21258,6,2,P|423:268|351:293,1,128,4|0,1:2|0:0,0:1:0:0:
204,372,21553,6,0,P|168:304|184:240,1,136.000002593994,4|0,1:0|0:0,0:0:0:0:
308,12,21847,6,2,P|344:80|328:144,1,136.000002593994,4|0,1:2|0:0,0:1:0:0:
140,168,22141,6,0,P|68:132|-8:156,1,143.999995605469,4|0,1:0|0:0,0:0:0:0:
372,216,22435,6,2,P|444:252|520:228,1,143.999995605469,4|0,1:2|0:0,0:1:0:0:
60,212,22729,6,2,P|36:240|40:296,1,75.9999979705811,4|0,1:2|0:0,0:1:0:0:
452,172,22925,6,2,P|476:144|472:88,1,75.9999979705811,4|0,1:2|0:0,0:1:0:0:
220,8,23121,6,2,L|236:104,1,75.9999979705811,0|0,1:0|0:0,0:1:0:0:
292,376,23317,6,0,L|276:280,1,75.9999979705811,4|0,1:0|0:0,1:0:0:0:
256,192,23513,5,4,1:0:0:0:
248,187,23611,1,2,0:0:0:0:
239,185,23709,1,0,0:0:0:0:
230,184,23807,1,0,0:0:0:0:
221,184,23905,1,2,0:0:0:0:
212,186,24003,1,0,0:0:0:0:
204,190,24102,1,2,0:0:0:0:
197,195,24200,1,0,0:0:0:0:
308,144,24298,6,0,L|404:124,1,88.000002685547,2|0,0:0|0:0,0:0:0:0:
148,252,24592,2,0,L|52:272,1,88.000002685547,2|0,0:0|0:0,0:0:0:0:
304,264,24886,2,0,P|307:292|304:324,1,44.0000013427735,2|2,0:0|0:0,0:0:0:0:
148,140,25082,1,0,3:0:0:0:
140,112,25180,1,0,3:0:0:0:
148,84,25278,1,0,3:0:0:0:
248,20,25474,6,0,P|276:12|304:20,1,44.0000013427735,2|0,3:2|0:0,0:0:0:0:
368,92,25670,2,0,P|396:100|424:92,1,44.0000013427735,2|0,1:0|0:0,0:0:0:0:
472,20,25866,6,0,L|512:8,1,40,4|0,1:0|0:0,0:0:0:0:
510,8,26258,6,0,P|424:80|424:204,1,240,0|0,1:0|0:0,1:0:0:0:
500,288,26651,6,2,L|356:292,1,132.00000402832,4|0,1:2|0:0,1:0:0:0:
264,260,27043,2,0,P|284:248|312:252,1,44.0000013427735,0|0,1:0|1:0,0:0:0:0:
292,356,27239,1,8,1:0:0:0:
108,280,27435,5,0,1:0:0:0:
124,288,27533,1,8,1:0:0:0:
140,276,27631,1,0,1:0:0:0:
0,288,27827,6,0,L|56:296,1,44.0000013427735,0|0,1:0|0:0,0:0:0:0:
240,324,28023,2,2,L|184:316,1,44.0000013427735,0|0,1:0|0:0,1:0:0:0:
48,212,28219,5,0,1:0:0:0:
116,16,28415,1,2,1:3:0:0:
104,172,28611,5,0,1:0:0:0:
120,168,28709,1,0,1:0:0:0:
60,52,28807,5,8,1:0:0:0:
44,56,28905,1,0,1:0:0:0:
84,112,29003,6,0,L|24:132,2,44.0000013427735,0|8|0,1:0|1:0|1:0,0:0:0:0:
368,140,29396,6,0,P|324:144|280:116,1,60.0000022888184,2|0,1:0|0:0,1:0:0:0:
188,88,29592,2,2,P|160:72|140:40,1,60.0000022888184,0|0,1:0|0:0,1:0:0:0:
296,68,29788,2,2,P|304:116|284:160,1,60.0000022888184,0|0,1:0|0:0,1:0:0:0:
252,264,29984,5,2,1:0:0:0:
272,0,30180,1,4,1:2:0:0:
424,288,30376,1,0,1:0:0:0:
432,24,30572,1,0,1:0:0:0:
456,16,30670,1,8,1:0:0:0:
480,20,30768,1,0,1:0:0:0:
496,40,30866,1,0,1:0:0:0:
452,92,30964,6,0,P|448:112|456:144,2,44.0000013427735,0|0|2,1:0|1:0|1:0,0:0:0:0:
384,272,31356,6,2,P|412:280|436:272,1,44.0000013427735,0|0,1:0|0:0,1:0:0:0:
296,152,31553,1,8,1:0:0:0:
248,288,31749,2,0,P|232:300|160:300,1,88.000002685547,0|8,1:0|1:0,0:0:0:0:
68,284,32043,1,0,1:0:0:0:
68,284,32141,6,2,P|88:264|116:264,1,44.0000013427735,0|0,1:0|0:0,1:0:0:0:
320,320,32337,2,2,P|340:340|368:340,1,44.0000013427735,0|0,1:0|0:0,1:0:0:0:
500,136,32533,1,0,1:0:0:0:
496,156,32631,1,2,3:0:0:0:
492,176,32729,1,0,3:0:0:0:
488,196,32827,1,0,3:0:0:0:
424,176,32925,6,0,L|416:76,1,95.9999970703126,4|2,1:2|0:0,0:0:0:0:
312,48,33317,1,0,1:0:0:0:
304,240,33513,1,2,0:0:0:0:
328,240,33611,1,2,0:0:0:0:
352,232,33709,1,0,1:0:0:0:
380,168,33807,5,2,1:0:0:0:
316,160,33905,1,0,1:0:0:0:
256,188,34003,1,2,1:0:0:0:
232,252,34102,2,0,P|224:288|228:320,1,47.9999985351563,4|0,1:0|0:0,0:0:0:0:
124,120,34298,2,0,P|116:84|120:52,1,47.9999985351563,8|0,1:0|0:0,0:0:0:0:
40,284,34494,6,0,P|28:332|40:380,1,95.9999970703126,4|2,1:2|1:0,0:0:0:0:
216,272,34886,1,8,1:0:0:0:
200,292,34984,1,0,0:0:0:0:
176,296,35082,1,0,1:0:0:0:
152,288,35180,1,0,1:0:0:0:
284,220,35278,5,2,1:0:0:0:
332,260,35376,1,0,1:0:0:0:
396,264,35474,1,2,1:0:0:0:
452,236,35572,1,0,1:0:0:0:
472,176,35670,2,2,L|476:112,1,47.9999985351563,0|0,1:0|0:0,1:0:0:0:
480,56,35866,2,0,L|484:-8,1,47.9999985351563,2|0,1:0|0:0,0:0:0:0:
460,4,36062,6,0,L|464:80,1,60.0000022888184,4|0,1:2|0:0,0:0:0:0:
472,208,36258,2,0,L|476:284,1,60.0000022888184,4|0,1:2|0:0,0:0:0:0:
208,344,36454,1,0,1:0:0:0:
188,356,36552,1,2,0:0:0:0:
168,348,36651,1,2,0:0:0:0:
300,368,36847,6,0,L|304:292,1,60.0000022888184,4|0,1:2|0:0,0:0:0:0:
312,164,37043,2,0,L|316:88,1,60.0000022888184,4|0,1:2|0:0,0:0:0:0:
40,40,37239,1,2,3:0:0:0:
20,32,37338,1,0,1:0:0:0:
0,44,37436,1,0,1:0:0:0:
220,72,37631,5,4,1:2:0:0:
220,72,37729,2,0,P|156:88|104:56,1,120.000004577637,0|0,1:0|1:0,0:0:0:0:
64,128,38023,2,2,P|52:156|52:196,1,60.0000022888184,0|0,1:0|0:0,1:0:0:0:
256,196,38219,2,2,P|261:166|254:137,1,60.0000022888184,0|0,1:0|0:0,1:0:0:0:
148,236,38415,6,0,L|140:300,1,60.0000022888184,0|0,1:0|0:0,0:0:0:0:
328,240,38611,2,0,L|300:300,1,60.0000022888184,0|0,1:0|0:0,0:0:0:0:
496,352,38807,2,2,B|457:340|457:340|388:388|388:388|324:368,1,180.000006866455,0|0,1:0|0:0,1:0:0:0:
232,344,39200,6,0,P|216:264|236:224,1,111.999996582031,4|2,1:0|0:0,0:0:0:0:
384,304,39592,1,0,1:0:0:0:
144,368,39788,1,2,0:0:0:0:
144,368,39886,2,0,P|132:336|132:312,1,55.9999982910157,2|0,0:0|1:0,0:0:0:0:
132,240,40082,2,0,P|136:204|148:180,2,55.9999982910157,2|2|0,0:0|0:0|1:0,0:0:0:0:
24,272,40376,1,4,1:2:0:0:
384,304,40572,1,0,1:0:0:0:
280,184,40768,6,0,P|296:104|276:64,1,111.999996582031,4|2,1:0|0:0,0:0:0:0:
128,144,41160,1,0,1:0:0:0:
368,208,41356,1,2,0:0:0:0:
368,208,41454,2,0,P|380:176|380:152,1,55.9999982910157,2|0,0:0|1:0,0:0:0:0:
380,80,41650,2,0,P|376:44|364:20,2,55.9999982910157,2|2|0,0:0|0:0|1:0,0:0:0:0:
448,20,41945,6,2,P|480:20|452:44,1,75.9999979705811,4|0,1:2|0:0,0:1:0:0:
456,204,42141,2,2,P|487:198|455:179,1,75.9999979705811,4|0,1:2|0:0,0:1:0:0:
320,128,42337,5,4,1:0:0:0:
128,144,42533,2,0,P|96:144|76:132,1,55.9999982910157,2|2,0:0|0:0,0:0:0:0:
0,4,42729,1,0,1:0:0:0:
0,32,42827,1,2,0:0:0:0:
16,60,42925,1,0,1:0:0:0:
40,72,43023,2,0,P|80:60|100:40,1,55.9999982910157,2|0,0:0|1:0,0:0:0:0:
196,36,43219,6,0,L|256:32,2,55.9999982910157,0|0|0,1:0|0:0|1:0,0:0:0:0:
376,100,43513,2,0,P|348:68|312:64,1,71.9999978027344,4|0,1:2|1:0,0:0:0:0:
360,176,43709,1,0,1:0:0:0:
496,292,43905,6,2,P|460:336|412:344,1,90.6666683959961,4|0,1:2|0:0,1:0:0:0:
340,264,44102,6,2,P|296:220|240:220,1,95.9999970703126,0|0,1:0|0:0,1:0:0:0:
248,352,44298,6,2,P|184:380|136:372,1,101.333330627441,4|0,1:2|0:0,1:0:0:0:
120,192,44494,6,2,P|64:160|8:168,1,106.666666666667,0|0,1:0|0:0,1:0:0:0:
188,16,44690,5,0,1:0:0:0:
192,56,44788,1,2,3:0:0:0:
340,92,44886,5,2,3:0:0:0:
336,132,44984,1,2,3:0:0:0:
264,112,45082,6,0,B|260:80|260:80|304:112|372:92|400:40|400:40|412:104,1,240,4|0,1:0|0:0,0:0:0:0:
500,0,45474,6,0,L|492:136,1,120.000004577637,4|2,1:0|0:1,0:0:0:0:
432,336,45866,2,0,L|424:200,1,120.000004577637,0|2,1:0|0:1,0:0:0:0:
260,308,46258,1,0,1:0:0:0:
228,280,46356,1,0,1:0:0:0:
188,268,46454,1,2,1:0:0:0:
148,276,46553,1,0,0:0:0:0:
112,296,46651,2,0,L|108:364,1,60.0000022888184,4|0,1:2|0:0,0:0:0:0:
76,192,46847,1,0,1:0:0:0:
76,192,47043,6,0,P|32:144|28:88,1,120.000004577637,4|2,1:0|0:1,0:0:0:0:
144,8,47435,2,0,P|108:60|112:128,1,120.000004577637,0|2,1:0|1:0,0:0:0:0:
184,76,47729,5,4,1:2:0:0:
456,220,47925,1,0,1:0:0:0:
256,228,48121,5,4,1:2:0:0:
512,64,48317,2,0,P|464:24|400:20,1,120.000004577637,4|0,1:2|0:0,0:0:0:0:
356,132,48611,6,0,L|353:151,46,13.9999995727539,4|0|0|0|0|0|0|0|0|0|0|0|0|0|0|0|0|0|0|0|0|0|0|0|0|0|0|0|0|0|0|0|0|0|0|0|0|0|0|0|0|0|0|0|0|0|0,1:0|0:0|0:0|0:0|0:0|0:0|0:0|0:0|0:0|0:0|0:0|0:0|0:0|0:0|0:0|0:0|0:0|0:0|0:0|0:0|0:0|0:0|0:0|0:0|0:0|0:0|0:0|0:0|0:0|0:0|0:0|0:0|3:0|3:0|3:0|3:0|3:0|3:0|3:0|3:0|3:0|3:0|3:0|3:0|3:0|3:0|3:0,0:0:0:0:
280,112,49788,2,0,L|292:200,2,74.6666643880209,0|0|0,1:0|1:0|1:0,0:0:0:0:
424,308,50180,5,4,1:2:0:0:
380,276,50278,1,0,0:0:0:0:
324,268,50376,1,0,3:0:0:0:
276,288,50474,1,0,3:0:0:0:
228,316,50572,1,0,0:0:0:0:
176,332,50670,1,0,3:0:0:0:
120,324,50768,1,0,3:0:0:0:
72,296,50866,1,0,0:0:0:0:
52,244,50964,2,0,P|56:304|40:368,1,111.999996582031,4|0,1:2|0:0,0:0:0:0:
308,188,51356,6,2,B|308:136|308:136|264:164|264:164|264:244,1,160,0|0,1:0|0:0,1:0:0:0:
208,68,51749,6,0,P|160:28|92:44,1,120.000004577637,4|2,1:0|0:0,0:0:0:0:
32,152,52141,1,0,1:0:0:0:
32,152,52239,2,0,L|40:276,2,120.000004577637,0|0|0,1:0|1:0|1:0,0:0:0:0:
96,108,52729,2,0,P|124:112|156:144,1,60.0000022888184,0|0,1:0|0:0,0:0:0:0:
224,172,52925,5,0,1:0:0:0:
256,184,53023,1,0,1:0:0:0:
288,172,53121,1,2,1:2:0:0:
368,36,53317,5,0,1:0:0:0:
408,24,53415,2,0,P|456:28|496:88,1,120.000004577637,0|0,1:0|1:0,1:0:0:0:
424,88,53709,5,0,1:0:0:0:
404,108,53807,1,0,1:0:0:0:
404,136,53905,1,0,1:0:0:0:
424,160,54003,1,0,1:0:0:0:
404,188,54102,5,2,1:0:0:0:
348,220,54200,1,0,1:0:0:0:
332,284,54298,1,2,1:0:0:0:
364,340,54396,1,0,1:0:0:0:
424,368,54494,2,0,L|488:372,1,60.0000022888184,2|0,1:2|0:0,0:0:0:0:
256,320,54690,1,0,1:0:0:0:
88,368,54886,6,0,P|36:324|32:264,1,120.000004577637,0|2,1:0|0:0,0:0:0:0:
96,160,55278,1,0,1:0:0:0:
96,160,55376,2,0,L|220:148,2,120.000004577637,0|0|0,1:0|1:0|1:0,0:0:0:0:
92,236,55866,2,0,P|96:264|124:292,1,60.0000022888184,0|0,1:0|1:0,0:0:0:0:
220,320,56062,5,0,1:0:0:0:
256,328,56160,1,0,1:0:0:0:
292,320,56258,1,2,1:2:0:0:
416,360,56454,5,0,1:0:0:0:
460,344,56553,2,0,P|480:280|456:236,1,120.000004577637,0|0,1:0|1:0,1:0:0:0:
308,220,56847,1,0,1:0:0:0:
336,228,56945,1,2,0:0:0:0:
364,224,57043,1,0,1:0:0:0:
388,204,57141,1,2,0:0:0:0:
444,172,57239,5,0,1:0:0:0:
484,120,57337,1,2,0:0:0:0:
468,56,57435,1,2,0:0:0:0:
412,20,57533,1,2,0:0:0:0:
348,32,57631,1,4,1:2:0:0:
300,76,57729,1,0,0:0:0:0:
236,84,57827,1,0,1:0:0:0:
176,56,57925,1,0,0:0:0:0:
112,36,58023,6,0,P|80:28|32:36,1,60.0000022888184,4|0,1:2|0:0,0:0:0:0:
0,176,58219,2,0,P|29:177|58:169,1,60.0000022888184,2|0,0:0|0:0,0:0:0:0:
116,112,58415,1,0,1:0:0:0:
116,112,58513,2,0,L|104:252,1,120.000004577637,0|0,1:0|1:0,0:0:0:0:
8,304,58807,6,0,P|37:305|66:297,1,60.0000022888184,4|0,1:2|0:0,0:0:0:0:
240,208,59003,2,0,P|269:206|298:214,1,60.0000022888184,0|0,1:0|0:0,0:0:0:0:
168,296,59200,6,2,B|176:280|176:280|200:288|200:288|193:305,1,60.0000022888184,0|0,1:0|0:0,1:0:0:0:
392,344,59396,2,2,B|400:360|400:360|424:352|424:352|417:335,1,60.0000022888184,0|0,1:0|0:0,1:0:0:0:
300,352,59592,6,0,P|304:316|320:286,1,60.0000022888184,4|0,1:2|0:0,0:0:0:0:
376,200,59788,2,0,P|396:176|424:160,1,60.0000022888184,0|0,1:0|0:0,0:0:0:0:
512,112,59984,1,4,1:2:0:0:
512,112,60082,1,0,1:0:0:0:
512,112,60180,1,0,0:0:0:0:
512,112,60278,1,0,1:0:0:0:
488,180,60376,5,4,1:2:0:0:
480,188,60474,1,0,0:0:0:0:
432,48,60572,5,0,1:0:0:0:
424,40,60670,1,0,1:0:0:0:
328,208,60768,5,4,1:2:0:0:
320,216,60866,1,0,1:0:0:0:
232,24,60964,5,0,1:0:0:0:
224,16,61062,1,0,0:0:0:0:
144,232,61160,6,0,P|124:252|104:256,3,40,4|0|0|0,1:2|0:0|1:0|0:0,0:0:0:0:
80,192,61356,6,0,P|52:199|33:192,3,40,2|0|0|0,1:2|0:0|1:0|0:0,0:0:0:0:
48,128,61552,6,0,P|20:120|7:105,3,40,2|0|0|0,1:2|0:0|1:0|0:0,0:0:0:0:
48,56,61749,6,0,P|28:36|24:16,3,40,2|0|0|0,1:2|0:0|1:0|0:0,0:0:0:0:
108,16,61945,6,0,P|116:12|136:16,13,20,0|0|0|0|0|0|0|0|0|0|0|0|0|0,1:0|0:0|1:0|0:0|1:0|0:0|1:0|0:0|1:0|0:0|1:0|0:0|1:0|0:0,0:0:0:0:
192,40,62337,6,0,P|200:44|220:40,13,20,0|0|0|0|0|0|0|0|0|0|0|0|0|0,1:0|0:0|1:0|0:0|1:0|0:0|1:0|0:0|1:0|0:0|1:0|0:0|1:0|0:0,0:0:0:0:
280,28,62729,6,0,L|292:26,56,10,4|0|0|0|0|0|0|0|0|0|0|0|0|0|0|0|0|0|0|0|0|0|0|0|0|0|0|0|0|0|0|0|0|0|0|0|0|0|0|0|0|0|0|0|0|0|0|0|0|0|0|0|0|0|0|0|0,1:0|0:0|0:0|0:0|0:0|0:0|0:0|0:0|0:0|0:0|0:0|0:0|0:0|0:0|0:0|0:0|0:0|0:0|0:0|0:0|0:0|0:0|0:0|0:0|0:0|0:0|0:0|0:0|0:0|0:0|0:0|0:0|0:0|0:0|0:0|0:0|0:0|0:0|0:0|0:0|0:0|0:0|0:0|0:0|0:0|0:0|0:0|0:0|0:0|0:0|0:0|0:0|0:0|0:0|0:0|0:0|0:0,0:0:0:0:
360,40,63513,5,4,1:2:0:0:
384,160,63644,1,4,1:2:0:0:
512,136,63775,1,4,1:2:0:0:
488,16,63906,1,4,1:2:0:0:
464,220,64298,5,4,1:0:0:0:
64,120,70572,6,0,L|200:124,1,132.00000402832,4|0,1:2|0:0,0:0:0:0:
172,140,70964,2,0,L|64:137,1,88.000002685547,2|0,1:3|0:0,0:0:0:0:
104,208,71356,5,0,1:0:0:0:
154,209,71454,1,0,0:0:0:0:
136,273,71651,1,0,0:0:0:0:
116,272,71749,1,2,1:3:0:0:
124,340,71945,5,4,1:2:0:0:
292,336,72141,6,0,L|428:332,1,132.00000402832,4|0,1:2|0:0,0:0:0:0:
400,316,72533,2,0,L|292:319,1,88.000002685547,2|0,1:3|0:0,0:0:0:0:
336,248,72925,5,0,1:0:0:0:
386,247,73023,1,2,1:3:0:0:
368,182,73220,1,0,1:0:0:0:
349,183,73318,1,2,1:3:0:0:
356,112,73514,5,0,1:0:0:0:
440,32,73709,6,0,P|432:52|436:88,3,44.0000013427735,4|0|0|0,1:2|1:0|0:0|1:0,0:0:0:0:
368,40,74102,2,0,L|316:36,1,44.0000013427735,0|0,1:0|0:0,0:0:0:0:
252,104,74298,2,0,L|200:108,1,44.0000013427735,0|0,1:0|1:0,0:0:0:0:
132,144,74494,6,0,P|124:164|128:200,3,44.0000013427735,4|0|0|0,1:2|1:0|0:0|1:0,0:0:0:0:
172,240,74886,1,0,1:0:0:0:
172,280,74984,1,0,0:0:0:0:
156,316,75082,2,0,P|140:336|112:344,1,44.0000013427735,4|0,1:2|0:0,0:0:0:0:
72,284,75278,5,0,1:0:0:0:
28,264,75376,1,2,0:0:0:0:
64,288,75474,5,2,0:0:0:0:
33,257,75572,1,2,0:0:0:0:
58,293,75670,5,4,1:2:0:0:
40,252,75768,1,2,0:0:0:0:
48,295,75866,5,2,0:0:0:0:
48,249,75964,1,2,0:0:0:0:
40,293,76062,5,4,1:2:0:0:
58,252,76160,1,2,0:0:0:0:
33,288,76258,5,2,0:0:0:0:
64,257,76356,1,4,1:2:0:0:
28,284,76454,5,2,0:0:0:0:
72,264,76553,1,2,0:0:0:0:
28,274,76651,5,4,1:2:0:0:
73,274,76749,1,2,0:0:0:0:
56,156,76847,5,0,1:0:0:0:
64,164,76945,1,0,1:0:0:0:
72,172,77043,1,0,1:0:0:0:
80,180,77141,1,0,1:0:0:0:
128,128,77239,5,0,1:0:0:0:
136,136,77337,1,0,1:0:0:0:
144,144,77435,1,0,1:0:0:0:
152,152,77533,1,0,1:0:0:0:
172,72,77631,5,0,1:0:0:0:
180,80,77729,1,0,1:0:0:0:
188,88,77827,1,0,1:0:0:0:
196,96,77925,1,0,1:0:0:0:
244,44,78023,5,0,1:0:0:0:
252,52,78121,1,0,1:0:0:0:
260,60,78219,1,0,1:0:0:0:
268,68,78317,1,0,1:0:0:0:
340,80,78415,6,0,P|344:112|368:136,1,60.0000022888184,4|2,1:0|0:0,0:0:0:0:
512,64,78611,2,0,P|508:32|484:8,1,60.0000022888184,0|2,0:0|0:0,0:0:0:0:
373,49,78807,1,2,0:0:0:0:
405,113,78905,1,0,0:0:0:0:
473,81,79003,1,2,0:0:0:0:
441,17,79101,1,2,0:0:0:0:
388,56,79200,6,0,B|388:104|388:104|392:128|392:128|392:188,1,120.000004577637,0|0,3:0|3:0,1:0:0:0:
456,204,79494,2,0,B|456:260|456:260|452:280|452:280|452:336,1,120.000004577637,0|0,3:0|3:0,1:0:0:0:
384,356,79788,2,0,L|384:292,1,60.0000022888184,0|0,3:0|0:0,1:0:0:0:
312,276,79984,5,0,1:0:0:0:
308,288,80082,1,0,1:0:0:0:
304,300,80180,1,0,1:0:0:0:
300,312,80278,1,0,1:0:0:0:
232,284,80376,5,0,1:0:0:0:
228,296,80474,1,0,1:0:0:0:
224,308,80572,1,0,1:0:0:0:
220,320,80670,1,0,1:0:0:0:
164,248,80768,5,0,1:0:0:0:
160,260,80866,1,0,1:0:0:0:
156,272,80964,1,0,1:0:0:0:
152,284,81062,1,0,1:0:0:0:
84,256,81160,5,0,1:0:0:0:
80,268,81258,1,0,1:0:0:0:
76,280,81356,1,0,1:0:0:0:
72,292,81454,1,0,1:0:0:0:
40,168,81553,5,0,1:0:0:0:
0,272,81749,5,0,1:0:0:0:
64,100,81847,1,0,1:0:0:0:
44,368,82043,5,0,1:0:0:0:
108,196,82141,1,0,1:0:0:0:
248,36,82337,5,2,0:0:0:0:
252,48,82435,1,0,0:0:0:0:
260,56,82533,1,2,0:0:0:0:
272,60,82631,1,2,0:0:0:0:
320,36,82729,5,2,0:0:0:0:
348,68,82827,1,0,0:0:0:0:
388,76,82925,1,2,0:0:0:0:
424,52,83023,1,2,0:0:0:0:
480,116,83121,6,0,P|492:116|512:112,3,30.0000011444092,0|0|0|0,1:0|0:0|0:0|0:0,0:0:0:0:
428,168,83317,2,0,P|416:168|396:164,3,30.0000011444092,0|0|0|0,1:0|0:0|0:0|0:0,0:0:0:0:
472,228,83513,2,0,P|472:244|464:264,1,30.0000011444092,0|0,1:0|0:0,0:0:0:0:
456,244,83611,2,0,P|454:259|444:279,1,30.0000011444092,0|0,1:0|0:0,0:0:0:0:
432,260,83709,2,0,P|429:275|417:294,1,30.0000011444092
413,272,83807,2,0,P|408:287|395:304,1,30.0000011444092,0|0,1:0|0:0,0:0:0:0:
348,356,83905,6,0,P|360:356|380:360,3,30.0000011444092,0|0|0|0,1:0|0:0|0:0|0:0,0:0:0:0:
296,292,84101,2,0,P|284:292|264:296,3,30.0000011444092,0|0|0|0,1:0|0:0|0:0|0:0,0:0:0:0:
340,216,84297,2,0,P|340:200|332:180,1,30.0000011444092,0|0,1:0|0:0,0:0:0:0:
324,200,84395,2,0,P|322:184|312:164,1,30.0000011444092,0|0,1:0|0:0,0:0:0:0:
300,184,84493,2,0,P|297:168|285:149,1,30.0000011444092,0|0,3:0|0:0,0:0:0:0:
281,172,84591,2,0,P|276:156|263:139,1,30.0000011444092,0|0,1:0|0:0,0:0:0:0:
243,52,84690,6,0,P|255:52|275:48,3,30.0000011444092,0|0|0|0,1:0|0:0|0:0|0:0,0:0:0:0:
156,115,84886,2,0,P|144:115|124:111,3,30.0000011444092,0|0|0|0,1:0|0:0|0:0|0:0,0:0:0:0:
216,200,85082,2,0,P|216:216|208:236,1,30.0000011444092,0|0,1:0|0:0,0:0:0:0:
196,220,85180,2,0,P|194:235|184:255,1,30.0000011444092,0|0,1:0|0:0,0:0:0:0:
172,236,85278,2,0,P|169:251|157:270,1,30.0000011444092
148,248,85376,2,0,P|143:263|130:280,1,30.0000011444092,0|0,1:0|0:0,0:0:0:0:
116,352,85474,6,0,P|128:352|148:356,3,30.0000011444092,0|0|0|0,1:0|0:0|0:0|0:0,0:0:0:0:
32,268,85670,2,0,P|20:268|0:272,3,30.0000011444092,0|0|0|0,1:0|0:0|0:0|0:0,0:0:0:0:
84,156,85866,2,0,P|84:140|76:120,1,30.0000011444092,0|0,1:0|0:0,0:0:0:0:
64,136,85964,2,0,P|62:120|52:100,1,30.0000011444092,0|0,1:0|0:0,0:0:0:0:
40,120,86062,2,0,P|37:104|25:85,1,30.0000011444092,0|0,1:0|0:0,0:0:0:0:
16,108,86160,2,0,P|11:92|-1:75,1,30.0000011444092,0|0,1:0|0:0,0:0:0:0:
24,16,86258,6,0,P|31:14|40:12,14,15.0000005722046,0|0|0|0|0|0|0|0|0|0|0|0|0|0|0,1:0|0:0|0:0|0:0|0:0|0:0|0:0|0:0|1:0|0:0|0:0|0:0|0:0|0:0|0:0,0:0:0:0:
180,48,86651,6,0,P|192:48|200:52,10,20.0000007629395,0|0|0|0|0|0|0|0|0|0|0,1:0|0:0|0:0|0:0|0:0|0:0|1:0|0:0|0:0|0:0|0:0,0:0:0:0:
317,51,87043,6,0,P|348:40|372:44,5,40.000001525879,0|0|0|0|0|0,1:0|0:0|1:0|0:0|1:0|0:0,0:0:0:0:
473,12,87436,6,0,P|484:40|476:104,2,80.0000030517579,0|0|0,1:0|1:0|1:0,0:0:0:0:
392,132,87827,6,0,P|384:160|392:192,1,60.0000022888184,4|2,1:0|0:0,0:0:0:0:
284,252,88023,2,0,P|312:260|344:252,1,60.0000022888184,0|2,0:0|0:0,0:0:0:0:
400,364,88219,2,0,P|408:336|400:304,1,60.0000022888184,2|0,0:0|0:0,0:0:0:0:
508,244,88415,2,0,P|480:236|448:244,1,60.0000022888184,2|0,0:0|0:0,0:0:0:0:
240,184,88611,5,0,1:0:0:0:
224,172,88709,1,2,0:0:0:0:
188,308,88807,5,2,0:0:0:0:
172,296,88905,1,2,0:0:0:0:
76,336,89003,5,0,0:0:0:0:
32,280,89102,1,2,0:0:0:0:
32,208,89200,1,2,0:0:0:0:
68,148,89298,1,2,0:0:0:0:
136,88,89396,6,0,L|128:16,1,68.0000012969971,4|0,1:0|0:0,0:0:0:0:
156,92,89592,2,0,L|224:84,1,68.0000012969971,2|0,0:0|0:0,0:0:0:0:
152,112,89788,2,2,L|160:180,1,68.0000012969971,8|0,0:0|0:0,0:0:0:0:
132,108,89984,2,0,L|64:116,1,68.0000012969971,2|0,0:0|0:0,0:0:0:0:
88,36,90180,5,2,0:0:0:0:
108,28,90278,1,0,0:0:0:0:
208,44,90376,5,0,0:0:0:0:
216,64,90474,1,2,0:0:0:0:
200,164,90572,5,8,0:0:0:0:
180,172,90670,1,0,0:0:0:0:
80,156,90768,5,2,0:0:0:0:
72,136,90866,1,0,0:0:0:0:
144,100,90964,5,2,0:0:0:0:
204,112,91062,1,0,0:0:0:0:
264,108,91160,1,2,0:0:0:0:
324,88,91258,1,0,0:0:0:0:
368,132,91356,1,10,0:0:0:0:
404,84,91454,1,2,0:0:0:0:
464,100,91553,1,0,0:0:0:0:
464,160,91651,1,0,0:0:0:0:
404,180,91749,5,2,0:0:0:0:
392,120,91847,1,0,0:0:0:0:
452,112,91945,1,0,0:0:0:0:
460,172,92043,1,2,0:0:0:0:
404,180,92141,5,8,0:0:0:0:
416,92,92239,1,0,0:0:0:0:
504,104,92337,1,2,0:0:0:0:
492,192,92435,1,0,0:0:0:0:
392,208,92533,6,0,P|316:192|280:132,2,136.000002593994,2|2|2,0:0|0:0|0:0,0:0:0:0:
192,128,93121,1,0,0:0:0:0:
192,128,93219,2,0,P|244:64|308:64,1,136.000002593994,2|0,0:0|0:0,0:0:0:0:
292,268,93513,2,0,P|292:308|264:348,1,68.0000012969971,2|0,0:0|2:0,0:0:0:0:
120,88,93709,2,2,P|106:57|107:23,1,68.0000012969971,0|0,0:0|2:0,0:0:0:0:
8,212,93905,5,0,0:0:0:0:
8,212,94003,1,0,0:0:0:0:
8,212,94102,2,0,P|88:208|132:152,2,136.000002593994,2|2|2,0:0|0:0|0:0,0:0:0:0:
132,296,94690,1,0,0:0:0:0:
132,296,94788,2,0,P|208:292|248:348,1,136.000002593994,2|0,0:0|0:0,0:0:0:0:
408,224,95082,2,0,P|424:188|424:144,1,68.0000012969971,2|0,0:0|2:0,0:0:0:0:
168,360,95278,2,2,P|140:372|96:368,1,68.0000012969971,0|0,0:0|2:0,0:0:0:0:
284,272,95474,1,4,0:0:0:0:
276,260,95670,6,0,P|276:228|256:188,1,68.0000012969971,4|0,0:0|0:0,0:0:0:0:
272,283,95866,2,0,P|240:283|200:303,1,68.0000012969971,2|0,0:0|0:0,0:0:0:0:
296,288,96062,2,2,P|296:320|316:360,1,68.0000012969971,8|0,0:0|0:0,0:0:0:0:
300,265,96258,2,0,P|332:265|372:245,1,68.0000012969971,2|0,0:0|0:0,0:0:0:0:
256,180,96454,5,2,0:0:0:0:
244,168,96553,1,0,0:0:0:0:
192,304,96651,5,0,0:0:0:0:
180,316,96750,1,2,0:0:0:0:
316,368,96847,5,8,0:0:0:0:
328,380,96946,1,0,0:0:0:0:
380,244,97044,5,2,0:0:0:0:
392,232,97141,1,0,0:0:0:0:
400,92,97239,5,2,0:0:0:0:
352,140,97337,1,0,0:0:0:0:
284,140,97435,1,2,0:0:0:0:
224,104,97533,1,0,0:0:0:0:
160,132,97631,1,10,0:0:0:0:
92,144,97729,1,2,0:0:0:0:
60,84,97827,1,0,0:0:0:0:
108,36,97925,1,0,0:0:0:0:
168,64,98023,5,2,0:0:0:0:
184,128,98121,1,0,0:0:0:0:
184,196,98219,1,0,0:0:0:0:
164,260,98317,1,2,0:0:0:0:
104,292,98415,1,8,0:0:0:0:
116,360,98513,1,0,0:0:0:0:
184,368,98611,1,2,0:0:0:0:
212,304,98709,1,0,0:0:0:0:
288,320,98807,6,0,P|356:312|436:356,2,136.000002593994,2|2|2,0:0|0:0|0:0,0:0:0:0:
480,296,99396,1,0,0:0:0:0:
480,296,99494,2,0,P|504:224|492:160,1,136.000002593994,2|0,0:0|0:0,0:0:0:0:
440,32,99788,2,0,P|404:20|368:28,1,68.0000012969971,2|0,0:0|2:0,0:0:0:0:
288,192,99984,2,2,P|321:196|352:184,1,68.0000012969971,0|0,0:0|2:0,0:0:0:0:
208,124,100180,1,0,0:0:0:0:
208,124,100278,1,0,0:0:0:0:
208,124,100376,5,4,0:2:0:0:
40,64,100572,2,0,L|32:44,4,17.0000003242493,0|0|0|0|0,3:0|3:0|3:0|3:0|3:0,3:0:0:0:
208,124,100768,5,4,0:2:0:0:
376,184,100964,2,0,L|384:204,4,17.0000003242493,0|0|0|0|0,3:0|3:0|3:0|3:0|3:0,3:0:0:0:
500,40,101160,5,4,0:2:0:0:
480,104,101258,1,0,3:0:0:0:
504,168,101356,1,0,3:0:0:0:
492,236,101454,1,4,0:2:0:0:
440,280,101553,5,0,2:0:0:0:
428,296,101651,1,0,0:0:0:0:
428,312,101749,1,0,0:0:0:0:
436,328,101847,1,0,2:0:0:0:
456,340,101945,5,4,0:0:0:0:
392,360,102043,1,0,0:0:0:0:
324,352,102141,1,2,0:0:0:0:
272,308,102239,1,0,0:0:0:0:
268,240,102337,1,10,0:0:0:0:
232,296,102435,1,0,0:0:0:0:
168,316,102533,1,0,0:0:0:0:
100,308,102631,1,0,0:0:0:0:
52,260,102729,6,0,B|48:232|60:224|60:224|51:199|64:184,1,75.9999979705811,2|0,0:0|0:0,0:0:0:0:
20,88,102925,2,0,B|48:84|56:96|56:96|80:87|96:100,1,75.9999979705811,0|2,0:0|0:0,0:0:0:0:
192,52,103121,2,0,B|196:80|184:88|184:88|192:112|180:128,1,75.9999979705811,8|0,0:0|0:0,0:0:0:0:
224,224,103317,2,0,B|196:228|188:216|188:216|163:224|148:212,1,75.9999979705811,2|0,0:0|0:0,0:0:0:0:
72,176,103513,5,0,0:0:0:0:
48,180,103611,1,0,0:0:0:0:
104,108,103709,5,2,0:0:0:0:
100,84,103807,1,0,0:0:0:0:
172,136,103905,5,8,0:0:0:0:
196,132,104003,1,2,0:0:0:0:
140,204,104101,5,0,0:0:0:0:
144,228,104199,1,0,0:0:0:0:
232,256,104298,5,2,0:0:0:0:
240,324,104396,1,0,0:0:0:0:
308,316,104494,1,0,0:0:0:0:
300,248,104592,1,2,0:0:0:0:
232,256,104690,5,8,0:0:0:0:
220,344,104788,1,0,0:0:0:0:
312,360,104886,1,2,0:0:0:0:
324,272,104984,1,0,0:0:0:0:
304,168,105082,6,2,P|316:136|356:112,1,75.9999979705811,4|0,0:2|2:0,0:0:0:0:
399,0,105278,2,0,P|422:29|424:66,1,75.9999979705811,2|0,0:0|2:0,0:0:0:0:
500,163,105474,2,0,P|462:169|429:151,1,75.9999979705811,2|0,0:0|2:0,0:0:0:0:
232,168,105670,1,0,0:0:0:0:
232,168,105768,2,0,P|260:92|336:48,1,151.999995941162,2|2,0:0|0:0,0:0:0:0:
308,272,106062,2,0,P|332:300|340:340,1,75.9999979705811,2|0,0:0|2:0,0:0:0:0:
168,288,106258,2,2,P|134:293|93:270,1,75.9999979705811,2|0,0:0|2:0,0:0:0:0:
80,136,106454,1,0,0:0:0:0:
80,136,106552,1,0,0:0:0:0:
80,136,106651,6,2,P|88:88|112:56,1,75.9999979705811,2|0,0:0|2:0,0:0:0:0:
284,184,106847,2,2,P|321:214|337:251,1,75.9999979705811,2|0,0:0|2:0,0:0:0:0:
124,340,107043,2,0,P|78:357|38:352,1,75.9999979705811,2|0,0:0|2:0,0:0:0:0:
152,120,107239,1,0,0:0:0:0:
152,120,107337,2,0,P|208:88|296:112,1,151.999995941162,2|0,0:0|0:0,0:0:0:0:
264,260,107631,2,0,P|264:308|246:344,1,75.9999979705811,2|0,0:0|2:0,0:0:0:0:
76,284,107827,2,2,P|33:260|11:226,1,75.9999979705811,0|0,0:0|2:0,0:0:0:0:
164,212,108023,1,4,0:0:0:0:
152,224,108219,5,4,0:2:0:0:
204,276,108317,1,0,0:0:0:0:
280,276,108415,1,2,0:0:0:0:
332,220,108513,1,0,0:0:0:0:
340,144,108611,1,10,0:0:0:0:
396,196,108709,1,0,0:0:0:0:
472,184,108807,1,0,0:0:0:0:
508,116,108905,1,0,0:0:0:0:
496,40,109003,6,0,B|484:36|464:48|464:48|452:40|452:40|436:52|416:56,1,75.9999979705811,2|0,0:0|0:0,0:0:0:0:
336,8,109200,2,0,B|332:20|344:40|344:40|336:52|336:52|348:68|352:88,1,75.9999979705811,0|2,0:0|0:0,0:0:0:0:
304,168,109396,2,0,B|316:172|336:160|336:160|348:168|348:168|364:156|384:152,1,75.9999979705811,8|0,0:0|0:0,0:0:0:0:
464,200,109592,2,0,B|468:188|456:168|456:168|464:156|464:156|452:140|448:120,1,75.9999979705811,2|0,0:0|0:0,0:0:0:0:
452,52,109788,5,0,0:0:0:0:
440,32,109886,1,0,0:0:0:0:
344,52,109984,5,2,0:0:0:0:
324,64,110082,1,0,0:0:0:0:
344,152,110180,5,8,0:0:0:0:
356,172,110278,1,2,0:0:0:0:
452,152,110376,5,0,0:0:0:0:
472,140,110474,1,0,0:0:0:0:
404,100,110572,5,2,0:0:0:0:
328,84,110670,1,0,0:0:0:0:
252,92,110768,1,0,0:0:0:0:
188,136,110866,1,2,0:0:0:0:
184,208,110964,1,8,0:0:0:0:
112,228,111062,1,0,0:0:0:0:
68,168,111160,1,2,0:0:0:0:
116,108,111258,1,0,0:0:0:0:
132,168,111356,6,2,P|136:196|116:256,1,75.9999979705811,4|0,0:2|2:0,0:0:0:0:
0,344,111552,2,2,P|22:326|84:313,1,75.9999979705811,0|0,0:0|2:0,0:0:0:0:
220,364,111749,2,0,P|193:353|151:306,1,75.9999979705811,2|0,0:0|0:0,0:0:0:0:
276,228,111945,1,0,0:0:0:0:
276,228,112043,2,0,P|348:228|404:284,1,151.999995941162,2|0,0:0|0:0,0:0:0:0:
472,220,112337,2,0,P|488:192|488:140,1,75.9999979705811,2|0,0:0|2:0,0:0:0:0:
292,300,112533,2,2,P|254:299|221:281,1,75.9999979705811,2|0,0:0|2:0,0:0:0:0:
132,92,112729,1,0,0:0:0:0:
132,92,112827,1,0,0:0:0:0:
132,92,112925,6,0,P|169:92|202:110,1,75.9999979705811,2|0,0:0|2:0,0:0:0:0:
292,300,113121,2,2,P|272:332|240:352,1,75.9999979705811,0|0,0:0|2:0,0:0:0:0:
40,336,113317,2,0,P|21:302|20:265,1,75.9999979705811,2|0,0:0|1:0,0:0:0:0:
280,188,113513,5,0,0:0:0:0:
280,188,113611,2,0,P|360:180|408:128,1,151.999995941162,2|0,0:0|0:0,0:0:0:0:
480,176,113905,2,0,P|488:212|476:260,1,75.9999979705811,2|0,0:0|2:0,0:0:0:0:
28,196,114102,2,2,P|20:160|32:112,1,75.9999979705811,0|0,0:0|2:0,0:0:0:0:
264,12,114298,1,0,0:0:0:0:
248,372,114494,5,4,1:0:0:0:
