osu file format v14

[General]
AudioFilename: audio.mp3
AudioLeadIn: 0
PreviewTime: 88503
Countdown: 0
SampleSet: Soft
StackLeniency: 0.7
Mode: 0
LetterboxInBreaks: 0
WidescreenStoryboard: 1

[Editor]
DistanceSpacing: 1.45
BeatDivisor: 4
GridSize: 32
TimelineZoom: 2

[Metadata]
Title:Amazing Mirage
TitleUnicode:Amazing Mirage
Artist:lapix
ArtistUnicode:lapix
Creator:Lokidoki
Version:Testo's Expert
Source:beatmania IIDX 24 SINOBUZ
Tags:nines rizen fanzhen0019 Hi-TECH FULLON original soundtrack ost bemani knightc0re knightcore testo nikakis electronic instrumental callionet
BeatmapID:1848517
BeatmapSetID:848697

[Difficulty]
HPDrainRate:5
CircleSize:4
OverallDifficulty:7.5
ApproachRate:8.5
SliderMultiplier:1.6
SliderTickRate:1

[Events]
//Background and Video events
0,0,"dawe.jpg",0,0
//Break Periods
2,48517,50681
//Storyboard Layer 0 (Background)
//Storyboard Layer 1 (Fail)
//Storyboard Layer 2 (Pass)
//Storyboard Layer 3 (Foreground)
//Storyboard Layer 4 (Overlay)
//Storyboard Sound Samples

[TimingPoints]
1553,392.156862745098,4,2,1,45,1,0
1553,-100,4,2,1,45,0,0
7043,-100,4,2,1,60,0,0
12533,-100,4,2,1,80,0,0
13709,-100,4,2,1,80,0,0
14003,-100,4,2,1,80,0,0
14102,-100,4,2,1,80,0,0
18807,-100,4,2,1,80,0,0
20278,-100,4,2,1,5,0,0
20376,-100,4,2,1,80,0,0
25866,-100,4,2,1,80,0,0
26651,-100,4,2,1,80,0,0
32533,-100,4,2,1,80,0,0
32925,-100,4,2,1,80,0,0
36454,-100,4,2,1,80,0,0
36847,-100,4,2,1,80,0,0
37239,-100,4,2,1,80,0,0
39200,-100,4,2,1,80,0,0
42141,-100,4,2,1,80,0,0
42435,-100,4,2,1,80,0,0
42925,-100,4,2,1,80,0,0
43905,-100,4,2,1,80,0,0
44102,-100,4,2,1,80,0,0
44298,-100,4,2,1,80,0,0
44494,-100,4,2,1,80,0,0
46356,-100,4,2,1,80,0,0
47043,-100,4,2,1,80,0,0
48709,-100,4,2,1,5,0,0
48807,-100,4,2,1,80,0,0
51749,-100,4,2,1,80,0,0
57631,-100,4,2,1,80,0,0
58023,-100,4,2,1,80,0,0
58219,-100,4,2,1,80,0,0
58415,-100,4,2,1,80,0,0
58807,-100,4,2,1,80,0,0
59200,-100,4,2,1,80,0,0
61160,-100,4,2,1,80,0,0
61945,-55.5555555555556,4,2,1,80,0,0
62729,-55.5555555555556,4,2,1,50,0,0
63513,-100,4,2,1,80,0,0
63905,-100,4,2,1,80,0,0
64298,-125,4,2,1,60,0,0
70572,-100,4,2,1,60,0,0
76847,-100,4,2,1,60,0,0
79984,-100,4,2,1,70,0,0
83121,-100,4,2,1,80,0,0
83905,-100,4,2,1,80,0,0
84690,-100,4,2,1,80,0,0
85474,-100,4,2,1,80,0,0
88611,-100,4,2,1,80,0,0
89396,-83.3333333333333,4,2,1,80,0,1
100572,-83.3333333333333,4,2,1,80,0,1
100768,-100,4,2,1,80,0,1
100964,-100,4,2,1,80,0,1
101945,-83.3333333333333,4,2,1,80,0,1
112533,-83.3333333333333,4,2,1,80,0,1
114102,-83.3333333333333,4,2,1,80,0,1
114494,-100,4,2,1,80,0,0

[Colours]
Combo1 : 255,128,128
Combo2 : 253,197,102
Combo3 : 95,193,252

[HitObjects]
256,192,12533,12,0,14003,0:0:0:0:
169,136,14102,5,6,1:2:0:0:
169,136,14200,1,0,0:0:0:0:
263,210,14494,1,10,0:0:0:0:
326,153,14690,5,0,0:0:0:0:
311,139,14788,1,2,1:2:0:0:
293,130,14886,1,2,0:0:0:0:
274,125,14984,1,2,1:2:0:0:
254,125,15082,1,2,0:0:0:0:
188,178,15278,2,0,P|149:179|93:149,1,80,10|2,0:0|0:0,0:0:0:0:
61,100,15670,5,2,1:2:0:0:
61,100,15768,1,0,0:0:0:0:
61,100,15866,1,2,0:0:0:0:
10,162,16062,2,0,L|26:252,1,80,10|2,0:0|0:0,0:0:0:0:
122,294,16454,1,2,0:0:0:0:
125,274,16552,1,2,1:2:0:0:
129,254,16650,1,2,0:0:0:0:
132,234,16748,1,2,0:0:0:0:
136,215,16847,2,0,L|150:136,1,80,10|2,0:0|0:0,0:0:0:0:
226,74,17239,6,0,P|273:96|367:33,1,160,6|10,1:2|0:0,0:0:0:0:
449,101,17827,1,2,0:0:0:0:
437,117,17925,1,2,1:2:0:0:
429,135,18023,1,2,0:0:0:0:
425,155,18121,1,2,1:2:0:0:
426,175,18219,1,2,0:0:0:0:
437,254,18415,2,0,P|413:259|354:247,1,80,10|2,0:0|0:0,0:0:0:0:
256,192,18807,12,0,20278,0:0:0:0:
156,53,20376,5,6,1:2:0:0:
189,119,20670,5,2,1:2:0:0:
171,195,20964,5,2,1:2:0:0:
228,282,21258,5,2,1:2:0:0:
249,373,21553,5,2,1:2:0:0:
77,228,21847,5,2,1:2:0:0:
105,110,22142,5,2,1:2:0:0:
320,33,22435,5,2,1:2:0:0:
359,198,22730,5,0,0:0:0:0:
359,198,22827,1,0,0:0:0:0:
359,198,22925,1,0,0:0:0:0:
297,250,23121,1,0,0:0:0:0:
222,227,23317,1,0,0:0:0:0:
87,285,23513,5,6,1:2:0:0:
256,192,24298,12,0,25866,1:0:0:0:
256,192,26258,5,10,3:0:0:0:
39,351,26651,6,0,P|47:315|37:247,1,80,6|0,1:2|0:0,0:0:0:0:
7,193,27043,1,0,1:0:0:0:
9,182,27141,1,0,1:0:0:0:
11,171,27239,1,2,1:2:0:0:
13,160,27337,1,10,3:0:0:0:
18,149,27435,1,0,1:0:0:0:
18,149,27533,2,0,L|119:139,1,80
121,138,27827,1,0,1:0:0:0:
205,132,28023,5,0,0:0:0:0:
205,132,28121,1,0,0:0:0:0:
205,132,28219,2,0,L|306:122,1,80,2|2,1:2|0:0,0:0:0:0:
332,211,28611,1,0,1:0:0:0:
332,211,28709,1,0,1:0:0:0:
332,211,28807,2,0,L|252:218,1,80,10|0,3:0|1:0,0:0:0:0:
233,239,29102,2,0,L|153:231,1,80,0|0,1:0|0:0,0:0:0:0:
125,227,29396,1,2,1:2:0:0:
48,217,29592,1,2,1:2:0:0:
94,157,29788,6,0,L|106:73,1,80,2|2,0:0|1:2,0:0:0:0:
220,20,30180,2,0,L|231:99,1,80,2|2,1:2|0:0,0:0:0:0:
269,217,30572,1,2,1:2:0:0:
272,197,30670,1,2,0:0:0:0:
281,180,30768,1,2,0:0:0:0:
297,167,30866,1,2,0:0:0:0:
316,160,30964,1,2,1:2:0:0:
392,187,31160,2,0,L|379:238,1,40,2|0,1:2|0:0,0:0:0:0:
328,282,31356,6,0,P|287:304|189:242,1,160,6|2,1:2|1:2,0:0:0:0:
158,185,31945,1,0,0:0:0:0:
158,185,32043,1,0,0:0:0:0:
158,185,32141,1,2,1:2:0:0:
201,89,32337,1,2,1:2:0:0:
101,87,32533,1,10,3:0:0:0:
101,87,32631,1,10,3:0:0:0:
101,87,32729,1,0,3:0:0:0:
101,87,32827,1,4,3:0:0:0:
101,87,32925,6,0,P|91:134|97:260,1,160,2|0,1:2|1:0,0:0:0:0:
171,315,33513,1,2,0:0:0:0:
188,319,33611,1,2,0:0:0:0:
260,267,33807,1,2,0:0:0:0:
277,263,33905,1,0,0:0:0:0:
352,339,34102,2,0,P|356:292|391:215,1,120,2|2,1:2|0:0,0:0:0:0:
392,220,34494,6,0,L|379:138,1,80,2|2,1:2|0:0,0:0:0:0:
307,84,34886,1,2,1:2:0:0:
288,91,34984,1,2,0:0:0:0:
268,93,35082,1,2,0:0:0:0:
249,88,35180,1,2,0:0:0:0:
231,78,35278,5,2,1:2:0:0:
191,82,35376,1,2,0:0:0:0:
162,109,35474,1,2,1:2:0:0:
154,147,35572,1,2,0:0:0:0:
170,183,35670,2,0,P|184:207|195:263,1,80,2|2,1:2|0:0,0:0:0:0:
23,362,36062,5,2,1:2:0:0:
138,341,36258,1,2,1:2:0:0:
251,372,36454,5,10,3:0:0:0:
251,372,36553,1,0,0:0:0:0:
251,372,36651,1,6,3:0:0:0:
291,261,36847,5,2,1:2:0:0:
179,228,37043,1,2,1:2:0:0:
61,192,37239,6,0,P|54:146|52:109,1,80,2|0,1:2|0:0,0:0:0:0:
186,45,37631,5,0,1:0:0:0:
186,45,37729,1,10,3:0:0:0:
246,115,37925,1,10,3:0:0:0:
246,115,38023,1,10,3:0:0:0:
308,50,38219,1,10,3:0:0:0:
367,116,38415,1,2,1:2:0:0:
309,182,38611,1,2,3:2:0:0:
309,182,38807,1,2,0:0:0:0:
309,182,39200,5,2,1:2:0:0:
239,239,39396,2,0,L|143:226,1,80,2|0,0:0|1:0,0:0:0:0:
62,212,39788,1,2,0:0:0:0:
62,212,39886,1,2,0:0:0:0:
121,152,40082,1,2,0:0:0:0:
121,152,40180,1,2,0:0:0:0:
70,87,40376,1,2,1:2:0:0:
70,87,40474,1,0,0:0:0:0:
70,87,40572,1,0,1:0:0:0:
140,33,40768,5,2,1:2:0:0:
197,101,40964,2,0,P|232:102|286:86,1,80,2|0,0:0|1:0,0:0:0:0:
301,114,41258,1,0,0:0:0:0:
301,114,41356,2,0,P|336:113|390:129,1,80,2|0,0:0|1:0,0:0:0:0:
401,150,41651,2,0,L|421:232,1,80,2|2,1:2|0:0,0:0:0:0:
429,252,41945,1,6,1:2:0:0:
321,327,42141,1,6,1:2:0:0:
252,181,42337,5,6,1:2:0:0:
303,123,42533,2,0,P|352:137|390:157,1,80,2|2,0:0|1:2,0:0:0:0:
219,98,42925,1,2,1:2:0:0:
212,81,43023,1,2,0:0:0:0:
166,151,43219,1,2,0:0:0:0:
159,168,43317,1,0,0:0:0:0:
152,185,43415,1,0,0:0:0:0:
143,204,43513,2,0,L|121:252,2,40,2|0|2,1:2|0:0|1:2,0:0:0:0:
252,369,43905,5,6,1:2:0:0:
379,317,44102,1,2,0:0:0:0:
323,153,44298,1,6,1:2:0:0:
242,173,44494,1,2,0:0:0:0:
180,321,44690,1,6,1:2:0:0:
165,306,44788,1,2,0:0:0:0:
180,291,44886,1,6,1:2:0:0:
195,306,44984,1,2,0:0:0:0:
182,328,45082,5,6,3:0:0:0:
36,143,45474,6,0,B|87:139|76:90|142:88,1,120,6|0,1:2|0:0,0:0:0:0:
153,102,45866,2,0,B|138:142|138:142|162:184,1,80,2|2,1:2|0:0,0:0:0:0:
277,227,46258,1,0,1:0:0:0:
278,211,46356,1,0,3:0:0:0:
279,195,46454,1,2,0:0:0:0:
280,179,46553,1,2,0:0:0:0:
281,163,46651,1,2,1:2:0:0:
283,86,46847,1,10,3:0:0:0:
465,112,47043,5,6,1:2:0:0:
395,147,47239,1,2,0:0:0:0:
360,77,47435,1,2,1:2:0:0:
444,60,47631,1,2,1:2:0:0:
444,60,47729,1,6,1:2:0:0:
444,60,47925,1,6,1:2:0:0:
444,60,48121,1,6,1:2:0:0:
444,60,48317,1,6,1:2:0:0:
171,119,51356,5,2,3:0:0:0:
171,119,51749,6,0,P|118:88|42:62,1,120,6|0,1:2|0:0,0:0:0:0:
44,66,52141,1,2,1:2:0:0:
41,49,52239,1,2,3:0:0:0:
87,161,52435,1,2,0:0:0:0:
84,178,52533,2,0,L|68:259,1,80,2|2,1:2|0:0,0:0:0:0:
195,287,52925,1,2,1:2:0:0:
186,273,53023,1,2,0:0:0:0:
170,268,53121,1,2,0:0:0:0:
248,360,53317,5,2,1:2:0:0:
248,360,53415,1,2,0:0:0:0:
296,272,53611,1,2,0:0:0:0:
296,272,53709,1,2,1:2:0:0:
372,347,53905,1,2,0:0:0:0:
372,347,54003,1,2,0:0:0:0:
372,347,54102,2,0,P|378:303|391:254,1,80,2|2,1:2|0:0,0:0:0:0:
182,123,54494,2,0,P|197:178|211:250,1,120,2|2,1:2|0:0,0:0:0:0:
222,250,54886,6,0,B|156:247|190:200|100:205,1,120,6|0,1:2|0:0,0:0:0:0:
99,187,55278,1,2,1:2:0:0:
82,190,55376,1,2,0:0:0:0:
187,105,55572,1,2,0:0:0:0:
189,88,55670,2,0,P|241:73|284:50,1,80,2|2,1:2|0:0,0:0:0:0:
406,116,56062,1,2,1:2:0:0:
397,132,56160,1,2,0:0:0:0:
400,154,56258,1,2,0:0:0:0:
454,263,56454,5,2,1:2:0:0:
454,263,56553,1,2,0:0:0:0:
322,304,56749,1,2,0:0:0:0:
322,304,56847,1,2,1:2:0:0:
322,304,56945,1,2,0:0:0:0:
322,304,57043,1,2,0:0:0:0:
322,304,57141,1,2,0:0:0:0:
322,304,57239,2,0,L|310:246,3,40,2|2|2|2,1:2|0:0|0:0|0:0,0:0:0:0:
298,189,57631,5,6,1:2:0:0:
164,284,57827,1,6,3:0:0:0:
7,190,58023,5,6,1:2:0:0:
129,122,58219,1,2,0:0:0:0:
231,239,58415,5,2,1:2:0:0:
477,363,58807,5,2,1:2:0:0:
477,363,59003,1,2,0:0:0:0:
351,313,59200,5,2,1:2:0:0:
455,250,59396,1,2,0:0:0:0:
260,378,59592,5,6,1:2:0:0:
306,246,59788,1,2,1:2:0:0:
167,222,59984,5,6,1:2:0:0:
167,222,60082,1,0,0:0:0:0:
336,333,60278,1,0,0:0:0:0:
336,333,60376,2,0,P|382:308|432:247,1,120,6|0,1:2|0:0,0:0:0:0:
446,251,60768,2,0,B|421:208|421:208|437:135,1,120,6|0,1:2|0:0,0:0:0:0:
446,122,61160,5,2,1:2:0:0:
424,139,61258,1,2,1:2:0:0:
393,148,61356,1,2,1:2:0:0:
353,141,61454,1,2,1:2:0:0:
318,107,61552,1,2,1:2:0:0:
282,68,61651,1,2,1:2:0:0:
228,62,61749,1,2,1:2:0:0:
181,93,61847,1,2,1:2:0:0:
162,147,61945,6,0,P|171:162|193:173,1,35.9999989013672,2|0,1:2|0:0,0:0:0:0:
153,162,62043,6,0,P|168:170|192:169,1,35.9999989013672,2|0,1:2|0:0,0:0:0:0:
155,185,62141,6,0,P|172:181|190:164,1,35.9999989013672,2|0,1:2|0:0,0:0:0:0:
177,203,62239,6,0,P|185:187|184:163,1,35.9999989013672,2|0,1:2|0:0,0:0:0:0:
210,193,62337,6,0,P|201:177|179:166,1,35.9999989013672,2|0,1:2|0:0,0:0:0:0:
216,153,62435,6,0,P|198:156|180:173,1,35.9999989013672,2|0,1:2|0:0,0:0:0:0:
175,134,62533,6,0,P|175:151|188:172,1,35.9999989013672,2|0,1:2|0:0,0:0:0:0:
150,176,62631,6,0,P|167:175|188:162,1,35.9999989013672,2|0,1:2|0:0,0:0:0:0:
256,192,62729,12,0,63415,0:0:0:0:
288,318,63513,6,0,L|301:398,2,53.3333333333333,6|6|6,1:2|1:2|1:2,0:0:0:0:
358,288,63905,2,0,P|371:247|383:165,1,120,6|0,1:2|0:0,0:0:0:0:
378,145,64298,6,0,B|319:166|319:166|254:139,1,128,6|0,1:2|0:0,0:0:0:0:
193,75,64886,2,0,P|172:105|166:150,1,64,2|0,0:0|0:0,0:0:0:0:
174,150,65180,1,2,0:0:0:0:
99,240,65376,1,0,0:0:0:0:
92,223,65474,1,2,0:0:0:0:
82,330,65670,1,2,0:0:0:0:
150,357,65866,6,0,B|212:348|184:308|261:301,1,128,2|0,0:0|0:0,0:0:0:0:
374,244,66454,2,0,P|357:212|345:175,1,64,2|0,0:0|0:0,0:0:0:0:
347,167,66749,1,2,0:0:0:0:
450,77,66945,1,0,0:0:0:0:
447,99,67043,2,0,L|367:80,1,64,2|2,0:0|0:0,0:0:0:0:
194,47,67435,6,0,P|245:71|253:163,1,128,2|0,0:0|0:0,0:0:0:0:
205,195,68023,2,0,L|121:173,1,64,2|0,0:0|0:0,0:0:0:0:
128,174,68317,1,2,0:0:0:0:
223,295,68513,1,0,0:0:0:0:
238,289,68611,1,2,0:0:0:0:
87,325,68807,1,2,0:0:0:0:
115,260,69003,6,0,P|95:214|47:150,1,128,2|2,0:0|0:0,0:0:0:0:
55,77,69592,2,0,L|130:54,1,64,2|0,0:0|0:0,0:0:0:0:
128,53,69886,1,2,0:0:0:0:
231,138,70082,1,0,0:0:0:0:
213,135,70180,2,0,L|288:112,1,64,2|2,0:0|0:0,0:0:0:0:
461,335,70572,6,0,B|396:308|396:308|366:318|366:318|295:295,1,160,6|0,1:2|0:0,0:0:0:0:
189,229,71160,1,2,0:0:0:0:
191,245,71258,2,0,L|197:285,1,40,0|2,0:0|0:0,0:0:0:0:
90,353,71454,2,0,L|102:271,1,80
105,253,71749,1,2,0:0:0:0:
126,99,71945,5,6,1:2:0:0:
296,114,72141,6,0,P|421:69|450:50,1,160,6|0,1:2|0:0,0:0:0:0:
378,186,72729,2,0,L|345:273,1,80,2|0,0:0|0:0,0:0:0:0:
306,255,73023,2,0,P|309:277|313:299,1,40
194,195,73219,1,0,0:0:0:0:
201,174,73317,2,0,P|246:152|284:146,1,80,2|2,0:0|0:0,0:0:0:0:
111,328,73709,6,0,B|115:254|47:289|60:184,1,160,6|0,1:2|0:0,0:0:0:0:
197,83,74298,1,0,0:0:0:0:
151,144,74494,6,0,P|73:151|18:97,1,160,6|0,1:2|0:0,0:0:0:0:
244,17,75082,5,6,1:2:0:0:
344,108,75278,5,6,1:2:0:0:
344,108,75376,1,2,0:0:0:0:
252,218,75572,5,2,0:0:0:0:
252,218,75670,2,0,L|264:128,1,80,6|2,1:2|0:0,0:0:0:0:
408,167,76062,5,6,1:2:0:0:
411,196,76160,1,2,0:0:0:0:
415,226,76258,1,2,0:0:0:0:
396,275,76356,1,6,1:2:0:0:
444,270,76454,1,2,0:0:0:0:
333,218,76651,1,6,1:2:0:0:
259,339,76847,6,0,L|304:330,3,40,6|2|2|2,1:2|1:2|1:2|1:2,0:0:0:0:
198,253,77239,2,0,L|153:244,1,40,2|2,1:2|1:2,0:0:0:0:
44,366,77435,6,0,P|53:342|61:317,1,40,2|2,1:2|1:2,0:0:0:0:
2,219,77631,2,0,P|11:243|19:268,3,40,2|2|2|2,1:2|1:2|1:2|1:2,0:0:0:0:
35,141,78023,6,0,P|69:132|89:115,1,40,2|2,1:2|1:2,0:0:0:0:
126,182,78219,2,0,P|160:191|180:208,1,40,2|2,1:2|1:2,0:0:0:0:
225,148,78415,5,6,1:2:0:0:
433,92,79984,5,6,3:0:0:0:
414,98,80082,1,2,3:0:0:0:
398,110,80180,1,2,1:2:0:0:
387,127,80278,1,2,1:2:0:0:
382,145,80376,2,0,L|391:195,1,40,2|2,1:2|1:2,0:0:0:0:
478,302,80572,5,2,1:2:0:0:
454,269,80670,1,2,1:2:0:0:
418,253,80768,1,2,1:2:0:0:
379,258,80866,1,2,1:2:0:0:
347,281,80964,1,2,1:2:0:0:
331,317,81062,1,2,1:2:0:0:
331,317,81160,2,0,P|302:297|225:294,1,80,2|2,1:2|1:2,0:0:0:0:
226,310,81454,1,2,1:2:0:0:
226,310,81553,5,2,1:2:0:0:
83,352,81749,1,2,1:2:0:0:
88,337,81847,1,2,1:2:0:0:
167,234,82043,1,2,1:2:0:0:
162,219,82141,1,2,1:2:0:0:
4,166,82337,6,0,P|80:171|126:109,1,160,2|2,0:0|1:2,0:0:0:0:
126,109,82827,1,2,1:2:0:0:
126,109,82925,1,2,1:2:0:0:
341,54,83121,5,2,1:2:0:0:
340,61,83219,1,2,1:2:0:0:
339,69,83317,1,2,1:2:0:0:
338,77,83415,1,2,1:2:0:0:
337,85,83513,1,2,1:2:0:0:
336,93,83611,1,2,1:2:0:0:
335,101,83709,1,2,1:2:0:0:
334,109,83807,1,2,1:2:0:0:
307,134,83905,5,2,1:2:0:0:
308,146,84003,1,2,1:2:0:0:
310,158,84101,1,2,1:2:0:0:
311,170,84199,1,2,1:2:0:0:
313,182,84297,1,2,1:2:0:0:
314,194,84395,1,2,1:2:0:0:
316,206,84493,1,2,1:2:0:0:
317,218,84591,1,2,1:2:0:0:
277,257,84690,5,2,1:2:0:0:
254,276,84788,1,2,1:2:0:0:
227,290,84886,1,2,1:2:0:0:
198,298,84984,1,2,1:2:0:0:
169,299,85082,1,2,1:2:0:0:
139,293,85180,1,2,1:2:0:0:
112,280,85278,1,2,1:2:0:0:
88,262,85376,1,2,1:2:0:0:
52,236,85474,5,2,1:2:0:0:
70,212,85572,1,2,1:2:0:0:
94,194,85670,1,2,1:2:0:0:
121,182,85768,1,2,1:2:0:0:
151,176,85866,1,2,1:2:0:0:
181,177,85964,1,2,1:2:0:0:
210,184,86062,1,2,1:2:0:0:
236,198,86160,1,2,1:2:0:0:
264,245,86258,6,2,L|270:283,11,26.6666666666667,2|2|2|2|2|0|2|2|2|2|2|0,1:2|1:2|1:2|1:2|1:2|1:2|1:2|1:2|1:2|1:2|1:2|1:2,1:2:0:0:
330,199,87043,6,2,L|334:171,5,26.6666666666667,2|2|2|2|2|2,1:2|1:2|1:2|1:2|1:2|1:2,1:2:0:0:
394,249,87435,6,2,L|399:282,4,26.6666666666667,2|2|2|2|2,1:2|1:2|1:2|1:2|1:2,1:2:0:0:
468,214,87827,6,0,B|345:220|416:126|254:125,1,240,6|0,1:2|0:0,0:0:0:0:
145,212,88611,5,2,3:2:0:0:
127,199,88709,1,2,3:2:0:0:
140,181,88807,1,2,3:2:0:0:
158,194,88905,1,2,3:2:0:0:
128,216,89003,5,2,3:2:0:0:
122,182,89101,1,2,3:2:0:0:
156,176,89199,1,2,3:2:0:0:
162,210,89297,1,2,3:2:0:0:
106,199,89396,6,0,P|93:137|81:97,1,95.9999970703126,6|2,1:2|0:0,0:0:0:0:
83,105,89690,1,2,0:0:0:0:
83,105,89788,1,10,0:2:0:0:
279,35,89984,5,2,0:0:0:0:
239,59,90082,1,2,0:0:0:0:
224,104,90180,1,2,1:2:0:0:
243,148,90278,1,2,0:0:0:0:
282,172,90376,1,2,0:0:0:0:
297,217,90474,1,2,0:0:0:0:
278,261,90572,1,10,0:2:0:0:
196,314,90768,1,2,0:0:0:0:
196,314,90866,1,2,0:0:0:0:
196,314,90964,5,2,1:2:0:0:
225,350,91062,1,2,0:0:0:0:
270,368,91160,1,2,0:0:0:0:
317,362,91258,1,2,0:0:0:0:
354,333,91356,5,10,0:2:0:0:
391,304,91455,1,2,0:0:0:0:
438,297,91553,1,2,0:0:0:0:
483,315,91651,1,2,0:0:0:0:
512,352,91749,5,2,1:2:0:0:
464,321,91847,1,2,0:0:0:0:
445,267,91945,1,2,0:0:0:0:
463,213,92043,1,2,0:0:0:0:
510,182,92141,5,10,0:0:0:0:
479,229,92239,1,10,3:0:0:0:
425,248,92337,1,10,3:0:0:0:
371,230,92435,1,10,3:0:0:0:
340,183,92533,5,6,1:2:0:0:
426,145,92729,1,2,0:0:0:0:
275,63,92925,2,0,P|219:46|161:20,1,95.9999970703126,10|2,0:2|0:0,0:0:0:0:
166,22,93219,1,2,0:0:0:0:
82,167,93415,1,2,0:0:0:0:
90,196,93513,1,2,0:0:0:0:
225,278,93709,2,0,B|308:276|281:218|379:216,1,143.999995605469,10|2,0:2|0:0,0:0:0:0:
371,227,94102,6,0,B|343:178|343:178|367:136,1,95.9999970703126,6|2,1:2|0:0,0:0:0:0:
490,24,94494,2,0,P|472:105|468:137,1,95.9999970703126,14|2,0:0|0:0,0:0:0:0:
472,137,94788,1,2,0:0:0:0:
287,129,94984,1,2,0:0:0:0:
278,98,95082,1,2,0:0:0:0:
164,230,95278,1,10,0:0:0:0:
164,230,95670,6,0,B|156:178|156:178|112:141,1,95.9999970703126,6|2,1:2|0:0,0:0:0:0:
122,150,95964,1,2,0:0:0:0:
122,150,96062,1,10,0:2:0:0:
60,219,96258,5,2,0:0:0:0:
35,178,96356,1,2,0:0:0:0:
35,130,96454,1,2,1:2:0:0:
58,89,96552,1,2,0:0:0:0:
100,66,96650,1,2,0:0:0:0:
147,66,96748,1,2,0:0:0:0:
188,91,96846,1,10,0:2:0:0:
325,47,97043,1,2,0:0:0:0:
325,47,97141,1,2,0:0:0:0:
325,47,97239,5,2,1:2:0:0:
319,94,97337,1,2,0:0:0:0:
314,142,97435,1,2,0:0:0:0:
308,190,97533,1,2,0:0:0:0:
303,237,97631,5,10,0:2:0:0:
263,264,97729,1,2,0:0:0:0:
216,269,97827,1,2,0:0:0:0:
172,253,97925,1,2,0:0:0:0:
140,217,98023,5,2,1:2:0:0:
191,193,98121,1,2,0:0:0:0:
247,202,98219,1,2,0:0:0:0:
288,242,98317,1,2,0:0:0:0:
299,297,98415,5,10,0:0:0:0:
277,349,98513,1,10,3:0:0:0:
229,379,98611,1,10,3:0:0:0:
172,377,98709,1,10,3:0:0:0:
127,342,98807,5,6,1:2:0:0:
212,287,99003,1,2,0:0:0:0:
47,154,99200,6,0,L|74:255,1,95.9999970703126,10|2,0:2|0:0,0:0:0:0:
78,266,99493,1,2,0:0:0:0:
169,132,99689,1,2,0:0:0:0:
176,102,99787,1,2,0:0:0:0:
296,155,99983,2,0,B|213:157|257:217|142:217,1,143.999995605469,10|2,0:2|0:0,0:0:0:0:
157,214,100376,5,6,1:2:0:0:
14,15,100768,5,6,1:2:0:0:
14,15,100964,1,2,3:0:0:0:
61,86,101160,5,2,1:2:0:0:
100,78,101258,1,2,1:2:0:0:
139,70,101356,1,10,0:0:0:0:
178,62,101454,2,0,L|269:41,2,80,10|10|6,0:0|3:0|3:0,0:0:0:0:
135,148,101945,6,0,P|148:210|160:250,1,95.9999970703126,6|2,1:2|0:0,0:0:0:0:
158,242,102239,1,2,0:0:0:0:
158,242,102337,1,10,0:2:0:0:
124,321,102533,5,2,0:0:0:0:
168,340,102631,1,2,0:0:0:0:
213,325,102729,1,2,1:2:0:0:
237,286,102827,1,2,0:0:0:0:
281,267,102925,1,2,0:0:0:0:
326,282,103023,1,2,0:0:0:0:
350,322,103121,1,10,0:2:0:0:
475,167,103317,5,2,0:0:0:0:
475,167,103415,1,2,0:0:0:0:
475,167,103513,5,2,1:2:0:0:
444,192,103611,1,2,0:0:0:0:
405,200,103709,1,2,0:0:0:0:
368,187,103807,1,2,0:0:0:0:
341,158,103905,5,10,0:2:0:0:
313,129,104004,1,2,0:0:0:0:
276,116,104102,1,2,0:0:0:0:
237,124,104200,1,2,0:0:0:0:
207,149,104298,5,2,1:2:0:0:
251,164,104396,1,2,0:0:0:0:
294,145,104494,1,2,0:0:0:0:
313,102,104592,1,2,0:0:0:0:
297,57,104690,5,10,0:0:0:0:
281,101,104788,1,10,3:0:0:0:
300,144,104886,1,10,3:0:0:0:
343,163,104984,1,10,3:0:0:0:
387,148,105082,5,6,1:2:0:0:
370,19,105278,1,2,0:0:0:0:
203,124,105474,2,0,P|147:107|89:81,1,95.9999970703126,10|2,0:2|0:0,0:0:0:0:
94,83,105768,1,2,0:0:0:0:
27,202,105964,1,2,0:0:0:0:
36,232,106062,1,2,0:0:0:0:
164,322,106258,2,0,B|239:330|239:330|295:281,1,143.999995605469,10|2,0:2|0:0,0:0:0:0:
303,271,106651,6,0,P|311:232|327:179,1,95.9999970703126,6|2,1:2|0:0,0:0:0:0:
142,63,107043,2,0,P|156:108|166:155,1,95.9999970703126,14|2,0:0|0:0,0:0:0:0:
171,176,107337,1,0,1:0:0:0:
261,46,107533,1,2,0:0:0:0:
230,37,107631,1,2,0:0:0:0:
331,176,107827,1,10,0:0:0:0:
331,176,108219,6,0,L|437:163,1,95.9999970703126,6|2,1:2|0:0,0:0:0:0:
426,164,108513,1,2,0:0:0:0:
426,164,108611,1,10,0:2:0:0:
282,253,108807,5,2,0:0:0:0:
247,220,108905,1,2,0:0:0:0:
237,174,109003,1,2,1:2:0:0:
254,129,109101,1,2,0:0:0:0:
271,84,109200,1,2,0:0:0:0:
261,38,109298,1,2,0:0:0:0:
226,5,109396,1,10,0:2:0:0:
75,225,109592,1,2,0:0:0:0:
75,225,109690,1,2,0:0:0:0:
75,225,109788,5,2,1:2:0:0:
112,253,109886,1,2,0:0:0:0:
160,257,109984,1,2,0:0:0:0:
201,234,110082,1,2,0:0:0:0:
225,193,110180,5,10,0:2:0:0:
248,151,110278,1,0,0:0:0:0:
290,129,110376,1,2,0:0:0:0:
337,133,110474,1,2,0:0:0:0:
375,161,110572,5,2,1:2:0:0:
330,194,110670,1,2,0:0:0:0:
274,199,110768,1,2,0:0:0:0:
224,172,110866,1,2,0:0:0:0:
197,121,110964,5,10,0:0:0:0:
168,73,111062,1,10,3:0:0:0:
120,45,111160,1,10,3:0:0:0:
62,50,111258,1,10,3:0:0:0:
19,85,111356,5,6,1:2:0:0:
105,136,111552,1,2,0:0:0:0:
12,231,111749,2,0,L|39:332,1,95.9999970703126,10|2,0:2|0:0,0:0:0:0:
43,343,112042,1,2,0:0:0:0:
187,221,112238,1,2,0:0:0:0:
157,214,112336,1,2,0:0:0:0:
211,358,112532,2,0,B|213:275|273:319|273:204,1,143.999995605469,10|2,0:2|0:0,0:0:0:0:
270,219,112925,5,6,1:2:0:0:
241,60,113121,1,2,0:0:0:0:
161,69,113317,2,0,P|122:56|37:46,1,95.9999970703126,10|0,0:2|0:0,0:0:0:0:
51,47,113611,1,0,0:0:0:0:
120,219,113807,1,2,0:0:0:0:
145,210,113905,1,2,0:0:0:0:
10,146,114102,1,6,1:2:0:0:
10,146,114494,5,4,1:2:0:0:
