osu file format v14

[General]
AudioFilename: audio.mp3
AudioLeadIn: 0
PreviewTime: 88503
Countdown: 0
SampleSet: Soft
StackLeniency: 0.2
Mode: 0
LetterboxInBreaks: 0
WidescreenStoryboard: 1

[Editor]
Bookmarks: 114494
DistanceSpacing: 1
BeatDivisor: 4
GridSize: 32
TimelineZoom: 2

[Metadata]
Title:Amazing Mirage
TitleUnicode:Amazing Mirage
Artist:lapix
ArtistUnicode:lapix
Creator:Lokidoki
Version:Rizen's Normal
Source:beatmania IIDX 24 SINOBUZ
Tags:nines rizen fanzhen0019 Hi-TECH FULLON original soundtrack ost bemani knightc0re knightcore testo nikakis electronic instrumental callionet
BeatmapID:1827698
BeatmapSetID:848697

[Difficulty]
HPDrainRate:3
CircleSize:3.5
OverallDifficulty:4
ApproachRate:5.5
SliderMultiplier:0.999999999999999
SliderTickRate:1

[Events]
//Background and Video events
0,0,"dawe.jpg",0,0
//Break Periods
2,64498,69372
//Storyboard Layer 0 (Background)
//Storyboard Layer 1 (Fail)
//Storyboard Layer 2 (Pass)
//Storyboard Layer 3 (Foreground)
//Storyboard Layer 4 (Overlay)
//Storyboard Sound Samples

[TimingPoints]
1553,392.156862745098,4,2,1,45,1,0
7043,-100,4,2,1,60,0,0
12533,-100,4,2,1,80,0,0
48709,-100,4,2,1,5,0,0
48807,-100,4,2,1,80,0,0
62729,-100,4,2,1,50,0,0
63513,-100,4,2,1,80,0,0
64298,-100,4,2,1,60,0,0
79984,-100,4,2,1,70,0,0
83121,-100,4,2,1,80,0,0
89396,-100,4,2,1,80,0,1
114494,-100,4,2,1,80,0,0

[Colours]
Combo1 : 255,128,128
Combo2 : 253,197,102
Combo3 : 95,193,252

[HitObjects]
98,91,1553,6,0,B|285:151|223:44|389:88,1,300,2|2,1:2|0:0,0:0:0:0:
457,161,3121,2,0,B|428:309|428:309|348:182,1,300,2|2,0:0|0:0,0:0:0:0:
261,133,4690,2,0,P|170:215|150:94,1,300,2|2,0:0|0:0,0:0:0:0:
84,18,6258,2,0,B|89:118|89:118|78:216|78:216|89:316,1,300,2|2,0:0|0:0,0:0:0:0:
182,280,7827,6,0,P|232:286|272:315,1,99.9999999999999,2|0,3:0|0:0,0:0:0:0:
286,342,8415,2,0,L|385:332,1,99.9999999999999,2|0,3:0|3:0,0:0:0:0:
415,330,9003,1,2,3:0:0:0:
483,257,9396,2,0,L|473:157,1,99.9999999999999,2|0,3:0|0:0,3:0:0:0:
444,164,9984,2,0,L|453:64,1,99.9999999999999,2|0,3:0|3:0,0:0:0:0:
459,35,10572,1,2,3:0:0:0:
366,73,10964,6,0,P|316:70|273:45,1,99.9999999999999,2|0,3:0|0:0,0:0:0:0:
251,66,11553,2,0,P|207:90|158:93,1,99.9999999999999,2|0,3:0|3:0,0:0:0:0:
128,86,12141,2,0,L|124:135,1,50,2|2,3:0|3:0,0:0:0:0:
124,165,12533,1,2,1:0:0:0:
374,165,13709,1,10,0:0:0:0:
278,135,14102,6,0,P|259:181|258:230,1,99.9999999999999,6|10,1:2|0:0,0:0:0:0:
268,258,14690,2,0,B|169:241|169:241|120:254,1,150,0|10,0:0|0:0,0:0:0:0:
91,262,15474,1,2,0:0:0:0:
91,262,15670,1,2,1:2:0:0:
15,202,16062,1,10,0:0:0:0:
15,202,16258,2,0,P|10:152|28:106,1,99.9999999999999,2|2,0:0|0:0,0:0:0:0:
71,90,16847,2,0,L|120:82,1,50,10|2,0:0|0:0,0:0:0:0:
158,76,17239,1,6,1:2:0:0:
136,172,17631,6,0,L|234:154,1,99.9999999999999,10|2,0:0|0:0,0:0:0:0:
254,176,18219,1,2,0:0:0:0:
254,176,18415,2,0,P|253:200|246:224,1,50,10|2,0:0|0:0,0:0:0:0:
264,248,18807,2,0,B|315:231|315:231|358:247|358:247|406:231,2,150,6|0|2,3:0|3:0|0:0,0:0:0:0:
180,303,20376,6,0,L|105:294,1,74.9999999999999,6|2,1:2|1:2,0:0:0:0:
90,220,20964,2,0,L|164:211,2,74.9999999999999,2|2|2,1:2|1:2|1:2,0:0:0:0:
76,145,21847,2,0,L|2:136,2,74.9999999999999,2|2|2,1:2|1:2|1:2,0:0:0:0:
137,101,22729,2,0,B|193:132|264:141|300:98|259:45,1,200,0|6,0:0|1:2,0:0:0:0:
256,192,23611,12,0,25082,0:0:0:0:
381,214,25866,6,0,L|373:114,1,99.9999999999999,0|10,1:0|3:0,0:0:0:0:
282,71,26651,6,0,L|293:185,1,99.9999999999999,6|0,1:2|1:0,0:0:0:0:
268,189,27239,2,0,P|222:168|173:171,1,99.9999999999999,2|0,1:2|0:0,0:0:0:0:
151,191,27827,1,0,1:0:0:0:
70,132,28219,5,2,1:2:0:0:
70,132,28415,2,0,P|53:178|56:228,1,99.9999999999999,2|10,0:0|3:0,0:0:0:0:
70,255,29003,1,0,1:0:0:0:
100,350,29396,2,0,L|50:354,2,50,2|2|2,1:2|1:2|0:0,0:0:0:0:
125,334,29984,5,2,1:2:0:0:
125,334,30180,2,0,L|224:346,1,99.9999999999999,2|2,1:2|1:2,0:0:0:0:
317,310,30964,1,2,1:2:0:0:
317,310,31160,2,0,L|366:305,1,50,2|6,1:2|1:2,0:0:0:0:
391,322,31553,2,0,L|440:326,1,50,2|2,0:0|1:2,0:0:0:0:
512,258,32141,2,0,L|507:208,1,50,2|2,1:2|1:2,0:0:0:0:
484,187,32533,2,0,P|438:170|414:128,1,99.9999999999999,10|2,3:0|1:2,0:0:0:0:
323,87,33317,6,0,L|318:186,1,99.9999999999999,0|0,1:0|1:0,0:0:0:0:
334,234,33905,1,0,0:0:0:0:
349,281,34102,1,2,1:2:0:0:
271,332,34494,2,0,L|222:336,1,50,2|2,1:2|0:0,0:0:0:0:
200,314,34886,2,0,P|150:314|111:344,1,99.9999999999999,2|2,1:2|1:2,0:0:0:0:
112,374,35474,1,2,1:2:0:0:
112,374,35670,1,2,1:2:0:0:
22,329,36062,6,0,L|24:279,1,50,2|2,1:2|1:2,0:0:0:0:
42,254,36454,2,0,P|64:209|73:160,1,99.9999999999999,10|2,3:0|1:2,0:0:0:0:
103,153,37043,1,2,1:2:0:0:
103,153,37239,2,0,P|112:201|134:246,1,99.9999999999999,2|0,1:2|1:0,0:0:0:0:
331,211,38415,2,0,P|320:144|254:158,1,150,2|0,1:2|0:0,0:0:0:0:
225,149,39200,5,2,1:2:0:0:
225,149,39396,2,0,L|230:248,1,99.9999999999999,2|2,0:0|0:0,0:0:0:0:
242,276,39984,2,0,P|240:300|232:324,1,50,0|2,1:0|0:0,0:0:0:0:
216,350,40376,1,2,1:2:0:0:
118,328,40768,2,0,L|68:327,1,50,2|2,1:2|0:0,0:0:0:0:
40,339,41160,2,0,L|45:240,1,99.9999999999999,0|0,1:0|1:0,0:0:0:0:
83,146,41945,1,6,1:2:0:0:
83,146,42141,2,0,L|85:96,1,50,6|6,1:2|1:2,0:0:0:0:
74,67,42533,6,0,P|118:87|168:85,1,99.9999999999999,2|2,0:0|1:2,0:0:0:0:
195,71,43121,1,0,1:0:0:0:
284,26,43513,2,0,L|286:76,1,50,2|2,1:2|1:2,0:0:0:0:
303,100,43905,1,6,1:2:0:0:
402,87,44298,1,6,1:2:0:0:
500,69,44690,2,0,L|498:19,2,50,6|6|6,1:2|1:2|3:0,0:0:0:0:
469,164,45474,6,0,P|461:212|478:259,1,99.9999999999999,6|2,1:2|1:2,0:0:0:0:
464,285,46062,1,2,0:0:0:0:
464,285,46258,2,0,L|364:274,1,99.9999999999999,0|2,1:0|1:2,0:0:0:0:
274,318,47043,2,0,L|174:328,1,99.9999999999999,6|2,1:2|1:2,0:0:0:0:
149,312,47631,2,0,P|135:277|137:240,1,74.9999999999999,2|6,1:2|1:2,0:0:0:0:
157,217,48121,2,0,L|206:221,1,50,6|6,1:2|1:2,0:0:0:0:
286,191,48611,5,0,1:0:0:0:
256,192,48709,12,6,50180,1:2:0:0:
97,263,50964,6,0,L|106:163,1,99.9999999999999,0|2,1:0|3:0,0:0:0:0:
181,97,51749,6,0,P|230:103|277:88,1,99.9999999999999,6|2,1:2|1:2,0:0:0:0:
303,73,52337,1,0,0:0:0:0:
303,73,52533,2,0,P|352:66|399:81,1,99.9999999999999,2|2,1:2|1:2,0:0:0:0:
485,31,53317,2,0,L|476:152,1,99.9999999999999,2|2,1:2|1:2,0:0:0:0:
463,157,53905,1,2,0:0:0:0:
463,157,54102,2,0,L|469:206,2,50,2|2|2,1:2|0:0|1:2,0:0:0:0:
373,200,54886,6,0,P|324:208|289:243,1,99.9999999999999,6|2,1:2|1:2,0:0:0:0:
280,272,55474,1,0,0:0:0:0:
280,272,55670,2,0,P|245:237|196:228,1,99.9999999999999,2|2,1:2|1:2,0:0:0:0:
107,182,56454,2,0,L|95:281,1,99.9999999999999,2|2,1:2|1:2,0:0:0:0:
95,311,57043,1,2,0:0:0:0:
95,311,57239,1,2,1:2:0:0:
2,271,57631,1,6,1:2:0:0:
2,271,57827,2,0,L|8:221,1,50,6|6,3:0|1:2,0:0:0:0:
22,122,58415,5,2,1:2:0:0:
96,54,58807,2,0,P|120:48|145:48,1,50,2|2,1:2|0:0,0:0:0:0:
175,52,59200,2,0,P|198:59|220:71,1,50,2|2,1:2|0:0,0:0:0:0:
250,66,59592,2,0,L|240:165,1,99.9999999999999,6|6,1:2|1:2,0:0:0:0:
337,190,60376,2,0,L|327:90,1,99.9999999999999,6|6,1:2|1:2,0:0:0:0:
256,192,61160,12,0,62729,0:0:0:0:
184,293,63513,6,0,L|175:194,1,99.9999999999999,6|6,1:2|1:2,0:0:0:0:
255,133,64298,1,6,1:2:0:0:
83,67,70572,5,6,1:2:0:0:
171,113,70964,1,0,0:0:0:0:
270,100,71356,1,2,0:0:0:0:
339,27,71749,1,2,0:0:0:0:
257,85,72141,1,6,1:2:0:0:
229,181,72533,1,0,0:0:0:0:
256,277,72925,1,0,0:0:0:0:
326,347,73317,1,2,0:0:0:0:
241,293,73709,6,0,L|141:301,1,99.9999999999999,6|0,1:2|0:0,0:0:0:0:
52,348,74494,2,0,L|43:248,1,99.9999999999999,6|0,1:2|0:0,0:0:0:0:
57,200,75082,1,6,1:2:0:0:
57,200,75278,1,6,1:2:0:0:
131,133,75670,1,6,1:2:0:0:
226,148,76062,2,0,L|230:73,2,74.9999999999999,6|6|6,1:2|1:2|1:2,0:0:0:0:
275,154,76847,1,6,1:2:0:0:
256,192,76945,12,6,78415,1:2:0:0:
124,208,79200,6,0,P|109:174|107:137,2,74.9999999999999,6|2|2,3:0|0:0|0:0,0:0:0:0:
152,220,79984,1,6,3:0:0:0:
256,192,80082,12,2,81553,1:2:0:0:
362,146,82337,6,0,B|315:132|315:132|264:138,1,99.9999999999999,2|2,0:0|1:2,0:0:0:0:
235,147,82925,1,2,1:2:0:0:
235,147,83121,1,2,1:2:0:0:
256,192,83219,12,6,87827,1:2:0:0:
393,225,89396,6,0,P|346:212|297:220,1,99.9999999999999,6|10,1:2|0:2,0:0:0:0:
217,281,90180,2,0,P|168:289|120:275,1,99.9999999999999,2|10,1:2|0:2,0:0:0:0:
93,290,90768,1,2,0:0:0:0:
93,290,90964,2,0,L|100:190,1,99.9999999999999,2|10,1:2|0:2,0:0:0:0:
105,160,91553,1,2,0:0:0:0:
105,160,91749,1,2,1:2:0:0:
166,81,92141,1,10,0:0:0:0:
265,89,92533,6,0,L|272:138,1,50,6|2,1:2|0:0,0:0:0:0:
253,161,92925,2,0,P|302:156|346:178,1,99.9999999999999,10|0,0:2|0:0,0:0:0:0:
367,199,93513,1,2,0:0:0:0:
367,199,93709,1,10,0:2:0:0:
464,174,94102,2,0,L|471:124,2,50,6|2|14,1:2|0:0|0:0,0:0:0:0:
481,220,94690,1,2,0:0:0:0:
481,220,94886,2,0,L|466:318,1,99.9999999999999,0|10,1:0|0:0,0:0:0:0:
378,365,95670,6,0,P|328:369|283:348,1,99.9999999999999,6|10,1:2|0:2,0:0:0:0:
220,271,96454,2,0,P|265:250|314:254,1,99.9999999999999,2|10,1:2|0:2,0:0:0:0:
341,242,97043,1,2,0:0:0:0:
341,242,97239,2,0,L|326:143,1,99.9999999999999,2|10,1:2|0:2,0:0:0:0:
321,113,97827,1,2,0:0:0:0:
321,113,98023,1,2,1:2:0:0:
227,78,98415,1,10,0:0:0:0:
136,120,98807,6,0,P|111:121|87:114,1,50,6|2,1:2|0:0,0:0:0:0:
64,95,99200,2,0,P|80:141|74:190,1,99.9999999999999,10|0,0:2|0:0,0:0:0:0:
60,217,99788,1,2,0:0:0:0:
60,217,99984,1,10,0:2:0:0:
89,312,100376,5,6,1:2:0:0:
188,306,100768,1,6,1:2:0:0:
287,299,101160,2,0,P|336:306|379:329,1,99.9999999999999,2|10,1:2|0:0,0:0:0:0:
456,265,101945,6,0,L|446:165,1,99.9999999999999,6|10,1:2|0:2,0:0:0:0:
359,116,102729,2,0,P|309:122|266:145,1,99.9999999999999,2|10,1:2|0:2,0:0:0:0:
249,170,103317,1,2,0:0:0:0:
249,170,103513,2,0,L|239:70,1,99.9999999999999,2|10,1:2|0:2,0:0:0:0:
240,40,104102,1,2,0:0:0:0:
240,40,104298,1,2,1:2:0:0:
141,23,104690,1,10,0:0:0:0:
51,66,105082,6,0,L|47:115,1,50,6|2,1:2|0:0,0:0:0:0:
27,138,105474,2,0,P|73:151|98:193,1,99.9999999999999,10|0,0:2|0:0,0:0:0:0:
95,223,106062,1,2,0:0:0:0:
95,223,106258,1,10,0:2:0:0:
154,303,106651,2,0,L|203:306,1,50,6|2,1:2|0:0,0:0:0:0:
224,328,107043,2,0,P|248:285|295:272,1,99.9999999999999,14|2,0:0|0:0,0:0:0:0:
324,279,107631,1,2,0:0:0:0:
324,279,107827,1,10,0:0:0:0:
396,347,108219,6,0,P|417:302|414:252,1,99.9999999999999,6|10,1:2|0:2,0:0:0:0:
344,181,109003,2,0,P|322:136|325:86,1,99.9999999999999,2|10,1:2|0:2,0:0:0:0:
303,65,109592,1,2,0:0:0:0:
303,65,109788,2,0,L|203:76,1,99.9999999999999,2|10,1:2|0:2,0:0:0:0:
110,41,110572,1,2,1:2:0:0:
40,112,110964,2,0,L|43:161,1,50,10|10,0:0|3:0,0:0:0:0:
59,187,111356,6,0,L|62:236,1,50,6|2,1:2|0:0,0:0:0:0:
51,265,111749,2,0,P|94:241|143:243,1,99.9999999999999,10|0,0:2|0:0,0:0:0:0:
168,259,112337,1,2,0:0:0:0:
168,259,112533,1,10,0:2:0:0:
258,216,112925,2,0,L|260:166,1,50,6|2,1:2|0:0,0:0:0:0:
282,133,113317,2,0,P|332:130|373:157,1,99.9999999999999,10|0,0:2|0:0,0:0:0:0:
406,252,114102,1,6,1:2:0:0:
476,181,114494,5,4,1:2:0:0:
