osu file format v14

[General]
AudioFilename: audio.mp3
AudioLeadIn: 0
PreviewTime: 88503
Countdown: 0
SampleSet: Soft
StackLeniency: 0.4
Mode: 0
LetterboxInBreaks: 0
WidescreenStoryboard: 1

[Editor]
Bookmarks: 64298,70572
DistanceSpacing: 0.2
BeatDivisor: 4
GridSize: 32
TimelineZoom: 3.699998

[Metadata]
Title:Amazing Mirage
TitleUnicode:Amazing Mirage
Artist:lapix
ArtistUnicode:lapix
Creator:Lokidoki
Version:Knight's Insane
Source:beatmania IIDX 24 SINOBUZ
Tags:nines rizen fanzhen0019 Hi-TECH FULLON original soundtrack ost bemani knightc0re knightcore testo nikakis electronic instrumental callionet
BeatmapID:1848516
BeatmapSetID:848697

[Difficulty]
HPDrainRate:5
CircleSize:4
OverallDifficulty:7.2
ApproachRate:9.2
SliderMultiplier:2
SliderTickRate:1

[Events]
//Background and Video events
0,0,"dawe.jpg",0,0
//Break Periods
2,23713,25266
2,64498,69972
//Storyboard Layer 0 (Background)
//Storyboard Layer 1 (Fail)
//Storyboard Layer 2 (Pass)
//Storyboard Layer 3 (Foreground)
//Storyboard Layer 4 (Overlay)
//Storyboard Sound Samples

[TimingPoints]
1553,392.156862745098,4,2,1,45,1,0
1553,-500,4,2,1,45,0,0
2141,-250,4,2,1,45,0,0
2435,-125,4,2,1,45,0,0
3121,-500,4,2,1,45,0,0
3709,-250,4,2,1,45,0,0
4003,-125,4,2,1,45,0,0
4690,-500,4,2,1,45,0,0
5278,-250,4,2,1,45,0,0
5572,-125,4,2,1,45,0,0
6258,-500,4,2,1,45,0,0
6847,-125,4,2,1,45,0,0
7043,-125,4,2,1,60,0,0
12533,-125,4,2,1,80,0,0
13121,-50,4,2,1,80,0,0
13709,-80,4,2,1,80,0,0
14886,-133.333333333333,4,2,1,80,0,0
15278,-80,4,2,1,80,0,0
15670,-133.333333333333,4,2,1,80,0,0
16062,-80,4,2,1,80,0,0
18415,-105.263157894737,4,2,1,80,0,0
18807,-200,4,2,1,80,0,0
19396,-100,4,2,1,80,0,0
19592,-90.9090909090909,4,2,1,80,0,0
19788,-83.3333333333333,4,2,1,80,0,0
19984,-76.9230769230769,4,2,1,80,0,0
20180,-71.4285714285714,4,2,1,80,0,0
20376,-66.6666666666667,4,2,1,80,0,0
20670,-71.4285714285714,4,2,1,80,0,0
20964,-62.5,4,2,1,80,0,0
21553,-58.8235294117647,4,2,1,80,0,0
22141,-55.5555555555556,4,2,1,80,0,0
22729,-100,4,2,1,80,0,0
22925,-111.111111111111,4,2,1,80,0,0
23121,-125,4,2,1,80,0,0
23317,-142.857142857143,4,2,1,80,0,0
26258,-100,4,2,1,80,0,0
27239,-50,4,2,1,80,0,0
27827,-66.6666666666667,4,2,1,80,0,0
28023,-100,4,2,1,80,0,0
28807,-50,4,2,1,80,0,0
29102,-100,4,2,1,80,0,0
29396,-50,4,2,1,80,0,0
29788,-133.333333333333,4,2,1,80,0,0
30180,-66.6666666666667,4,2,1,80,0,0
30964,-100,4,2,1,80,0,0
31160,-66.6666666666667,4,2,1,80,0,0
31356,-50,4,2,1,80,0,0
32141,-66.6666666666667,4,2,1,80,0,0
33611,-100,4,2,1,80,0,0
34102,-80,4,2,1,80,0,0
34886,-133.333333333333,4,2,1,80,0,0
36062,-100,4,2,1,80,0,0
36847,-66.6666666666667,4,2,1,80,0,0
37239,-133.333333333333,4,2,1,80,0,0
38415,-50,4,2,1,80,0,0
38807,-151.515151515152,4,2,1,80,0,0
39200,-50,4,2,1,80,0,0
39396,-100,4,2,1,80,0,0
40768,-66.6666666666667,4,2,1,80,0,0
41945,-50,4,2,1,80,0,0
42337,-66.6666666666667,4,2,1,80,0,0
44298,-57.1428571428571,4,2,1,80,0,0
45082,-133.333333333333,4,2,1,80,0,0
45474,-66.6666666666667,4,2,1,80,0,0
45670,-200,4,2,1,80,0,0
45866,-100,4,2,1,80,0,0
46651,-66.6666666666667,4,2,1,80,0,0
48709,-66.6666666666667,4,2,1,5,0,0
48807,-66.6666666666667,4,2,1,80,0,0
51749,-100,4,2,1,80,0,0
52533,-133.333333333333,4,2,1,80,0,0
53415,-100,4,2,1,80,0,0
53905,-133.333333333333,4,2,1,80,0,0
54886,-100,4,2,1,80,0,0
55670,-133.333333333333,4,2,1,80,0,0
56553,-100,4,2,1,80,0,0
57043,-133.333333333333,4,2,1,80,0,0
57631,-66.6666666666667,4,2,1,80,0,0
58415,-133.333333333333,4,2,1,80,0,0
58807,-66.6666666666667,4,2,1,80,0,0
59200,-133.333333333333,4,2,1,80,0,0
59592,-66.6666666666667,4,2,1,80,0,0
62729,-133.333333333333,4,2,1,50,0,0
63513,-66.6666666666667,4,2,1,80,0,0
64298,-66.6666666666667,4,2,1,60,0,0
70572,-100,4,2,1,60,0,0
76454,-66.6666666666667,4,2,1,60,0,0
77239,-200,4,2,1,60,0,0
77435,-133.333333333333,4,2,1,60,0,0
79984,-133.333333333333,4,2,1,70,0,0
81160,-100,4,2,1,70,0,0
82337,-80,4,2,1,70,0,0
83121,-80,4,2,1,80,0,0
83513,-133.333333333333,4,2,1,80,0,0
84298,-100,4,2,1,80,0,0
85082,-80,4,2,1,80,0,0
86454,-200,4,2,1,80,0,0
86651,-133.333333333333,4,2,1,80,0,0
87043,-100,4,2,1,80,0,0
87435,-80,4,2,1,80,0,0
87827,-100,4,2,1,80,0,0
89200,-66.6666666666667,4,2,1,80,0,0
89396,-66.6666666666667,4,2,1,80,0,1
91945,-133.333333333333,4,2,1,80,0,1
92141,-100,4,2,1,80,0,1
92533,-66.6666666666667,4,2,1,80,0,1
93513,-57.1428571428571,4,2,1,80,0,1
93709,-50,4,2,1,80,0,1
94102,-66.6666666666667,4,2,1,80,0,1
95082,-57.1428571428571,4,2,1,80,0,1
95278,-50,4,2,1,80,0,1
96062,-66.6666666666667,4,2,1,80,0,1
97435,-100,4,2,1,80,0,1
97827,-133.333333333333,4,2,1,80,0,1
98807,-66.6666666666667,4,2,1,80,0,1
99788,-57.1428571428571,4,2,1,80,0,1
99984,-50,4,2,1,80,0,1
101749,-200,4,2,1,80,0,1
101945,-66.6666666666667,4,2,1,80,0,1
102533,-133.333333333333,4,2,1,80,0,1
103121,-66.6666666666667,4,2,1,80,0,1
103317,-133.333333333333,4,2,1,80,0,1
104886,-100,4,2,1,80,0,1
105082,-66.6666666666667,4,2,1,80,0,1
106062,-57.1428571428571,4,2,1,80,0,1
106258,-50,4,2,1,80,0,1
106454,-100,4,2,1,80,0,1
106651,-66.6666666666667,4,2,1,80,0,1
107631,-57.1428571428571,4,2,1,80,0,1
107827,-50,4,2,1,80,0,1
108219,-66.6666666666667,4,2,1,80,0,1
108807,-133.333333333333,4,2,1,80,0,1
109003,-66.6666666666667,4,2,1,80,0,1
109592,-133.333333333333,4,2,1,80,0,1
109984,-100,4,2,1,80,0,1
110180,-133.333333333333,4,2,1,80,0,1
110572,-66.6666666666667,4,2,1,80,0,1
112337,-57.1428571428571,4,2,1,80,0,1
112533,-50,4,2,1,80,0,1
112729,-100,4,2,1,80,0,1
112925,-66.6666666666667,4,2,1,80,0,1
114494,-66.6666666666667,4,2,1,80,0,0

[Colours]
Combo1 : 255,128,128
Combo2 : 253,197,102
Combo3 : 95,193,252

[HitObjects]
8,370,1553,6,0,L|47:366,1,40,2|0,1:2|0:0,0:0:0:0:
108,319,2141,2,0,L|147:322,1,40,2|0,0:0|0:0,0:0:0:0:
208,370,2435,2,0,L|247:366,1,40,2|0,0:0|0:0,0:0:0:0:
313,326,2631,1,0,0:0:0:0:
308,319,2729,2,0,L|347:322,1,40,2|0,0:0|0:0,0:0:0:0:
408,370,2925,1,2,0:0:0:0:
447,271,3121,6,0,L|407:274,1,40,2|0,0:0|0:0,0:0:0:0:
347,322,3709,2,0,L|307:318,1,40,2|0,0:0|0:0,0:0:0:0:
247,271,4003,2,0,L|207:274,1,40,2|0,0:0|0:0,0:0:0:0:
142,315,4199,1,0,0:0:0:0:
147,322,4297,2,0,L|107:318,1,40,2|0,0:0|0:0,0:0:0:0:
47,271,4493,1,2,0:0:0:0:
8,172,4690,6,0,L|4:211,1,40,2|0,0:0|0:0,0:0:0:0:
119,263,5278,2,0,L|115:223,1,40,2|0,0:0|0:0,0:0:0:0:
230,172,5572,2,0,L|226:211,1,40,2|0,0:0|0:0,0:0:0:0:
334,258,5768,1,0,0:0:0:0:
341,263,5866,2,0,L|337:223,1,40,2|0,0:0|0:0,0:0:0:0:
452,172,6062,1,2,0:0:0:0:
491,73,6258,6,0,L|495:112,1,40,2|0,0:0|0:0,0:0:0:0:
380,164,6847,6,0,L|384:124,1,40,2|0,0:0|0:0,0:0:0:0:
268,73,7043,5,2,0:0:0:0:
258,89,7141,1,2,0:0:0:0:
251,108,7239,1,2,0:0:0:0:
250,128,7337,1,2,0:0:0:0:
270,175,7435,5,2,0:0:0:0:
272,188,7533,1,2,0:0:0:0:
272,201,7631,1,2,0:0:0:0:
271,214,7729,1,2,0:0:0:0:
257,244,7827,5,2,3:0:0:0:
257,244,8415,5,2,3:0:0:0:
245,236,8513,1,0,3:0:0:0:
233,231,8611,1,0,3:0:0:0:
220,227,8709,1,2,3:0:0:0:
207,226,8807,1,0,3:0:0:0:
147,164,9003,6,0,L|150:124,1,40,2|0,3:0|3:0,0:0:0:0:
89,61,9200,1,2,3:0:0:0:
235,102,9396,5,2,3:0:0:0:
235,102,9984,5,2,3:0:0:0:
246,109,10082,1,0,3:0:0:0:
258,114,10180,1,0,3:0:0:0:
271,118,10278,1,2,3:0:0:0:
284,119,10376,1,0,3:0:0:0:
345,182,10572,6,0,L|341:221,1,40,2|0,3:0|3:0,0:0:0:0:
403,285,10769,1,2,3:0:0:0:
488,263,10964,5,2,3:0:0:0:
488,263,11553,5,2,3:0:0:0:
486,249,11651,1,0,3:0:0:0:
485,236,11749,1,0,3:0:0:0:
484,223,11847,1,2,3:0:0:0:
483,209,11945,1,0,3:0:0:0:
421,145,12141,6,0,L|425:106,1,40,2|0,3:0|3:0,0:0:0:0:
344,69,12337,1,2,3:0:0:0:
496,53,12534,5,2,1:0:0:0:
496,53,13121,6,0,B|397:109|323:25|358:1|391:13,1,200,2|0,0:0|1:0,0:0:0:0:
344,69,13415,1,2,1:2:0:0:
329,67,13513,1,2,1:2:0:0:
315,66,13611,1,2,1:2:0:0:
284,48,13709,6,0,P|269:20|267:-10,1,62.5,10|0,0:0|0:0,0:0:0:0:
216,107,13905,2,0,P|201:134|199:165,1,62.5,10|0,0:0|0:0,0:0:0:0:
157,40,14102,5,6,1:2:0:0:
284,48,14298,1,2,0:0:0:0:
213,152,14494,2,0,P|231:211|282:244,1,125,10|0,0:0|0:0,0:0:0:0:
358,239,14788,1,2,1:2:0:0:
367,256,14886,6,0,L|363:293,2,37.5000014305115,2|2|2,0:0|1:2|0:0,0:0:0:0:
319,350,15278,2,0,P|259:336|204:364,1,125,10|2,0:0|0:0,0:0:0:0:
58,268,15670,6,0,L|20:271,1,37.5000014305115,2|0,1:2|0:0,0:0:0:0:
95,343,15866,1,2,0:0:0:0:
95,343,16062,2,0,P|136:298|139:236,1,125,10|2,0:0|0:0,0:0:0:0:
123,211,16356,6,0,L|185:215,1,62.5,2|2,1:2|0:0,0:0:0:0:
285,262,16553,1,2,1:2:0:0:
283,247,16651,1,2,0:0:0:0:
282,233,16749,1,2,0:0:0:0:
264,202,16847,6,0,L|269:139,1,62.5,10|0,0:0|1:0,0:0:0:0:
341,41,17043,2,0,L|346:103,1,62.5,2|0,0:0|0:0,0:0:0:0:
418,202,17239,5,6,1:2:0:0:
268,139,17435,1,2,0:0:0:0:
424,215,17631,2,0,P|470:166|463:94,1,125,10|2,0:0|0:0,0:0:0:0:
400,82,17925,1,2,1:2:0:0:
382,104,18023,5,2,0:0:0:0:
383,119,18121,1,2,1:2:0:0:
384,135,18219,1,2,0:0:0:0:
464,295,18415,2,0,L|362:277,1,94.9999974632264,10|2,0:0|0:0,0:0:0:0:
185,340,18807,6,0,P|206:327|222:308,1,50,6|0,3:0|0:0,0:0:0:0:
253,314,19102,2,0,P|265:292|269:267,1,50,0|0,0:0|3:0,0:0:0:0:
298,257,19396,2,0,P|297:232|289:208,1,50,0|0,3:0|3:0,0:0:0:0:
109,328,19592,6,0,P|136:328|162:320,1,55.0000016784668,2|0,0:0|0:0,0:0:0:0:
44,275,19788,2,0,P|68:291|97:298,1,59.9999981689454,2|0,0:0|0:0,0:0:0:0:
11,194,19984,2,0,P|24:223|47:245,1,64.9999970245363,2|0,0:0|0:0,0:0:0:0:
23,101,20180,2,0,P|17:135|26:168,1,69.9999978637696,2|0,0:0|0:0,0:0:0:0:
82,22,20376,6,0,P|58:50|48:86,1,75.0000028610231,6|0,1:2|0:0,0:0:0:0:
23,101,20670,2,0,P|17:135|26:168,1,69.9999978637696,2|0,1:2|0:0,0:0:0:0:
240,366,20964,6,0,P|265:336|276:298,1,80,2|0,1:2|0:0,0:0:0:0:
302,282,21258,2,0,P|307:242|295:205,1,80,2|0,1:2|0:0,0:0:0:0:
10,197,21553,6,0,P|23:236|52:266,1,85.0000016212464,2|0,1:2|0:0,0:0:0:0:
50,298,21847,2,0,P|82:323|123:332,1,85.0000016212464,2|0,1:2|0:0,0:0:0:0:
316,180,22141,6,0,P|301:138|270:106,1,89.9999972534181,2|0,1:2|0:0,0:0:0:0:
273,73,22435,2,0,P|238:45|194:36,1,89.9999972534181,2|0,1:2|0:0,0:0:0:0:
137,360,22729,6,0,L|186:364,1,50
50,298,22925,2,0,L|0:302,1,44.999998626709
137,236,23121,2,0,L|186:240,1,40
50,174,23317,2,0,L|0:178,1,34.9999989318848
137,112,23513,5,6,1:2:0:0:
137,112,25866,5,0,1:0:0:0:
137,112,26258,2,0,P|196:112|259:183,1,150,10|0,3:0|0:0,0:0:0:0:
256,192,26651,5,6,1:2:0:0:
167,201,26847,2,0,L|117:196,1,50
37,244,27043,5,0,1:0:0:0:
43,239,27141,1,0,1:0:0:0:
48,234,27239,2,0,L|52:190|52:190|48:179|48:179|52:136,1,100,2|10,1:2|3:0,0:0:0:0:
59,46,27435,5,0,1:0:0:0:
73,52,27533,1,0,0:0:0:0:
137,112,27729,5,0,0:0:0:0:
151,105,27827,2,0,P|188:105|221:122,1,75.0000028610231,0|0,1:0|0:0,0:0:0:0:
309,190,28023,2,0,L|304:140,1,50
361,76,28219,5,2,1:2:0:0:
507,110,28415,1,2,0:0:0:0:
430,20,28611,5,0,1:0:0:0:
431,32,28709,1,0,1:0:0:0:
432,44,28807,2,0,L|436:88|436:88|432:99|432:99|436:142,1,100,10|0,3:0|1:0,0:0:0:0:
447,247,29003,5,0,1:0:0:0:
462,240,29102,2,0,P|416:220|367:225,1,100,0|0,1:0|0:0,0:0:0:0:
309,333,29396,6,0,B|369:338|341:305|402:310,1,100,2|0,1:2|0:0,0:0:0:0:
304,261,29592,2,0,B|243:255|271:288|210:283,1,100,2|0,1:2|0:0,0:0:0:0:
116,345,29788,6,0,L|119:307,1,37.5000014305115,2|0,0:0|0:0,0:0:0:0:
104,285,29984,2,0,L|107:247,1,37.5000014305115,2|0,1:2|0:0,0:0:0:0:
192,211,30180,2,0,P|138:160|66:165,1,150,2|2,1:2|0:0,0:0:0:0:
1,203,30474,1,2,0:0:0:0:
10,216,30572,5,2,1:2:0:0:
7,187,30670,1,2,0:0:0:0:
5,159,30768,1,2,0:0:0:0:
2,131,30866,1,2,0:0:0:0:
0,103,30964,6,0,L|49:107,1,50,2|2,1:2|0:0,0:0:0:0:
195,37,31160,2,0,B|157:34|157:34|126:54,1,75.0000028610231,2|0,1:2|0:0,0:0:0:0:
134,148,31356,6,0,B|200:153|200:153|213:183,1,100,6|0,1:2|0:0,0:0:0:0:
241,269,31553,1,2,0:0:0:0:
241,269,31749,6,0,B|307:263|307:263|320:233,1,100,2|0,1:2|0:0,0:0:0:0:
348,148,31946,1,0,0:0:0:0:
348,148,32141,6,0,B|351:110|351:110|314:107,1,75.0000028610231,2|0,1:2|0:0,0:0:0:0:
216,17,32337,2,0,B|212:54|212:54|249:57,1,75.0000028610231,2|0,1:2|0:0,0:0:0:0:
347,16,32533,5,10,3:0:0:0:
389,33,32631,1,10,3:0:0:0:
426,34,32729,1,0,3:0:0:0:
455,27,32827,1,4,3:0:0:0:
475,15,32925,6,0,P|458:49|458:86,1,75.0000028610231,2|0,1:2|0:0,0:0:0:0:
512,179,33121,1,0,0:0:0:0:
352,130,33317,1,0,1:0:0:0:
389,294,33513,1,2,0:0:0:0:
400,286,33611,6,0,L|350:290,1,50,2|0,0:0|1:0,0:0:0:0:
227,377,33807,1,2,0:0:0:0:
222,327,33905,1,0,0:0:0:0:
218,277,34003,1,2,0:0:0:0:
213,227,34102,6,0,P|245:226|274:236,1,62.5,2|2,1:2|0:0,0:0:0:0:
372,347,34298,2,0,P|356:320|349:289,1,62.5,2|2,1:2|0:0,0:0:0:0:
396,151,34494,5,2,1:2:0:0:
273,235,34690,1,2,0:0:0:0:
305,153,34886,2,0,L|301:115,3,37.5000014305115,2|2|2|2,1:2|0:0|0:0|0:0,0:0:0:0:
219,84,35278,5,2,1:2:0:0:
181,90,35376,1,2,0:0:0:0:
153,115,35474,5,2,1:2:0:0:
115,109,35572,1,2,0:0:0:0:
87,84,35670,5,2,1:2:0:0:
99,232,35866,1,2,0:0:0:0:
87,84,36062,6,0,P|73:105|69:129,1,50,2|0,1:2|0:0,0:0:0:0:
35,133,36258,2,0,P|39:157|53:177,1,50,2|0,1:2|0:0,0:0:0:0:
171,220,36455,5,10,3:0:0:0:
172,207,36553,1,0,0:0:0:0:
173,195,36651,1,6,3:0:0:0:
245,344,36847,6,0,P|266:313|272:276,1,75.0000028610231,2|0,1:2|0:0,0:0:0:0:
323,270,37043,2,0,P|316:233|294:203,1,75.0000028610231,2|0,1:2|0:0,0:0:0:0:
168,139,37239,6,0,L|166:114,2,25.0000009536744,2|0|0,1:2|0:0|0:0,0:0:0:0:
170,157,37435,2,0,L|172:194,1,37.5000014305115
265,30,37631,5,0,1:0:0:0:
256,0,37729,1,10,3:0:0:0:
350,121,37925,1,10,3:0:0:0:
380,128,38023,1,10,3:0:0:0:
206,171,38219,1,10,3:0:0:0:
255,0,38415,6,0,L|267:41|267:41|274:49|274:49|288:93,1,100,2|0,1:2|0:0,0:0:0:0:
205,171,38611,2,0,L|235:140|235:140|238:130|238:130|270:97,1,98.999999697876,2|0,3:2|0:0,0:0:0:0:
380,128,38807,6,0,L|337:117|337:117|327:120|327:120|284:109,1,98.999999697876,2|0,0:0|0:0,0:0:0:0:
270,97,39200,6,0,P|301:134|308:183,1,100,2|2,1:2|0:0,0:0:0:0:
218,246,39396,2,0,L|267:241,1,50,2|0,0:0|0:0,0:0:0:0:
374,217,39592,1,0,1:0:0:0:
205,171,39788,1,2,0:0:0:0:
192,170,39886,5,2,0:0:0:0:
139,230,40082,5,2,0:0:0:0:
86,290,40278,5,2,0:0:0:0:
20,351,40474,5,0,0:0:0:0:
33,350,40572,1,0,1:0:0:0:
164,306,40768,6,0,P|204:303|237:314,1,75.0000028610231,2|0,1:2|0:0,0:0:0:0:
235,280,40964,2,0,P|264:305|280:336,1,75.0000028610231,2|0,0:0|0:0,0:0:0:0:
350,380,41160,1,0,1:0:0:0:
495,331,41356,1,2,0:0:0:0:
482,332,41454,5,2,0:0:0:0:
438,252,41651,5,2,1:2:0:0:
476,187,41847,5,2,0:0:0:0:
485,180,41945,2,0,P|477:141|455:173,1,100,6|0,1:2|0:0,0:0:0:0:
438,252,42141,2,0,P|430:290|408:258,1,100,6|0,1:2|0:0,0:0:0:0:
359,173,42337,6,0,P|359:136|372:101,1,75.0000028610231,6|0,1:2|0:0,0:0:0:0:
444,42,42533,1,2,0:0:0:0:
407,35,42631,1,2,0:0:0:0:
385,7,42729,5,2,1:2:0:0:
348,13,42827,1,2,0:0:0:0:
326,42,42925,1,2,1:2:0:0:
289,36,43023,5,2,0:0:0:0:
209,64,43219,5,2,0:0:0:0:
129,92,43415,5,0,0:0:0:0:
49,120,43611,5,0,0:0:0:0:
50,107,43709,1,2,1:2:0:0:
114,176,43905,6,0,P|118:213|110:249,1,75.0000028610231,6|0,1:2|0:0,0:0:0:0:
144,219,44102,2,0,P|135:255|115:286,1,75.0000028610231,2|0,0:0|0:0,0:0:0:0:
214,349,44298,6,0,P|248:323|289:310,1,87.500000834465,6|0,1:2|0:0,0:0:0:0:
239,295,44495,2,0,P|280:282|323:284,1,87.500000834465,2|0,0:0|0:0,0:0:0:0:
313,175,44690,5,6,1:2:0:0:
305,147,44788,1,2,0:0:0:0:
320,106,44886,1,6,1:2:0:0:
328,78,44984,1,2,0:0:0:0:
313,37,45082,6,0,B|259:14|259:66|206:39,1,112.500004291535,6|0,3:0|0:0,0:0:0:0:
177,12,45474,6,0,P|192:45|192:83,1,75.0000028610231,6|0,1:2|0:0,0:0:0:0:
94,138,45670,2,0,L|69:135,1,25,2|0,0:0|0:0,0:0:0:0:
192,195,45866,6,0,P|213:164|271:139,1,100,2|2,1:2|0:0,0:0:0:0:
353,169,46160,2,0,L|348:218,1,50,2|0,0:0|1:0,0:0:0:0:
403,334,46356,1,0,3:0:0:0:
377,312,46454,1,2,0:0:0:0:
346,302,46552,1,2,0:0:0:0:
313,305,46651,6,0,P|277:315|227:302,1,75.0000028610231,2|2,1:2|0:0,0:0:0:0:
192,195,46847,1,10,3:0:0:0:
192,195,47043,6,0,P|155:185|105:198,1,75.0000028610231,6|0,1:2|0:0,0:0:0:0:
28,258,47239,1,2,0:0:0:0:
16,146,47435,1,2,1:2:0:0:
131,303,47631,1,2,1:2:0:0:
128,323,47729,5,6,1:2:0:0:
192,195,47925,5,6,1:2:0:0:
268,348,48121,5,6,1:2:0:0:
360,163,48317,6,0,P|377:126|321:173,1,225.000008583069,6|0,1:2|1:0,0:0:0:0:
256,192,48709,12,6,50180,1:2:0:0:
256,192,50204,12,0,50964,1:0:0:0:
256,192,51356,5,2,3:0:0:0:
256,0,51749,6,0,B|177:-3|191:44|112:41,1,150,6|0,1:2|0:0,0:0:0:0:
27,36,52141,1,2,1:2:0:0:
38,23,52239,2,0,L|33:72,1,50,2|0,3:0|0:0,0:0:0:0:
74,161,52435,1,2,0:0:0:0:
63,148,52533,6,0,L|112:143,1,37.5000014305115,2|0,1:2|0:0,0:0:0:0:
171,179,52729,1,2,0:0:0:0:
244,88,52925,6,0,L|293:92,1,37.5000014305115,2|2,1:2|0:0,0:0:0:0:
352,57,53121,1,2,0:0:0:0:
425,148,53317,5,2,1:2:0:0:
462,144,53415,2,0,L|511:139,1,50,2|0,0:0|0:0,0:0:0:0:
324,236,53611,1,2,0:0:0:0:
361,240,53709,6,0,L|410:244,1,50,2|2,1:2|0:0,0:0:0:0:
309,140,53905,2,0,L|271:143,1,37.5000014305115,2|2,0:0|0:0,0:0:0:0:
158,241,54102,5,2,1:2:0:0:
194,274,54200,1,2,0:0:0:0:
202,322,54298,1,2,0:0:0:0:
179,366,54396,1,2,0:0:0:0:
134,384,54494,6,0,L|96:380,1,37.5000014305115,2|2,1:2|0:0,0:0:0:0:
94,307,54690,2,0,L|56:310,1,37.5000014305115,2|2,0:0|0:0,0:0:0:0:
256,384,54886,6,0,B|335:387|321:340|400:343,1,150,6|0,1:2|0:0,0:0:0:0:
485,348,55278,1,2,1:2:0:0:
474,361,55376,2,0,L|479:312,1,50,2|0,0:0|0:0,0:0:0:0:
438,223,55572,1,2,0:0:0:0:
449,236,55670,6,0,L|400:241,1,37.5000014305115,2|0,1:2|0:0,0:0:0:0:
341,205,55866,1,2,0:0:0:0:
268,296,56062,6,0,L|219:292,1,37.5000014305115,2|2,1:2|0:0,0:0:0:0:
160,327,56258,1,2,0:0:0:0:
87,236,56454,5,2,1:2:0:0:
50,240,56553,2,0,L|1:245,1,50,2|2,0:0|0:0,0:0:0:0:
188,148,56748,1,2,0:0:0:0:
151,144,56846,6,0,L|102:140,1,50,2|2,1:2|0:0,0:0:0:0:
203,244,57043,2,0,L|240:240,1,37.5000014305115,2|2,0:0|0:0,0:0:0:0:
354,143,57239,5,2,1:2:0:0:
317,109,57337,1,2,0:0:0:0:
309,61,57435,1,2,0:0:0:0:
332,17,57533,1,2,0:0:0:0:
377,0,57631,6,0,P|414:3|444:25,1,75.0000028610231,6|2,1:2|0:0,0:0:0:0:
508,104,57827,1,6,3:0:0:0:
506,92,57925,1,2,0:0:0:0:
511,69,58023,6,0,P|484:94|448:103,1,75.0000028610231,6|0,1:2|0:0,0:0:0:0:
354,143,58219,2,0,P|327:117|291:108,1,75.0000028610231,2|0,0:0|0:0,0:0:0:0:
197,69,58415,6,0,L|203:143,1,75.0000028610231,2|0,1:2|0:0,0:0:0:0:
1,315,58807,6,0,B|27:289|27:289|63:280,1,75.0000028610231,2|0,1:2|0:0,0:0:0:0:
158,241,59003,2,0,B|184:266|184:266|220:275,1,75.0000028610231,2|0,0:0|0:0,0:0:0:0:
315,315,59200,6,0,L|311:277,1,37.5000014305115,2|0,1:2|0:0,0:0:0:0:
319,255,59396,2,0,L|315:217,1,37.5000014305115,2|0,0:0|0:0,0:0:0:0:
365,50,59592,6,0,L|361:87,2,37.5000014305115,6|0|0,1:2|0:0|0:0,0:0:0:0:
387,26,59788,1,2,1:2:0:0:
255,128,59984,6,0,L|251:90,2,37.5000014305115,6|0|0,1:2|0:0|0:0,0:0:0:0:
277,152,60180,1,2,1:2:0:0:
145,50,60376,6,0,L|141:87,2,37.5000014305115,6|0|0,1:2|0:0|0:0,0:0:0:0:
167,26,60572,1,0,1:0:0:0:
35,128,60768,6,0,L|31:90,2,37.5000014305115,6|0|0,1:2|0:0|0:0,0:0:0:0:
57,152,60964,1,2,1:2:0:0:
34,312,61160,6,0,L|30:349,2,37.5000014305115,2|0|2,1:2|0:0|1:2,0:0:0:0:
92,234,61356,2,0,L|88:196,2,37.5000014305115,2|0|2,1:2|0:0|1:2,0:0:0:0:
161,327,61552,2,0,L|157:364,2,37.5000014305115,2|0|2,1:2|0:0|1:2,0:0:0:0:
243,215,61749,2,0,L|239:177,2,37.5000014305115,2|0|2,1:2|0:0|1:2,0:0:0:0:
341,349,61945,6,0,L|339:367,28,18.7500007152558,2|0|0|0|2|0|0|0|2|0|0|0|2|0|0|0|2|0|0|0|2|0|0|0|2|0|0|0|2,1:2|0:0|0:0|0:0|1:2|0:0|0:0|0:0|1:2|0:0|0:0|0:0|1:2|0:0|0:0|0:0|1:2|0:0|0:0|0:0|1:2|0:0|0:0|0:0|1:2|0:0|0:0|0:0|1:2,0:0:0:0:
393,290,62729,6,0,L|391:271,14,18.7500007152558
462,202,63513,6,0,L|471:94,2,100.000003814697,6|6|6,1:2|1:2|1:2,0:0:0:0:
475,52,63905,1,6,1:2:0:0:
256,96,64298,5,6,1:2:0:0:
256,96,70572,6,0,P|183:89|122:129,1,150,6|0,1:2|0:0,0:0:0:0:
90,118,70964,2,0,L|98:217,1,100,0|2,0:0|0:0,0:0:0:0:
29,334,71356,6,0,P|72:308|121:306,1,100,2|0,0:0|0:0,0:0:0:0:
147,324,71651,1,0,0:0:0:0:
147,324,71749,1,2,0:0:0:0:
256,288,71945,1,6,1:2:0:0:
256,96,72141,6,0,P|329:89|390:129,1,150,6|0,1:2|0:0,0:0:0:0:
422,118,72533,2,0,L|413:217,1,100,0|2,0:0|0:0,0:0:0:0:
482,334,72925,6,0,P|439:308|390:306,1,100
365,324,73219,1,0,0:0:0:0:
365,324,73317,1,2,0:0:0:0:
256,288,73514,1,2,0:0:0:0:
384,96,73709,5,6,1:2:0:0:
128,96,74494,5,6,1:2:0:0:
128,96,75082,1,6,1:2:0:0:
320,159,75278,6,0,L|324:209,3,50,6|2|2|2,1:2|0:0|0:0|0:0,0:0:0:0:
192,159,75670,2,0,L|187:209,3,50,6|2|2|2,1:2|0:0|0:0|0:0,0:0:0:0:
256,288,76062,6,0,L|256:238,1,50,6|2,1:2|0:0,0:0:0:0:
256,112,76258,1,2,0:0:0:0:
256,96,76356,1,6,1:2:0:0:
215,57,76454,6,0,P|182:38|145:36,1,75.0000028610231,2|0,0:0|0:0,0:0:0:0:
297,57,76651,2,0,P|329:38|366:36,1,75.0000028610231,6|0,1:2|0:0,0:0:0:0:
443,108,76847,5,6,1:2:0:0:
444,122,76945,1,2,1:2:0:0:
443,137,77043,1,2,1:2:0:0:
439,152,77141,1,2,1:2:0:0:
433,165,77239,2,0,P|426:176|419:186,1,25,2|2,1:2|1:2,0:0:0:0:
280,238,77435,1,2,1:2:0:0:
259,221,77533,1,2,1:2:0:0:
243,201,77631,5,2,1:2:0:0:
230,178,77729,1,2,1:2:0:0:
223,153,77827,1,2,1:2:0:0:
220,126,77925,1,2,1:2:0:0:
223,100,78023,2,0,P|227:81|234:64,1,37.5000014305115,2|2,1:2|1:2,0:0:0:0:
486,97,78219,1,2,1:2:0:0:
488,123,78317,1,2,1:2:0:0:
486,150,78415,6,0,P|481:168|474:185,3,37.5000014305115,6|2|2|2,1:2|0:0|0:0|0:0,0:0:0:0:
408,274,78807,2,0,P|403:256|396:239,3,37.5000014305115,2|2|2|2,0:0|0:0|0:0|0:0,0:0:0:0:
330,150,79200,6,0,P|313:159|296:166,1,37.5000014305115,6|2,3:0|0:0,0:0:0:0:
259,267,79396,1,2,0:0:0:0:
254,260,79494,2,0,P|237:250|220:243,1,37.5000014305115,2|2,0:0|0:0,0:0:0:0:
190,105,79690,1,2,0:0:0:0:
185,112,79788,2,0,P|168:121|151:128,1,37.5000014305115,2|2,0:0|0:0,0:0:0:0:
69,108,79984,5,6,3:0:0:0:
68,122,80082,1,2,3:0:0:0:
69,137,80180,1,2,1:2:0:0:
73,152,80278,1,2,1:2:0:0:
78,164,80376,2,0,P|89:180|101:194,1,37.5000014305115,2|2,1:2|1:2,0:0:0:0:
232,238,80572,1,2,1:2:0:0:
253,221,80670,1,2,1:2:0:0:
269,201,80768,5,2,1:2:0:0:
282,178,80866,1,2,1:2:0:0:
289,153,80964,1,2,1:2:0:0:
292,126,81062,1,2,1:2:0:0:
289,100,81160,2,0,P|285:81|268:51,1,50,2|2,1:2|1:2,0:0:0:0:
26,97,81356,1,2,1:2:0:0:
24,123,81454,1,2,1:2:0:0:
26,150,81553,5,2,1:2:0:0:
130,210,81749,1,2,1:2:0:0:
125,184,81847,1,2,1:2:0:0:
208,89,82043,1,2,1:2:0:0:
203,115,82141,1,2,1:2:0:0:
301,148,82337,6,0,B|328:153|360:141|360:141|392:133|406:71|379:34|379:34|342:55|330:114|360:140|360:140|394:176|448:195|494:172,1,437.5,2|2,0:0|1:2,0:0:0:0:
491,168,83121,5,2,1:2:0:0:
476,195,83219,1,2,1:2:0:0:
470,226,83317,1,2,1:2:0:0:
472,257,83415,1,2,1:2:0:0:
481,285,83513,2,0,P|490:301|502:315,3,37.5000014305115,2|2|2|2,1:2|1:2|1:2|1:2,0:0:0:0:
421,375,83905,5,2,1:2:0:0:
401,341,84003,1,2,1:2:0:0:
371,314,84101,1,2,1:2:0:0:
336,298,84199,1,2,1:2:0:0:
299,290,84298,2,0,P|275:290|250:296,3,50,2|2|2|2,1:2|1:2|1:2|1:2,0:0:0:0:
276,210,84690,5,2,1:2:0:0:
324,208,84788,1,2,1:2:0:0:
372,193,84886,1,2,1:2:0:0:
412,165,84984,1,2,1:2:0:0:
443,130,85083,2,0,P|457:104|468:69,3,62.5,2|2|2|2,1:2|1:2|1:2|1:2,0:0:0:0:
292,26,85474,5,2,1:2:0:0:
269,68,85572,1,2,1:2:0:0:
258,117,85670,1,2,1:2:0:0:
262,166,85768,1,2,1:2:0:0:
276,210,85867,2,0,P|291:236|313:259,3,62.5,2|2|2|2,1:2|1:2|1:2|1:2,0:0:0:0:
422,283,86258,5,2,1:2:0:0:
442,281,86356,1,2,1:2:0:0:
463,279,86454,2,0,L|487:276,1,25,2|2,1:2|1:2,0:0:0:0:
331,160,86651,5,2,1:2:0:0:
361,163,86749,1,2,1:2:0:0:
392,166,86847,2,0,L|429:169,1,37.5000014305115,2|2,1:2|1:2,0:0:0:0:
202,306,87043,5,2,1:2:0:0:
239,302,87141,1,2,1:2:0:0:
278,298,87239,2,0,L|327:293,1,50,2|2,1:2|1:2,0:0:0:0:
60,131,87435,5,2,1:2:0:0:
115,137,87533,1,2,1:2:0:0:
174,143,87631,2,0,L|248:149,1,62.5,2|2,1:2|1:2,0:0:0:0:
42,293,87827,6,0,P|90:372|94:234,1,350,6|0,1:2|0:0,0:0:0:0:
16,193,88611,5,2,3:2:0:0:
39,187,88709,1,2,3:2:0:0:
62,165,88807,5,2,3:2:0:0:
85,170,88905,1,2,3:2:0:0:
108,193,89004,5,2,3:2:0:0:
131,188,89102,1,2,3:2:0:0:
153,163,89200,6,0,P|163:128|158:91,1,75.0000028610231,2|2,3:2|3:2,0:0:0:0:
9,10,89396,5,6,1:2:0:0:
40,30,89494,1,2,0:0:0:0:
76,40,89592,1,2,0:0:0:0:
113,38,89690,1,2,0:0:0:0:
148,26,89788,2,0,P|183:13|220:12,1,75.0000028610231,10|0,0:2|0:0,0:0:0:0:
439,79,89984,1,2,0:0:0:0:
441,60,90082,1,2,0:0:0:0:
445,41,90180,5,2,1:2:0:0:
399,33,90278,1,2,0:0:0:0:
353,40,90376,1,2,0:0:0:0:
310,60,90474,1,2,0:0:0:0:
276,92,90572,2,0,P|257:124|245:159,1,75.0000028610231,10|2,0:2|0:0,0:0:0:0:
314,282,90768,1,2,0:0:0:0:
317,300,90866,1,2,0:0:0:0:
320,318,90964,5,2,1:2:0:0:
265,306,91062,1,2,0:0:0:0:
209,309,91160,1,2,0:0:0:0:
156,328,91258,1,2,0:0:0:0:
115,302,91356,5,10,0:2:0:0:
118,264,91454,1,2,0:0:0:0:
121,227,91552,1,2,0:0:0:0:
124,189,91650,1,2,0:0:0:0:
112,154,91749,5,2,1:2:0:0:
132,168,91847,1,2,0:0:0:0:
156,175,91945,2,0,P|174:177|193:174,1,37.5000014305115,2|2,0:0|0:0,0:0:0:0:
273,114,92141,5,10,0:0:0:0:
303,92,92239,1,10,3:0:0:0:
339,82,92337,2,0,P|366:78|394:83,1,50,10|10,3:0|3:0,0:0:0:0:
487,168,92533,6,0,P|449:164|415:178,1,75.0000028610231,6|0,1:2|0:0,0:0:0:0:
415,202,92729,2,0,P|386:225|371:259,1,75.0000028610231,2|0,0:0|0:0,0:0:0:0:
388,276,92925,2,0,P|384:313|398:347,1,75.0000028610231,10|0,0:2|0:0,0:0:0:0:
422,348,93121,5,2,0:0:0:0:
398,347,93219,2,0,P|384:313|388:276,1,75.0000028610231,2|0,0:0|0:0,0:0:0:0:
415,202,93415,5,2,0:0:0:0:
415,178,93513,2,0,P|449:164|504:176,1,87.500000834465,2|0,0:0|0:0,0:0:0:0:
410,70,93709,2,0,P|363:85|316:70,1,100,10|0,0:2|0:0,0:0:0:0:
240,18,93905,1,2,0:0:0:0:
240,8,94003,1,2,0:0:0:0:
241,0,94102,6,0,P|243:37|232:73,1,75.0000028610231,6|0,1:2|0:0,0:0:0:0:
209,172,94298,2,0,P|240:151|276:142,1,75.0000028610231,2|0,0:0|0:0,0:0:0:0:
375,114,94494,2,0,P|341:97|315:70,1,75.0000028610231,14|0,0:0|0:0,0:0:0:0:
312,58,94690,5,2,0:0:0:0:
315,70,94788,2,0,P|341:97|375:114,1,75.0000028610231,2|0,0:0|1:0,0:0:0:0:
289,145,94984,5,2,0:0:0:0:
276,142,95082,2,0,P|238:151|199:182,1,87.500000834465,2|0,0:0|0:0,0:0:0:0:
232,72,95278,2,0,B|245:48|248:16|233:-18|233:-18|308:36|358:-59|436:14,1,300,10|0,0:0|0:0,0:0:0:0:
444,84,95670,5,6,1:2:0:0:
424,115,95768,1,2,0:0:0:0:
414,151,95866,1,2,0:0:0:0:
413,189,95964,1,2,0:0:0:0:
422,225,96062,2,0,P|440:257|467:283,1,75.0000028610231,10|0,0:2|0:0,0:0:0:0:
374,358,96258,1,2,0:0:0:0:
375,339,96356,1,2,0:0:0:0:
377,321,96454,5,2,1:2:0:0:
336,344,96552,1,2,0:0:0:0:
290,354,96650,1,2,0:0:0:0:
244,350,96748,1,2,0:0:0:0:
201,331,96847,2,0,P|167:315|130:308,1,75.0000028610231,10|2,0:2|0:0,0:0:0:0:
22,340,97043,1,2,0:0:0:0:
40,343,97141,1,2,0:0:0:0:
58,346,97239,5,2,1:2:0:0:
53,289,97337,1,2,0:0:0:0:
48,233,97435,2,0,L|43:184,1,50,2|2,0:0|0:0,0:0:0:0:
132,51,97631,5,10,0:2:0:0:
129,79,97729,1,2,0:0:0:0:
126,107,97827,2,0,L|122:144,1,37.5000014305115,2|2,0:0|0:0,0:0:0:0:
204,220,98023,5,2,1:2:0:0:
257,236,98121,1,2,0:0:0:0:
311,225,98219,1,2,0:0:0:0:
355,190,98317,1,2,0:0:0:0:
387,228,98415,5,10,0:0:0:0:
385,246,98513,1,10,3:0:0:0:
383,265,98611,1,10,3:0:0:0:
382,284,98709,1,10,3:0:0:0:
380,302,98807,6,0,L|454:295,1,75.0000028610231,6|0,1:2|0:0,0:0:0:0:
217,267,99003,2,0,L|291:260,1,75.0000028610231,2|0,0:0|0:0,0:0:0:0:
54,232,99200,2,0,L|128:225,1,75.0000028610231,10|0,0:2|0:0,0:0:0:0:
140,211,99396,5,2,0:0:0:0:
128,225,99494,2,0,L|53:231,1,75.0000028610231,2|0,0:0|0:0,0:0:0:0:
303,246,99690,5,2,0:0:0:0:
291,260,99788,2,0,L|189:268,1,87.500000834465,2|0,0:0|0:0,0:0:0:0:
454,295,99984,2,0,L|348:304,1,100,10|0,0:2|0:0,0:0:0:0:
224,180,100180,1,2,0:0:0:0:
222,167,100278,1,2,0:0:0:0:
199,140,100376,6,0,B|212:108|212:108|278:103,1,100,6|0,1:2|0:0,0:0:0:0:
348,178,100572,1,2,0:0:0:0:
348,178,100768,6,0,B|379:164|379:164|384:98,1,100,6|2,1:2|3:0,0:0:0:0:
310,29,100964,1,2,3:0:0:0:
310,29,101160,5,2,1:2:0:0:
263,11,101258,1,2,1:2:0:0:
213,13,101356,1,10,0:0:0:0:
178,33,101454,1,10,0:0:0:0:
159,68,101553,1,10,0:0:0:0:
165,97,101651,1,10,3:0:0:0:
177,111,101749,2,0,P|188:119|200:122,1,25,10|6,3:0|3:0,0:0:0:0:
418,120,101945,5,6,1:2:0:0:
380,122,102043,1,2,0:0:0:0:
345,135,102141,1,2,0:0:0:0:
316,158,102239,1,2,0:0:0:0:
294,189,102337,2,0,P|282:224|282:262,1,75.0000028610231,10|0,0:2|0:0,0:0:0:0:
389,345,102533,2,0,P|373:334|356:326,1,37.5000014305115,2|2,0:0|0:0,0:0:0:0:
262,358,102729,5,2,1:2:0:0:
221,379,102827,1,2,0:0:0:0:
175,384,102925,1,2,0:0:0:0:
130,371,103023,1,2,0:0:0:0:
93,343,103121,6,0,P|73:310|64:274,1,75.0000028610231,10|2,0:2|0:0,0:0:0:0:
53,127,103317,2,0,P|42:142|33:159,1,37.5000014305115,2|2,0:0|0:0,0:0:0:0:
147,190,103513,5,2,1:2:0:0:
208,193,103611,1,2,0:0:0:0:
259,159,103709,1,2,0:0:0:0:
281,102,103807,1,2,0:0:0:0:
314,60,103905,5,10,0:2:0:0:
306,87,104003,1,2,0:0:0:0:
304,115,104101,1,2,0:0:0:0:
307,143,104199,1,2,0:0:0:0:
338,169,104298,5,2,1:2:0:0:
360,158,104396,1,2,0:0:0:0:
383,153,104494,2,0,P|404:153|421:158,1,37.5000014305115,2|2,0:0|0:0,0:0:0:0:
266,258,104690,5,10,0:0:0:0:
232,242,104788,1,10,3:0:0:0:
196,233,104886,2,0,P|167:232|140:240,1,50,10|10,3:0|3:0,0:0:0:0:
338,346,105082,6,0,P|374:337|411:338,1,75.0000028610231,6|0,1:2|0:0,0:0:0:0:
205,305,105278,2,0,P|231:331|249:364,1,75.0000028610231,2|0,0:0|0:0,0:0:0:0:
175,170,105474,2,0,P|165:206|145:237,1,75.0000028610231,10|0,0:2|0:0,0:0:0:0:
132,245,105670,5,2,0:0:0:0:
145,237,105768,2,0,P|165:206|175:170,1,75.0000028610231,2|0,0:0|0:0,0:0:0:0:
250,383,105964,5,2,0:0:0:0:
249,364,106062,2,0,P|231:331|193:299,1,87.500000834465,2|0,0:0|0:0,0:0:0:0:
411,338,106258,6,0,P|361:339|316:360,1,100,10|0,0:2|0:0,0:0:0:0:
439,252,106454,2,0,P|444:228|454:205,1,50,2|2,0:0|0:0,0:0:0:0:
409,117,106651,6,0,P|382:90|364:57,1,75.0000028610231,6|0,1:2|0:0,0:0:0:0:
264,145,106847,2,0,P|264:106|274:70,1,75.0000028610231,2|0,0:0|0:0,0:0:0:0:
141,62,107043,2,0,P|168:35|201:17,1,75.0000028610231,14|0,0:0|0:0,0:0:0:0:
222,14,107239,5,2,0:0:0:0:
200,17,107337,2,0,P|167:35|141:62,1,75.0000028610231,0|2,1:0|0:0,0:0:0:0:
288,54,107533,5,2,0:0:0:0:
274,70,107631,2,0,P|262:113|266:156,1,87.500000834465,2|0,0:0|0:0,0:0:0:0:
364,57,107827,6,0,P|390:100|429:130,1,100,10|0,0:0|0:0,0:0:0:0:
510,138,108023,1,0,3:0:0:0:
510,138,108219,5,6,1:2:0:0:
482,163,108317,1,2,0:0:0:0:
463,195,108415,1,2,0:0:0:0:
454,232,108513,1,2,0:0:0:0:
454,269,108611,2,0,P|465:304|485:336,1,75.0000028610231,10|0,0:2|0:0,0:0:0:0:
348,294,108807,2,0,P|330:288|311:285,1,37.5000014305115,2|2,0:0|0:0,0:0:0:0:
379,189,109003,5,2,1:2:0:0:
409,153,109101,1,2,0:0:0:0:
426,109,109199,1,2,0:0:0:0:
427,63,109297,1,2,0:0:0:0:
413,18,109396,2,0,P|378:34|352:61,1,75.0000028610231,10|2,0:2|0:0,0:0:0:0:
297,185,109592,2,0,L|300:147,1,37.5000014305115,2|2,0:0|0:0,0:0:0:0:
251,60,109788,5,2,1:2:0:0:
221,37,109886,1,2,0:0:0:0:
184,27,109984,2,0,P|160:30|136:38,1,50,2|2,0:0|0:0,0:0:0:0:
36,149,110180,5,10,0:2:0:0:
57,131,110278,1,0,0:0:0:0:
85,124,110376,2,0,P|103:125|121:131,1,37.5000014305115,2|2,0:0|0:0,0:0:0:0:
184,220,110572,5,2,1:2:0:0:
118,251,110670,1,2,0:0:0:0:
103,321,110768,1,2,0:0:0:0:
150,377,110866,1,2,0:0:0:0:
172,360,110964,5,10,0:0:0:0:
200,357,111062,1,10,3:0:0:0:
228,355,111160,1,10,3:0:0:0:
256,352,111258,1,10,3:0:0:0:
281,329,111356,6,0,L|355:334,1,75.0000028610231,6|0,1:2|0:0,0:0:0:0:
467,242,111552,2,0,L|392:247,1,75.0000028610231,2|0,0:0|0:0,0:0:0:0:
281,155,111749,2,0,L|355:160,1,75.0000028610231,10|0,0:2|0:0,0:0:0:0:
376,175,111945,5,2,0:0:0:0:
355,160,112043,2,0,L|281:155,1,75.0000028610231,2|0,0:0|0:0,0:0:0:0:
372,262,112239,5,2,0:0:0:0:
392,247,112337,2,0,L|479:240,1,87.500000834465,2|0,0:0|0:0,0:0:0:0:
355,334,112533,2,0,L|255:327,1,100,10|0,0:2|0:0,0:0:0:0:
126,268,112729,2,0,L|184:263,1,50,2|2,0:0|0:0,0:0:0:0:
67,205,112925,6,0,P|47:235|39:272,1,75.0000028610231,6|0,1:2|0:0,0:0:0:0:
85,109,113121,2,0,P|48:115|17:136,1,75.0000028610231,2|0,0:0|0:0,0:0:0:0:
164,53,113317,2,0,P|133:32|96:24,1,75.0000028610231,10|0,0:2|0:0,0:0:0:0:
174,73,113513,5,0,0:0:0:0:
164,53,113611,2,0,P|133:32|96:24,1,75.0000028610231
107,119,113807,5,2,0:0:0:0:
85,109,113905,2,0,P|48:115|17:136,1,75.0000028610231,2|2,0:0|0:0,0:0:0:0:
67,205,114102,6,0,P|47:235|39:272,1,75.0000028610231,6|0,1:2|0:0,0:0:0:0:
195,337,114298,2,0,P|215:306|223:269,1,75.0000028610231,8|0,3:0|0:0,0:0:0:0:
131,271,114494,1,4,1:2:0:0:
