osu file format v14

[General]
AudioFilename: audio.mp3
AudioLeadIn: 0
PreviewTime:88503
Countdown: 0
SampleSet: Soft
StackLeniency: 0.2
Mode: 0
LetterboxInBreaks: 0
WidescreenStoryboard: 1

[Editor]
Bookmarks:114494
DistanceSpacing: 1.4
BeatDivisor: 4
GridSize: 32
TimelineZoom: 2

[Metadata]
Title:Amazing Mirage
TitleUnicode:Amazing Mirage
Artist:lapix
ArtistUnicode:lapix
Creator:Lokidoki
Version:Hard
Source:beatmania IIDX 24 SINOBUZ
Tags:nines rizen fanzhen0019 Hi-TECH FULLON original soundtrack ost bemani knightc0re knightcore testo nikakis electronic instrumental callionet
BeatmapID:1938693
BeatmapSetID:848697

[Difficulty]
HPDrainRate:4
CircleSize:3.6
OverallDifficulty:6
ApproachRate:7.5
SliderMultiplier:1.4
SliderTickRate:1

[Events]
//Background and Video events
0,0,"dawe.jpg"
//Break Periods
2,64498,69672
//Storyboard Layer 0 (Background)
//Storyboard Layer 1 (Fail)
//Storyboard Layer 2 (Pass)
//Storyboard Layer 3 (Foreground)
//Storyboard Layer 4 (Overlay)
//Storyboard Sound Samples

[TimingPoints]
1553,392.156862745098,4,2,1,45,1,0
1553,-142.857142857143,4,2,1,45,0,0
7043,-142.857142857143,4,2,1,60,0,0
12533,-100,4,2,1,80,0,0
23513,-142.857142857143,4,2,1,80,0,0
26651,-100,4,2,1,80,0,0
48709,-100,4,2,1,5,0,0
48807,-100,4,2,1,80,0,0
62729,-100,4,2,1,50,0,0
63513,-100,4,2,1,80,0,0
64298,-100,4,2,1,60,0,0
79984,-100,4,2,1,70,0,0
83121,-100,4,2,1,80,0,0
89396,-100,4,2,1,80,0,1
114494,-100,4,2,1,80,0,0

[Colours]
Combo1 : 255,128,128
Combo2 : 253,197,102
Combo3 : 95,193,252

[HitObjects]
165,245,1553,6,0,B|161:211|120:182|59:204|17:296|132:407|221:354|264:293|256:237|224:184,3,391.99998803711,2|2|2|2,1:2|0:0|0:0|0:0,0:0:0:0:
321,337,7043,6,0,L|363:324,3,24.4999992523194,2|2|2|2,0:0|0:0|0:0|0:0,0:0:0:0:
379,345,7435,2,0,L|412:354,3,24.4999992523194,2|2|2|2,0:0|0:0|0:0|0:0,0:0:0:0:
444,341,7827,6,0,B|463:311|463:311|436:236,1,97.9999970092774,2|0,3:0|0:0,0:0:0:0:
356,242,8415,2,0,L|330:165,2,73.4999977569581,2|2|2,3:0|3:0|3:0,0:0:0:0:
408,136,9200,1,2,3:0:0:0:
251,200,9396,6,0,B|234:149|234:149|246:103,1,97.9999970092774,2|0,3:0|0:0,3:0:0:0:
145,98,9984,2,0,B|158:48|158:48|143:27,2,73.4999977569581,2|2|2,3:0|3:0|3:0,0:0:0:0:
56,136,10768,1,2,3:0:0:0:
99,221,10964,6,0,B|150:205|133:241|199:213,1,97.9999970092774,2|0,3:0|0:0,0:0:0:0:
285,252,11553,2,0,B|267:280|267:280|281:327,2,73.4999977569581,2|2|2,3:0|3:0|3:0,0:0:0:0:
248,134,12337,1,2,3:0:0:0:
329,167,12533,6,0,B|361:151|361:151|392:164|392:164|418:142|418:142|452:152|452:152|478:127|478:127|517:132,1,210,2|2,1:0|0:0,0:0:0:0:
306,345,13709,5,10,0:0:0:0:
306,345,14102,6,0,L|195:355,1,105,6|0,1:2|0:0,0:0:0:0:
183,368,14494,2,0,B|149:333|149:333|170:228,1,140,10|2,0:0|0:0,0:0:0:0:
189,159,15082,1,2,0:0:0:0:
254,268,15278,2,0,L|269:187,1,70,10|2,0:0|0:0,0:0:0:0:
340,147,15670,6,0,B|422:110|394:181|498:125,2,140,2|10|2,1:2|0:0|0:0,0:0:0:0:
352,57,16651,1,2,0:0:0:0:
271,90,16847,1,10,0:0:0:0:
195,47,17043,1,2,0:0:0:0:
133,156,17239,6,0,B|162:179|162:179|145:265,1,105,6|0,1:2|0:0,0:0:0:0:
134,249,17631,2,0,B|105:272|105:272|129:391,1,140,10|2,0:0|0:0,0:0:0:0:
202,318,18219,1,2,0:0:0:0:
294,315,18415,2,0,L|282:393,1,70,10|2,0:0|0:0,0:0:0:0:
400,313,18807,6,0,B|367:268|400:224|400:224|407:228|407:228|431:178|398:127,1,210,6|0,3:0|3:0,0:0:0:0:
344,58,19592,2,0,L|267:47,1,70,2|2,0:0|0:0,0:0:0:0:
231,121,19984,2,0,L|154:110,1,70,2|2,0:0|0:0,0:0:0:0:
26,61,20376,6,0,B|60:79|60:79|45:172,2,105,6|2|2,1:2|1:2|1:2,0:0:0:0:
135,195,21258,2,0,B|101:213|101:213|116:306,2,105,2|2|2,1:2|1:2|1:2,0:0:0:0:
197,352,22141,1,2,1:2:0:0:
300,314,22435,1,2,1:2:0:0:
217,242,22729,1,0,0:0:0:0:
217,242,23513,6,0,B|280:184|308:74|234:18|122:48|135:139|166:167,1,342.999989532471,6|0,1:2|0:0,0:0:0:0:
217,242,25082,2,0,B|327:206|284:274|410:226,1,195.999994018555,0|0,0:0|1:0,0:0:0:0:
472,106,26258,1,10,3:0:0:0:
345,158,26651,6,0,B|316:116|316:116|337:37,1,105,6|0,1:2|0:0,0:0:0:0:
351,59,27043,2,0,L|360:15,2,35,0|0|2,1:0|1:0|1:2,0:0:0:0:
246,63,27435,2,0,L|255:19,2,35,0|0|0,1:0|0:0|0:0,0:0:0:0:
152,67,27827,1,0,1:0:0:0:
202,145,28023,1,0,0:0:0:0:
151,223,28219,6,0,P|176:253|193:299,1,70,2|2,1:2|0:0,0:0:0:0:
112,374,28611,1,0,1:0:0:0:
112,374,28709,1,0,1:0:0:0:
112,374,28807,2,0,B|182:342|164:395|254:352,1,140,10|0,3:0|0:0,0:0:0:0:
315,290,29396,2,0,L|396:303,1,70,2|2,1:2|1:2,0:0:0:0:
464,246,29788,6,0,B|428:204|428:204|449:105,1,140,2|2,0:0|1:2,0:0:0:0:
381,51,30376,1,2,0:0:0:0:
294,91,30572,2,0,L|288:131,3,35,2|2|2|2,1:2|0:0|0:0|0:0,0:0:0:0:
269,140,30964,2,0,L|280:233,1,70,2|2,1:2|1:2,0:0:0:0:
209,287,31356,6,0,B|171:279|171:279|166:281|166:281|128:274,1,70,6|2,1:2|0:0,0:0:0:0:
89,201,31749,2,0,B|51:209|51:209|46:207|46:207|8:214,1,70,2|0,1:2|0:0,0:0:0:0:
29,117,32141,1,2,1:2:0:0:
118,124,32337,1,2,1:2:0:0:
208,152,32533,2,0,B|221:119|221:119|202:87,1,70,10|0,3:0|3:0,0:0:0:0:
298,163,32925,6,0,B|284:197|284:197|307:307,1,140,2|0,1:2|1:0,0:0:0:0:
382,246,33513,1,2,0:0:0:0:
471,274,33709,2,0,L|467:311,3,35,0|2|0|2,1:0|0:0|0:0|0:0,0:0:0:0:
481,325,34102,2,0,B|448:313|448:313|390:333,1,70,2|2,1:2|1:2,0:0:0:0:
331,356,34494,6,0,B|298:368|298:368|240:348,1,70,2|2,1:2|0:0,0:0:0:0:
190,318,34886,2,0,L|196:283,3,35,2|2|2|2,1:2|0:0|0:0|0:0,0:0:0:0:
215,269,35278,2,0,L|209:234,3,35,2|2|2|2,1:2|0:0|1:2|0:0,0:0:0:0:
193,217,35670,2,0,L|202:124,1,70,2|2,1:2|0:0,0:0:0:0:
125,92,36062,6,0,P|145:64|154:24,1,70,2|2,1:2|1:2,0:0:0:0:
65,30,36454,1,10,3:0:0:0:
157,187,36847,6,0,P|177:215|186:255,1,70,2|2,1:2|1:2,0:0:0:0:
97,249,37239,1,2,1:2:0:0:
243,343,37631,6,0,B|324:331|324:331|363:344|363:344|459:328,1,210,0|10,1:0|3:0,0:0:0:0:
484,251,38415,1,2,1:2:0:0:
326,54,39200,6,0,B|314:83|314:83|326:135,2,70,2|2|0,1:2|0:0|1:0,0:0:0:0:
415,132,39788,2,0,L|405:91,2,35,2|2|0,0:0|0:0|1:0,0:0:0:0:
358,197,40180,1,2,0:0:0:0:
471,243,40376,1,2,1:2:0:0:
274,288,40768,6,0,B|253:303|253:303|203:292,2,70,2|2|0,1:2|0:0|1:0,0:0:0:0:
178,207,41356,2,0,L|140:215,2,35,2|2|0,0:0|0:0|1:0,0:0:0:0:
120,302,41749,1,0,0:0:0:0:
40,266,41945,2,0,P|23:233|20:181,1,70,6|6,1:2|1:2,0:0:0:0:
94,134,42337,6,0,L|101:61,2,70,6|2|2,1:2|0:0|1:2,0:0:0:0:
186,86,42925,2,0,L|192:32,2,35,2|2|0,1:2|0:0|1:0,0:0:0:0:
275,33,43317,1,0,0:0:0:0:
372,106,43513,1,2,1:2:0:0:
308,269,43905,6,0,P|333:295|353:341,1,70,6|2,1:2|0:0,0:0:0:0:
438,307,44298,2,0,P|437:343|418:389,1,70,6|2,1:2|0:0,0:0:0:0:
190,336,44690,6,0,P|226:336|272:355,2,70,6|6|6,1:2|1:2|3:0,0:0:0:0:
110,190,45474,6,0,B|134:156|134:156|116:68,1,105,6|0,1:2|0:0,0:0:0:0:
103,87,45866,2,0,L|109:10,1,70,2|2,1:2|0:0,0:0:0:0:
224,118,46258,2,0,L|218:48,1,70,0|2,1:0|0:0,0:0:0:0:
311,19,46651,1,2,1:2:0:0:
299,259,47043,5,6,1:2:0:0:
224,210,47239,1,2,0:0:0:0:
303,168,47435,1,2,1:2:0:0:
382,219,47631,6,0,P|395:238|404:258,1,35,2|6,1:2|1:2,0:0:0:0:
437,334,47925,1,6,1:2:0:0:
499,266,48121,1,6,1:2:0:0:
467,179,48317,1,6,1:2:0:0:
256,192,48611,12,0,50964,1:0:0:0:
181,295,51749,6,0,B|152:321|152:321|46:308,2,140,6|2|2,1:2|1:2|1:2,0:0:0:0:
127,227,52729,1,2,0:0:0:0:
215,177,52925,2,0,L|209:229,3,35,2|2|2|0,1:2|0:0|0:0|0:0,0:0:0:0:
229,226,53317,6,0,L|312:213,1,70,2|0,1:2|0:0,0:0:0:0:
382,151,53709,1,2,1:2:0:0:
382,151,53807,1,2,0:0:0:0:
382,151,53905,2,0,L|465:164,2,70,2|2|2,0:0|1:2|0:0,0:0:0:0:
398,242,54494,1,2,1:2:0:0:
332,303,54690,1,2,0:0:0:0:
229,226,54886,6,0,B|154:202|166:250|85:215,2,140,6|2|2,1:2|1:2|1:2,0:0:0:0:
223,132,55866,1,2,0:0:0:0:
135,149,56062,2,0,L|130:114,3,35,2|2|2|0,1:2|0:0|0:0|0:0,0:0:0:0:
108,104,56454,6,0,B|96:69|96:69|107:21,1,70,2|2,1:2|0:0,0:0:0:0:
218,64,56847,2,0,B|230:99|230:99|219:147,1,70,2|2,1:2|0:0,0:0:0:0:
277,215,57239,2,0,L|347:207,1,70,2|2,1:2|0:0,0:0:0:0:
392,321,57631,2,0,L|322:313,1,70,6|6,1:2|3:0,0:0:0:0:
209,306,58023,6,0,B|200:328|200:328|216:384,2,70,6|2|2,1:2|0:0|1:2,0:0:0:0:
200,144,58807,2,0,B|185:125|185:125|128:111,2,70,2|2|2,1:2|0:0|1:2,0:0:0:0:
278,190,59396,1,2,0:0:0:0:
360,244,59592,6,0,L|429:226,1,70,6|2,1:2|1:2,0:0:0:0:
490,138,59984,2,0,L|421:120,1,70,6|2,1:2|1:2,0:0:0:0:
318,49,60376,2,0,P|320:83|339:128,1,70,6|0,1:2|1:0,0:0:0:0:
278,190,60768,2,0,P|276:224|257:269,1,70,6|2,1:2|1:2,0:0:0:0:
177,277,61160,6,0,B|118:293|118:293|97:337|97:337|-8:363,1,210,2|2,1:2|1:2,0:0:0:0:
36,267,61945,2,0,B|53:228|53:228|217:181,1,210,2|2,1:2|1:2,0:0:0:0:
282,109,62729,6,0,L|286:71,6,35
361,163,63513,2,0,L|371:234,3,46.6666666666667,6|6|6|6,1:2|1:2|1:2|1:2,0:0:0:0:
473,61,64298,5,6,1:2:0:0:
198,276,70572,6,0,B|157:295|157:295|55:277,2,140,6|0|2,1:2|0:0|0:0,0:0:0:0:
288,158,71749,1,2,0:0:0:0:
239,84,71945,1,6,1:2:0:0:
172,142,72141,6,0,B|153:101|153:101|171:-1,2,140,6|0|0,1:2|0:0|0:0,0:0:0:0:
292,247,73317,1,2,0:0:0:0:
366,198,73513,1,2,0:0:0:0:
420,269,73709,5,6,1:2:0:0:
288,158,74494,1,6,1:2:0:0:
488,208,75082,1,6,1:2:0:0:
420,269,75278,6,0,L|429:311,3,35,6|2|2|2,1:2|0:0|0:0|0:0,0:0:0:0:
405,319,75670,2,0,L|396:361,3,35,6|2|2|2,1:2|0:0|0:0|0:0,0:0:0:0:
411,376,76062,2,0,B|358:353|358:353|275:368,1,140,6|2,1:2|0:0,0:0:0:0:
208,307,76651,1,6,1:2:0:0:
274,242,76847,6,0,L|257:104,2,140,6|2|2,1:2|1:2|1:2,0:0:0:0:
187,224,77827,1,2,1:2:0:0:
172,141,78023,1,2,1:2:0:0:
157,57,78219,1,2,1:2:0:0:
329,34,78415,5,6,1:2:0:0:
364,348,79200,2,0,L|355:275,1,70,6|2,3:0|0:0,0:0:0:0:
292,220,79592,2,0,L|301:147,1,70,2|2,0:0|0:0,0:0:0:0:
370,84,79984,6,0,L|531:108,2,140,6|2|2,3:0|1:2|1:2,0:0:0:0:
299,132,80964,1,2,1:2:0:0:
238,73,81160,1,2,1:2:0:0:
299,14,81356,1,2,1:2:0:0:
376,190,81553,5,2,1:2:0:0:
292,228,81749,2,0,L|287:276,1,35,2|2,1:2|1:2,0:0:0:0:
214,311,82043,2,0,L|219:359,1,35,2|2,1:2|1:2,0:0:0:0:
129,355,82337,6,0,L|125:320,3,35,2|2|2|2,0:0|0:0|0:0|0:0,0:0:0:0:
131,296,82729,2,0,L|134:261,3,35,2|2|2|2,1:2|1:2|1:2|1:2,0:0:0:0:
156,236,83121,6,0,B|122:210|122:210|-3:237|-3:237|-23:270,1,210,2|2,1:2|1:2,0:0:0:0:
45,146,83905,2,0,B|140:126|140:126|243:200,1,210,2|2,1:2|1:2,0:0:0:0:
203,73,84690,2,0,L|375:193,1,210,2|2,1:2|1:2,0:0:0:0:
390,278,85474,2,0,B|460:247|460:247|456:110,1,210,2|2,1:2|1:2,0:0:0:0:
256,192,86258,12,6,87827,1:2:0:0:
74,122,88611,6,0,L|157:106,1,70,2|2,3:2|3:2,0:0:0:0:
213,207,89003,2,0,L|130:191,1,70,2|2,3:2|3:2,0:0:0:0:
73,245,89396,6,0,B|57:278|57:278|81:383,1,140,6|10,1:2|0:2,0:0:0:0:
159,347,89984,1,2,0:0:0:0:
250,314,90180,2,0,L|237:387,2,70,2|2|10,1:2|0:0|0:2,0:0:0:0:
256,228,90768,1,2,0:0:0:0:
256,228,90866,1,2,0:0:0:0:
256,228,90964,6,0,L|113:248,2,140,2|10|2,1:2|0:2|1:2,0:0:0:0:
302,153,91945,1,2,0:0:0:0:
244,91,92141,1,10,0:0:0:0:
293,22,92337,1,10,3:0:0:0:
384,104,92533,6,0,L|465:87,1,70,6|2,1:2|0:0,0:0:0:0:
512,146,92925,2,0,B|487:174|487:174|512:278,1,140,10|0,0:2|0:0,0:0:0:0:
467,345,93513,1,2,0:0:0:0:
391,303,93709,2,0,L|403:228,1,70,10|2,0:2|0:0,0:0:0:0:
337,174,94102,6,0,B|313:162|313:162|242:174,1,70,6|2,1:2|0:0,0:0:0:0:
211,235,94494,2,0,B|175:202|175:202|198:82,1,140,14|0,0:0|1:0,0:0:0:0:
274,81,95082,1,2,0:0:0:0:
212,26,95278,1,10,0:0:0:0:
83,234,95670,6,0,L|187:334,1,140,6|10,1:2|0:2,0:0:0:0:
264,301,96258,1,2,0:0:0:0:
351,315,96454,2,0,L|339:386,2,70,2|2|10,1:2|0:0|0:2,0:0:0:0:
373,229,97043,1,2,0:0:0:0:
373,229,97141,1,2,0:0:0:0:
373,229,97239,6,0,L|401:76,2,140,2|10|2,1:2|0:2|1:2,0:0:0:0:
288,251,98219,1,2,0:0:0:0:
243,176,98415,1,10,0:0:0:0:
293,104,98611,1,10,3:0:0:0:
222,21,98807,6,0,L|142:34,1,70,6|2,1:2|0:0,0:0:0:0:
104,106,99200,2,0,B|132:133|132:133|119:246,1,140,10|0,0:2|0:0,0:0:0:0:
175,302,99788,1,2,0:0:0:0:
246,235,99984,2,0,L|238:161,1,70,10|2,0:2|0:0,0:0:0:0:
315,105,100376,5,6,1:2:0:0:
411,124,100572,1,2,0:0:0:0:
441,217,100768,1,6,1:2:0:0:
345,198,100964,1,2,3:0:0:0:
372,292,101160,6,0,B|242:276|321:368|164:355,1,210,2|10,1:2|3:0,0:0:0:0:
91,384,101945,6,0,B|77:337|77:337|131:237,1,140,6|10,1:2|0:2,0:0:0:0:
191,189,102533,1,2,0:0:0:0:
191,189,102631,1,2,0:0:0:0:
191,189,102729,2,0,L|178:112,1,70,2|2,1:2|0:0,0:0:0:0:
256,73,103121,2,0,L|269:-4,1,70,10|2,0:2|0:0,0:0:0:0:
348,94,103513,6,0,L|496:78,2,140,2|10|2,1:2|0:2|1:2,0:0:0:0:
304,172,104494,1,2,0:0:0:0:
364,236,104690,1,10,0:0:0:0:
445,203,104886,1,10,3:0:0:0:
512,315,105082,6,0,L|500:388,1,70,6|2,1:2|0:0,0:0:0:0:
411,360,105474,2,0,B|373:346|373:346|268:361,1,140,10|0,0:2|0:0,0:0:0:0:
200,313,106062,1,2,0:0:0:0:
259,247,106258,2,0,L|264:174,1,70,10|2,0:2|0:0,0:0:0:0:
171,231,106651,6,0,L|89:246,1,70,6|2,1:2|0:0,0:0:0:0:
39,304,107043,2,0,B|11:266|11:266|35:161,1,140,14|2,0:0|0:0,0:0:0:0:
116,138,107631,1,2,0:0:0:0:
46,85,107827,1,10,0:0:0:0:
277,98,108219,6,0,L|392:184,1,140,6|10,1:2|0:2,0:0:0:0:
370,273,108807,1,2,0:0:0:0:
370,273,108905,1,2,0:0:0:0:
370,273,109003,2,0,L|311:230,1,70,2|2,1:2|0:0,0:0:0:0:
232,265,109396,2,0,L|173:222,1,70,10|2,0:2|0:0,0:0:0:0:
112,283,109788,6,0,B|78:246|78:246|100:158,2,140,2|10|2,1:2|0:2|1:2,0:0:0:0:
124,367,110768,1,2,0:0:0:0:
209,347,110964,1,10,0:0:0:0:
293,368,111160,1,10,3:0:0:0:
391,298,111356,6,0,L|402:228,1,70,6|2,1:2|0:0,0:0:0:0:
419,146,111749,1,10,0:2:0:0:
333,165,111945,1,2,0:0:0:0:
333,165,112043,1,2,0:0:0:0:
333,165,112141,2,0,L|344:95,1,70,0|2,0:0|0:0,0:0:0:0:
254,81,112533,2,0,L|265:11,1,70,10|2,0:2|0:0,0:0:0:0:
169,34,112925,5,6,1:2:0:0:
107,96,113121,1,2,0:0:0:0:
165,161,113317,1,10,0:2:0:0:
124,241,113513,1,0,0:0:0:0:
124,241,113611,1,0,0:0:0:0:
124,241,113709,2,0,L|48:250,1,70,0|2,0:0|0:0,0:0:0:0:
116,332,114102,6,0,L|287:314,1,140,6|4,1:2|1:2,0:0:0:0:
