osu file format v14

[General]
AudioFilename: audio.mp3
AudioLeadIn: 0
PreviewTime: 88503
Countdown: 0
SampleSet: Soft
StackLeniency: 0.2
Mode: 0
LetterboxInBreaks: 0
WidescreenStoryboard: 1

[Editor]
Bookmarks: 27729,39190,40768,64298,88611,101945
DistanceSpacing: 1
BeatDivisor: 4
GridSize: 32
TimelineZoom: 3.999998

[Metadata]
Title:Amazing Mirage
TitleUnicode:Amazing Mirage
Artist:lapix
ArtistUnicode:lapix
Creator:Lokidoki
Version:Doki x Nines' Delusion
Source:beatmania IIDX 24 SINOBUZ
Tags:nines rizen fanzhen0019 Hi-TECH FULLON original soundtrack ost bemani knightc0re knightcore testo nikakis electronic instrumental callionet
BeatmapID:1774821
BeatmapSetID:848697

[Difficulty]
HPDrainRate:5.4
CircleSize:3.8
OverallDifficulty:8.6
ApproachRate:9.6
SliderMultiplier:2.2
SliderTickRate:1

[Events]
//Background and Video events
0,0,"dawe.jpg",0,0
//Break Periods
2,23713,25326
//Storyboard Layer 0 (Background)
//Storyboard Layer 1 (Fail)
//Storyboard Layer 2 (Pass)
//Storyboard Layer 3 (Foreground)
//Storyboard Layer 4 (Overlay)
//Storyboard Sound Samples

[TimingPoints]
1553,392.156862745098,4,2,1,45,1,0
1553,-200,4,2,1,45,0,0
7043,-200,4,2,1,60,0,0
12533,-200,4,2,1,80,0,0
13709,-66.6666666666667,4,2,1,80,0,0
18807,-100,4,2,1,80,0,0
20376,-66.6666666666667,4,2,1,80,0,0
26258,-133.333333333333,4,2,1,80,0,0
26651,-66.6666666666667,4,2,1,80,0,0
29396,-50,4,2,1,80,0,0
29788,-66.6666666666667,4,2,1,80,0,0
30180,-100,4,2,1,80,0,0
30572,-66.6666666666667,4,2,1,80,0,0
31160,-50,4,2,1,80,0,0
31356,-200,4,2,1,80,0,0
31553,-40,4,2,1,80,0,0
31749,-100,4,2,1,80,0,0
32141,-66.6666666666667,4,2,1,80,0,0
32729,-200,4,2,1,80,0,0
32925,-66.6666666666667,4,2,1,80,0,0
35180,-50,4,2,1,80,0,0
37239,-100,4,2,1,80,0,0
37631,-66.6666666666667,4,2,1,80,0,0
38807,-100,4,2,1,80,0,0
39200,-66.6666666666667,4,2,1,80,0,0
42729,-133.333333333333,4,2,1,80,0,0
43219,-66.6666666666667,4,2,1,80,0,0
44298,-57.1428571428571,4,2,1,80,0,0
44690,-50,4,2,1,80,0,0
45474,-133.333333333333,4,2,1,80,0,0
47729,-66.6666666666667,4,2,1,80,0,0
48611,-133.333333333333,4,2,1,80,0,0
48709,-133.333333333333,4,2,1,5,0,0
48807,-133.333333333333,4,2,1,80,0,0
51356,-50,4,2,1,80,0,0
51749,-100,4,2,1,80,0,0
58023,-66.6666666666667,4,2,1,80,0,0
58415,-133.333333333333,4,2,1,80,0,0
58807,-66.6666666666667,4,2,1,80,0,0
59200,-40,4,2,1,80,0,0
59592,-50,4,2,1,80,0,0
61160,-100,4,2,1,80,0,0
61945,-66.6666666666667,4,2,1,80,0,0
62729,-33.3333333333333,4,2,1,50,0,0
63513,-66.6666666666667,4,2,1,80,0,0
63905,-133.333333333333,4,2,1,80,0,0
64298,-200,4,2,1,60,0,0
70572,-133.333333333333,4,2,1,60,0,0
79984,-133.333333333333,4,2,1,70,0,0
83121,-133.333333333333,4,2,1,80,0,0
86258,-66.6666666666667,4,2,1,80,0,0
89396,-66.6666666666667,4,2,1,80,0,1
100572,-133.333333333333,4,2,1,80,0,1
100768,-66.6666666666667,4,2,1,80,0,1
100964,-133.333333333333,4,2,1,80,0,1
101553,-66.6666666666667,4,2,1,80,0,1
112533,-66.6666666666667,4,2,1,80,0,1
112925,-133.333333333333,4,2,1,80,0,1
114102,-66.6666666666667,4,2,1,80,0,1
114494,-66.6666666666667,4,2,1,80,0,0

[Colours]
Combo1 : 255,128,128
Combo2 : 253,197,102
Combo3 : 95,193,252

[HitObjects]
73,63,1553,6,0,P|110:70|161:131,1,110,2|0,1:2|0:0,0:0:0:0:
290,23,2141,2,0,P|256:39|226:90,2,82.5,2|2|2,0:0|0:0|0:0,0:0:0:0:
238,156,2925,1,2,0:0:0:0:
314,204,3121,6,0,B|348:197|348:197|376:203|376:203|424:191,1,110,2|0,0:0|0:0,0:0:0:0:
222,325,3709,2,0,L|232:240,2,82.5,2|2|2,0:0|0:0|0:0,0:0:0:0:
293,373,4494,1,2,0:0:0:0:
144,277,4690,6,0,P|103:299|74:361,1,110,2|0,0:0|0:0,0:0:0:0:
177,160,5278,2,0,P|186:181|235:213,2,82.5,2|2|2,0:0|0:0|0:0,0:0:0:0:
93,197,6062,1,2,0:0:0:0:
145,53,6258,6,0,B|177:60|177:60|186:57|186:57|191:63|191:63|233:73|233:73|222:56,1,110,2|0,0:0|0:0,0:0:0:0:
325,47,6847,1,2,0:0:0:0:
338,146,7043,5,2,0:0:0:0:
324,146,7141,1,2,0:0:0:0:
311,151,7239,1,2,0:0:0:0:
302,161,7337,1,2,0:0:0:0:
307,193,7435,5,2,0:0:0:0:
320,193,7533,1,2,0:0:0:0:
333,198,7631,1,2,0:0:0:0:
342,208,7729,1,2,0:0:0:0:
336,239,7827,6,0,B|341:290|341:290|346:297|346:297|342:304|342:304|344:333|344:333|333:323,1,110,2|0,3:0|0:0,0:0:0:0:
199,238,8415,5,2,3:0:0:0:
199,238,8513,1,0,3:0:0:0:
199,238,8611,2,0,L|203:274,2,27.5,0|2|0,3:0|3:0|3:0,0:0:0:0:
123,152,8905,1,0,3:0:0:0:
123,152,9003,2,0,P|143:165|157:186,1,27.5,2|0,3:0|3:0,0:0:0:0:
251,138,9200,2,0,P|236:157|230:181,1,27.5,2|0,3:0|3:0,0:0:0:0:
183,88,9396,6,0,B|167:7|167:7|148:26,1,110,2|0,3:0|0:0,3:0:0:0:
31,98,9984,5,2,3:0:0:0:
31,98,10082,1,0,3:0:0:0:
31,98,10180,2,0,L|59:93,2,27.5,0|2|0,3:0|3:0|3:0,0:0:0:0:
70,188,10474,1,0,3:0:0:0:
70,188,10572,2,0,L|100:191,1,27.5,2|0,3:0|3:0,0:0:0:0:
133,282,10768,2,0,L|103:285,1,27.5,2|0,3:0|3:0,0:0:0:0:
240,372,10964,6,0,B|262:344|262:344|231:271,1,110,2|0,3:0|0:0,0:0:0:0:
309,187,11553,5,2,3:0:0:0:
309,187,11651,1,0,3:0:0:0:
309,187,11749,2,0,L|313:158,2,27.5,0|2|0,3:0|3:0|3:0,0:0:0:0:
386,105,12043,1,0,3:0:0:0:
386,105,12141,2,0,L|379:74,1,27.5,2|0,3:0|3:0,0:0:0:0:
432,13,12337,1,2,3:0:0:0:
470,190,12533,5,2,1:0:0:0:
254,274,13121,5,2,0:0:0:0:
323,335,13317,5,0,1:0:0:0:
350,331,13415,1,2,1:2:0:0:
379,310,13513,1,2,1:2:0:0:
406,306,13611,1,2,1:2:0:0:
441,296,13709,6,0,B|454:319|450:350|450:350|462:336|480:328,1,82.5000031471254,10|0,0:0|0:0,0:0:0:0:
481,199,13905,2,0,B|468:176|472:145|472:145|460:159|442:167,1,82.5000031471254,10|0,0:0|0:0,0:0:0:0:
233,267,14102,6,0,B|266:264|266:264|291:279|291:279|347:273,1,82.5000031471254,6|0,1:2|0:0,0:0:0:0:
354,198,14298,1,2,0:0:0:0:
177,338,14494,6,0,P|141:285|183:196,1,165.000006294251,10|0,0:0|0:0,0:0:0:0:
200,190,14788,1,2,1:2:0:0:
121,164,14886,1,2,0:0:0:0:
121,82,14984,1,2,1:2:0:0:
200,56,15082,1,2,0:0:0:0:
248,123,15180,1,2,0:0:0:0:
327,161,15278,6,0,P|378:160|426:129,1,82.5000031471254,10|0,0:0|0:0,0:0:0:0:
499,11,15474,2,0,P|474:55|477:112,1,82.5000031471254,2|0,0:0|0:0,0:0:0:0:
506,282,15670,6,0,P|452:214|361:199,1,165.000006294251,2|2,1:2|0:0,0:0:0:0:
297,244,15964,1,0,0:0:0:0:
297,244,16062,2,0,P|280:283|283:331,1,82.5000031471254,10|0,0:0|0:0,0:0:0:0:
203,371,16258,1,2,0:0:0:0:
190,357,16356,2,0,L|105:365,1,82.5000031471254,2|2,1:2|0:0,0:0:0:0:
104,222,16553,2,0,L|189:230,1,82.5000031471254,2|2,1:2|0:0,0:0:0:0:
244,150,16749,1,2,0:0:0:0:
244,150,16847,2,0,B|260:123|260:123|248:59,1,82.5000031471254,10|0,0:0|1:0,0:0:0:0:
167,25,17043,2,0,B|151:52|151:52|163:116,1,82.5000031471254,2|0,0:0|0:0,0:0:0:0:
290,230,17239,6,0,B|329:205|369:224|369:224|410:241|447:215,1,165.000006294251,6|2,1:2|0:0,0:0:0:0:
380,60,17533,1,0,0:0:0:0:
380,60,17631,2,0,B|413:23|413:23|393:161,1,165.000006294251,10|2,0:0|0:0,0:0:0:0:
382,255,17925,1,2,1:2:0:0:
394,278,18023,1,2,0:0:0:0:
311,269,18121,1,2,1:2:0:0:
229,260,18219,1,2,0:0:0:0:
147,251,18317,1,2,0:0:0:0:
66,243,18415,6,0,B|61:281|61:281|68:308|68:308|60:357,1,82.5000031471254,10|0,0:0|0:0,0:0:0:0:
116,178,18611,2,0,B|111:140|111:140|118:113|118:113|110:64,1,82.5000031471254,2|0,0:0|0:0,0:0:0:0:
229,260,18807,6,0,B|339:244|339:244|299:289,1,165,6|0,3:0|0:0,0:0:0:0:
283,171,19200,6,0,L|337:163,1,55,0|0,3:0|3:0,0:0:0:0:
287,84,19396,2,0,L|233:76,1,55,0|0,3:0|3:0,0:0:0:0:
145,62,19592,5,2,0:0:0:0:
114,143,19788,5,2,0:0:0:0:
147,218,19984,5,2,0:0:0:0:
89,143,20180,5,2,0:0:0:0:
196,299,20376,6,0,B|242:286|242:286|273:300|273:300|346:280|346:280|317:262,1,165.000006294251,6|0,1:2|0:0,0:0:0:0:
298,107,20670,6,0,B|257:84|257:84|289:243,1,165.000006294251,2|0,1:2|0:0,0:0:0:0:
371,284,20964,6,0,B|412:307|412:307|380:148,1,165.000006294251,2|0,1:2|0:0,0:0:0:0:
512,55,21258,6,0,L|496:230,1,165.000006294251,2|0,1:2|0:0,0:0:0:0:
401,329,21553,6,0,B|347:300|347:300|292:319|292:319|267:301|267:301|302:289,1,165.000006294251,2|0,1:2|0:0,0:0:0:0:
348,109,21847,6,0,B|377:75|377:75|253:85,1,165.000006294251,2|0,1:2|0:0,0:0:0:0:
188,189,22141,6,0,B|159:223|159:223|283:213,1,165.000006294251,2|0,1:2|0:0,0:0:0:0:
64,36,22435,6,0,P|61:90|156:43,1,165.000006294251,2|0,1:2|0:0,0:0:0:0:
256,192,22729,12,6,23513,1:2:0:0:
119,138,25866,5,0,1:0:0:0:
148,125,26258,6,0,L|139:207,1,82.5000031471254,10|0,3:0|0:0,0:0:0:0:
27,295,26651,6,0,B|66:270|106:289|106:289|147:306|184:280,1,165.000006294251,6|0,1:2|0:0,0:0:0:0:
334,349,26945,1,0,0:0:0:0:
325,361,27043,2,0,P|289:360|256:326,1,82.5000031471254,0|0,1:0|1:0,0:0:0:0:
261,146,27239,1,2,1:2:0:0:
252,158,27337,2,0,L|262:242,1,82.5000031471254,10|0,3:0|1:0,0:0:0:0:
343,211,27533,1,0,0:0:0:0:
168,107,27729,5,0,0:0:0:0:
159,119,27827,2,0,L|169:203,1,82.5000031471254,0|0,1:0|0:0,0:0:0:0:
334,122,28023,2,0,L|324:40,1,82.5000031471254,0|0,0:0|0:0,0:0:0:0:
101,291,28219,6,0,L|183:280,1,82.5000031471254,2|0,1:2|0:0,0:0:0:0:
500,146,28415,2,0,L|418:157,1,82.5000031471254,2|0,0:0|0:0,0:0:0:0:
343,211,28611,1,0,1:0:0:0:
332,225,28709,2,0,P|337:272|359:313,1,82.5000031471254,0|10,1:0|3:0,0:0:0:0:
157,373,28905,1,0,1:0:0:0:
174,358,29003,1,0,1:0:0:0:
188,345,29102,2,0,P|196:250|177:168,1,165.000006294251,0|0,1:0|0:0,0:0:0:0:
184,81,29396,6,0,B|202:100|202:100|157:93|111:126,1,110,2|0,1:2|0:0,0:0:0:0:
35,239,29592,2,0,B|17:220|17:220|62:227|108:194,1,110,2|0,1:2|0:0,0:0:0:0:
269,162,29788,6,0,P|287:122|285:83,1,82.5000031471254,2|0,0:0|0:0,0:0:0:0:
22,52,29984,2,0,L|35:133,1,82.5000031471254,2|0,1:2|0:0,0:0:0:0:
124,277,30180,6,0,L|70:268,1,55,2|0,1:2|0:0,0:0:0:0:
113,189,30376,2,0,L|168:180,1,55,2|2,0:0|0:0,0:0:0:0:
198,343,30572,1,2,1:2:0:0:
225,347,30670,1,2,0:0:0:0:
284,279,30768,1,2,0:0:0:0:
311,275,30866,1,2,0:0:0:0:
388,315,30964,2,0,B|403:326|403:326|395:255,1,82.5000031471254,2|2,1:2|0:0,0:0:0:0:
304,13,31160,6,0,B|285:29|285:29|290:69|290:69|287:74|287:74|291:80|291:80|297:130,1,110,2|0,1:2|0:0,0:0:0:0:
424,192,31356,6,0,P|439:183|453:164,1,27.5,6|0,1:2|0:0,0:0:0:0:
446,176,31553,6,0,B|335:128|357:238|238:182,1,206.25,2|0,0:0|0:0,0:0:0:0:
238,180,31749,6,0,P|205:124|219:73,1,110,2|0,1:2|0:0,0:0:0:0:
117,255,32141,6,0,P|157:248|195:263,1,82.5000031471254,2|0,1:2|0:0,0:0:0:0:
101,125,32337,2,0,P|87:163|55:189,1,82.5000031471254,2|0,1:2|0:0,0:0:0:0:
20,103,32533,1,10,3:0:0:0:
19,84,32631,1,10,3:0:0:0:
29,69,32729,2,0,P|41:57|62:52,1,27.5,0|4,3:0|3:0,0:0:0:0:
283,213,32925,6,0,B|246:255|246:255|140:227,1,165.000006294251,2|0,1:2|0:0,0:0:0:0:
29,277,33317,2,0,P|100:303|86:377,1,165,0|2,1:0|0:0,0:0:0:0:
0,196,33611,2,0,P|40:193|85:157,1,82.5000031471254,2|0,0:0|1:0,0:0:0:0:
151,37,33807,1,2,0:0:0:0:
167,81,33905,1,0,0:0:0:0:
217,108,34004,1,2,0:0:0:0:
290,81,34102,2,0,L|278:0,1,82.5000031471254,2|2,1:2|0:0,0:0:0:0:
143,113,34298,2,0,L|155:194,1,82.5000031471254,2|2,1:2|0:0,0:0:0:0:
362,209,34494,6,0,P|318:169|280:163,1,82.5000031471254,2|2,1:2|0:0,0:0:0:0:
94,268,34690,2,0,B|114:290|114:290|191:278,1,82.5000031471254,2|2,0:0|0:0,0:0:0:0:
284,253,34886,1,2,1:2:0:0:
288,288,34984,1,2,0:0:0:0:
292,325,35082,1,2,0:0:0:0:
296,360,35180,6,0,B|343:355|343:355|351:359|351:359|358:355|358:355|406:351,1,110,2|2,0:0|1:2,0:0:0:0:
512,119,35376,1,2,0:0:0:0:
512,119,35474,2,0,B|464:123|464:123|457:120|457:120|450:124|450:124|402:128,1,110,2|2,1:2|0:0,0:0:0:0:
167,151,35670,2,0,P|196:192|267:207,1,110,2|0,1:2|0:0,0:0:0:0:
337,73,35866,2,0,P|286:78|237:131,1,110,2|0,0:0|0:0,0:0:0:0:
317,266,36062,6,0,P|337:219|316:150,1,110,2|0,1:2|0:0,0:0:0:0:
156,10,36258,2,0,P|135:56|156:125,1,110,2|0,1:2|0:0,0:0:0:0:
39,200,36454,2,0,B|95:186|95:186|145:209|145:209|193:191|193:191|248:208,1,220,10|6,3:0|3:0,0:0:0:0:
16,206,36847,6,0,P|-5:252|16:321,1,110,2|0,1:2|0:0,0:0:0:0:
215,168,37043,2,0,P|235:121|214:52,1,110,2|0,1:2|0:0,0:0:0:0:
48,69,37239,6,0,B|20:95|20:95|152:109,1,165,2|0,1:2|0:0,0:0:0:0:
259,56,37631,5,0,1:0:0:0:
241,71,37729,2,0,P|225:109|234:149,1,82.5000031471254,10|0,3:0|0:0,0:0:0:0:
468,163,37925,1,10,3:0:0:0:
451,148,38023,2,0,L|361:160,1,82.5000031471254,10|0,3:0|0:0,0:0:0:0:
339,244,38219,2,0,L|429:232,1,82.5000031471254,10|0,3:0|0:0,0:0:0:0:
395,317,38415,6,0,L|313:327,1,82.5000031471254,2|0,1:2|0:0,0:0:0:0:
20,181,38611,2,0,P|41:219|76:238,1,82.5000031471254,2|0,3:2|0:0,0:0:0:0:
208,48,38807,2,0,P|147:101|149:181,1,165.000006294251,2|0,0:0|0:0,0:0:0:0:
109,332,39200,6,0,P|160:290|159:222,1,82.5000031471254,2|2,1:2|0:0,0:0:0:0:
258,373,39396,2,0,P|264:307|215:259,1,82.5000031471254,2|0,0:0|0:0,0:0:0:0:
149,181,39592,2,0,L|319:160,1,165.000006294251,0|2,1:0|0:0,0:0:0:0:
377,216,39886,1,2,0:0:0:0:
386,227,39984,2,0,L|381:312,1,82.5000031471254,0|2,1:0|0:0,0:0:0:0:
503,276,40180,2,0,L|498:191,1,82.5000031471254,2|2,0:0|0:0,0:0:0:0:
352,52,40376,2,0,P|397:97|502:69,1,165.000006294251,2|0,1:2|1:0,0:0:0:0:
312,160,40768,6,0,P|267:115|162:143,1,165.000006294251,2|2,1:2|0:0,0:0:0:0:
74,263,41160,2,0,P|129:250|156:209,1,82.5000031471254,0|0,1:0|0:0,0:0:0:0:
221,278,41356,2,0,P|237:223|215:179,1,82.5000031471254,2|2,0:0|0:0,0:0:0:0:
63,78,41553,1,0,1:0:0:0:
66,96,41651,2,0,L|79:186,1,82.5000031471254,2|0,1:2|0:0,0:0:0:0:
53,358,41847,1,2,0:0:0:0:
71,355,41945,2,0,L|161:342,1,82.5000031471254,6|0,1:2|0:0,0:0:0:0:
414,248,42141,2,0,L|332:259,1,82.5000031471254,6|0,1:2|0:0,0:0:0:0:
231,327,42337,6,0,B|262:354|262:354|242:231,1,165.000006294251,6|2,1:2|0:0,0:0:0:0:
229,138,42631,1,2,0:0:0:0:
224,118,42729,2,0,P|212:91|196:78,1,41.2500015735627,2|2,1:2|0:0,0:0:0:0:
292,13,42925,2,0,P|288:41|296:61,1,41.2500015735627,2|2,1:2|0:0,0:0:0:0:
462,160,43121,5,0,1:0:0:0:
471,81,43219,2,0,P|417:51|366:124,1,165.000006294251,2|0,0:0|0:0,0:0:0:0:
366,268,43513,2,0,P|410:235|440:345,1,165.000006294251,2|2,1:2|1:2,0:0:0:0:
146,268,43905,6,0,P|102:235|72:345,1,165.000006294251,6|2,1:2|0:0,0:0:0:0:
276,256,44298,6,0,B|237:219|237:219|243:276|243:276|239:288|239:288|247:300|247:300|255:361,1,192.500001835823,6|2,1:2|0:0,0:0:0:0:
484,89,44690,6,0,B|503:68|503:68|398:82,1,110,6|2,1:2|0:0,0:0:0:0:
301,151,44886,2,0,B|321:170|321:170|307:65,1,110,6|2,1:2|0:0,0:0:0:0:
66,64,45082,2,0,P|92:150|72:57,1,330,6|0,3:0|0:0,0:0:0:0:
30,211,45474,6,0,P|66:228|108:235,1,82.5000031471254,6|2,1:2|0:0,0:0:0:0:
197,212,45768,1,0,0:0:0:0:
197,212,45866,2,0,L|189:274,1,41.2500015735627,2|0,1:2|0:0,0:0:0:0:
257,344,46062,1,2,0:0:0:0:
257,344,46160,2,0,L|265:282,1,41.2500015735627,2|0,0:0|1:0,0:0:0:0:
274,147,46356,1,0,3:0:0:0:
289,167,46454,2,0,L|362:177,1,41.2500015735627,2|2,0:0|0:0,0:0:0:0:
426,297,46651,1,2,1:2:0:0:
402,283,46749,1,2,0:0:0:0:
390,258,46847,1,10,3:0:0:0:
394,231,46945,1,2,0:0:0:0:
463,186,47043,6,0,L|471:100,1,82.5000031471254,6|2,1:2|0:0,0:0:0:0:
383,45,47435,2,0,L|390:103,1,41.2500015735627,2|0,1:2|0:0,0:0:0:0:
190,165,47631,5,2,1:2:0:0:
190,165,47729,2,0,L|185:124,1,41.2500015735627,6|0,1:2|0:0,0:0:0:0:
320,139,47925,2,0,L|324:179,1,41.2500015735627,6|0,1:2|0:0,0:0:0:0:
143,281,48121,2,0,L|138:240,1,41.2500015735627,6|0,1:2|0:0,0:0:0:0:
1,37,48317,2,0,B|30:69|30:69|173:33,1,165.000006294251,6|0,1:2|0:0,0:0:0:0:
247,16,48611,6,0,P|233:48|231:82,1,41.2500015735627,0|0,1:0|0:0,0:0:0:0:
256,192,48807,12,6,50180,1:2:0:0:
256,192,50278,12,0,50964,1:0:0:0:
251,384,51356,6,0,B|280:351|280:351|255:248,1,110,2|0,3:0|0:0,0:0:0:0:
259,39,51749,6,0,P|236:128|302:207,1,165,6|0,1:2|0:0,0:0:0:0:
354,178,52141,1,2,1:2:0:0:
383,175,52239,1,2,3:0:0:0:
473,12,52435,1,2,0:0:0:0:
444,15,52533,2,0,L|380:23,1,55,2|0,1:2|0:0,0:0:0:0:
322,80,52729,2,0,L|267:73,1,55,2|2,0:0|0:0,0:0:0:0:
171,23,52925,1,2,1:2:0:0:
179,103,53023,1,2,0:0:0:0:
189,182,53121,2,0,L|198:258,1,55,2|0,0:0|0:0,0:0:0:0:
40,343,53317,5,2,1:2:0:0:
97,283,53415,2,0,P|112:230|108:188,1,55,2|0,0:0|0:0,0:0:0:0:
20,41,53611,1,2,0:0:0:0:
46,118,53709,2,0,P|67:137|102:155,1,55,2|2,1:2|0:0,0:0:0:0:
275,131,53905,2,0,P|298:117|324:108,1,55,2|2,0:0|0:0,0:0:0:0:
462,105,54102,1,2,1:2:0:0:
493,179,54200,1,2,0:0:0:0:
449,247,54298,1,2,0:0:0:0:
480,319,54396,1,2,0:0:0:0:
421,369,54494,1,2,1:2:0:0:
398,356,54592,1,2,0:0:0:0:
381,371,54690,1,2,0:0:0:0:
365,356,54788,1,2,0:0:0:0:
347,372,54886,6,0,B|293:357|293:357|244:380|244:380|194:344,1,165,6|0,1:2|0:0,0:0:0:0:
169,187,55278,1,2,1:2:0:0:
156,199,55376,2,0,L|147:290,1,55,2|0,0:0|0:0,0:0:0:0:
53,367,55572,2,0,L|98:335,1,55,2|2,0:0|1:2,0:0:0:0:
256,277,55768,1,0,0:0:0:0:
268,266,55866,2,0,L|274:196,1,55,2|0,0:0|0:0,0:0:0:0:
262,55,56062,1,2,1:2:0:0:
341,65,56160,1,2,0:0:0:0:
419,75,56258,2,0,L|486:83,1,55,2|0,0:0|0:0,0:0:0:0:
512,326,56454,5,2,1:2:0:0:
431,312,56553,2,0,P|404:302|374:273,1,55,2|2,0:0|0:0,0:0:0:0:
416,89,56749,1,2,0:0:0:0:
444,166,56848,2,0,P|449:194|439:234,1,55,2|2,1:2|0:0,0:0:0:0:
314,224,57043,2,0,P|335:205|375:194,1,55,2|2,0:0|0:0,0:0:0:0:
303,358,57239,5,2,1:2:0:0:
227,334,57337,1,2,0:0:0:0:
182,267,57435,1,2,0:0:0:0:
190,189,57533,1,2,0:0:0:0:
293,272,57631,5,6,1:2:0:0:
274,266,57729,1,2,0:0:0:0:
263,249,57827,1,6,3:0:0:0:
265,230,57925,1,2,0:0:0:0:
341,207,58023,6,0,B|401:211|401:211|443:252,1,82.5000031471254,6|0,1:2|0:0,0:0:0:0:
451,355,58219,2,0,P|487:328|502:293,1,82.5000031471254,2|0,0:0|0:0,0:0:0:0:
452,113,58415,6,0,P|455:63|465:111,1,123.750004720688,2|0,1:2|0:0,0:0:0:0:
336,116,58807,6,0,B|276:112|276:112|234:71,1,82.5000031471254,2|0,1:2|0:0,0:0:0:0:
210,0,59003,2,0,P|190:42|140:83,1,82.5000031471254,2|0,0:0|0:0,0:0:0:0:
46,167,59200,6,0,B|45:136|76:106|76:106|119:123|130:161,1,137.5,2|0,1:2|0:0,0:0:0:0:
160,298,59396,2,0,B|153:325|110:342|110:342|79:312|80:282,1,137.5,2|0,0:0|0:0,0:0:0:0:
334,197,59592,6,0,L|280:194,2,55,6|0|0,1:2|0:0|0:0,0:0:0:0:
409,151,59788,2,0,B|420:176|423:203|423:203|417:232|397:258,1,110,2|0,1:2|0:0,0:0:0:0:
324,281,59984,6,0,L|269:284,2,55,6|0|0,1:2|0:0|0:0,0:0:0:0:
422,352,60180,2,0,B|410:326|407:299|407:299|413:270|429:249,1,110,2|0,1:2|0:0,0:0:0:0:
507,152,60376,6,0,L|502:207,2,55,6|0|0,1:2|0:0|0:0,0:0:0:0:
489,68,60572,1,0,1:0:0:0:
382,110,60768,6,0,L|387:165,2,55,6|0|0,1:2|0:0|0:0,0:0:0:0:
350,30,60964,1,2,1:2:0:0:
274,171,61160,6,0,L|260:117,1,55,2|2,1:2|1:2,0:0:0:0:
224,42,61356,2,0,L|237:95,1,55,2|2,1:2|1:2,0:0:0:0:
170,216,61552,6,0,L|147:165,1,55,2|2,1:2|1:2,0:0:0:0:
98,97,61748,2,0,L|120:147,1,55,2|2,1:2|1:2,0:0:0:0:
18,214,61945,6,0,L|62:245,1,41.2500015735627,2|0,1:2|0:0,0:0:0:0:
25,244,62043,2,0,L|74:267,1,41.2500015735627,2|0,1:2|0:0,0:0:0:0:
36,268,62141,2,0,L|88:282,1,41.2500015735627,2|0,1:2|0:0,0:0:0:0:
51,293,62239,2,0,L|105:296,1,41.2500015735627,2|0,1:2|0:0,0:0:0:0:
70,316,62337,2,0,L|124:306,1,41.2500015735627,2|0,1:2|0:0,0:0:0:0:
94,333,62435,2,0,L|143:308,1,41.2500015735627,2|0,1:2|0:0,0:0:0:0:
124,345,62533,2,0,L|163:306,1,41.2500015735627,2|0,1:2|0:0,0:0:0:0:
156,348,62631,2,0,L|179:298,1,41.2500015735627,2|0,1:2|0:0,0:0:0:0:
192,341,62729,6,0,L|195:286,28,41.2500015735627
284,325,63513,2,0,B|332:353|332:353|412:313,2,110.000004196167,6|6|6,1:2|1:2|1:2,0:0:0:0:
288,227,63905,2,0,B|337:203|337:203|385:231,1,110.000004196167,6|0,1:2|0:0,0:0:0:0:
91,268,64298,6,0,L|201:252,1,110,6|0,1:2|0:0,0:0:0:0:
22,126,64886,2,0,L|109:139,2,82.5,2|2|2,0:0|0:0|0:0,0:0:0:0:
147,40,65670,1,2,0:0:0:0:
264,72,65866,6,0,P|237:99|226:175,1,110,2|0,0:0|0:0,0:0:0:0:
303,313,66454,2,0,P|270:299|243:247,2,82.5,2|2|2,0:0|0:0|0:0,0:0:0:0:
319,196,67239,1,2,0:0:0:0:
170,344,67435,6,0,B|127:335|127:335|94:342|94:342|59:330,1,110,2|0,0:0|0:0,0:0:0:0:
12,161,68023,2,0,L|25:253,2,82.5,2|2|2,0:0|0:0|0:0,0:0:0:0:
71,84,68807,1,2,0:0:0:0:
183,201,69003,6,0,B|219:193|219:193|243:198|243:198|259:184|259:184|291:173,1,110,2|2,0:0|0:0,0:0:0:0:
325,33,69592,2,0,P|323:60|308:89,1,55,2|0,0:0|0:0,0:0:0:0:
407,114,69886,1,2,0:0:0:0:
431,126,69984,2,0,P|410:143|379:153,2,55,2|2|2,0:0|0:0|0:0,0:0:0:0:
349,329,70572,6,0,L|360:235,1,82.5000031471254,6|0,1:2|0:0,0:0:0:0:
209,292,70964,2,0,L|220:386,1,82.5000031471254,0|2,0:0|0:0,0:0:0:0:
104,269,71356,2,0,P|137:205|244:187,1,165.000006294251,2|2,0:0|0:0,0:0:0:0:
151,54,71945,5,6,1:2:0:0:
333,120,72141,2,0,B|324:160|324:160|338:205|338:205|307:236|307:236|293:305,1,165.000006294251,6|0,1:2|0:0,0:0:0:0:
352,349,72729,1,2,0:0:0:0:
197,265,72925,2,0,L|215:351,1,82.5000031471254,0|0,0:0|0:0,0:0:0:0:
90,179,73317,2,0,L|72:265,1,82.5000031471254,2|2,0:0|0:0,0:0:0:0:
115,368,73709,5,6,1:2:0:0:
66,69,74494,1,6,1:2:0:0:
377,173,75082,5,6,1:2:0:0:
66,69,75278,2,0,L|74:117,3,41.2500015735627,6|2|2|2,1:2|0:0|0:0|0:0,0:0:0:0:
139,215,75670,2,0,L|147:167,3,41.2500015735627,6|2|2|2,1:2|0:0|0:0|0:0,0:0:0:0:
197,46,76062,2,0,L|205:94,3,41.2500015735627,6|2|2|6,1:2|0:0|0:0|1:2,0:0:0:0:
270,192,76454,2,0,L|278:144,1,41.2500015735627,2|0,0:0|0:0,0:0:0:0:
355,33,76651,2,0,L|363:81,1,41.2500015735627,6|0,1:2|0:0,0:0:0:0:
432,176,76847,5,6,1:2:0:0:
448,174,76945,1,2,1:2:0:0:
464,172,77043,1,2,1:2:0:0:
481,170,77141,1,2,1:2:0:0:
497,168,77239,2,0,L|490:216,1,41.2500015735627,2|2,1:2|1:2,0:0:0:0:
469,317,77435,5,2,1:2:0:0:
428,310,77533,1,2,1:2:0:0:
387,304,77631,1,2,1:2:0:0:
346,298,77729,1,2,1:2:0:0:
260,322,77827,6,0,L|221:312,1,41.2500015735627,2|2,1:2|1:2,0:0:0:0:
218,180,78023,2,0,L|257:190,1,41.2500015735627,2|2,1:2|1:2,0:0:0:0:
355,144,78219,5,2,1:2:0:0:
346,55,78317,1,2,1:2:0:0:
458,25,78415,6,0,L|449:73,3,41.2500015735627,6|2|2|2,1:2|0:0|0:0|0:0,0:0:0:0:
500,194,78807,2,0,L|491:146,3,41.2500015735627,2|2|2|2,0:0|0:0|0:0|0:0,0:0:0:0:
416,313,79200,2,0,L|425:263,1,41.2500015735627,6|2,3:0|0:0,0:0:0:0:
290,210,79396,1,2,0:0:0:0:
377,194,79494,2,0,L|368:139,1,41.2500015735627,2|2,0:0|0:0,0:0:0:0:
210,66,79690,1,2,0:0:0:0:
291,80,79788,1,2,0:0:0:0:
366,41,79886,1,2,0:0:0:0:
189,161,79984,5,6,3:0:0:0:
148,152,80082,1,2,3:0:0:0:
108,144,80180,1,2,1:2:0:0:
67,136,80278,1,2,1:2:0:0:
26,129,80376,2,0,L|34:190,1,41.2500015735627,2|2,1:2|1:2,0:0:0:0:
16,291,80572,5,2,1:2:0:0:
97,279,80670,1,2,1:2:0:0:
179,267,80768,1,2,1:2:0:0:
260,255,80866,1,2,1:2:0:0:
342,240,80964,2,0,L|326:315,1,41.2500015735627,2|2,1:2|1:2,0:0:0:0:
426,173,81160,2,0,L|410:98,1,41.2500015735627,2|2,1:2|1:2,0:0:0:0:
506,236,81356,1,2,1:2:0:0:
474,334,81454,1,2,1:2:0:0:
381,339,81553,1,2,1:2:0:0:
472,58,81749,5,2,1:2:0:0:
431,191,81847,1,2,1:2:0:0:
418,161,82043,5,2,1:2:0:0:
450,71,82141,1,2,1:2:0:0:
276,137,82337,6,0,L|289:186,1,41.2500015735627,2|2,0:0|0:0,0:0:0:0:
184,247,82533,2,0,L|197:198,1,41.2500015735627,2|2,0:0|0:0,0:0:0:0:
360,343,82729,1,2,1:2:0:0:
334,311,82827,1,2,1:2:0:0:
295,298,82925,1,2,1:2:0:0:
257,310,83023,1,2,1:2:0:0:
205,357,83121,5,2,1:2:0:0:
141,381,83219,1,2,1:2:0:0:
79,353,83317,1,2,1:2:0:0:
55,289,83415,1,2,1:2:0:0:
74,222,83513,1,2,1:2:0:0:
100,158,83611,1,2,1:2:0:0:
85,91,83709,1,2,1:2:0:0:
32,46,83807,1,2,1:2:0:0:
1,40,83905,5,2,1:2:0:0:
47,97,84003,1,2,1:2:0:0:
113,128,84101,1,2,1:2:0:0:
187,127,84199,1,2,1:2:0:0:
252,94,84297,1,2,1:2:0:0:
306,40,84396,1,2,1:2:0:0:
372,6,84494,1,2,1:2:0:0:
445,6,84592,1,2,1:2:0:0:
505,57,84690,5,2,1:2:0:0:
445,107,84788,1,2,1:2:0:0:
405,174,84886,1,2,1:2:0:0:
391,251,84984,1,2,1:2:0:0:
403,328,85082,1,2,1:2:0:0:
482,337,85180,1,2,1:2:0:0:
512,268,85278,1,2,1:2:0:0:
458,212,85376,1,2,1:2:0:0:
391,251,85474,5,2,1:2:0:0:
326,291,85572,1,2,1:2:0:0:
257,329,85670,1,2,1:2:0:0:
181,312,85768,1,2,1:2:0:0:
111,347,85866,1,2,1:2:0:0:
41,381,85964,1,2,1:2:0:0:
44,302,86062,1,2,1:2:0:0:
117,269,86160,1,2,1:2:0:0:
190,234,86258,6,2,L|195:190,9,27.5000010490418,2|2|2|2|2|2|2|2|2|2,1:2|1:2|1:2|1:2|1:2|1:2|1:2|1:2|1:2|1:2,1:2:0:0:
43,168,86651,2,2,L|48:124,9,27.5000010490418,2|2|2|2|2|2|2|2|2|2,1:2|1:2|1:2|1:2|1:2|1:2|1:2|1:2|1:2|1:2,1:2:0:0:
190,131,87043,6,2,B|166:116|166:116|138:127,5,55.0000020980836,2|2|2|2|2|2,1:2|1:2|1:2|1:2|1:2|1:2,1:2:0:0:
122,331,87435,2,2,B|146:346|146:346|174:335,5,55.0000020980836,2|2|2|2|2|2,1:2|1:2|1:2|1:2|1:2|1:2,1:2:0:0:
153,257,87827,5,6,1:2:0:0:
153,256,88611,5,2,3:2:0:0:
160,254,88709,1,2,3:2:0:0:
168,252,88807,1,2,3:2:0:0:
175,250,88905,1,2,3:2:0:0:
183,248,89003,1,2,3:2:0:0:
191,246,89102,1,2,3:2:0:0:
198,244,89200,1,2,3:2:0:0:
206,242,89298,1,2,3:2:0:0:
214,239,89396,6,0,P|228:185|213:151,1,82.5000031471254,6|2,1:2|0:0,0:0:0:0:
149,11,89592,2,0,P|135:65|150:99,1,82.5000031471254,2|2,0:0|0:0,0:0:0:0:
230,78,89788,1,10,0:2:0:0:
58,331,89984,5,2,0:0:0:0:
24,258,90082,1,2,0:0:0:0:
70,195,90180,1,2,1:2:0:0:
148,191,90278,1,2,0:0:0:0:
202,249,90376,1,2,0:0:0:0:
181,326,90474,1,2,0:0:0:0:
248,365,90572,1,10,0:2:0:0:
266,345,90670,1,2,0:0:0:0:
279,328,90768,5,2,0:0:0:0:
359,344,90866,1,2,0:0:0:0:
440,361,90964,1,2,1:2:0:0:
410,279,91062,5,2,0:0:0:0:
384,200,91160,1,2,0:0:0:0:
358,122,91258,1,2,0:0:0:0:
304,181,91356,5,10,0:2:0:0:
248,243,91454,1,2,0:0:0:0:
194,304,91553,1,2,0:0:0:0:
134,361,91651,1,2,0:0:0:0:
105,289,91749,5,2,1:2:0:0:
79,209,91847,1,2,0:0:0:0:
53,132,91945,1,2,0:0:0:0:
34,51,92043,1,2,0:0:0:0:
120,70,92141,5,10,0:0:0:0:
210,88,92239,1,10,3:0:0:0:
297,110,92337,1,10,3:0:0:0:
385,132,92435,1,10,3:0:0:0:
360,44,92533,5,6,1:2:0:0:
325,198,92729,5,2,0:0:0:0:
453,67,92925,5,10,0:2:0:0:
239,169,93121,5,2,0:0:0:0:
423,222,93219,1,2,0:0:0:0:
417,238,93415,5,2,0:0:0:0:
233,185,93513,1,2,0:0:0:0:
360,44,93709,5,10,0:2:0:0:
315,348,93905,5,2,0:0:0:0:
290,268,94003,1,2,0:0:0:0:
372,123,94102,6,0,L|347:203,1,82.5000031471254,6|0,1:2|0:0,0:0:0:0:
223,327,94298,2,0,L|198:247,1,82.5000031471254,2|0,0:0|0:0,0:0:0:0:
120,140,94494,2,0,B|177:155|177:155|175:151|175:151|245:169|245:169|237:140,1,165.000006294251,14|2,0:0|0:0,0:0:0:0:
85,62,94788,5,2,0:0:0:0:
63,62,94886,2,0,P|30:105|29:145,1,82.5000031471254,0|2,1:0|0:0,0:0:0:0:
113,284,95082,2,0,P|92:233|58:213,1,82.5000031471254,2|0,0:0|0:0,0:0:0:0:
2,374,95278,2,0,B|41:349|81:368|81:368|122:385|159:359,1,165.000006294251,10|0,0:0|3:0,0:0:0:0:
268,100,95670,6,0,L|259:182,1,82.5000031471254,6|2,1:2|0:0,0:0:0:0:
324,350,95866,2,0,L|315:268,1,82.5000031471254,2|2,0:0|0:0,0:0:0:0:
211,267,96062,1,10,0:2:0:0:
503,123,96258,5,2,0:0:0:0:
448,183,96356,1,2,0:0:0:0:
368,194,96454,1,2,1:2:0:0:
300,151,96552,1,2,0:0:0:0:
252,87,96651,1,2,0:0:0:0:
176,55,96749,1,2,0:0:0:0:
96,75,96847,1,10,0:2:0:0:
83,94,96945,1,2,0:0:0:0:
73,113,97043,5,2,0:0:0:0:
15,171,97141,1,2,0:0:0:0:
54,245,97239,1,2,1:2:0:0:
134,230,97337,1,2,0:0:0:0:
146,149,97435,1,2,0:0:0:0:
135,155,97533,1,2,0:0:0:0:
220,209,97631,5,10,0:2:0:0:
298,192,97729,1,2,0:0:0:0:
379,174,97827,1,2,0:0:0:0:
460,157,97925,1,2,0:0:0:0:
403,91,98023,5,2,1:2:0:0:
379,174,98121,1,2,0:0:0:0:
353,256,98219,1,2,0:0:0:0:
329,334,98317,1,2,0:0:0:0:
410,317,98415,5,10,0:0:0:0:
435,237,98513,1,10,3:0:0:0:
460,157,98611,1,10,3:0:0:0:
403,91,98709,1,10,3:0:0:0:
323,109,98807,5,6,1:2:0:0:
438,14,99003,5,2,0:0:0:0:
379,174,99200,5,10,0:2:0:0:
341,26,99396,5,2,0:0:0:0:
394,263,99494,1,2,0:0:0:0:
380,268,99690,5,2,0:0:0:0:
326,30,99788,1,2,0:0:0:0:
507,77,99984,5,10,0:2:0:0:
265,269,100180,5,2,0:0:0:0:
183,249,100278,1,2,0:0:0:0:
83,154,100376,6,0,L|102:246,1,82.5000031471254,6|0,1:2|0:0,0:0:0:0:
188,124,100572,2,0,L|174:177,1,41.2500015735627,2|2,0:0|0:0,0:0:0:0:
281,349,100768,6,0,L|262:257,1,82.5000031471254,6|2,1:2|3:0,0:0:0:0:
176,379,100964,2,0,L|190:326,1,41.2500015735627,2|2,3:0|0:0,0:0:0:0:
320,52,101160,5,2,1:2:0:0:
394,81,101258,1,2,1:2:0:0:
424,156,101356,1,10,0:0:0:0:
390,228,101454,1,10,0:0:0:0:
328,37,101553,5,10,0:0:0:0:
402,66,101651,1,10,3:0:0:0:
432,141,101749,1,10,3:0:0:0:
398,213,101847,1,6,3:0:0:0:
264,268,101945,6,0,L|290:187,1,82.5000031471254,6|2,1:2|0:0,0:0:0:0:
170,66,102141,2,0,L|196:147,1,82.5000031471254,2|2,0:0|0:0,0:0:0:0:
111,210,102337,1,10,0:2:0:0:
21,5,102533,1,2,0:0:0:0:
35,28,102631,1,2,0:0:0:0:
92,83,102729,5,2,1:2:0:0:
171,67,102827,1,2,0:0:0:0:
225,10,102925,1,2,0:0:0:0:
303,2,103023,1,2,0:0:0:0:
373,43,103121,5,10,0:2:0:0:
365,127,103219,1,2,0:0:0:0:
357,208,103317,1,2,0:0:0:0:
348,291,103415,1,2,0:0:0:0:
417,336,103513,5,2,1:2:0:0:
476,275,103611,1,2,0:0:0:0:
433,201,103709,1,2,0:0:0:0:
347,217,103807,1,2,0:0:0:0:
338,300,103905,5,10,0:2:0:0:
257,329,104003,1,2,0:0:0:0:
202,261,104101,1,2,0:0:0:0:
257,195,104199,1,2,0:0:0:0:
337,224,104297,5,2,1:2:0:0:
247,233,104396,1,2,0:0:0:0:
156,241,104494,1,2,0:0:0:0:
69,249,104592,1,2,0:0:0:0:
0,177,104690,5,10,0:0:0:0:
90,168,104789,1,10,3:0:0:0:
181,160,104887,1,10,3:0:0:0:
268,152,104985,1,10,3:0:0:0:
355,145,105082,5,6,1:2:0:0:
444,52,105278,5,2,0:0:0:0:
408,266,105474,5,10,0:2:0:0:
502,172,105670,5,2,0:0:0:0:
290,272,105768,1,2,0:0:0:0:
298,294,105964,5,2,0:0:0:0:
512,194,106062,1,2,0:0:0:0:
291,62,106258,1,10,0:2:0:0:
90,239,106454,1,2,0:0:0:0:
172,229,106552,1,2,0:0:0:0:
231,168,106651,6,0,L|206:248,1,82.5000031471254,6|0,1:2|0:0,0:0:0:0:
39,321,106847,2,0,P|85:324|128:353,1,82.5000031471254,2|0,0:0|0:0,0:0:0:0:
327,345,107043,2,0,B|315:365|315:365|308:310|308:310|302:307|302:307|298:267|298:267|304:263|304:263|300:229,1,165.000006294251,14|2,0:0|0:0,0:0:0:0:
431,151,107337,6,0,B|392:155|392:155|386:160|386:160|339:164,1,82.5000031471254,0|2,1:0|0:0,0:0:0:0:
330,45,107533,1,2,0:0:0:0:
304,42,107631,2,0,B|269:39|269:39|262:34|262:34|224:30,1,82.5000031471254,2|0,0:0|0:0,0:0:0:0:
116,115,107827,2,0,B|163:162|163:162|268:127,1,165.000006294251,10|0,0:0|3:0,0:0:0:0:
60,48,108219,6,0,P|28:96|35:146,1,82.5000031471254,6|2,1:2|0:0,0:0:0:0:
71,337,108415,2,0,P|103:289|96:239,1,82.5000031471254,2|2,0:0|0:0,0:0:0:0:
116,115,108611,1,10,0:2:0:0:
19,242,108807,1,2,0:0:0:0:
15,266,108905,1,2,0:0:0:0:
71,337,109003,5,2,1:2:0:0:
152,308,109102,1,2,0:0:0:0:
232,279,109200,1,2,0:0:0:0:
309,248,109298,1,2,0:0:0:0:
388,213,109396,5,10,0:2:0:0:
317,160,109494,1,2,0:0:0:0:
247,110,109592,1,2,0:0:0:0:
178,58,109690,1,2,0:0:0:0:
104,13,109788,5,2,1:2:0:0:
95,93,109886,1,2,0:0:0:0:
87,173,109984,1,2,0:0:0:0:
78,253,110082,1,2,0:0:0:0:
71,337,110180,5,10,0:2:0:0:
152,308,110279,1,0,0:0:0:0:
157,224,110376,1,2,0:0:0:0:
238,195,110475,1,2,0:0:0:0:
309,248,110572,5,2,1:2:0:0:
388,213,110670,1,2,0:0:0:0:
405,127,110768,1,2,0:0:0:0:
350,54,110866,1,2,0:0:0:0:
316,135,110964,5,10,0:0:0:0:
372,207,111062,1,10,3:0:0:0:
461,195,111160,1,10,3:0:0:0:
492,111,111258,1,10,3:0:0:0:
439,40,111356,5,6,1:2:0:0:
341,310,111552,5,2,0:0:0:0:
167,139,111749,5,10,0:2:0:0:
106,380,111945,5,2,0:0:0:0:
325,315,112043,1,2,0:0:0:0:
244,172,112239,5,2,0:0:0:0:
229,195,112337,1,2,0:0:0:0:
208,212,112435,1,0,0:0:0:0:
182,221,112533,2,0,P|158:223|97:195,1,82.5000031471254,10|0,0:2|0:0,0:0:0:0:
306,119,112729,2,0,P|319:139|321:202,1,82.5000031471254,2|2,0:0|0:0,0:0:0:0:
154,41,112925,6,0,P|164:20|186:4,1,41.2500015735627,6|0,1:2|0:0,0:0:0:0:
324,112,113121,1,2,0:0:0:0:
181,244,113317,2,0,P|157:246|131:235,1,41.2500015735627,10|0,0:2|0:0,0:0:0:0:
342,105,113513,1,0,0:0:0:0:
507,206,113611,2,0,P|511:229|512:260,1,41.2500015735627
482,352,113807,1,2,0:0:0:0:
431,285,113905,1,2,0:0:0:0:
355,266,114003,1,2,0:0:0:0:
271,284,114102,6,0,B|226:300|212:340|212:340|213:297|178:257,1,165.000006294251,6|8,1:2|3:0,0:0:0:0:
2,51,114494,1,4,1:2:0:0:
