osu file format v14

[General]
AudioFilename: audio.mp3
AudioLeadIn: 0
PreviewTime: 88752
Countdown: 0
SampleSet: Soft
StackLeniency: 0.3
Mode: 0
LetterboxInBreaks: 0
WidescreenStoryboard: 0

[Editor]
Bookmarks: 1007,13556,26105,38654,51203,63752,76301,88850,113948
DistanceSpacing: 0.9
BeatDivisor: 8
GridSize: 32
TimelineZoom: 4.199998

[Metadata]
Title:Amazing Mirage
TitleUnicode:Amazing Mirage
Artist:lapix
ArtistUnicode:lapix
Creator:Jean-Michel Jr
Version:Another
Source:
Tags:
BeatmapID:1897556
BeatmapSetID:909345

[Difficulty]
HPDrainRate:5
CircleSize:4.5
OverallDifficulty:9
ApproachRate:9.4
SliderMultiplier:2
SliderTickRate:1

[Events]
//Background and Video events
0,0,"amazingmirage.jpg",0,0
//Break Periods
//Storyboard Layer 0 (Background)
//Storyboard Layer 1 (Fail)
//Storyboard Layer 2 (Pass)
//Storyboard Layer 3 (Foreground)
//Storyboard Sound Samples

[TimingPoints]
1007,392.156862745098,4,2,0,40,1,0
1007,-200,4,2,0,40,0,0
2575,-166.666666666667,4,2,0,40,0,0
4144,-142.857142857143,4,2,0,40,0,0
5712,-125,4,2,0,40,0,0
11987,-166.666666666667,4,2,0,40,0,0
12575,-100,4,2,0,40,0,0
13163,-66.6666666666667,4,2,0,40,0,0
13556,-100,4,2,0,40,0,0
13948,-66.6666666666667,4,2,0,40,0,0
15124,-100,4,2,0,40,0,0
15516,-66.6666666666667,4,2,0,40,0,0
16693,-100,4,2,0,40,0,0
17183,-66.6666666666667,4,2,0,40,0,0
18261,-100,4,2,0,40,0,0
19046,-133.333333333333,4,2,0,40,0,0
19830,-66.6666666666667,4,2,0,40,0,0
20124,-60.6060606060606,4,2,0,40,0,0
20418,-55.5555555555556,4,2,0,40,0,0
20712,-51.2820512820513,4,2,0,40,0,0
21007,-47.6190476190476,4,2,0,40,0,0
21301,-44.4444444444445,4,2,0,40,0,0
21595,-41.6666666666667,4,2,0,40,0,0
21889,-39.2156862745098,4,2,0,40,0,0
22183,-100,4,2,0,40,0,0
24732,-66.6666666666667,4,2,0,40,0,0
24928,-50,4,2,0,40,0,0
25124,-40,4,2,0,40,0,0
25320,-500,4,2,0,40,0,0
26105,-66.6666666666667,4,2,0,40,0,0
26693,-50,4,2,0,40,0,0
26987,-200,4,2,0,40,0,0
27281,-50,4,2,0,40,0,0
27477,-200,4,2,0,40,0,0
27673,-66.6666666666667,4,2,0,40,0,0
28261,-50,4,2,0,40,0,0
28556,-200,4,2,0,40,0,0
28850,-50,4,2,0,40,0,0
29242,-66.6666666666667,4,2,0,40,0,0
30418,-100,4,2,0,40,0,0
30614,-50,4,2,0,40,0,0
30810,-66.6666666666667,4,2,0,40,0,0
31987,-133.333333333333,4,2,0,40,0,0
32379,-66.6666666666667,4,2,0,40,0,0
32771,-100,4,2,0,40,0,0
33556,-50,4,2,0,40,0,0
33752,-66.6666666666667,4,2,0,40,0,0
33948,-50,4,2,0,40,0,0
35516,-100,4,2,0,40,0,0
37085,-66.6666666666667,4,2,0,40,0,0
40810,-50,4,2,0,40,0,0
41105,-66.6666666666667,4,2,0,40,0,0
41399,-50,4,2,0,40,0,0
42477,-66.6666666666667,4,2,0,40,0,0
43359,-50,4,2,0,40,0,0
43556,-44.4444444444445,4,2,0,40,0,0
43752,-36.3636363636364,4,2,0,40,0,0
43948,-33.3333333333333,4,2,0,40,0,0
44144,-28.5714285714286,4,2,0,40,0,0
44536,-100,4,2,0,40,0,0
44928,-66.6666666666667,4,2,0,40,0,0
48065,-133.333333333333,4,2,0,40,0,0
49634,-100,4,2,0,40,0,0
51203,-66.6666666666667,4,2,0,40,0,0
51987,-100,4,2,0,40,0,0
52771,-66.6666666666667,4,2,0,40,0,0
55124,-100,4,2,0,40,0,0
55908,-66.6666666666667,4,2,0,40,0,0
57869,-133.333333333333,4,2,0,40,0,0
58261,-66.6666666666667,4,2,0,40,0,0
58654,-50,4,2,0,40,0,0
61399,-100,4,2,0,40,0,0
61497,-90.9090909090909,4,2,0,40,0,0
61595,-83.3333333333333,4,2,0,40,0,0
61693,-76.9230769230769,4,2,0,40,0,0
61791,-71.4285714285714,4,2,0,40,0,0
61889,-66.6666666666667,4,2,0,40,0,0
61987,-62.5,4,2,0,40,0,0
62085,-58.8235294117647,4,2,0,40,0,0
62183,-100,4,2,0,40,0,0
70026,-66.6666666666667,4,2,0,40,0,0
70908,-100,4,2,0,40,0,0
71595,-66.6666666666667,4,2,0,40,0,0
72379,-100,4,2,0,40,0,0
73261,-76.9230769230769,4,2,0,40,0,0
74340,-100,4,2,0,40,0,0
81006,-76.9230769230769,4,2,0,40,0,0
88850,-66.6666666666667,4,2,0,40,0,1
91987,-40,4,2,0,40,0,1
95124,-66.6666666666667,4,2,0,40,0,1
98261,-40,4,2,0,40,0,1
99830,-33.3333333333333,4,2,0,40,0,1
100026,-200,4,2,0,40,0,1
100222,-33.3333333333333,4,2,0,40,0,1
100418,-200,4,2,0,40,0,1
101006,-100,4,2,0,40,0,1
101399,-66.6666666666667,4,2,0,40,0,1
104536,-40,4,2,0,40,0,1
107673,-66.6666666666667,4,2,0,40,0,1
110810,-40,4,2,0,40,0,1
113948,-100,4,2,0,40,0,0

[Colours]
Combo1 : 134,36,36
Combo2 : 255,0,0

[HitObjects]
33,306,1007,5,0,0:0:0:0:
48,327,1595,2,0,L|132:312,1,75
191,345,2085,1,0,0:0:0:0:
196,350,2183,2,0,L|255:353,1,50
323,301,2575,5,0,0:0:0:0:
308,268,3163,2,0,P|306:236|324:171,1,89.9999972534181
353,111,3654,1,0,0:0:0:0:
359,105,3752,2,0,P|311:110|279:102,1,59.9999981689454
214,87,4144,5,0,0:0:0:0:
188,115,4732,2,0,L|194:228,1,104.999996795654
116,258,5222,1,0,0:0:0:0:
112,251,5320,2,0,L|116:173,1,69.9999978637696
54,120,5712,5,0,0:0:0:0:
27,142,6301,1,0,0:0:0:0:
137,97,6497,1,0,0:0:0:0:
172,89,6595,1,0,0:0:0:0:
206,97,6693,1,0,0:0:0:0:
236,116,6791,1,0,0:0:0:0:
271,119,6889,2,0,P|294:115|320:105,1,40
368,48,7085,2,0,P|391:52|417:62,1,40
461,132,7281,6,0,L|456:225,1,80
452,295,7673,1,0,0:0:0:0:
351,235,7869,1,0,0:0:0:0:
327,237,7967,1,0,0:0:0:0:
303,239,8065,1,0,0:0:0:0:
279,241,8163,1,0,0:0:0:0:
176,333,8359,1,0,0:0:0:0:
200,335,8457,2,0,L|198:278,1,40
113,190,8654,2,0,L|111:229,1,40
16,347,8850,6,0,P|12:310|10:260,1,80
7,181,9242,1,0,0:0:0:0:
111,229,9438,1,0,0:0:0:0:
134,231,9536,1,0,0:0:0:0:
157,227,9634,1,0,0:0:0:0:
177,214,9732,1,0,0:0:0:0:
275,120,9928,1,0,0:0:0:0:
297,112,10026,2,0,P|328:115|345:122,1,40
345,258,10222,2,0,P|325:263|305:263,1,40
445,164,10418,6,0,L|442:83,1,80
427,0,10810,1,0,0:0:0:0:
306,43,11007,1,0,0:0:0:0:
303,66,11105,1,0,0:0:0:0:
300,89,11203,1,0,0:0:0:0:
297,112,11301,1,0,0:0:0:0:
362,223,11497,1,0,0:0:0:0:
359,200,11595,2,0,L|304:197,1,40
228,275,11791,2,0,L|173:278,1,40
75,211,11987,6,0,L|57:207,8,14.9999995422363
111,289,12575,6,0,L|107:363,1,50
117,123,12771,1,0,0:0:0:0:
136,119,12869,1,0,0:0:0:0:
196,181,12967,1,0,0:0:0:0:
215,185,13065,1,0,0:0:0:0:
295,129,13163,6,0,B|306:109|306:109|300:51,1,75.0000028610231
37,67,13359,2,0,B|26:87|26:87|32:145,1,75.0000028610231
228,275,13556,6,0,L|232:213,1,50
136,119,13752,2,0,L|139:168,1,50
224,374,13948,6,0,L|231:208,1,150.000005722046
231,197,14242,1,0,0:0:0:0:
297,175,14340,1,0,0:0:0:0:
350,220,14438,1,0,0:0:0:0:
416,198,14536,1,0,0:0:0:0:
361,54,14732,6,0,B|348:40|348:40|356:103,1,75.0000028610231
344,261,14928,2,0,B|357:275|357:275|349:212,1,75.0000028610231
209,57,15124,5,0,0:0:0:0:
184,55,15222,1,0,0:0:0:0:
159,53,15320,2,0,L|97:57,1,50
5,190,15516,6,0,L|171:197,1,150.000005722046
182,197,15810,1,0,0:0:0:0:
208,263,15908,1,0,0:0:0:0:
162,313,16007,5,0,0:0:0:0:
235,265,16105,1,0,0:0:0:0:
320,287,16203,1,0,0:0:0:0:
362,364,16301,6,0,B|391:374|391:374|456:368,1,75.0000028610231
495,151,16497,2,0,B|466:141|466:141|401:147,1,75.0000028610231
182,197,16693,6,0,L|178:259,1,50
190,65,16889,2,0,L|186:127,1,50
177,332,17085,5,0,0:0:0:0:
177,332,17183,2,0,B|211:344|211:344|269:330,1,75.0000028610231
317,266,17379,2,0,B|351:254|351:254|409:268,1,75.0000028610231
482,353,17575,1,0,0:0:0:0:
482,353,17673,2,0,L|486:279,1,75.0000028610231
427,103,17869,6,0,B|414:89|414:89|422:152,1,75.0000028610231
317,266,18065,2,0,B|304:280|304:280|312:217,1,75.0000028610231
261,100,18261,6,0,P|190:88|106:106,1,150
72,171,18654,2,0,L|67:223,3,50
12,110,19046,6,0,L|16:62,1,37.5000014305115
146,200,19242,2,0,L|149:237,1,37.5000014305115
261,100,19438,5,0,0:0:0:0:
281,83,19536,1,0,0:0:0:0:
332,73,19634,1,0,0:0:0:0:
398,115,19732,1,0,0:0:0:0:
408,219,19830,6,0,B|364:237|328:224|344:216|306:202|260:219,1,150.000005722046
192,291,20124,6,0,B|219:312|246:317|246:317|284:268|254:195,1,165.000001573563
190,129,20418,6,0,P|107:151|160:200,1,179.999994506836
262,218,20712,6,0,B|317:214|343:171|343:171|298:139|296:87,1,195.000000743866
426,69,21007,6,0,B|457:106|457:106|271:87,1,209.999993591309
190,129,21301,6,0,P|200:45|296:98,1,225.000008583069
262,218,21595,6,0,B|268:261|303:295|303:295|381:250|363:158,1,239.999992675781
367,10,21889,6,0,P|374:134|481:131,1,254.999996595383
494,110,22183,5,0,0:0:0:0:
492,100,22281,1,0,0:0:0:0:
490,90,22379,2,0,L|438:83,1,50
364,168,22575,2,0,L|312:175,1,50
228,34,22771,2,0,L|176:27,1,50
55,163,22967,5,0,0:0:0:0:
60,177,23065,1,0,0:0:0:0:
121,206,23163,5,0,0:0:0:0:
135,201,23261,1,0,0:0:0:0:
164,140,23359,5,0,0:0:0:0:
159,126,23457,1,0,0:0:0:0:
98,97,23556,5,0,0:0:0:0:
84,102,23654,1,0,0:0:0:0:
55,163,23752,6,0,L|54:221,1,50
150,267,23948,1,0,0:0:0:0:
150,282,24046,2,0,L|151:340,1,50
230,179,24242,5,0,0:0:0:0:
247,169,24340,1,0,0:0:0:0:
281,161,24438,1,0,0:0:0:0:
328,175,24536,5,0,0:0:0:0:
344,247,24634,1,0,0:0:0:0:
368,156,24732,2,0,P|371:111|368:82,1,75.0000028610231
228,285,24928,2,0,P|223:348|228:390,1,100
55,163,25124,2,0,P|60:83|55:31,1,125
0,384,25320,6,0,L|47:380,1,40
127,184,26105,6,0,P|122:98|55:163,1,225.000008583069
22,228,26497,1,0,0:0:0:0:
24,243,26595,1,0,0:0:0:0:
86,294,26693,6,0,B|120:297|120:297|149:279|149:279|182:282,1,100
340,243,26889,5,0,0:0:0:0:
313,165,26987,2,0,L|320:228,1,50
406,305,27281,6,0,P|429:268|425:212,1,100
246,121,27477,6,0,L|242:153,1,25
180,281,27673,6,0,B|214:294|214:294|255:288,1,75.0000028610231
313,165,27869,2,0,B|347:152|347:152|385:157,1,75.0000028610231
475,271,28065,1,0,0:0:0:0:
477,285,28163,1,0,0:0:0:0:
446,360,28261,6,0,B|412:363|412:363|383:345|383:345|350:348,1,100
163,362,28457,5,0,0:0:0:0:
180,281,28556,2,0,L|178:333,1,50
34,371,28850,6,0,B|13:328|13:328|22:272,1,100
127,210,29046,2,0,B|135:158|135:158|114:115,1,100
27,35,29242,6,0,P|60:26|101:27,1,75.0000028610231
126,37,29438,1,0,0:0:0:0:
1,213,29634,2,0,P|76:177|131:217,1,150.000005722046
178,330,30026,1,0,0:0:0:0:
247,300,30124,1,0,0:0:0:0:
311,339,30222,1,0,0:0:0:0:
380,309,30320,1,0,0:0:0:0:
399,321,30418,6,0,L|403:264,1,50
483,360,30614,6,0,L|475:258,1,100
481,150,30810,6,0,B|427:119|376:153|376:153|331:183|268:150,1,225.000008583069
161,154,31203,2,0,B|211:123|270:151|270:151|331:184|378:152,1,225.000008583069
481,150,31595,6,0,L|477:70,1,75.0000028610231
328,77,31791,2,0,L|331:2,1,75.0000028610231
433,222,31987,6,0,L|481:226,2,37.5000014305115
353,285,32379,6,0,B|303:305|303:305|203:292,1,150.000005722046
87,233,32771,2,0,L|92:174,1,50
78,333,32967,1,0,0:0:0:0:
18,70,33163,5,0,0:0:0:0:
80,38,33261,1,0,0:0:0:0:
151,84,33359,1,0,0:0:0:0:
235,30,33457,1,0,0:0:0:0:
295,101,33556,6,0,B|300:137|300:137|289:165|289:165|293:198,1,100
351,358,33752,2,0,B|360:323|360:323|352:284,1,75.0000028610231
482,210,33948,6,0,B|436:194|436:194|387:206,1,100
254,280,34144,2,0,B|205:292|205:292|159:276,1,100
53,183,34340,5,0,0:0:0:0:
95,127,34438,1,0,0:0:0:0:
142,111,34536,1,0,0:0:0:0:
171,117,34634,1,0,0:0:0:0:
224,179,34732,5,0,0:0:0:0:
273,169,34830,1,0,0:0:0:0:
302,105,34928,1,0,0:0:0:0:
256,27,35026,1,0,0:0:0:0:
148,41,35124,6,0,L|266:36,1,100
410,119,35320,2,0,L|292:114,1,100
142,209,35516,6,0,L|137:272,1,50
123,202,35712,2,0,L|118:265,1,50
256,360,35908,1,0,0:0:0:0:
256,350,36007,1,0,0:0:0:0:
256,340,36105,1,0,0:0:0:0:
370,175,36301,6,0,L|375:112,1,50
389,182,36497,2,0,L|394:119,1,50
256,24,36693,2,0,P|253:80|256:127,1,100
284,241,37085,5,0,0:0:0:0:
294,255,37183,2,0,L|217:258,1,75.0000028610231
123,202,37379,1,0,0:0:0:0:
139,133,37477,2,0,L|141:207,1,75.0000028610231
59,328,37673,2,0,L|61:253,1,75.0000028610231
4,91,37869,6,0,P|32:82|81:83,1,75.0000028610231
168,63,38065,2,0,P|205:64|241:54,1,75.0000028610231
14,70,38261,2,0,B|62:46|122:74|122:74|174:97|233:76,1,225.000008583069
339,34,38654,6,0,L|345:133,1,75.0000028610231
279,182,38850,2,0,L|273:281,1,75.0000028610231
332,349,39046,1,0,0:0:0:0:
499,171,39242,1,0,0:0:0:0:
496,161,39340,2,0,P|446:148|406:158,1,75.0000028610231
346,247,39536,2,0,P|296:260|256:250,1,75.0000028610231
196,161,39732,2,0,P|146:148|106:158,1,75.0000028610231
46,247,39928,2,0,P|8:222|67:220,1,150.000005722046
132,384,40222,6,0,L|126:285,1,75.0000028610231
192,236,40418,2,0,L|198:137,1,75.0000028610231
139,70,40614,1,0,0:0:0:0:
8,219,40810,1,0,0:0:0:0:
14,236,40908,2,0,P|66:244|110:231,1,100
206,136,41105,2,0,P|245:130|278:139,1,75.0000028610231
354,218,41301,1,0,0:0:0:0:
362,223,41399,6,0,B|383:236|383:236|380:160,1,100
213,249,41595,2,0,B|192:236|192:236|195:312,1,100
317,370,41791,5,0,0:0:0:0:
332,368,41889,1,0,0:0:0:0:
405,384,41987,5,0,0:0:0:0:
415,372,42085,1,0,0:0:0:0:
483,343,42183,5,0,0:0:0:0:
483,327,42281,1,0,0:0:0:0:
512,258,42379,5,0,0:0:0:0:
501,246,42477,2,0,P|493:209|491:172,1,75.0000028610231
390,86,42673,2,0,P|382:123|380:160,1,75.0000028610231
279,246,42869,1,0,0:0:0:0:
253,242,42967,2,0,B|213:238|213:238|164:249,2,75.0000028610231
383,339,43359,6,0,L|493:325,1,100
485,311,43556,2,0,L|369:325,1,112.500004291535
151,325,43752,6,0,L|294:343,1,137.500001311302
292,365,43949,2,0,L|142:345,1,150.000005722046
23,318,44144,5,0,0:0:0:0:
0,251,44242,1,0,0:0:0:0:
26,167,44340,1,0,0:0:0:0:
119,118,44438,1,0,0:0:0:0:
130,126,44536,6,0,L|15:117,1,100
234,129,44928,6,0,P|273:130|326:116,1,75.0000028610231
435,74,45124,2,0,L|438:0,1,75.0000028610231
512,252,45320,6,0,P|473:253|420:239,1,75.0000028610231
311,197,45516,2,0,L|308:123,1,75.0000028610231
233,375,45712,5,0,0:0:0:0:
255,373,45810,1,0,0:0:0:0:
279,355,45908,1,0,0:0:0:0:
290,318,46007,1,0,0:0:0:0:
264,280,46105,5,0,0:0:0:0:
188,288,46203,1,0,0:0:0:0:
112,296,46301,1,0,0:0:0:0:
21,91,46497,6,0,L|101:83,1,75.0000028610231
230,179,46693,2,0,L|155:171,1,75.0000028610231
6,56,46889,2,0,L|86:48,1,75.0000028610231
245,214,47085,5,0,0:0:0:0:
264,105,47183,1,0,0:0:0:0:
290,318,47379,5,0,0:0:0:0:
219,1,47575,5,0,0:0:0:0:
123,356,47771,6,0,L|286:347,1,150.000005722046
314,361,48065,6,0,P|293:283|425:293,1,262.500010013581
426,316,48850,6,0,L|424:344,5,25.0000009536744
491,261,49242,5,0,0:0:0:0:
475,181,49373,5,0,0:0:0:0:
459,101,49503,5,0,0:0:0:0:
363,70,49634,6,0,L|296:67,1,50
239,173,49830,1,0,0:0:0:0:
258,177,49928,1,0,0:0:0:0:
277,178,50026,2,0,L|308:176,6,25
383,150,50418,6,0,L|377:249,1,100
181,336,50810,6,0,L|178:303,1,25
97,56,51203,6,0,B|152:28|206:59|206:59|263:92|318:64,1,225.000008583069
413,12,51595,5,0,0:0:0:0:
417,49,51693,2,0,L|425:133,1,75.0000028610231
300,228,51889,1,0,0:0:0:0:
302,211,51987,2,0,L|306:153,1,50
312,66,52183,2,0,L|316:8,1,50
465,298,52379,5,0,0:0:0:0:
386,311,52477,1,0,0:0:0:0:
307,324,52575,1,0,0:0:0:0:
48,186,52771,5,0,0:0:0:0:
38,154,52869,2,0,P|100:122|125:182,1,150.000005722046
150,289,53163,1,0,0:0:0:0:
140,321,53261,2,0,P|202:353|227:293,1,150.000005722046
266,154,53556,6,0,P|301:156|336:180,1,75.0000028610231
386,311,53752,1,0,0:0:0:0:
460,179,53948,1,0,0:0:0:0:
456,156,54046,1,0,0:0:0:0:
453,133,54144,1,0,0:0:0:0:
450,110,54242,1,0,0:0:0:0:
384,56,54340,6,0,B|329:28|275:59|275:59|218:92|163:64,1,225.000008583069
68,12,54732,5,0,0:0:0:0:
64,49,54830,2,0,L|56:133,1,75.0000028610231
181,228,55026,1,0,0:0:0:0:
179,211,55124,2,0,L|175:153,1,50
169,66,55320,2,0,L|165:8,1,50
16,298,55516,5,0,0:0:0:0:
95,311,55614,1,0,0:0:0:0:
174,324,55712,1,0,0:0:0:0:
415,169,55908,5,0,0:0:0:0:
405,136,56006,2,0,B|332:115|332:115|264:150,1,150.000005722046
240,260,56301,1,0,0:0:0:0:
250,293,56399,2,0,B|323:314|323:314|391:279,1,150.000005722046
480,211,56693,5,0,0:0:0:0:
492,167,56791,1,0,0:0:0:0:
470,111,56889,1,0,0:0:0:0:
504,44,56987,1,0,0:0:0:0:
426,19,57085,5,0,0:0:0:0:
383,33,57183,1,0,0:0:0:0:
322,2,57281,1,0,0:0:0:0:
245,48,57379,1,0,0:0:0:0:
165,8,57477,6,0,P|125:-4|91:4,1,75.0000028610231
305,120,57673,2,0,P|345:132|379:124,1,75.0000028610231
89,214,57869,6,0,B|67:228|67:228|166:226,1,112.500004291535
240,260,58261,6,0,P|252:300|244:334,1,75.0000028610231
63,140,58457,2,0,P|51:100|59:66,1,75.0000028610231
245,48,58654,6,0,B|294:36|294:36|367:57,1,100
101,341,58850,2,0,B|52:353|52:353|-21:332,1,100
63,140,59046,5,0,0:0:0:0:
187,118,59242,1,0,0:0:0:0:
155,292,59438,5,0,0:0:0:0:
316,320,59634,1,0,0:0:0:0:
274,93,59830,5,0,0:0:0:0:
483,57,60026,1,0,0:0:0:0:
428,351,60222,5,0,0:0:0:0:
155,292,60418,1,0,0:0:0:0:
427,141,60614,5,0,0:0:0:0:
446,143,60712,1,0,0:0:0:0:
469,154,60810,1,0,0:0:0:0:
489,178,60908,1,0,0:0:0:0:
495,215,61006,1,0,0:0:0:0:
475,254,61105,1,0,0:0:0:0:
428,271,61203,1,0,0:0:0:0:
378,245,61301,1,0,0:0:0:0:
367,171,61399,6,0,L|400:159,1,25
323,118,61497,2,0,L|344:82,1,27.5000008392334
259,94,61595,2,0,L|261:50,1,29.9999990844727
192,105,61693,2,0,L|164:75,1,32.4999985122681
139,148,61791,2,0,L|96:133,1,34.9999989318848
115,211,61889,2,0,L|66:207,1,37.5000014305115
126,278,61987,2,0,L|88:298,1,40
169,331,62085,2,0,L|146:367,1,42.5000008106232
233,355,62183,6,0,L|250:352,28,12.5
302,305,62967,5,0,0:0:0:0:
251,220,63098,5,0,0:0:0:0:
371,140,63229,5,0,0:0:0:0:
227,24,63359,5,0,0:0:0:0:
227,24,63752,6,0,L|134:16,1,50
55,168,64340,1,0,0:0:0:0:
196,136,64536,1,0,0:0:0:0:
196,136,64634,2,0,L|191:188,1,50
128,281,64830,1,0,0:0:0:0:
128,281,64928,2,0,L|123:229,1,50
236,258,65124,2,0,L|231:307,1,50
336,335,65320,5,0,0:0:0:0:
398,121,65908,1,0,0:0:0:0:
275,51,66105,1,0,0:0:0:0:
275,51,66203,2,0,L|329:57,1,50
240,191,66399,1,0,0:0:0:0:
240,191,66497,2,0,L|186:185,1,50
383,207,66693,2,0,L|329:201,1,50
476,217,66889,5,0,0:0:0:0:
301,369,67477,1,0,0:0:0:0:
235,240,67673,1,0,0:0:0:0:
235,240,67771,2,0,L|240:182,1,50
319,113,67967,1,0,0:0:0:0:
319,113,68065,2,0,L|324:171,1,50
226,59,68261,2,0,L|231:1,1,50
133,113,68457,5,0,0:0:0:0:
349,31,69046,1,0,0:0:0:0:
439,118,69242,1,0,0:0:0:0:
437,133,69340,1,0,0:0:0:0:
413,164,69438,1,0,0:0:0:0:
415,179,69536,1,0,0:0:0:0:
439,210,69634,2,0,L|437:262,1,50
336,330,69830,2,0,L|334:278,1,50
273,144,70026,6,0,P|196:143|120:152,1,150.000005722046
58,192,70320,1,0,0:0:0:0:
58,192,70418,1,0,0:0:0:0:
143,75,70614,1,0,0:0:0:0:
221,248,70810,1,0,0:0:0:0:
221,248,70908,2,0,L|142:243,1,50
336,201,71105,1,0,0:0:0:0:
336,201,71203,2,0,L|415:196,1,50
234,377,71399,1,0,0:0:0:0:
283,127,71595,6,0,P|360:126|436:135,1,150.000005722046
498,175,71889,1,0,0:0:0:0:
498,175,71987,1,0,0:0:0:0:
401,282,72183,1,0,0:0:0:0:
361,54,72379,1,0,0:0:0:0:
361,54,72477,2,0,L|363:3,1,50
259,143,72673,1,0,0:0:0:0:
259,143,72771,2,0,L|261:194,1,50
156,64,72967,1,0,0:0:0:0:
32,175,73163,5,0,0:0:0:0:
39,200,73261,2,0,B|75:219|75:219|172:204,1,129.999994049073
185,201,73556,1,0,0:0:0:0:
190,226,73654,1,0,0:0:0:0:
195,251,73752,1,0,0:0:0:0:
201,276,73850,1,0,0:0:0:0:
277,298,73948,5,0,0:0:0:0:
284,273,74046,2,0,B|320:254|320:254|417:269,1,129.999994049073
440,286,74340,2,0,L|446:341,1,50
491,184,74536,2,0,L|497:129,1,50
384,94,74732,5,0,0:0:0:0:
371,80,74830,2,0,L|267:72,1,100
212,124,75124,2,0,L|152:130,1,50
113,68,75320,1,0,0:0:0:0:
101,55,75418,2,0,L|6:47,1,50
15,132,75614,1,0,0:0:0:0:
21,176,75712,1,0,0:0:0:0:
27,220,75810,1,0,0:0:0:0:
74,275,75908,6,0,P|107:278|128:278,1,50
239,191,76105,2,0,P|214:191|189:194,1,50
233,338,76301,5,0,0:0:0:0:
259,351,76399,1,0,0:0:0:0:
289,354,76497,1,0,0:0:0:0:
318,347,76595,1,0,0:0:0:0:
342,331,76693,1,0,0:0:0:0:
360,306,76791,1,0,0:0:0:0:
367,277,76889,1,0,0:0:0:0:
364,248,76987,1,0,0:0:0:0:
351,221,77085,1,0,0:0:0:0:
337,194,77183,1,0,0:0:0:0:
334,164,77281,1,0,0:0:0:0:
342,135,77379,1,0,0:0:0:0:
359,111,77477,1,0,0:0:0:0:
384,94,77575,1,0,0:0:0:0:
413,87,77673,1,0,0:0:0:0:
442,90,77771,1,0,0:0:0:0:
469,104,77869,5,0,0:0:0:0:
471,118,77967,1,0,0:0:0:0:
425,177,78065,5,0,0:0:0:0:
422,193,78163,1,0,0:0:0:0:
487,246,78261,5,0,0:0:0:0:
490,265,78359,1,0,0:0:0:0:
412,320,78457,5,0,0:0:0:0:
408,342,78555,1,0,0:0:0:0:
499,373,78654,6,0,L|388:385,1,100
329,327,78948,2,0,L|218:315,1,100
159,373,79242,1,0,0:0:0:0:
146,375,79340,1,0,0:0:0:0:
86,318,79438,5,0,0:0:0:0:
60,281,79536,1,0,0:0:0:0:
51,237,79634,1,0,0:0:0:0:
62,194,79732,1,0,0:0:0:0:
89,158,79830,1,0,0:0:0:0:
128,136,79928,1,0,0:0:0:0:
172,133,80026,1,0,0:0:0:0:
214,148,80124,1,0,0:0:0:0:
247,178,80222,1,0,0:0:0:0:
279,208,80320,1,0,0:0:0:0:
321,223,80418,1,0,0:0:0:0:
366,219,80516,1,0,0:0:0:0:
405,198,80614,1,0,0:0:0:0:
432,162,80712,1,0,0:0:0:0:
442,119,80810,1,0,0:0:0:0:
433,75,80908,1,0,0:0:0:0:
408,38,81006,6,0,L|334:42,1,64.9999970245363
492,32,81203,1,0,0:0:0:0:
388,22,81301,2,0,L|314:26,1,64.9999970245363
512,16,81497,1,0,0:0:0:0:
368,6,81595,2,0,L|294:10,1,64.9999970245363
264,206,81791,5,0,0:0:0:0:
291,223,81889,1,0,0:0:0:0:
323,226,81987,1,0,0:0:0:0:
353,216,82085,1,0,0:0:0:0:
381,199,82183,1,0,0:0:0:0:
410,185,82281,1,0,0:0:0:0:
442,180,82379,1,0,0:0:0:0:
474,186,82477,1,0,0:0:0:0:
501,203,82575,6,0,L|499:242,14,32.4999985122681
418,285,83359,2,0,L|420:324,14,32.4999985122681
323,226,84144,2,0,L|321:265,14,32.4999985122681
240,308,84928,2,0,L|242:347,14,32.4999985122681
168,258,85712,6,0,L|138:254,12,16.2499992561341
114,184,86105,2,0,L|84:188,12,16.2499992561341
60,258,86497,2,0,L|30:254,12,16.2499992561341
18,177,86889,5,0,0:0:0:0:
31,107,87020,5,0,0:0:0:0:
45,37,87150,5,0,0:0:0:0:
137,8,87281,6,0,B|209:-6|250:45|250:45|292:96|367:81|411:19|328:-23|274:31|326:111|326:111|355:158|341:218|289:237,1,519.99997619629
303,229,88850,5,0,0:0:0:0:
368,265,88948,1,0,0:0:0:0:
442,258,89046,1,0,0:0:0:0:
485,197,89144,1,0,0:0:0:0:
460,102,89242,2,0,P|466:53|485:23,1,75.0000028610231
241,23,89438,5,0,0:0:0:0:
229,105,89536,1,0,0:0:0:0:
311,116,89634,1,0,0:0:0:0:
322,34,89732,2,0,B|290:5|290:5|180:16,1,150.000005722046
78,31,90026,2,0,L|73:109,1,75.0000028610231
48,213,90222,1,0,0:0:0:0:
51,227,90320,1,0,0:0:0:0:
54,241,90418,5,0,0:0:0:0:
149,223,90516,1,0,0:0:0:0:
196,298,90614,5,0,0:0:0:0:
271,312,90712,1,0,0:0:0:0:
341,265,90810,6,0,P|376:262|427:269,1,75.0000028610231
512,159,91006,2,0,P|477:162|426:155,1,75.0000028610231
250,4,91203,5,0,0:0:0:0:
247,48,91301,1,0,0:0:0:0:
243,107,91399,1,0,0:0:0:0:
239,181,91497,1,0,0:0:0:0:
333,140,91595,5,0,0:0:0:0:
336,193,91693,1,0,0:0:0:0:
341,265,91791,1,0,0:0:0:0:
346,356,91889,1,0,0:0:0:0:
465,274,91987,6,0,L|332:264,1,125
114,190,92183,2,0,L|247:180,1,125
465,274,92379,2,0,L|332:264,1,125
80,194,92575,5,0,0:0:0:0:
94,85,92673,1,0,0:0:0:0:
283,322,92869,5,0,0:0:0:0:
264,179,92967,1,0,0:0:0:0:
476,0,93163,6,0,P|476:134|354:14,1,375
422,66,93556,6,0,L|412:199,1,125
305,340,93752,2,0,L|295:207,1,125
422,66,93948,2,0,L|412:199,1,125
309,374,94144,5,0,0:0:0:0:
200,360,94242,1,0,0:0:0:0:
512,178,94438,5,0,0:0:0:0:
369,197,94536,1,0,0:0:0:0:
74,54,94732,6,0,P|208:54|88:176,1,375
17,144,95124,5,0,0:0:0:0:
9,218,95222,1,0,0:0:0:0:
47,282,95320,1,0,0:0:0:0:
118,304,95418,1,0,0:0:0:0:
207,256,95516,2,0,P|247:245|285:255,1,75.0000028610231
412,361,95712,5,0,0:0:0:0:
493,347,95810,1,0,0:0:0:0:
479,265,95908,1,0,0:0:0:0:
398,279,96006,2,0,B|427:303|451:296|451:296|469:254|442:205,1,150.000005722046
491,124,96301,2,0,L|416:119,1,75.0000028610231
254,61,96497,1,0,0:0:0:0:
239,62,96595,1,0,0:0:0:0:
223,63,96693,5,0,0:0:0:0:
185,152,96791,1,0,0:0:0:0:
99,181,96889,5,0,0:0:0:0:
120,253,96987,1,0,0:0:0:0:
74,310,97085,6,0,P|111:298|163:302,1,75.0000028610231
253,367,97281,2,0,P|290:379|342:375,1,75.0000028610231
512,213,97477,5,0,0:0:0:0:
440,125,97575,1,0,0:0:0:0:
359,179,97673,1,0,0:0:0:0:
286,139,97771,1,0,0:0:0:0:
210,216,97869,5,0,0:0:0:0:
207,163,97967,1,0,0:0:0:0:
202,91,98065,1,0,0:0:0:0:
197,0,98163,1,0,0:0:0:0:
97,75,98261,6,0,P|160:82|242:74,1,125
488,18,98457,2,0,P|425:13|363:20,1,125
97,75,98654,2,0,P|160:82|242:74,1,125
511,54,98850,5,0,0:0:0:0:
496,169,98948,1,0,0:0:0:0:
306,287,99144,5,0,0:0:0:0:
286,139,99242,1,0,0:0:0:0:
512,343,99438,6,0,P|458:300|397:330,1,125
403,324,99634,1,0,0:0:0:0:
399,334,99732,1,0,0:0:0:0:
336,371,99830,6,0,B|274:372|274:372|254:359|254:359|189:361,1,150.000005722046
69,239,100026,6,0,L|72:200,1,25
53,261,100222,6,0,B|115:262|115:262|135:249|135:249|200:251,1,150.000005722046
320,129,100418,6,0,L|317:90,1,25
336,151,100614,5,0,0:0:0:0:
273,192,100712,1,0,0:0:0:0:
214,170,100810,1,0,0:0:0:0:
187,127,100908,1,0,0:0:0:0:
185,89,101006,6,0,L|189:39,3,50
313,13,101399,5,0,0:0:0:0:
387,9,101497,1,0,0:0:0:0:
450,48,101595,1,0,0:0:0:0:
474,118,101693,1,0,0:0:0:0:
436,209,101791,2,0,P|431:250|441:292,1,75.0000028610231
217,203,101987,5,0,0:0:0:0:
187,127,102085,1,0,0:0:0:0:
250,74,102183,1,0,0:0:0:0:
278,151,102281,2,0,P|238:159|197:152,1,75.0000028610231
39,48,102477,5,0,0:0:0:0:
28,9,102575,2,0,L|21:106,1,75.0000028610231
114,139,102771,2,0,L|119:213,1,75.0000028610231
2,330,102967,5,0,0:0:0:0:
97,308,103065,1,0,0:0:0:0:
164,367,103163,5,0,0:0:0:0:
240,384,103261,1,0,0:0:0:0:
302,326,103359,5,0,0:0:0:0:
295,304,103457,1,0,0:0:0:0:
286,283,103556,1,0,0:0:0:0:
272,264,103654,1,0,0:0:0:0:
192,228,103752,5,0,0:0:0:0:
235,235,103850,1,0,0:0:0:0:
290,213,103948,1,0,0:0:0:0:
324,146,104046,1,0,0:0:0:0:
375,226,104144,5,0,0:0:0:0:
407,184,104242,1,0,0:0:0:0:
418,115,104340,1,0,0:0:0:0:
369,38,104438,1,0,0:0:0:0:
489,49,104536,6,0,P|427:65|366:58,1,125
110,128,104732,2,0,P|172:112|233:119,1,125
489,49,104928,2,0,P|427:65|366:58,1,125
82,141,105124,5,0,0:0:0:0:
94,29,105222,1,0,0:0:0:0:
272,281,105418,5,0,0:0:0:0:
256,132,105516,1,0,0:0:0:0:
107,339,105712,6,0,B|23:384|-43:293|66:220|108:308|108:308|134:359|182:372|244:335,1,375
325,350,106105,6,0,P|309:288|316:227,1,125
220,35,106301,2,0,P|236:97|229:158,1,125
325,350,106497,2,0,P|309:288|316:227,1,125
207,7,106693,5,0,0:0:0:0:
319,19,106791,1,0,0:0:0:0:
71,203,106987,5,0,0:0:0:0:
220,187,107085,1,0,0:0:0:0:
456,244,107281,6,0,B|501:328|410:394|337:285|425:243|425:243|476:217|489:169|452:107,1,375
499,36,107673,5,0,0:0:0:0:
428,10,107771,1,0,0:0:0:0:
355,27,107869,1,0,0:0:0:0:
314,89,107967,1,0,0:0:0:0:
320,189,108065,2,0,P|315:234|292:269,1,75.0000028610231
129,314,108261,5,0,0:0:0:0:
53,284,108359,1,0,0:0:0:0:
0,347,108457,1,0,0:0:0:0:
77,375,108555,2,0,P|85:335|78:294,1,75.0000028610231
35,145,108752,5,0,0:0:0:0:
73,140,108850,2,0,L|154:130,1,75.0000028610231
222,29,109046,2,0,L|296:38,1,75.0000028610231
444,89,109242,5,0,0:0:0:0:
427,184,109340,1,0,0:0:0:0:
483,255,109438,5,0,0:0:0:0:
426,304,109536,1,0,0:0:0:0:
434,377,109634,5,0,0:0:0:0:
413,368,109732,1,0,0:0:0:0:
390,363,109830,1,0,0:0:0:0:
367,364,109928,1,0,0:0:0:0:
284,384,110026,5,0,0:0:0:0:
206,302,110124,1,0,0:0:0:0:
272,230,110222,1,0,0:0:0:0:
231,158,110320,1,0,0:0:0:0:
304,68,110418,5,0,0:0:0:0:
256,90,110516,1,0,0:0:0:0:
186,86,110614,1,0,0:0:0:0:
121,23,110712,1,0,0:0:0:0:
18,118,110810,6,0,P|70:115|143:151,1,125
278,341,111006,2,0,P|249:296|244:215,1,125
337,1,111203,2,0,P|313:48|245:93,1,125
6,151,111399,5,0,0:0:0:0:
19,30,111497,1,0,0:0:0:0:
340,290,111693,5,0,0:0:0:0:
323,140,111791,1,0,0:0:0:0:
20,354,111987,6,0,B|8:292|8:292|42:237,1,125
221,111,112183,2,0,B|254:164|254:164|242:226,1,125
448,366,112379,6,0,P|424:319|356:273,1,125
389,31,112575,2,0,P|360:75|355:156,1,125
124,252,112771,2,0,P|176:254|249:218,1,125
480,374,112967,5,0,0:0:0:0:
498,240,113065,1,0,0:0:0:0:
248,195,113261,5,0,0:0:0:0:
230,61,113359,1,0,0:0:0:0:
84,337,113556,6,0,B|62:321|62:321|161:327,1,125
276,333,113752,1,0,0:0:0:0:
0,384,113948,5,0,0:0:0:0:
