osu file format v14

[General]
AudioFilename: audio.mp3
AudioLeadIn: 0
PreviewTime: 88418
Countdown: 1
SampleSet: Soft
StackLeniency: 0.3
Mode: 0
LetterboxInBreaks: 0
WidescreenStoryboard: 1

[Editor]
Bookmarks: 13909,26743,64104,70379
DistanceSpacing: 1.6
BeatDivisor: 4
GridSize: 4
TimelineZoom: 2

[Metadata]
Title:Amazing Mirage
TitleUnicode:Amazing Mirage
Artist:lapix
ArtistUnicode:lapix
Creator:CrazyrabbitKGE
Version:Hyper
Source:beatmania IIDX 24 SINOBUZ
Tags:bemani konami
BeatmapID:1457003
BeatmapSetID:684792

[Difficulty]
HPDrainRate:5
CircleSize:3
OverallDifficulty:6
ApproachRate:8.5
SliderMultiplier:1.4
SliderTickRate:1

[Events]
//Background and Video events
0,0,"28313263_p0.jpg",0,0
//Break Periods
2,64305,69704
//Storyboard Layer 0 (Background)
//Storyboard Layer 1 (Fail)
//Storyboard Layer 2 (Pass)
//Storyboard Layer 3 (Foreground)
//Storyboard Sound Samples

[TimingPoints]
1360,392.156862745098,4,2,1,35,1,0
2536,-90.9090909090909,4,2,1,35,0,0
2634,-90.9090909090909,4,2,1,5,0,0
2732,-90.9090909090909,4,2,1,35,0,0
2830,-90.9090909090909,4,2,1,5,0,0
2928,-100,4,2,1,35,0,0
4203,-100,4,2,1,5,0,0
4301,-100,4,2,1,35,0,0
4399,-100,4,2,1,5,0,0
4497,-100,4,2,1,45,0,0
5673,-90.9090909090909,4,2,1,45,0,0
5771,-90.9090909090909,4,2,1,5,0,0
5869,-90.9090909090909,4,2,1,45,0,0
5967,-90.9090909090909,4,2,1,5,0,0
6065,-100,4,2,1,45,0,0
6752,-100,4,2,1,5,0,0
6850,-100,4,2,0,60,0,0
7634,-90.9090909090909,4,2,1,80,0,0
7928,-90.9090909090909,4,2,1,5,0,0
8026,-90.9090909090909,4,2,1,80,0,0
8908,-90.9090909090909,4,2,1,5,0,0
9007,-90.9090909090909,4,2,1,80,0,0
9105,-90.9090909090909,4,2,1,5,0,0
9203,-90.9090909090909,4,2,1,80,0,0
9497,-90.9090909090909,4,2,1,5,0,0
9595,-90.9090909090909,4,2,1,80,0,0
10477,-90.9090909090909,4,2,1,5,0,0
10575,-90.9090909090909,4,2,1,80,0,0
10673,-90.9090909090909,4,2,1,5,0,0
10771,-90.9090909090909,4,2,1,80,0,0
11065,-90.9090909090909,4,2,1,5,0,0
11163,-90.9090909090909,4,2,1,80,0,0
12046,-90.9090909090909,4,2,1,5,0,0
12144,-90.9090909090909,4,2,1,80,0,0
12242,-90.9090909090909,4,2,1,5,0,0
12340,-90.9090909090909,4,2,1,80,0,0
13026,-90.9090909090909,4,2,1,5,0,0
13124,-90.9090909090909,4,2,1,80,0,0
13516,-66.6666666666667,4,2,1,80,0,0
13614,-66.6666666666667,4,2,1,5,0,0
13712,-66.6666666666667,4,2,1,80,0,0
13810,-66.6666666666667,4,2,1,5,0,0
13909,-66.6666666666667,4,2,3,80,0,0
14007,-66.6666666666667,4,2,3,5,0,0
14105,-66.6666666666667,4,2,3,80,0,0
14203,-66.6666666666667,4,2,3,5,0,0
14301,-58.8235294117647,4,2,1,80,0,0
14595,-66.6666666666667,4,2,1,80,0,0
14987,-66.6666666666667,4,2,1,5,0,0
15085,-58.8235294117647,4,2,1,80,0,0
15183,-58.8235294117647,4,2,1,5,0,0
15281,-58.8235294117647,4,2,1,80,0,0
15379,-58.8235294117647,4,2,1,5,0,0
15477,-58.8235294117647,4,2,1,80,0,0
15575,-58.8235294117647,4,2,1,5,0,0
15673,-58.8235294117647,4,2,1,80,0,0
15771,-58.8235294117647,4,2,1,5,0,0
15869,-58.8235294117647,4,2,1,80,0,0
16261,-66.6666666666667,4,2,1,80,0,0
16948,-66.6666666666667,4,2,1,5,0,0
17046,-66.6666666666667,4,2,1,80,0,0
17144,-66.6666666666667,4,2,1,5,0,0
17242,-66.6666666666667,4,2,1,80,0,0
17340,-66.6666666666667,4,2,1,5,0,0
17438,-58.8235294117647,4,2,1,80,0,0
17830,-66.6666666666667,4,2,1,5,0,0
17928,-66.6666666666667,4,2,1,80,0,0
18124,-66.6666666666667,4,2,1,5,0,0
18222,-58.8235294117647,4,2,1,80,0,0
18320,-58.8235294117647,4,2,1,5,0,0
18418,-58.8235294117647,4,2,1,80,0,0
18516,-58.8235294117647,4,2,1,5,0,0
18614,-76.9230769230769,4,2,1,80,0,0
18908,-76.9230769230769,4,2,1,5,0,0
19007,-76.9230769230769,4,2,1,80,0,0
19056,-76.9230769230769,4,2,1,5,0,0
19105,-76.9230769230769,4,2,1,80,0,0
19154,-76.9230769230769,4,2,1,5,0,0
19203,-76.9230769230769,4,2,1,80,0,0
19252,-76.9230769230769,4,2,1,5,0,0
19301,-76.9230769230769,4,2,1,80,0,0
19350,-76.9230769230769,4,2,1,5,0,0
19399,-76.9230769230769,4,2,1,80,0,0
19497,-76.9230769230769,4,2,1,5,0,0
19595,-76.9230769230769,4,2,1,80,0,0
19693,-76.9230769230769,4,2,1,5,0,0
19791,-76.9230769230769,4,2,1,80,0,0
19889,-76.9230769230769,4,2,1,5,0,0
19987,-76.9230769230769,4,2,1,80,0,0
20085,-76.9230769230769,4,2,1,5,0,0
20183,-58.8235294117647,4,2,1,80,0,0
20281,-58.8235294117647,4,2,1,5,0,0
20477,-58.8235294117647,4,2,1,80,0,0
20575,-58.8235294117647,4,2,1,5,0,0
20771,-58.8235294117647,4,2,1,100,0,0
20869,-58.8235294117647,4,2,1,5,0,0
21065,-58.8235294117647,4,2,1,100,0,0
21163,-58.8235294117647,4,2,1,5,0,0
21360,-58.8235294117647,4,2,1,100,0,0
21458,-58.8235294117647,4,2,1,5,0,0
21654,-58.8235294117647,4,2,1,100,0,0
21752,-58.8235294117647,4,2,1,5,0,0
21948,-58.8235294117647,4,2,1,100,0,0
22046,-58.8235294117647,4,2,1,5,0,0
22242,-58.8235294117647,4,2,1,100,0,0
22340,-58.8235294117647,4,2,1,5,0,0
22536,-66.6666666666667,4,2,1,100,0,0
22634,-66.6666666666667,4,2,1,5,0,0
22732,-66.6666666666667,4,2,1,100,0,0
22830,-66.6666666666667,4,2,1,5,0,0
22928,-66.6666666666667,4,2,1,100,0,0
23026,-66.6666666666667,4,2,1,5,0,0
23124,-66.6666666666667,4,2,1,100,0,0
23222,-66.6666666666667,4,2,1,5,0,0
23320,-83.3333333333333,4,2,1,100,0,0
24889,-100,4,2,1,100,0,0
25183,-100,4,2,1,5,0,0
25281,-100,4,2,1,100,0,0
25379,-100,4,2,1,5,0,0
25477,-100,4,2,1,100,0,0
25575,-100,4,2,1,5,0,0
25673,-100,4,2,1,100,0,0
25967,-100,4,2,1,5,0,0
26065,-100,4,2,0,100,0,0
26114,-100,4,2,0,5,0,0
26458,-50,4,2,1,80,0,0
26556,-50,4,2,1,5,0,0
26654,-50,4,2,1,80,0,0
26752,-50,4,2,1,5,0,0
26850,-50,4,2,1,80,0,0
27046,-45.4545454545455,4,2,1,80,0,0
27144,-45.4545454545455,4,2,1,5,0,0
27242,-66.6666666666667,4,2,1,80,0,0
27536,-66.6666666666667,4,2,1,5,0,0
27634,-50,4,2,1,80,0,0
27928,-50,4,2,1,5,0,0
28026,-50,4,2,1,80,0,0
28124,-50,4,2,1,5,0,0
28222,-50,4,2,1,80,0,0
28320,-50,4,2,1,5,0,0
28418,-50,4,2,1,80,0,0
28614,-45.4545454545455,4,2,1,80,0,0
28712,-45.4545454545455,4,2,1,5,0,0
28810,-66.6666666666667,4,2,1,80,0,0
29007,-50,4,2,1,80,0,0
29105,-50,4,2,1,5,0,0
29203,-50,4,2,1,80,0,0
29301,-50,4,2,1,5,0,0
29399,-50,4,2,1,80,0,0
29497,-50,4,2,1,5,0,0
29595,-50,4,2,1,80,0,0
29693,-50,4,2,1,5,0,0
29791,-50,4,2,1,80,0,0
29889,-50,4,2,1,5,0,0
29987,-66.6666666666667,4,2,1,80,0,0
30085,-66.6666666666667,4,2,3,5,0,0
30183,-66.6666666666667,4,2,3,80,0,0
30771,-66.6666666666667,4,2,1,80,0,0
30869,-66.6666666666667,4,2,1,5,0,0
30967,-45.4545454545455,4,2,1,80,0,0
31065,-45.4545454545455,4,2,1,5,0,0
31163,-66.6666666666667,4,2,2,80,0,0
31261,-66.6666666666667,4,2,2,5,0,0
31360,-66.6666666666667,4,2,2,80,0,0
31458,-66.6666666666667,4,2,2,5,0,0
31556,-66.6666666666667,4,2,2,80,0,0
31850,-66.6666666666667,4,2,2,5,0,0
31948,-66.6666666666667,4,2,1,80,0,0
32046,-66.6666666666667,4,2,1,5,0,0
32144,-66.6666666666667,4,2,1,80,0,0
32242,-66.6666666666667,4,2,1,5,0,0
32340,-66.6666666666667,4,2,1,80,0,0
32732,-50,4,2,1,80,0,0
32830,-50,4,2,1,5,0,0
32928,-50,4,2,1,80,0,0
33026,-50,4,2,1,5,0,0
33124,-50,4,2,1,80,0,0
33222,-50,4,2,1,5,0,0
33320,-50,4,2,1,80,0,0
33418,-50,4,2,1,5,0,0
33516,-50,4,2,1,80,0,0
33614,-50,4,2,0,80,0,0
33909,-45.4545454545455,4,2,1,80,0,0
34007,-45.4545454545455,4,2,1,5,0,0
34105,-45.4545454545455,4,2,1,80,0,0
34203,-45.4545454545455,4,2,1,5,0,0
34301,-45.4545454545455,4,2,1,80,0,0
34399,-45.4545454545455,4,2,2,5,0,0
34497,-45.4545454545455,4,2,2,80,0,0
34693,-66.6666666666667,4,2,3,80,0,0
35085,-50,4,2,3,80,0,0
35477,-50,4,2,1,80,0,0
35575,-50,4,2,1,5,0,0
35673,-50,4,2,1,80,0,0
35771,-50,4,2,1,5,0,0
35869,-50,4,2,1,100,0,0
35967,-50,4,2,1,5,0,0
36065,-50,4,2,1,100,0,0
36163,-50,4,2,1,5,0,0
36261,-66.6666666666667,4,2,1,100,0,0
36359,-66.6666666666667,4,2,1,5,0,0
36458,-66.6666666666667,4,2,1,100,0,0
36556,-66.6666666666667,4,2,1,5,0,0
36654,-66.6666666666667,4,2,1,100,0,0
36752,-66.6666666666667,4,2,1,5,0,0
36850,-66.6666666666667,4,2,1,100,0,0
37340,-66.6666666666667,4,2,1,5,0,0
37438,-66.6666666666667,4,2,1,100,0,0
38222,-100,4,2,1,100,0,0
39007,-100,4,2,3,100,0,0
39105,-100,4,2,3,5,0,0
39203,-100,4,2,3,100,0,0
39301,-100,4,2,3,5,0,0
39399,-66.6666666666667,4,2,1,100,0,0
39497,-66.6666666666667,4,2,1,5,0,0
39595,-66.6666666666667,4,2,1,100,0,0
39840,-66.6666666666667,4,2,1,5,0,0
39889,-66.6666666666667,4,2,1,100,0,0
40673,-66.6666666666667,4,2,1,5,0,0
40771,-66.6666666666667,4,2,1,100,0,0
40869,-66.6666666666667,4,2,1,5,0,0
40967,-66.6666666666667,4,2,1,100,0,0
41065,-66.6666666666667,4,2,1,5,0,0
41163,-66.6666666666667,4,2,1,100,0,0
41409,-66.6666666666667,4,2,1,5,0,0
41458,-66.6666666666667,4,2,1,100,0,0
41507,-66.6666666666667,4,2,1,5,0,0
41654,-66.6666666666667,4,2,1,100,0,0
41850,-66.6666666666667,4,2,1,5,0,0
41948,-66.6666666666667,4,2,1,100,0,0
42046,-66.6666666666667,4,2,1,5,0,0
42144,-66.6666666666667,4,2,4,100,0,0
42928,-66.6666666666667,4,2,1,100,0,0
43614,-66.6666666666667,4,2,1,5,0,0
43712,-66.6666666666667,4,2,1,100,0,0
43810,-66.6666666666667,4,2,1,5,0,0
43909,-66.6666666666667,4,2,1,100,0,0
44007,-66.6666666666667,4,2,1,5,0,0
44105,-66.6666666666667,4,2,1,100,0,0
44203,-66.6666666666667,4,2,1,5,0,0
44301,-66.6666666666667,4,2,1,100,0,0
44399,-66.6666666666667,4,2,1,5,0,0
44497,-55.5555555555556,4,2,1,100,0,0
45183,-55.5555555555556,4,2,1,5,0,0
45281,-66.6666666666667,4,2,1,100,0,0
45379,-66.6666666666667,4,2,1,5,0,0
45477,-66.6666666666667,4,2,1,100,0,0
45771,-66.6666666666667,4,2,1,5,0,0
45869,-66.6666666666667,4,2,1,100,0,0
46556,-66.6666666666667,4,2,1,5,0,0
46654,-66.6666666666667,4,2,1,100,0,0
46850,-55.5555555555556,4,2,1,100,0,0
46948,-55.5555555555556,4,2,1,5,0,0
47046,-55.5555555555556,4,2,1,100,0,0
47340,-55.5555555555556,4,2,1,5,0,0
47438,-55.5555555555556,4,2,1,100,0,0
47536,-100,4,2,1,100,0,0
47634,-100,4,2,1,5,0,0
47732,-100,4,2,1,100,0,0
47830,-100,4,2,1,5,0,0
47928,-100,4,2,1,100,0,0
48026,-100,4,2,1,5,0,0
48124,-100,4,2,1,100,0,0
48320,-100,4,2,1,5,0,0
50771,-66.6666666666667,4,2,1,100,0,0
51065,-66.6666666666667,4,2,1,5,0,0
51163,-66.6666666666667,4,2,1,100,0,0
51310,-66.6666666666667,4,2,1,5,0,0
51556,-76.9230769230769,4,2,1,100,0,0
51850,-76.9230769230769,4,2,1,5,0,0
51948,-76.9230769230769,4,2,1,100,0,0
52732,-76.9230769230769,4,2,4,100,0,0
52781,-76.9230769230769,4,2,4,5,0,0
52830,-76.9230769230769,4,2,4,100,0,0
52879,-76.9230769230769,4,2,4,5,0,0
52928,-76.9230769230769,4,2,4,100,0,0
52977,-76.9230769230769,4,2,4,5,0,0
53124,-76.9230769230769,4,2,1,100,0,0
53909,-66.6666666666667,4,2,1,100,0,0
54301,-76.9230769230769,4,2,1,100,0,0
54791,-76.9230769230769,4,2,1,5,0,0
54889,-76.9230769230769,4,2,1,100,0,0
54938,-76.9230769230769,4,2,1,5,0,0
55085,-76.9230769230769,4,2,1,100,0,0
55869,-76.9230769230769,4,2,4,100,0,0
55918,-76.9230769230769,4,2,4,5,0,0
55967,-76.9230769230769,4,2,4,100,0,0
56016,-76.9230769230769,4,2,4,5,0,0
56065,-76.9230769230769,4,2,4,100,0,0
56114,-76.9230769230769,4,2,4,5,0,0
56261,-76.9230769230769,4,2,4,100,0,0
57830,-76.9230769230769,4,2,1,100,0,0
57928,-76.9230769230769,4,2,1,5,0,0
58026,-76.9230769230769,4,2,1,100,0,0
58222,-100,4,2,1,100,0,0
58418,-100,4,2,1,5,0,0
58614,-100,4,2,1,100,0,0
58712,-100,4,2,1,5,0,0
58810,-100,4,2,1,100,0,0
58908,-100,4,2,1,5,0,0
59007,-100,4,2,1,100,0,0
59105,-100,4,2,1,5,0,0
59203,-100,4,2,1,100,0,0
59301,-100,4,2,1,5,0,0
59399,-100,4,2,1,100,0,0
59693,-100,4,2,1,5,0,0
59791,-100,4,2,1,100,0,0
60085,-100,4,2,1,5,0,0
60183,-100,4,2,1,100,0,0
60477,-100,4,2,1,5,0,0
60575,-100,4,2,1,100,0,0
60869,-100,4,2,1,5,0,0
60967,-100,4,2,1,100,0,0
62536,-100,4,2,1,60,0,0
63320,-100,4,2,1,100,0,0
70379,-100,4,2,1,70,0,0
70575,-100,4,2,1,5,0,0
70673,-100,4,2,1,70,0,0
70869,-100,4,2,1,5,0,0
70967,-100,4,2,1,70,0,0
71653,-100,4,2,1,5,0,0
71751,-100,4,2,1,70,0,0
71849,-100,4,2,1,5,0,0
71947,-100,4,2,1,70,0,0
72143,-100,4,2,1,5,0,0
72241,-100,4,2,1,70,0,0
72437,-100,4,2,1,5,0,0
72536,-100,4,2,1,70,0,0
73222,-100,4,2,1,5,0,0
73320,-100,4,2,1,70,0,0
73418,-100,4,2,1,5,0,0
73516,-100,4,2,1,100,0,0
73810,-100,4,2,1,5,0,0
73908,-100,4,2,1,100,0,0
74104,-100,4,2,1,5,0,0
74202,-100,4,2,1,100,0,0
74594,-100,4,2,1,5,0,0
74692,-100,4,2,1,100,0,0
75379,-100,4,2,1,5,0,0
75477,-100,4,2,1,100,0,0
75771,-100,4,2,1,5,0,0
75869,-100,4,2,1,100,0,0
76065,-100,4,2,1,5,0,0
76163,-100,4,2,1,100,0,0
76359,-100,4,2,1,5,0,0
76457,-100,4,2,1,100,0,0
76555,-100,4,2,1,5,0,0
76653,-100,4,2,1,60,0,0
77437,-100,4,2,1,80,0,0
78222,-76.9230769230769,4,2,1,100,0,0
78271,-76.9230769230769,4,2,1,5,0,0
78320,-76.9230769230769,4,2,1,100,0,0
78369,-76.9230769230769,4,2,1,5,0,0
78418,-76.9230769230769,4,2,1,100,0,0
78467,-76.9230769230769,4,2,1,5,0,0
78516,-76.9230769230769,4,2,1,100,0,0
78565,-76.9230769230769,4,2,1,5,0,0
78614,-76.9230769230769,4,2,1,100,0,0
78663,-76.9230769230769,4,2,1,5,0,0
78712,-76.9230769230769,4,2,1,100,0,0
78761,-76.9230769230769,4,2,1,5,0,0
78810,-76.9230769230769,4,2,1,100,0,0
78859,-76.9230769230769,4,2,1,5,0,0
78908,-76.9230769230769,4,2,1,100,0,0
78957,-76.9230769230769,4,2,1,5,0,0
79006,-76.9230769230769,4,2,1,100,0,0
79007,-100,4,2,1,100,0,0
79104,-100,4,2,1,5,0,0
79202,-100,4,2,1,100,0,0
79398,-100,4,2,1,5,0,0
79496,-100,4,2,1,100,0,0
79791,-76.9230769230769,4,2,1,100,0,0
81359,-76.9230769230769,4,2,2,100,0,0
81457,-76.9230769230769,4,2,2,5,0,0
81555,-76.9230769230769,4,2,2,100,0,0
81751,-76.9230769230769,4,2,2,5,0,0
81849,-76.9230769230769,4,2,2,100,0,0
82045,-76.9230769230769,4,2,2,5,0,0
82143,-76.9230769230769,4,2,2,100,0,0
82928,-76.9230769230769,4,2,1,80,0,0
84496,-76.9230769230769,4,2,1,90,0,0
86065,-76.9230769230769,4,2,1,100,0,0
88418,-76.9230769230769,4,2,3,100,0,0
89202,-76.9230769230769,4,2,1,100,0,0
89203,-50,4,2,1,100,0,1
91163,-58.8235294117647,4,2,1,100,0,1
92437,-58.8235294117647,4,2,1,5,0,1
92535,-58.8235294117647,4,2,1,100,0,1
92633,-58.8235294117647,4,2,1,5,0,1
92731,-58.8235294117647,4,2,1,100,0,1
92829,-58.8235294117647,4,2,1,5,0,1
92927,-58.8235294117647,4,2,1,100,0,1
93613,-58.8235294117647,4,2,1,5,0,1
93711,-58.8235294117647,4,2,1,100,0,1
94006,-58.8235294117647,4,2,1,5,0,1
94104,-58.8235294117647,4,2,1,100,0,1
94202,-58.8235294117647,4,2,1,5,0,1
94299,-58.8235294117647,4,2,1,100,0,1
94397,-58.8235294117647,4,2,1,5,0,1
94495,-58.8235294117647,4,2,1,100,0,1
95183,-58.8235294117647,4,2,1,5,0,1
95280,-58.8235294117647,4,2,1,100,0,1
96261,-50,4,2,1,100,0,1
97438,-58.8235294117647,4,2,1,100,0,1
97830,-50,4,2,1,100,0,1
98222,-58.8235294117647,4,2,1,100,0,1
98711,-58.8235294117647,4,2,1,5,0,1
98809,-58.8235294117647,4,2,1,100,0,1
98907,-58.8235294117647,4,2,1,5,0,1
99005,-58.8235294117647,4,2,1,100,0,1
99103,-58.8235294117647,4,2,1,5,0,1
99201,-58.8235294117647,4,2,1,100,0,1
99888,-58.8235294117647,4,2,1,5,0,1
99986,-58.8235294117647,4,2,1,100,0,1
100280,-58.8235294117647,4,2,1,5,0,1
100378,-58.8235294117647,4,2,1,100,0,1
100672,-58.8235294117647,4,2,1,5,0,1
100770,-58.8235294117647,4,2,1,100,0,1
100967,-58.8235294117647,4,2,1,100,0,0
101752,-50,4,2,1,100,0,1
103712,-58.8235294117647,4,2,1,100,0,1
104986,-58.8235294117647,4,2,1,5,0,1
105084,-58.8235294117647,4,2,1,100,0,1
105182,-58.8235294117647,4,2,1,5,0,1
105280,-58.8235294117647,4,2,1,100,0,1
105378,-58.8235294117647,4,2,1,5,0,1
105476,-58.8235294117647,4,2,1,100,0,1
106162,-58.8235294117647,4,2,1,5,0,1
106260,-58.8235294117647,4,2,1,100,0,1
106554,-58.8235294117647,4,2,1,5,0,1
106652,-58.8235294117647,4,2,1,100,0,1
106750,-58.8235294117647,4,2,1,5,0,1
106848,-58.8235294117647,4,2,1,100,0,1
106946,-58.8235294117647,4,2,1,5,0,1
107044,-58.8235294117647,4,2,1,100,0,1
107731,-58.8235294117647,4,2,1,5,0,1
107829,-58.8235294117647,4,2,1,100,0,1
108810,-50,4,2,1,100,0,1
109987,-58.8235294117647,4,2,1,100,0,1
110379,-50,4,2,1,100,0,1
110771,-58.8235294117647,4,2,1,100,0,1
111260,-58.8235294117647,4,2,1,5,0,1
111358,-58.8235294117647,4,2,1,100,0,1
111456,-58.8235294117647,4,2,1,5,0,1
111554,-58.8235294117647,4,2,1,100,0,1
111652,-58.8235294117647,4,2,1,5,0,1
111750,-58.8235294117647,4,2,1,100,0,1
112437,-58.8235294117647,4,2,1,5,0,1
112535,-58.8235294117647,4,2,1,100,0,1
112829,-58.8235294117647,4,2,1,5,0,1
112927,-58.8235294117647,4,2,1,100,0,1
113025,-58.8235294117647,4,2,1,5,0,1
113123,-58.8235294117647,4,2,1,100,0,1
113221,-58.8235294117647,4,2,1,5,0,1
113319,-58.8235294117647,4,2,1,100,0,1
114005,-58.8235294117647,4,2,1,5,0,1
114103,-58.8235294117647,4,2,1,100,0,1
114201,-58.8235294117647,4,2,1,5,0,1
114301,-50,4,2,1,100,0,0

[Colours]
Combo1 : 213,85,255
Combo2 : 255,74,43
Combo3 : 237,237,61
Combo4 : 53,205,255

[HitObjects]
81,72,1360,6,0,P|148:59|205:96,1,140,4|0,0:1|0:0,0:0:0:0:
130,149,1948,1,0,0:0:0:0:
137,156,2242,2,0,L|122:224,1,70,0|0,0:0|0:0,0:0:0:0:
112,262,2536,2,0,P|149:259|184:275,1,77.0000023498536,0|0,0:0|0:0,0:0:0:0:
255,344,2928,6,0,P|321:330|379:367,1,140,0|0,0:0|0:0,0:0:0:0:
453,327,3516,1,0,0:0:0:0:
460,334,3810,2,0,L|475:266,1,70,0|0,0:0|0:0,0:0:0:0:
484,227,4105,2,0,P|450:229|419:214,1,70,0|0,0:0|0:0,0:0:0:0:
335,194,4497,6,0,P|268:207|211:170,1,140,0|0,0:0|0:0,0:0:0:0:
286,117,5085,1,0,0:0:0:0:
293,124,5379,2,0,L|308:56,1,70,0|0,0:0|0:0,0:0:0:0:
349,64,5673,2,0,P|383:80|421:77,1,77.0000023498536,0|0,0:0|0:0,0:0:0:0:
505,97,6065,6,0,P|467:154|480:221,1,140,0|0,0:0|0:0,0:0:0:0:
406,265,6654,1,0,0:0:0:0:
362,190,6850,5,2,0:0:0:0:
337,165,6948,1,2,0:0:0:0:
304,152,7046,1,2,0:0:0:0:
270,152,7144,1,2,0:0:0:0:
237,165,7242,2,0,L|207:183,3,35,2|2|2|2,0:0|0:0|0:0|0:0,0:0:0:0:
173,215,7634,6,0,P|110:173|37:187,1,154.000004699707,6|8,0:0|0:0,0:0:0:0:
91,269,8222,1,0,0:0:0:0:
98,276,8418,2,0,L|154:327,1,77.0000023498536,0|0,0:0|0:0,0:0:0:0:
237,286,8810,2,0,L|293:337,1,77.0000023498536,8|0,0:0|0:0,0:0:0:0:
376,296,9203,6,0,P|439:338|512:324,1,154.000004699707,0|8,0:0|0:0,0:0:0:0:
451,235,9791,1,0,0:0:0:0:
457,241,9987,2,0,L|401:190,1,77.0000023498536,0|0,0:0|0:0,0:0:0:0:
318,231,10379,2,0,L|262:180,1,77.0000023498536,8|0,0:0|0:0,0:0:0:0:
177,219,10771,6,0,P|103:233|41:192,1,154.000004699707,0|8,0:0|0:0,0:0:0:0:
123,138,11360,1,0,0:0:0:0:
156,127,11458,1,0,0:0:0:0:
189,116,11556,2,0,L|225:104,2,38.5000011749268,0|0|0,0:0|0:0|0:0,0:0:0:0:
305,77,11948,2,0,P|309:113|297:150,1,77.0000023498536,8|0,0:0|0:0,0:0:0:0:
240,224,12340,6,0,B|246:233|246:233|247:225|247:225|254:234|254:234|255:227|255:227|262:236|262:236|263:228|263:228|269:237|269:237|271:230|271:230|277:239|277:239|279:231|279:231|285:241|285:241|287:233|287:233|293:242|293:242|294:234|294:234|301:244|301:244|302:236|302:236|381:251,1,231.000007049561,0|0,0:0|0:0,0:0:0:0:
468,270,13124,2,0,L|456:233,3,38.5000011749268,4|0|0|0,3:0|3:0|3:0|3:0,0:0:0:0:
469,171,13516,1,0,0:0:0:0:
411,82,13712,1,0,0:0:0:0:
296,151,13909,6,0,P|248:130|196:132,1,105.000004005432,12|0,0:0|0:0,0:0:0:0:
115,24,14301,2,0,L|87:147,1,119.000002269745,12|2,0:0|0:0,0:0:0:0:
115,184,14595,1,2,0:0:0:0:
122,191,14693,2,0,L|111:245,2,52.5000020027161,0|2|2,0:0|0:0|0:0,0:0:0:0:
296,151,15085,2,0,L|269:267,1,119.000002269745,12|0,0:0|0:0,0:0:0:0:
368,367,15477,5,2,0:0:0:0:
457,309,15673,1,0,0:0:0:0:
388,194,15869,2,0,L|415:78,1,119.000002269745,12|0,0:0|0:0,0:0:0:0:
356,50,16163,1,2,0:0:0:0:
349,57,16261,2,0,L|295:46,3,52.5000020027161,2|2|2|0,0:0|0:0|0:0|0:0,0:0:0:0:
253,73,16654,1,12,0:0:0:0:
311,160,16850,1,0,0:0:0:0:
214,239,17046,6,0,P|161:240|114:219,1,105.000004005432,2|0,0:0|0:0,0:0:0:0:
38,109,17438,2,0,L|11:225,1,119.000002269745,12|0,0:0|0:0,0:0:0:0:
38,268,17732,1,2,0:0:0:0:
45,275,17830,2,0,L|34:329,2,52.5000020027161,0|2|2,0:0|0:0|0:0,0:0:0:0:
214,239,18222,2,0,L|190:355,1,119.000002269745,12|0,0:0|0:0,0:0:0:0:
303,317,18614,6,0,P|365:344|433:342,1,136.499993751526,2|0,0:0|0:0,0:0:0:0:
476,315,19007,2,0,L|486:263,3,45.4999979171754,0|0|0|0,0:0|0:0|0:0|0:0,0:0:0:0:
457,226,19399,1,0,0:0:0:0:
399,139,19595,1,0,0:0:0:0:
312,197,19791,2,0,P|266:197|226:179,1,90.9999958343508,0|0,0:0|0:0,0:0:0:0:
143,62,20183,6,0,L|108:237,2,178.500003404617,2|2|2,0:0|0:0|0:0,0:0:0:0:
277,179,21065,2,0,L|242:354,2,178.500003404617,2|2|2,0:0|0:0|0:0,0:0:0:0:
411,296,21948,2,0,L|445:120,1,178.500003404617,2|2,0:0|0:0,0:0:0:0:
310,2,22536,5,2,0:0:0:0:
223,60,22732,1,2,0:0:0:0:
281,147,22928,2,0,L|260:249,1,105.000004005432,2|2,0:0|0:0,0:0:0:0:
154,318,23320,6,0,L|112:309,3,41.9999987182618,4|0|0|0,0:1|0:0|0:0|0:0,0:0:0:0:
88,274,23712,2,0,L|56:246,3,41.9999987182618,0|0|0|0,0:0|0:0|0:0|0:0,0:0:0:0:
52,202,24105,2,0,L|38:162,3,41.9999987182618,0|0|0|0,0:0|0:0|0:0|0:0,0:0:0:0:
56,121,24497,2,0,L|64:79,3,41.9999987182618,0|0|0|0,0:0|0:0|0:0|0:0,0:0:0:0:
117,89,24889,5,0,0:0:0:0:
161,97,24987,1,0,0:0:0:0:
206,106,25085,1,0,0:0:0:0:
267,196,25281,1,0,0:0:0:0:
357,135,25477,1,0,0:0:0:0:
418,225,25673,6,0,P|418:259|404:291,1,70,0|0,0:0|0:0,0:0:0:0:
314,352,26065,1,2,0:0:0:0:
321,359,26458,6,0,L|291:208,1,140,2|0,0:0|0:0,0:0:0:0:
348,66,26850,1,4,0:3:0:0:
306,75,26948,1,4,0:3:0:0:
265,83,27046,2,0,L|189:99,1,77.0000023498536,2|0,0:0|0:0,0:0:0:0:
158,140,27242,2,0,L|106:150,1,52.5000020027161,2|0,0:0|0:0,0:0:0:0:
165,147,27634,6,0,L|179:215,1,70,2|0,0:0|0:0,0:0:0:0:
140,273,27830,1,0,0:0:0:0:
280,365,28026,6,0,L|348:351,1,70,2|0,0:0|0:0,0:0:0:0:
393,279,28222,1,0,0:0:0:0:
509,355,28418,1,4,0:3:0:0:
500,313,28516,1,4,0:3:0:0:
492,272,28614,2,0,L|476:196,1,77.0000023498536,2|2,0:0|0:0,0:0:0:0:
427,158,28810,2,0,L|416:106,1,52.5000020027161,2|0,0:0|0:0,0:0:0:0:
434,165,29203,5,2,0:0:0:0:
317,86,29399,1,2,0:0:0:0:
238,203,29595,5,0,0:0:0:0:
98,109,29791,1,2,0:0:0:0:
131,275,29987,2,0,L|143:337,2,52.5000020027161,14|0|0,0:0|0:0|0:0,0:0:0:0:
57,223,30379,5,10,0:0:0:0:
82,199,30477,1,2,0:0:0:0:
114,187,30575,1,2,0:0:0:0:
149,186,30673,1,2,0:0:0:0:
181,200,30771,1,0,0:0:0:0:
285,305,30967,2,0,L|270:229,1,77.0000023498536,2|0,0:0|0:1,0:0:0:0:
252,138,31163,6,0,P|304:137|352:118,1,105.000004005432,6|0,0:0|0:0,0:0:0:0:
471,190,31556,2,0,P|418:190|370:209,1,105.000004005432,6|0,0:0|0:0,0:0:0:0:
490,290,31948,1,8,0:0:0:0:
360,353,32144,1,8,0:0:0:0:
240,272,32340,2,0,L|192:295,3,52.5000020027161,8|8|4|4,0:3|0:3|0:3|0:3,0:0:0:0:
117,332,32732,6,0,L|90:194,1,140,6|0,0:0|0:0,0:0:0:0:
168,78,33124,1,2,0:0:0:0:
284,156,33320,1,0,0:0:0:0:
363,41,33516,5,2,0:0:0:0:
366,59,33614,1,2,0:0:0:0:
370,78,33712,1,2,0:0:0:0:
373,97,33810,1,2,0:0:0:0:
378,117,33909,2,0,L|394:203,1,77.0000023498536,6|0,0:0|0:0,0:0:0:0:
468,243,34105,1,0,0:0:0:0:
326,360,34301,5,6,0:0:0:0:
296,208,34497,1,4,0:0:0:0:
180,310,34693,2,0,L|128:320,3,52.5000020027161,10|2|2|2,0:0|0:0|0:0|0:0,0:0:0:0:
59,333,35085,2,0,L|98:274,1,70,10|2,0:0|0:0,0:0:0:0:
40,235,35281,2,0,L|79:176,1,70,10|2,0:0|0:0,0:0:0:0:
21,137,35477,1,2,0:0:0:0:
99,20,35673,1,0,0:0:0:0:
174,172,35869,5,10,0:0:0:0:
267,31,36065,1,10,0:0:0:0:
328,158,36261,2,0,P|327:210|347:257,1,105.000004005432,0|0,0:0|0:0,0:0:0:0:
441,117,36654,1,10,0:0:0:0:
473,281,36850,1,6,0:0:0:0:
163,341,37438,6,0,L|214:330,1,52.5000020027161,6|8,0:0|0:0,0:0:0:0:
262,237,37732,2,0,L|210:247,1,52.5000020027161,0|8,0:0|0:0,0:0:0:0:
132,178,38026,1,8,0:0:0:0:
231,74,38222,2,0,B|236:66|236:66|244:71|244:71|249:63|249:63|257:68|257:68|262:60|262:60|270:66|270:66|275:58|275:58|283:63|283:63|289:55|289:55|296:61|296:61|302:53|302:53|310:58|310:58|315:50|315:50|323:56|323:56|328:48|328:48|336:53|336:53|341:45|341:45|349:50|349:50|355:43|355:43|362:48|362:48|368:40|368:40|376:45,1,210,2|0,0:0|0:0,0:0:0:0:
479,179,39007,5,12,0:0:0:0:
341,152,39203,1,0,0:1:0:0:
395,253,39399,5,10,0:0:0:0:
257,226,39595,2,0,L|205:215,1,52.5000020027161,0|0,0:1|0:1,0:0:0:0:
176,234,39791,1,2,0:0:0:0:
142,228,39889,2,0,L|38:207,1,105.000004005432,0|0,0:0|0:0,0:0:0:0:
8,163,40183,1,14,0:0:0:0:
225,36,40575,5,6,0:0:0:0:
87,9,40771,1,0,0:1:0:0:
141,110,40967,5,10,0:0:0:0:
279,137,41163,1,0,0:1:0:0:
313,143,41261,1,0,0:0:0:0:
347,149,41360,2,0,L|398:159,1,52.5000020027161,2|2,0:0|0:0,0:0:0:0:
478,256,41654,1,0,0:0:0:0:
444,250,41752,1,12,0:0:0:0:
317,307,41948,1,12,0:0:0:0:
207,368,42144,6,0,L|156:358,3,52.5000020027161,6|2|2|2,0:0|0:0|0:0|0:0,0:0:0:0:
103,346,42536,2,0,L|74:302,3,52.5000020027161,14|2|6|2,0:0|0:0|0:0|0:0,0:0:0:0:
44,258,42928,1,2,0:0:0:0:
50,224,43026,1,0,0:0:0:0:
151,127,43222,1,0,0:0:0:0:
144,161,43320,1,12,0:0:0:0:
202,289,43516,1,0,0:0:0:0:
304,193,43712,6,0,P|353:210|405:212,1,105.000004005432,2|0,0:0|0:0,0:0:0:0:
472,133,44105,2,0,P|422:115|370:113,1,105.000004005432,2|0,0:0|0:0,0:0:0:0:
290,46,44497,2,0,L|224:33,1,62.9999980773926,2|0,0:0|0:1,0:0:0:0:
168,53,44693,2,0,L|102:40,1,62.9999980773926,2|0,0:0|0:1,0:0:0:0:
46,60,44889,1,0,0:0:0:0:
150,289,45281,6,0,L|160:237,1,52.5000020027161,4|0,0:1|0:0,0:0:0:0:
166,203,45477,1,2,0:1:0:0:
282,250,45673,2,0,L|292:198,1,52.5000020027161,2|0,0:0|0:0,0:0:0:0:
298,164,45869,1,2,0:1:0:0:
414,211,46065,2,0,L|424:159,3,52.5000020027161,2|0|2|0,0:0|0:0|0:1|0:0,0:0:0:0:
430,125,46458,1,2,0:0:0:0:
501,228,46654,1,2,0:1:0:0:
445,362,46850,6,0,P|417:346|387:338,1,62.9999980773926,2|0,0:0|0:0,0:0:0:0:
324,337,47046,1,2,0:1:0:0:
174,302,47242,2,0,P|222:276|187:235,1,125.999996154785,2|2,0:0|0:1,0:0:0:0:
158,265,47536,2,0,L|89:251,3,70,6|6|6|6,0:3|0:3|0:3|0:3,0:0:0:0:
256,192,48418,12,0,49987,0:0:0:0:
65,101,50771,6,0,B|109:66|118:115|162:81,1,105.000004005432,0|0,0:0|0:0,0:0:0:0:
259,61,51163,1,0,0:0:0:0:
386,50,51556,6,0,L|476:33,1,90.9999958343508,4|0,0:1|0:0,0:0:0:0:
334,146,51948,1,10,0:0:0:0:
370,139,52046,2,0,L|459:121,1,90.9999958343508,0|0,0:0|0:0,0:0:0:0:
448,156,52340,6,0,L|433:199,3,45.4999979171754,2|0|0|0,0:0|0:0|0:0|0:0,0:0:0:0:
421,233,52732,1,14,0:0:0:0:
408,266,52830,1,2,0:0:0:0:
395,299,52928,1,2,0:0:0:0:
281,241,53124,5,2,0:0:0:0:
317,234,53222,1,0,0:0:0:0:
271,333,53418,1,0,0:0:0:0:
235,340,53516,2,0,L|190:348,3,45.4999979171754,10|0|0|0,0:0|0:0|0:0|0:0,0:0:0:0:
179,285,53909,6,0,P|156:272|130:268,1,52.5000020027161,2|0,0:0|0:0,0:0:0:0:
81,307,54105,2,0,P|55:303|32:290,1,52.5000020027161,0|0,0:0|0:0,0:0:0:0:
10,240,54301,2,0,L|1:195,3,45.4999979171754,0|0|0|0,3:3|3:3|3:3|3:3,0:0:0:0:
51,173,54693,6,0,L|140:155,1,90.9999958343508,2|0,0:0|0:1,0:0:0:0:
81,62,55085,1,10,0:0:0:0:
117,55,55183,2,0,L|207:38,1,90.9999958343508,0|0,0:0|0:0,0:0:0:0:
260,28,55477,6,0,L|245:71,3,45.4999979171754,2|0|0|0,0:0|0:0|0:0|0:0,0:0:0:0:
233,105,55869,1,14,0:0:0:0:
220,138,55967,1,2,0:0:0:0:
207,171,56065,1,2,0:0:0:0:
332,147,56261,6,0,L|377:139,3,45.4999979171754,6|2|2|2,0:0|0:0|0:0|0:0,0:0:0:0:
413,165,56654,2,0,L|450:191,3,45.4999979171754,14|2|2|2,0:0|0:0|0:0|0:0,0:0:0:0:
460,252,57046,6,0,L|415:260,1,45.4999979171754,6|2,0:0|0:0,0:0:0:0:
366,299,57242,2,0,L|321:307,1,45.4999979171754,2|2,0:0|0:0,0:0:0:0:
272,346,57438,2,0,L|227:354,3,45.4999979171754,14|2|6|2,0:0|0:0|0:0|0:0,0:0:0:0:
164,362,57830,5,6,0:0:0:0:
216,236,58026,1,0,0:0:0:0:
86,258,58222,2,0,L|17:270,1,70,2|0,0:0|0:0,0:0:0:0:
121,139,58614,5,6,0:0:0:0:
216,236,58810,1,0,0:0:0:0:
253,106,59007,1,2,0:0:0:0:
260,113,59203,1,0,0:0:0:0:
348,203,59399,6,0,L|422:188,1,70,6|2,0:0|0:0,0:0:0:0:
462,69,59791,2,0,L|393:82,1,70,6|2,0:0|0:0,0:0:0:0:
355,210,60183,6,0,L|429:195,1,70,6|2,0:0|0:0,0:0:0:0:
469,76,60575,2,0,L|400:89,1,70,6|2,0:0|0:0,0:0:0:0:
256,192,60967,12,0,62536,0:0:0:0:
256,188,63320,6,0,L|256:264,2,46.6666666666667,6|6|6,0:0|0:0|0:0,0:0:0:0:
257,122,63712,1,6,0:0:0:0:
255,300,64105,5,4,0:1:0:0:
213,70,70379,6,0,L|291:85,1,70,6|0,0:0|0:0,0:0:0:0:
301,112,70673,1,0,0:3:0:0:
335,118,70771,2,0,L|413:133,1,70,0|0,0:0|0:0,0:0:0:0:
477,235,71163,1,0,0:0:0:0:
443,229,71261,2,0,L|364:213,1,70,0|0,0:0|0:0,0:0:0:0:
340,209,71556,1,0,0:0:0:0:
386,341,71752,1,6,0:0:0:0:
249,315,71948,6,0,L|170:299,1,70,6|0,0:0|0:0,0:0:0:0:
161,273,72242,1,0,0:0:0:0:
127,267,72340,2,0,L|48:251,1,70,0|0,0:0|0:0,0:0:0:0:
23,135,72732,1,0,0:0:0:0:
57,141,72830,2,0,L|135:156,1,70,0|0,0:0|0:0,0:0:0:0:
159,160,73124,1,0,0:0:0:0:
113,30,73320,1,0,0:0:0:0:
249,55,73516,6,0,L|296:64,3,35,6|0|0|0,0:0|0:0|0:0|0:0,0:0:0:0:
302,90,73909,2,0,L|380:105,1,70,0|0,0:0|0:0,0:0:0:0:
390,132,74203,1,0,0:0:0:0:
424,138,74301,2,0,L|463:145,3,35,6|0|0|0,0:0|0:0|0:0|0:0,0:0:0:0:
484,184,74693,2,0,L|476:223,1,35,0|0,0:0|0:0,0:0:0:0:
438,244,74889,2,0,L|430:283,1,35,6|0,0:0|0:0,0:0:0:0:
456,317,75085,6,0,P|390:292|321:291,1,140,14|10,0:0|0:0,0:0:0:0:
269,82,75869,2,0,P|321:83|369:102,2,105,10|10|10,0:0|0:0|0:0,0:0:0:0:
298,184,76654,6,0,L|229:170,1,70,0|0,0:0|0:0,0:0:0:0:
120,245,77046,2,0,L|188:258,1,70,0|0,0:0|0:0,0:0:0:0:
302,279,77438,2,0,L|336:286,3,35,0|0|0|0,0:0|0:0|0:0|0:0,0:0:0:0:
384,295,77830,1,0,0:0:0:0:
459,205,78026,1,0,0:0:0:0:
344,186,78222,6,0,L|292:175,3,45.4999979171754,6|0|0|0,0:0|0:0|0:0|0:0,0:0:0:0:
236,164,78614,2,0,L|196:129,3,45.4999979171754,0|0|0|0,0:0|0:0|0:0|0:0,0:0:0:0:
164,102,79007,2,0,L|58:81,2,105,0|0|0,0:0|0:0|0:0,0:0:0:0:
86,220,79791,6,0,L|175:237,1,90.9999958343508,0|0,0:0|0:0,0:0:0:0:
117,329,80183,2,0,L|206:346,1,90.9999958343508,0|0,0:0|0:0,0:0:0:0:
284,265,80575,2,0,L|328:273,3,45.4999979171754,0|0|0|0,0:0|0:0|0:0|0:0,0:0:0:0:
390,285,80967,1,0,0:0:0:0:
473,189,81163,1,0,0:0:0:0:
348,165,81360,6,0,L|258:147,1,90.9999958343508,4|4,0:0|0:0,0:0:0:0:
219,186,81654,2,0,L|129:168,1,90.9999958343508,4|4,0:0|0:0,0:0:0:0:
90,207,81948,1,4,0:0:0:0:
172,308,82144,6,0,P|289:372|422:357,1,272.999987503052,0|0,0:0|0:0,0:0:0:0:
256,192,82928,12,0,87634,0:0:0:0:
299,320,88418,6,0,L|291:275,3,45.4999979171754,2|2|2|2,0:0|0:0|0:0|0:0,0:0:0:0:
348,243,88810,2,0,L|357:198,3,45.4999979171754,2|2|2|2,0:0|0:0|0:0|0:0,0:0:0:0:
299,166,89203,5,4,0:1:0:0:
437,140,89399,1,0,0:0:0:0:
346,34,89595,1,10,0:0:0:0:
208,60,89791,5,0,0:0:0:0:
173,66,89889,1,0,0:0:0:0:
138,72,89987,2,0,L|67:85,3,70,2|0|0|0,0:0|0:0|0:0|0:0,0:0:0:0:
16,130,90379,1,10,0:0:0:0:
128,207,90575,6,0,L|196:194,1,70,0|0,0:0|0:0,0:0:0:0:
264,179,90771,1,2,0:0:0:0:
252,211,90869,1,0,0:0:0:0:
240,243,90967,1,0,0:0:0:0:
228,275,91065,1,0,0:0:0:0:
216,307,91163,2,0,L|274:295,3,59.5000011348725,10|0|0|0,0:0|0:0|0:0|0:0,0:0:0:0:
341,280,91556,5,2,0:0:0:0:
389,152,91752,1,0,0:0:0:0:
465,253,91948,2,0,L|407:265,3,59.5000011348725,10|8|8|8,0:0|0:0|0:0|0:0,0:0:0:0:
341,280,92340,5,10,0:0:0:0:
389,152,92536,1,8,0:0:0:0:
296,51,92732,1,10,0:0:0:0:
162,81,92928,5,0,0:0:0:0:
197,75,93026,1,0,0:0:0:0:
255,182,93222,1,0,0:0:0:0:
290,176,93320,1,0,0:0:0:0:
121,212,93516,1,10,0:0:0:0:
296,51,93909,5,10,0:0:0:0:
389,152,94105,1,8,0:0:0:0:
341,280,94301,1,10,0:0:0:0:
207,310,94497,5,0,0:0:0:0:
242,304,94595,1,0,0:0:0:0:
255,182,94791,1,0,0:0:0:0:
290,176,94889,1,0,0:0:0:0:
162,81,95085,1,10,0:0:0:0:
169,88,95281,1,2,0:0:0:0:
176,95,95477,5,6,0:0:0:0:
75,188,95673,1,0,0:0:0:0:
207,229,95869,1,10,0:0:0:0:
308,136,96065,5,0,0:0:0:0:
343,130,96163,1,0,0:0:0:0:
378,124,96261,2,0,L|449:111,3,70,2|0|0|0,0:0|0:0|0:0|0:0,0:0:0:0:
503,150,96654,1,10,0:0:0:0:
417,246,96850,2,0,L|348:258,1,70,0|0,0:0|0:0,0:0:0:0:
322,312,97046,6,0,L|253:326,1,70,2|0,0:0|0:0,0:0:0:0:
194,287,97242,2,0,L|125:299,1,70,0|0,0:0|0:0,0:0:0:0:
65,260,97438,2,0,L|-3:272,3,59.5000011348725,10|0|0|0,0:0|0:0|0:0|0:0,0:0:0:0:
25,213,97830,5,2,0:0:0:0:
37,180,97928,1,0,0:0:0:0:
49,147,98026,1,0,0:0:0:0:
61,114,98124,1,0,0:0:0:0:
73,81,98222,2,0,L|131:70,3,59.5000011348725,10|8|8|8,0:0|0:0|0:0|0:0,0:0:0:0:
189,58,98614,5,14,0:0:0:0:
282,159,98810,1,8,0:0:0:0:
330,31,99006,1,10,0:0:0:0:
423,132,99203,5,0,0:0:0:0:
429,167,99301,1,0,0:0:0:0:
282,159,99497,1,0,0:0:0:0:
288,194,99595,1,0,0:0:0:0:
141,186,99791,1,10,0:0:0:0:
93,314,99987,5,0,0:0:0:0:
128,308,100085,1,0,0:0:0:0:
163,302,100183,1,14,0:0:0:0:
304,275,100379,1,0,0:0:0:0:
170,309,100575,1,14,0:0:0:0:
177,316,100967,6,0,L|235:305,3,59.5000011348725,2|0|0|0,0:0|0:0|0:0|0:0,0:0:0:0:
284,337,101360,2,0,L|342:326,3,59.5000011348725,0|0|0|0,0:0|0:0|0:0|0:0,0:0:0:0:
391,358,101752,5,4,0:1:0:0:
484,257,101948,1,0,0:0:0:0:
436,129,102144,1,10,0:0:0:0:
295,102,102340,5,0,0:0:0:0:
260,96,102438,1,0,0:0:0:0:
225,90,102536,2,0,L|154:77,3,70,2|0|0|0,0:0|0:0|0:0|0:0,0:0:0:0:
100,116,102929,1,10,0:0:0:0:
186,212,103124,6,0,L|254:224,1,70,0|0,0:0|0:0,0:0:0:0:
322,236,103320,1,2,0:0:0:0:
300,263,103418,1,0,0:0:0:0:
277,289,103516,1,0,0:0:0:0:
254,316,103614,1,0,0:0:0:0:
232,343,103712,2,0,L|163:330,3,59.5000011348725,10|0|0|0,0:0|0:0|0:0|0:0,0:0:0:0:
114,321,104105,5,2,0:0:0:0:
66,193,104301,1,0,0:0:0:0:
158,91,104497,2,0,L|217:102,3,59.5000011348725,10|8|8|8,0:0|0:0|0:0|0:0,0:0:0:0:
276,113,104889,5,10,0:0:0:0:
324,241,105085,1,8,0:0:0:0:
232,343,105281,1,10,0:0:0:0:
98,313,105477,5,0,0:0:0:0:
133,319,105575,1,0,0:0:0:0:
225,217,105771,1,0,0:0:0:0:
190,211,105869,1,0,0:0:0:0:
142,83,106065,1,10,0:0:0:0:
232,343,106458,5,10,0:0:0:0:
324,241,106654,1,8,0:0:0:0:
276,113,106850,1,10,0:0:0:0:
142,83,107046,5,0,0:0:0:0:
177,89,107144,1,0,0:0:0:0:
225,217,107340,1,0,0:0:0:0:
190,211,107438,1,0,0:0:0:0:
98,313,107634,1,10,0:0:0:0:
105,320,107830,1,2,0:0:0:0:
112,327,108026,5,6,0:0:0:0:
246,357,108222,1,0,0:0:0:0:
338,255,108418,1,10,0:0:0:0:
204,225,108614,5,0,0:0:0:0:
169,219,108712,1,0,0:0:0:0:
134,213,108810,2,0,L|63:200,3,70,2|0|0|0,0:0|0:0|0:0|0:0,0:0:0:0:
25,142,109203,1,10,0:0:0:0:
140,83,109399,2,0,L|209:95,1,70,0|0,0:0|0:0,0:0:0:0:
235,149,109595,6,0,L|304:163,1,70,6|0,0:0|0:0,0:0:0:0:
348,121,109791,2,0,L|417:135,1,70,0|0,0:0|0:0,0:0:0:0:
443,187,109987,2,0,L|512:201,3,59.5000011348725,10|0|0|0,0:0|0:0|0:0|0:0,0:0:0:0:
454,251,110379,5,2,0:0:0:0:
430,277,110477,1,0,0:0:0:0:
407,303,110575,1,0,0:0:0:0:
384,329,110673,1,0,0:0:0:0:
361,355,110771,2,0,L|303:344,3,59.5000011348725,10|8|8|8,0:0|0:0|0:0|0:0,0:0:0:0:
243,331,111163,5,14,0:0:0:0:
195,203,111359,1,8,0:0:0:0:
287,101,111555,1,10,0:0:0:0:
335,229,111752,5,0,0:0:0:0:
329,264,111850,1,0,0:0:0:0:
195,203,112046,1,0,0:0:0:0:
189,238,112144,1,0,0:0:0:0:
147,75,112340,1,10,0:0:0:0:
103,305,112732,5,10,0:0:0:0:
195,203,112928,1,8,0:0:0:0:
147,75,113124,1,10,0:0:0:0:
55,177,113320,5,0,0:0:0:0:
49,212,113418,1,0,0:0:0:0:
195,203,113614,1,0,0:0:0:0:
189,238,113712,1,0,0:0:0:0:
287,101,113909,1,14,0:0:0:0:
147,75,114105,1,2,0:0:0:0:
196,245,114301,5,4,0:1:0:0:
