osu file format v14

[General]
AudioFilename: audio.mp3
AudioLeadIn: 0
PreviewTime: -1
Countdown: 0
SampleSet: None
StackLeniency: 0.7
Mode: 0
LetterboxInBreaks: 0
WidescreenStoryboard: 0

[Editor]
DistanceSpacing: 1
BeatDivisor: 4
GridSize: 4
TimelineZoom: 0.1

[Metadata]
Title:late night walk
TitleUnicode:late night walk
Artist:lando!
ArtistUnicode:lando!
Creator:Tye
Version:little girls
Source:lando!
Tags:
BeatmapID:1417848
BeatmapSetID:670406

[Difficulty]
HPDrainRate:7
CircleSize:2
OverallDifficulty:10
ApproachRate:9.5
SliderMultiplier:3.59999990463257
SliderTickRate:1

[Events]
//Background and Video events
//Break Periods
//Storyboard Layer 0 (Background)
//Storyboard Layer 1 (Fail)
//Storyboard Layer 2 (Pass)
//Storyboard Layer 3 (Foreground)
//Storyboard Sound Samples

[TimingPoints]
0,333.33560509554,4,1,0,17,1,0

[HitObjects]
40,192,0,5,0,0:0:0:0:
288,148,166,1,0,0:0:0:0:
128,104,333,1,0,0:0:0:0:
288,64,500,1,0,0:0:0:0:
180,212,666,1,0,0:0:0:0:
240,72,833,1,0,0:0:0:0:
304,208,1000,1,0,0:0:0:0:
404,168,1166,1,0,0:0:0:0:
248,176,1333,1,0,0:0:0:0:
160,312,1500,1,0,0:0:0:0:
152,160,1666,1,0,0:0:0:0:
80,56,1833,1,0,0:0:0:0:
228,160,2000,1,0,0:0:0:0:
312,60,2166,1,0,0:0:0:0:
152,136,2333,1,0,0:0:0:0:
104,252,2500,1,0,0:0:0:0:
264,224,2666,1,0,0:0:0:0:
200,132,2833,1,0,0:0:0:0:
360,84,3000,1,0,0:0:0:0:
240,56,3166,1,0,0:0:0:0:
312,200,3333,1,0,0:0:0:0:
152,148,3500,1,0,0:0:0:0:
176,304,3666,1,0,0:0:0:0:
328,112,3833,1,0,0:0:0:0:
200,48,4000,1,0,0:0:0:0:
52,184,4166,1,0,0:0:0:0:
208,248,4333,1,0,0:0:0:0:
344,280,4500,1,0,0:0:0:0:
456,60,4666,1,0,0:0:0:0:
284,124,4833,1,0,0:0:0:0:
432,188,5000,1,0,0:0:0:0:
160,120,5166,1,0,0:0:0:0:
208,288,5333,1,0,0:0:0:0:
316,56,5500,1,0,0:0:0:0:
300,208,5666,1,0,0:0:0:0:
400,304,5833,1,0,0:0:0:0:
96,304,6000,1,0,0:0:0:0:
144,152,6166,1,0,0:0:0:0:
224,56,6333,1,0,0:0:0:0:
244,164,6500,1,0,0:0:0:0:
56,72,6666,1,0,0:0:0:0:
136,260,6833,1,0,0:0:0:0:
264,288,7000,1,0,0:0:0:0:
388,168,7166,1,0,0:0:0:0:
224,140,7333,1,0,0:0:0:0:
144,48,7500,1,0,0:0:0:0:
344,56,7666,1,0,0:0:0:0:
88,248,7833,1,0,0:0:0:0:
256,288,8000,1,0,0:0:0:0:
200,168,8166,1,0,0:0:0:0:
388,200,8333,1,0,0:0:0:0:
316,120,8500,1,0,0:0:0:0:
44,72,8666,1,0,0:0:0:0:
96,192,8833,1,0,0:0:0:0:
184,96,9000,1,0,0:0:0:0:
224,188,9166,1,0,0:0:0:0:
252,80,9333,1,0,0:0:0:0:
320,224,9500,1,0,0:0:0:0:
320,128,9666,1,0,0:0:0:0:
56,264,9833,1,0,0:0:0:0:
116,152,10000,1,0,0:0:0:0:
212,280,10166,1,0,0:0:0:0:
364,112,10333,1,0,0:0:0:0:
400,288,10500,1,0,0:0:0:0:
252,168,10666,1,0,0:0:0:0:
40,40,10833,1,0,0:0:0:0:
248,60,11000,1,0,0:0:0:0:
100,240,11166,1,0,0:0:0:0:
448,136,11333,1,0,0:0:0:0:
356,304,11500,1,0,0:0:0:0:
232,180,11666,1,0,0:0:0:0:
400,56,11833,1,0,0:0:0:0:
120,68,12000,1,0,0:0:0:0:
116,264,12166,1,0,0:0:0:0:
272,60,12333,1,0,0:0:0:0:
344,280,12500,1,0,0:0:0:0:
224,184,12666,1,0,0:0:0:0:
404,168,12833,1,0,0:0:0:0:
88,80,13000,1,0,0:0:0:0:
96,292,13166,1,0,0:0:0:0:
280,68,13333,1,0,0:0:0:0:
328,304,13500,1,0,0:0:0:0:
396,176,13666,1,0,0:0:0:0:
216,180,13833,1,0,0:0:0:0:
84,64,14000,1,0,0:0:0:0:
108,272,14166,1,0,0:0:0:0:
