osu file format v14

[General]
AudioFilename: audio.mp3
AudioLeadIn: 0
PreviewTime: 64419
Countdown: 1
SampleSet: Normal
StackLeniency: 0.7
Mode: 1
LetterboxInBreaks: 0
WidescreenStoryboard: 0

[Editor]
DistanceSpacing: 0.8
BeatDivisor: 4
GridSize: 8
TimelineZoom: 1.3

[Metadata]
Title:Toono Gensou Monogatari (landcelita rmx)
TitleUnicode:遠野幻想物語 (landcelita rmx)
Artist:landcelita
ArtistUnicode:landcelita
Creator:Raphalge
Version:Oni
Source:東方Project
Tags:tōhō touhou youyoumu perfect cherry blossom 凋叶棕 Diao ye zong
BeatmapID:1279280
BeatmapSetID:605485

[Difficulty]
HPDrainRate:5.5
CircleSize:2
OverallDifficulty:5.5
ApproachRate:10
SliderMultiplier:1.4
SliderTickRate:1

[Events]
//Background and Video events
0,0,"chennn.jpg",0,-220
//Break Periods
//Storyboard Layer 0 (Background)
//Storyboard Layer 1 (Fail)
//Storyboard Layer 2 (Pass)
//Storyboard Layer 3 (Foreground)
//Storyboard Sound Samples

[TimingPoints]
2374,298.656047784968,4,1,0,90,1,0
26266,-100,4,1,0,70,0,0
45380,-100,4,1,0,80,0,0
64494,-100,4,1,0,90,0,1
83608,-100,4,1,0,90,0,0

[HitObjects]
256,192,2374,5,0,0:0:0:0:
256,192,2523,1,8,0:0:0:0:
256,184,2672,1,8,0:0:0:0:
248,184,2821,1,0,0:0:0:0:
248,184,3120,1,8,0:0:0:0:
248,184,3269,1,0,0:0:0:0:
256,184,3568,1,12,0:0:0:0:
248,184,4016,1,12,0:0:0:0:
256,184,4315,1,0,0:0:0:0:
256,184,4464,1,8,0:0:0:0:
256,192,4613,1,8,0:0:0:0:
256,192,4688,1,8,0:0:0:0:
256,192,4763,1,0,0:0:0:0:
256,192,4912,1,0,0:0:0:0:
272,192,5061,1,8,0:0:0:0:
272,192,5211,1,8,0:0:0:0:
272,192,5360,1,0,0:0:0:0:
272,192,5435,1,0,0:0:0:0:
272,192,5509,1,0,0:0:0:0:
288,192,5584,1,0,0:0:0:0:
272,184,5659,1,8,0:0:0:0:
272,200,5808,1,0,0:0:0:0:
272,192,5957,1,8,0:0:0:0:
288,176,6107,1,8,0:0:0:0:
272,192,6256,1,8,0:0:0:0:
272,192,6405,1,0,0:0:0:0:
272,192,6704,1,0,0:0:0:0:
272,192,6853,1,8,0:0:0:0:
272,192,7003,1,8,0:0:0:0:
280,208,7152,1,0,0:0:0:0:
280,208,7227,1,0,0:0:0:0:
280,208,7301,1,8,0:0:0:0:
272,200,7376,1,8,0:0:0:0:
280,208,7451,1,8,0:0:0:0:
280,208,7600,1,0,0:0:0:0:
280,208,7749,1,8,0:0:0:0:
272,200,7899,1,0,0:0:0:0:
272,200,7973,1,0,0:0:0:0:
272,200,8048,1,0,0:0:0:0:
280,200,8197,1,8,0:0:0:0:
280,184,8347,1,0,0:0:0:0:
280,200,8496,1,8,0:0:0:0:
280,200,8571,1,8,0:0:0:0:
280,200,8645,1,0,0:0:0:0:
280,200,8720,1,0,0:0:0:0:
280,200,8795,1,8,0:0:0:0:
280,200,8869,1,0,0:0:0:0:
280,200,8944,1,8,0:0:0:0:
280,200,9093,1,0,0:0:0:0:
280,200,9243,1,8,0:0:0:0:
280,200,9541,1,0,0:0:0:0:
296,192,9691,1,8,0:0:0:0:
296,192,9765,1,8,0:0:0:0:
296,192,9840,1,8,0:0:0:0:
296,192,9989,1,0,0:0:0:0:
296,192,10288,1,8,0:0:0:0:
304,192,10587,1,8,0:0:0:0:
312,184,10885,1,8,0:0:0:0:
296,176,11035,1,0,0:0:0:0:
296,192,11184,1,8,0:0:0:0:
296,192,11483,1,8,0:0:0:0:
304,184,11781,1,8,0:0:0:0:
304,184,11930,1,0,0:0:0:0:
280,176,12005,1,0,0:0:0:0:
304,184,12080,1,0,0:0:0:0:
304,184,12229,1,8,0:0:0:0:
304,184,12378,1,0,0:0:0:0:
312,192,12677,1,8,0:0:0:0:
312,192,12976,1,0,0:0:0:0:
312,200,13125,1,8,0:0:0:0:
312,200,13274,1,8,0:0:0:0:
312,192,13424,1,0,0:0:0:0:
312,192,13498,1,0,0:0:0:0:
312,192,13573,1,0,0:0:0:0:
312,192,13722,1,8,0:0:0:0:
304,176,13872,1,0,0:0:0:0:
304,176,14021,1,8,0:0:0:0:
304,176,14096,1,8,0:0:0:0:
304,176,14170,1,0,0:0:0:0:
304,176,14320,1,8,0:0:0:0:
304,176,14394,1,8,0:0:0:0:
304,176,14469,1,8,0:0:0:0:
304,176,14544,1,8,0:0:0:0:
304,176,14618,1,0,0:0:0:0:
320,176,14768,1,8,0:0:0:0:
304,176,14917,1,0,0:0:0:0:
304,176,14992,1,0,0:0:0:0:
304,176,15066,1,8,0:0:0:0:
304,176,15141,1,8,0:0:0:0:
304,176,15216,1,0,0:0:0:0:
304,176,15365,1,8,0:0:0:0:
304,176,15514,1,0,0:0:0:0:
304,176,15664,1,0,0:0:0:0:
304,176,15813,1,8,0:0:0:0:
304,176,15962,1,0,0:0:0:0:
304,176,16112,1,8,0:0:0:0:
304,176,16261,1,8,0:0:0:0:
304,176,16410,1,0,0:0:0:0:
304,176,16560,1,0,0:0:0:0:
304,176,16709,1,12,0:0:0:0:
288,40,17157,1,8,0:0:0:0:
312,176,17306,1,0,0:0:0:0:
304,184,17456,1,8,0:0:0:0:
304,184,17530,1,8,0:0:0:0:
304,184,17605,1,0,0:0:0:0:
312,184,17754,1,8,0:0:0:0:
312,184,17904,1,0,0:0:0:0:
296,176,18053,1,0,0:0:0:0:
296,176,18202,1,8,0:0:0:0:
288,176,18352,1,0,0:0:0:0:
288,176,18426,1,0,0:0:0:0:
288,176,18501,1,8,0:0:0:0:
288,168,18650,1,0,0:0:0:0:
288,168,18725,1,8,0:0:0:0:
288,168,18800,1,0,0:0:0:0:
296,176,18949,1,0,0:0:0:0:
296,176,19098,1,8,0:0:0:0:
288,176,19248,1,0,0:0:0:0:
288,176,19397,1,8,0:0:0:0:
288,176,19472,1,8,0:0:0:0:
288,184,19546,1,0,0:0:0:0:
288,184,19696,1,8,0:0:0:0:
288,184,19845,1,0,0:0:0:0:
288,184,19920,1,0,0:0:0:0:
288,184,19994,1,8,0:0:0:0:
288,176,20144,1,0,0:0:0:0:
288,184,20293,1,8,0:0:0:0:
288,184,20368,1,0,0:0:0:0:
280,184,20442,1,8,0:0:0:0:
280,184,20517,1,8,0:0:0:0:
280,184,20592,1,0,0:0:0:0:
280,168,20741,1,8,0:0:0:0:
280,184,20816,1,0,0:0:0:0:
280,168,20890,1,8,0:0:0:0:
280,168,20965,1,8,0:0:0:0:
288,176,21040,1,0,0:0:0:0:
288,176,21114,1,0,0:0:0:0:
280,176,21189,1,8,0:0:0:0:
288,176,21338,1,0,0:0:0:0:
288,176,21487,1,12,0:0:0:0:
288,208,22682,1,0,0:0:0:0:
288,208,23877,1,8,0:0:0:0:
288,208,25071,1,8,0:0:0:0:
360,216,25669,1,0,0:0:0:0:
304,208,25967,1,8,0:0:0:0:
304,208,26117,1,8,0:0:0:0:
256,192,26266,5,4,0:0:0:0:
256,192,26714,1,8,0:0:0:0:
256,192,26863,1,0,0:0:0:0:
248,184,27311,1,8,0:0:0:0:
248,184,27461,1,0,0:0:0:0:
248,184,27759,1,8,0:0:0:0:
248,184,28058,1,0,0:0:0:0:
248,184,28357,1,0,0:0:0:0:
248,184,28655,1,8,0:0:0:0:
248,184,28954,1,0,0:0:0:0:
248,184,29103,1,8,0:0:0:0:
248,184,29253,1,0,0:0:0:0:
248,184,29402,1,0,0:0:0:0:
248,200,29551,1,8,0:0:0:0:
248,200,29701,1,8,0:0:0:0:
240,192,29850,1,0,0:0:0:0:
256,192,30149,1,8,0:0:0:0:
264,192,30447,1,0,0:0:0:0:
264,192,30746,1,8,0:0:0:0:
256,192,31044,1,0,0:0:0:0:
264,192,31492,1,8,0:0:0:0:
264,192,31642,1,0,0:0:0:0:
264,192,32090,1,8,0:0:0:0:
264,192,32239,1,0,0:0:0:0:
264,200,32538,1,0,0:0:0:0:
264,200,32836,1,8,0:0:0:0:
264,200,33135,1,8,0:0:0:0:
264,200,33434,1,0,0:0:0:0:
264,200,33732,1,8,0:0:0:0:
264,200,33882,1,8,0:0:0:0:
264,200,34031,1,0,0:0:0:0:
264,200,34180,1,0,0:0:0:0:
272,208,34330,1,8,0:0:0:0:
272,208,34479,1,0,0:0:0:0:
272,216,34628,1,8,0:0:0:0:
272,216,34927,1,0,0:0:0:0:
280,208,35226,1,8,0:0:0:0:
280,208,35524,1,0,0:0:0:0:
280,216,35674,1,0,0:0:0:0:
280,208,35823,1,8,0:0:0:0:
280,208,36047,1,8,0:0:0:0:
280,208,36271,1,0,0:0:0:0:
280,208,36420,1,8,0:0:0:0:
280,216,36644,1,8,0:0:0:0:
280,208,36868,1,0,0:0:0:0:
280,208,37018,1,8,0:0:0:0:
264,216,37242,1,8,0:0:0:0:
264,208,37466,1,0,0:0:0:0:
264,208,37615,1,8,0:0:0:0:
264,208,37764,1,0,0:0:0:0:
312,224,37914,1,8,0:0:0:0:
272,208,38063,1,8,0:0:0:0:
272,208,38212,1,0,0:0:0:0:
264,192,38436,1,8,0:0:0:0:
264,192,38660,1,0,0:0:0:0:
264,192,38810,1,8,0:0:0:0:
264,192,38959,1,8,0:0:0:0:
264,192,39108,1,0,0:0:0:0:
272,192,39258,1,8,0:0:0:0:
264,192,39407,1,0,0:0:0:0:
272,192,39706,1,8,0:0:0:0:
272,200,40004,1,0,0:0:0:0:
272,192,40153,1,0,0:0:0:0:
272,200,40303,1,8,0:0:0:0:
272,192,40601,1,0,0:0:0:0:
272,200,41049,5,8,0:0:0:0:
272,192,41198,1,0,0:0:0:0:
272,192,41647,1,0,0:0:0:0:
280,192,41797,1,8,0:0:0:0:
272,192,42095,1,0,0:0:0:0:
280,200,42393,1,8,0:0:0:0:
280,192,42692,1,8,0:0:0:0:
264,176,42991,1,0,0:0:0:0:
256,176,43289,1,8,0:0:0:0:
264,184,43439,1,8,0:0:0:0:
264,184,43588,1,0,0:0:0:0:
264,184,43737,1,8,0:0:0:0:
264,184,43887,1,0,0:0:0:0:
264,192,44036,1,8,0:0:0:0:
264,184,44484,1,0,0:0:0:0:
264,184,44783,1,8,0:0:0:0:
264,184,44932,1,8,0:0:0:0:
264,184,45081,1,0,0:0:0:0:
256,184,45380,1,12,0:0:0:0:
264,184,45828,1,0,0:0:0:0:
264,184,45977,1,8,0:0:0:0:
256,184,46127,1,8,0:0:0:0:
256,184,46201,1,8,0:0:0:0:
256,184,46276,1,8,0:0:0:0:
256,184,46425,1,0,0:0:0:0:
256,184,46575,1,8,0:0:0:0:
256,176,46724,1,0,0:0:0:0:
256,176,46799,1,0,0:0:0:0:
256,176,46873,1,8,0:0:0:0:
248,168,47023,1,0,0:0:0:0:
256,176,47172,1,8,0:0:0:0:
256,176,47321,1,8,0:0:0:0:
256,168,47471,1,0,0:0:0:0:
272,200,47769,1,0,0:0:0:0:
272,200,47919,1,8,0:0:0:0:
272,200,47993,1,8,0:0:0:0:
272,200,48068,1,0,0:0:0:0:
280,208,48217,1,8,0:0:0:0:
280,200,48367,1,0,0:0:0:0:
280,200,48516,1,0,0:0:0:0:
272,200,48665,1,8,0:0:0:0:
272,200,48964,1,8,0:0:0:0:
288,200,49113,1,0,0:0:0:0:
272,176,49188,1,0,0:0:0:0:
272,208,49262,1,8,0:0:0:0:
272,208,49412,1,8,0:0:0:0:
272,192,49561,1,0,0:0:0:0:
272,200,49860,1,8,0:0:0:0:
272,192,50158,1,8,0:0:0:0:
264,192,50308,1,0,0:0:0:0:
264,192,50382,1,0,0:0:0:0:
264,192,50457,1,0,0:0:0:0:
272,192,50606,1,0,0:0:0:0:
272,192,50756,1,8,0:0:0:0:
272,192,50905,1,8,0:0:0:0:
272,192,51054,1,0,0:0:0:0:
272,192,51204,1,8,0:0:0:0:
272,200,51353,1,0,0:0:0:0:
272,192,51502,1,8,0:0:0:0:
272,192,51577,1,8,0:0:0:0:
272,192,51652,1,0,0:0:0:0:
272,192,51801,1,8,0:0:0:0:
272,192,51950,1,0,0:0:0:0:
272,192,52100,1,0,0:0:0:0:
272,200,52249,1,8,0:0:0:0:
272,192,52398,1,8,0:0:0:0:
264,192,52548,1,0,0:0:0:0:
264,192,52996,1,0,0:0:0:0:
264,192,53145,1,8,0:0:0:0:
264,184,53220,1,8,0:0:0:0:
264,184,53294,1,8,0:0:0:0:
264,192,53369,1,8,0:0:0:0:
264,192,53444,1,8,0:0:0:0:
264,192,53593,1,8,0:0:0:0:
264,192,53742,1,0,0:0:0:0:
264,192,54041,1,8,0:0:0:0:
264,192,54340,1,0,0:0:0:0:
264,192,54638,5,8,0:0:0:0:
264,192,54937,5,4,0:0:0:0:
264,200,55385,1,0,0:0:0:0:
264,192,55534,1,8,0:0:0:0:
264,192,55684,1,8,0:0:0:0:
256,192,55758,1,8,0:0:0:0:
256,192,55833,1,0,0:0:0:0:
264,200,55982,1,8,0:0:0:0:
256,192,56132,1,0,0:0:0:0:
256,192,56580,1,8,0:0:0:0:
256,192,56729,1,0,0:0:0:0:
256,192,56878,1,8,0:0:0:0:
256,192,56953,1,0,0:0:0:0:
256,192,57028,1,8,0:0:0:0:
248,176,57177,1,0,0:0:0:0:
256,184,57326,1,8,0:0:0:0:
248,176,57774,1,0,0:0:0:0:
248,176,57924,1,8,0:0:0:0:
248,176,58073,1,0,0:0:0:0:
248,176,58148,1,0,0:0:0:0:
248,176,58222,1,8,0:0:0:0:
248,176,58372,1,8,0:0:0:0:
248,176,58521,1,0,0:0:0:0:
248,176,58819,1,8,0:0:0:0:
248,176,59118,1,0,0:0:0:0:
248,176,59417,1,8,0:0:0:0:
248,176,59715,1,0,0:0:0:0:
248,176,60014,1,8,0:0:0:0:
248,176,60163,1,8,0:0:0:0:
248,176,60313,1,0,0:0:0:0:
248,176,60462,1,0,0:0:0:0:
248,176,60611,1,8,0:0:0:0:
248,176,60761,1,0,0:0:0:0:
248,176,60910,1,8,0:0:0:0:
248,176,61209,1,0,0:0:0:0:
248,176,61358,1,0,0:0:0:0:
248,176,61507,1,8,0:0:0:0:
248,168,61806,1,0,0:0:0:0:
264,192,62105,1,8,0:0:0:0:
264,192,62403,1,0,0:0:0:0:
264,192,62702,1,8,0:0:0:0:
264,192,63001,1,0,0:0:0:0:
264,192,63299,1,8,0:0:0:0:
272,200,63374,1,8,0:0:0:0:
264,200,63449,1,8,0:0:0:0:
264,200,63523,1,8,0:0:0:0:
264,200,63598,1,8,0:0:0:0:
264,192,63673,1,8,0:0:0:0:
264,192,63747,1,8,0:0:0:0:
264,192,63822,1,8,0:0:0:0:
264,192,63897,1,0,0:0:0:0:
280,200,64494,1,4,0:0:0:0:
280,192,64793,1,8,0:0:0:0:
272,192,64942,1,8,0:0:0:0:
272,192,65091,1,0,0:0:0:0:
272,192,65241,1,8,0:0:0:0:
272,192,65315,1,8,0:0:0:0:
272,192,65390,1,0,0:0:0:0:
280,192,65539,1,8,0:0:0:0:
280,184,65689,1,0,0:0:0:0:
280,184,65763,1,0,0:0:0:0:
280,184,65838,1,8,0:0:0:0:
280,192,65913,1,0,0:0:0:0:
280,192,65987,1,8,0:0:0:0:
280,192,66137,1,0,0:0:0:0:
280,192,66211,1,0,0:0:0:0:
280,192,66286,1,8,0:0:0:0:
280,184,66435,1,8,0:0:0:0:
280,184,66585,1,0,0:0:0:0:
272,176,66883,1,8,0:0:0:0:
272,176,67033,1,8,0:0:0:0:
272,176,67107,1,8,0:0:0:0:
272,176,67182,1,8,0:0:0:0:
272,168,67331,1,0,0:0:0:0:
272,176,67481,1,8,0:0:0:0:
272,176,67630,1,8,0:0:0:0:
272,176,67779,1,0,0:0:0:0:
280,176,67929,1,8,0:0:0:0:
280,176,68078,1,0,0:0:0:0:
280,176,68227,1,8,0:0:0:0:
280,176,68302,1,8,0:0:0:0:
280,176,68376,1,0,0:0:0:0:
280,176,68526,1,8,0:0:0:0:
280,176,68675,1,0,0:0:0:0:
280,176,68974,1,8,0:0:0:0:
272,176,69272,1,12,0:0:0:0:
272,176,69422,1,0,0:0:0:0:
272,176,69496,1,0,0:0:0:0:
264,176,69571,1,8,0:0:0:0:
272,176,69720,1,0,0:0:0:0:
272,176,69870,1,8,0:0:0:0:
272,176,70019,1,8,0:0:0:0:
272,176,70168,1,8,0:0:0:0:
272,176,70318,1,0,0:0:0:0:
272,176,70467,1,8,0:0:0:0:
272,176,70616,1,8,0:0:0:0:
272,176,70691,1,8,0:0:0:0:
272,176,70766,1,0,0:0:0:0:
272,176,70915,1,8,0:0:0:0:
272,176,71064,1,0,0:0:0:0:
272,176,71139,1,0,0:0:0:0:
272,176,71214,1,8,0:0:0:0:
272,176,71288,1,8,0:0:0:0:
272,176,71363,1,0,0:0:0:0:
272,176,71512,1,8,0:0:0:0:
272,176,71662,1,0,0:0:0:0:
280,184,71960,1,0,0:0:0:0:
272,184,72110,1,8,0:0:0:0:
272,176,72259,1,0,0:0:0:0:
272,176,72334,1,0,0:0:0:0:
272,176,72408,1,0,0:0:0:0:
272,176,72483,1,0,0:0:0:0:
272,176,72558,1,8,0:0:0:0:
272,176,72707,1,8,0:0:0:0:
272,176,72856,1,0,0:0:0:0:
272,184,73155,1,8,0:0:0:0:
272,176,73454,1,8,0:0:0:0:
272,176,73528,1,8,0:0:0:0:
272,176,73603,1,8,0:0:0:0:
272,176,73678,1,8,0:0:0:0:
272,176,73752,1,0,0:0:0:0:
272,184,73902,1,8,0:0:0:0:
272,184,74051,1,4,0:0:0:0:
296,184,74350,1,0,0:0:0:0:
272,192,74499,1,8,0:0:0:0:
264,192,74648,1,0,0:0:0:0:
272,192,74798,1,8,0:0:0:0:
272,192,74872,1,8,0:0:0:0:
272,192,74947,1,0,0:0:0:0:
272,192,75096,1,8,0:0:0:0:
272,192,75246,1,0,0:0:0:0:
272,192,75320,1,0,0:0:0:0:
264,176,75395,1,8,0:0:0:0:
272,192,75470,1,8,0:0:0:0:
272,192,75544,1,0,0:0:0:0:
272,192,75694,1,8,0:0:0:0:
272,192,75768,1,0,0:0:0:0:
264,184,75843,1,8,0:0:0:0:
272,184,75992,1,8,0:0:0:0:
272,184,76142,1,0,0:0:0:0:
272,184,76440,1,8,0:0:0:0:
272,176,76590,1,8,0:0:0:0:
272,176,76664,1,8,0:0:0:0:
272,176,76739,1,8,0:0:0:0:
264,176,76888,1,0,0:0:0:0:
264,176,77038,1,8,0:0:0:0:
256,176,77112,1,0,0:0:0:0:
256,176,77187,1,0,0:0:0:0:
256,176,77262,1,0,0:0:0:0:
256,176,77336,1,8,0:0:0:0:
248,176,77485,1,0,0:0:0:0:
248,176,77635,1,8,0:0:0:0:
240,176,77784,1,8,0:0:0:0:
240,176,77859,1,8,0:0:0:0:
240,176,77933,1,0,0:0:0:0:
240,176,78083,1,8,0:0:0:0:
240,176,78232,1,0,0:0:0:0:
280,200,78531,1,8,0:0:0:0:
256,200,78829,1,8,0:0:0:0:
256,200,78979,1,8,0:0:0:0:
256,200,79053,1,8,0:0:0:0:
256,200,79128,1,8,0:0:0:0:
256,200,79277,1,0,0:0:0:0:
248,192,79427,1,8,0:0:0:0:
256,200,79576,1,0,0:0:0:0:
256,200,79651,1,0,0:0:0:0:
256,200,79725,1,0,0:0:0:0:
256,200,79875,1,8,0:0:0:0:
256,192,80024,1,0,0:0:0:0:
256,192,80173,1,8,0:0:0:0:
256,192,80248,1,8,0:0:0:0:
256,192,80323,1,0,0:0:0:0:
256,192,80472,1,8,0:0:0:0:
256,200,80621,1,0,0:0:0:0:
256,200,80696,1,0,0:0:0:0:
256,200,80771,1,8,0:0:0:0:
256,200,80845,1,0,0:0:0:0:
256,200,80920,1,8,0:0:0:0:
256,200,81069,1,8,0:0:0:0:
256,200,81219,1,0,0:0:0:0:
256,200,81517,1,0,0:0:0:0:
256,200,81667,1,8,0:0:0:0:
256,200,81816,1,0,0:0:0:0:
256,200,81891,1,0,0:0:0:0:
256,200,81965,1,8,0:0:0:0:
256,200,82040,1,8,0:0:0:0:
256,200,82114,1,0,0:0:0:0:
256,208,82264,1,8,0:0:0:0:
248,200,82413,1,0,0:0:0:0:
248,200,82563,1,8,0:0:0:0:
248,200,82637,1,8,0:0:0:0:
248,200,82712,1,0,0:0:0:0:
240,192,82861,1,8,0:0:0:0:
240,192,83011,1,0,0:0:0:0:
240,192,83085,1,0,0:0:0:0:
248,200,83160,1,8,0:0:0:0:
248,200,83235,1,0,0:0:0:0:
248,200,83309,1,8,0:0:0:0:
248,200,83459,1,8,0:0:0:0:
240,184,83608,1,4,0:0:0:0:
256,200,84056,1,8,0:0:0:0:
240,184,84205,1,0,0:0:0:0:
248,200,84355,1,0,0:0:0:0:
248,200,84504,1,8,0:0:0:0:
256,200,84653,1,8,0:0:0:0:
240,184,84803,1,0,0:0:0:0:
240,184,85101,1,8,0:0:0:0:
240,184,85251,1,8,0:0:0:0:
240,184,85400,1,0,0:0:0:0:
240,184,85699,1,8,0:0:0:0:
248,184,85997,1,0,0:0:0:0:
240,184,86147,1,0,0:0:0:0:
240,184,86296,1,8,0:0:0:0:
240,184,86445,1,8,0:0:0:0:
240,176,86595,1,0,0:0:0:0:
248,192,86893,1,8,0:0:0:0:
248,192,87042,1,0,0:0:0:0:
240,176,87192,1,8,0:0:0:0:
240,176,87341,1,8,0:0:0:0:
240,176,87490,1,0,0:0:0:0:
264,208,87640,1,0,0:0:0:0:
240,176,87789,1,8,0:0:0:0:
240,192,88088,1,0,0:0:0:0:
240,176,88386,1,8,0:0:0:0:
232,184,88536,1,8,0:0:0:0:
240,176,88685,1,0,0:0:0:0:
240,176,88834,1,0,0:0:0:0:
240,176,88984,1,8,0:0:0:0:
248,176,89282,1,0,0:0:0:0:
240,176,89432,1,8,0:0:0:0:
240,176,89581,1,8,0:0:0:0:
240,176,89730,1,0,0:0:0:0:
240,176,89880,1,8,0:0:0:0:
240,176,90029,1,8,0:0:0:0:
240,176,90178,1,0,0:0:0:0:
256,168,90477,1,8,0:0:0:0:
248,176,90776,1,0,0:0:0:0:
256,176,90925,1,0,0:0:0:0:
248,176,91224,1,8,0:0:0:0:
248,176,91373,1,0,0:0:0:0:
240,192,91522,1,0,0:0:0:0:
248,176,91672,1,8,0:0:0:0:
240,192,91821,1,8,0:0:0:0:
248,176,91970,1,0,0:0:0:0:
248,176,92269,1,8,0:0:0:0:
248,176,92568,1,8,0:0:0:0:
248,176,92866,1,8,0:0:0:0:
256,192,93165,5,0,0:0:0:0:
256,192,93314,1,8,0:0:0:0:
256,184,93463,1,8,0:0:0:0:
248,184,93612,1,0,0:0:0:0:
248,184,93911,1,8,0:0:0:0:
248,184,94060,1,0,0:0:0:0:
256,184,94359,1,12,0:0:0:0:
248,184,94807,1,12,0:0:0:0:
256,184,95106,1,0,0:0:0:0:
256,184,95255,1,8,0:0:0:0:
256,192,95404,1,0,0:0:0:0:
256,192,95480,1,0,0:0:0:0:
256,192,95554,1,8,0:0:0:0:
256,192,95703,1,0,0:0:0:0:
272,192,95852,1,8,0:0:0:0:
272,192,96002,1,8,0:0:0:0:
272,192,96151,1,0,0:0:0:0:
272,192,96226,1,0,0:0:0:0:
272,192,96300,1,8,0:0:0:0:
288,192,96375,1,8,0:0:0:0:
272,184,96450,1,0,0:0:0:0:
272,200,96599,1,8,0:0:0:0:
272,192,96748,1,0,0:0:0:0:
280,192,96898,1,8,0:0:0:0:
272,192,97047,1,8,0:0:0:0:
272,192,97197,1,0,0:0:0:0:
272,192,97495,1,0,0:0:0:0:
272,192,97644,1,8,0:0:0:0:
272,192,97794,1,8,0:0:0:0:
280,208,98092,1,0,0:0:0:0:
272,200,98167,1,0,0:0:0:0:
280,208,98242,1,8,0:0:0:0:
280,208,98391,1,0,0:0:0:0:
280,208,98540,1,8,0:0:0:0:
272,200,98690,1,0,0:0:0:0:
272,200,98764,1,0,0:0:0:0:
272,200,98839,1,8,0:0:0:0:
288,192,98914,1,0,0:0:0:0:
280,200,98988,1,8,0:0:0:0:
280,184,99138,1,0,0:0:0:0:
280,200,99287,1,8,0:0:0:0:
280,200,99362,1,8,0:0:0:0:
280,200,99437,1,8,0:0:0:0:
280,200,99586,1,8,0:0:0:0:
280,200,99660,1,0,0:0:0:0:
280,200,99735,1,8,0:0:0:0:
280,200,99884,1,0,0:0:0:0:
280,200,100034,1,8,0:0:0:0:
280,200,100482,1,0,0:0:0:0:
296,208,100631,1,8,0:0:0:0:
280,208,100781,1,0,0:0:0:0:
280,216,101079,1,8,0:0:0:0:
280,216,101378,1,0,0:0:0:0:
280,208,101677,1,0,0:0:0:0:
280,216,101975,1,8,0:0:0:0:
280,216,102274,1,8,0:0:0:0:
280,208,102573,1,8,0:0:0:0:
304,184,102722,1,0,0:0:0:0:
304,184,102872,1,8,0:0:0:0:
304,184,103021,1,8,0:0:0:0:
304,184,103170,1,0,0:0:0:0:
312,192,103469,1,8,0:0:0:0:
312,192,103768,1,0,0:0:0:0:
312,200,103917,1,8,0:0:0:0:
312,200,104066,1,8,0:0:0:0:
312,192,104216,1,0,0:0:0:0:
312,192,104290,1,0,0:0:0:0:
312,192,104365,1,8,0:0:0:0:
312,192,104439,1,0,0:0:0:0:
312,192,104514,1,8,0:0:0:0:
304,176,104664,1,0,0:0:0:0:
304,176,104813,1,8,0:0:0:0:
304,176,104962,1,8,0:0:0:0:
304,176,105112,1,0,0:0:0:0:
304,176,105186,1,0,0:0:0:0:
304,176,105261,1,0,0:0:0:0:
304,176,105336,1,0,0:0:0:0:
304,176,105410,1,8,0:0:0:0:
320,176,105560,1,0,0:0:0:0:
304,176,105634,1,0,0:0:0:0:
304,176,105708,1,8,0:0:0:0:
304,176,105858,1,8,0:0:0:0:
304,176,105933,1,8,0:0:0:0:
304,176,106008,1,0,0:0:0:0:
304,176,106157,1,8,0:0:0:0:
304,176,106306,1,0,0:0:0:0:
304,176,106605,1,8,0:0:0:0:
304,176,106754,1,0,0:0:0:0:
304,176,106904,1,8,0:0:0:0:
304,176,107053,1,8,0:0:0:0:
304,176,107202,1,0,0:0:0:0:
304,160,107351,1,0,0:0:0:0:
304,176,107500,1,12,0:0:0:0:
304,160,107799,1,0,0:0:0:0:
288,40,107949,1,8,0:0:0:0:
312,176,108098,1,0,0:0:0:0:
304,184,108247,1,0,0:0:0:0:
304,184,108397,1,8,0:0:0:0:
312,184,108546,1,0,0:0:0:0:
296,176,108620,1,0,0:0:0:0:
312,184,108696,1,8,0:0:0:0:
296,176,108845,1,0,0:0:0:0:
296,176,108994,1,8,0:0:0:0:
288,176,109144,1,0,0:0:0:0:
288,176,109218,1,0,0:0:0:0:
288,176,109293,1,8,0:0:0:0:
288,168,109367,1,0,0:0:0:0:
288,168,109442,1,8,0:0:0:0:
288,168,109516,1,8,0:0:0:0:
296,176,109591,1,0,0:0:0:0:
296,176,109740,1,8,0:0:0:0:
288,176,109890,1,0,0:0:0:0:
288,176,110039,1,8,0:0:0:0:
288,184,110114,1,8,0:0:0:0:
288,176,110188,1,0,0:0:0:0:
288,184,110338,1,8,0:0:0:0:
288,184,110487,1,0,0:0:0:0:
288,184,110562,1,0,0:0:0:0:
288,184,110636,1,8,0:0:0:0:
288,176,110711,1,0,0:0:0:0:
288,184,110786,1,8,0:0:0:0:
288,184,110935,1,0,0:0:0:0:
280,184,111084,1,8,0:0:0:0:
280,184,111234,1,0,0:0:0:0:
280,168,111383,1,8,0:0:0:0:
280,168,111532,1,8,0:0:0:0:
280,168,111682,1,0,0:0:0:0:
288,176,111831,1,0,0:0:0:0:
280,176,111981,1,8,0:0:0:0:
288,176,112130,1,8,0:0:0:0:
288,176,112279,1,0,0:0:0:0:
