osu file format v14

[General]
AudioFilename: audio.mp3
AudioLeadIn: 0
PreviewTime: 64419
Countdown: 1
SampleSet: Normal
StackLeniency: 0.7
Mode: 1
LetterboxInBreaks: 0
WidescreenStoryboard: 0

[Editor]
DistanceSpacing: 0.8
BeatDivisor: 4
GridSize: 8
TimelineZoom: 1.3

[Metadata]
Title:Toono Gensou Monogatari (landcelita rmx)
TitleUnicode:遠野幻想物語 (landcelita rmx)
Artist:landcelita
ArtistUnicode:landcelita
Creator:Raphalge
Version:Muzukashii
Source:東方Project
Tags:tōhō touhou youyoumu perfect cherry blossom 凋叶棕 Diao ye zong
BeatmapID:1279279
BeatmapSetID:605485

[Difficulty]
HPDrainRate:5
CircleSize:2
OverallDifficulty:5
ApproachRate:10
SliderMultiplier:1.4
SliderTickRate:1

[Events]
//Background and Video events
0,0,"chennn.jpg",0,-220
//Break Periods
//Storyboard Layer 0 (Background)
//Storyboard Layer 1 (Fail)
//Storyboard Layer 2 (Pass)
//Storyboard Layer 3 (Foreground)
//Storyboard Sound Samples

[TimingPoints]
2374,298.656047784968,4,1,0,90,1,0
26266,-100,4,1,0,70,0,0
45380,-100,4,1,0,80,0,0
64494,-100,4,1,0,90,0,1
83608,-100,4,1,0,90,0,0

[Colours]
Combo1 : 255,128,255
Combo2 : 0,255,255

[HitObjects]
256,192,2374,5,0,0:0:0:0:
256,192,2523,1,8,0:0:0:0:
256,192,2672,1,8,0:0:0:0:
256,192,2821,1,0,0:0:0:0:
256,192,3120,1,8,0:0:0:0:
256,192,3269,1,0,0:0:0:0:
256,192,3568,1,12,0:0:0:0:
256,192,4016,1,12,0:0:0:0:
256,192,4315,1,0,0:0:0:0:
256,192,4464,1,8,0:0:0:0:
256,192,4613,1,8,0:0:0:0:
256,184,4688,1,8,0:0:0:0:
256,184,4763,1,8,0:0:0:0:
256,184,4912,1,8,0:0:0:0:
256,184,5061,1,0,0:0:0:0:
256,184,5211,1,8,0:0:0:0:
256,184,5509,1,0,0:0:0:0:
256,184,5808,1,0,0:0:0:0:
256,184,5957,1,8,0:0:0:0:
256,184,6107,1,8,0:0:0:0:
256,184,6256,1,0,0:0:0:0:
256,184,6405,1,8,0:0:0:0:
256,184,6555,1,0,0:0:0:0:
256,184,6629,1,0,0:0:0:0:
256,184,6704,1,0,0:0:0:0:
256,184,6853,1,8,0:0:0:0:
256,184,7152,1,0,0:0:0:0:
256,184,7301,1,0,0:0:0:0:
256,184,7451,1,8,0:0:0:0:
256,184,7600,1,8,0:0:0:0:
256,184,7749,1,0,0:0:0:0:
256,184,8048,1,8,0:0:0:0:
264,176,8347,1,0,0:0:0:0:
264,176,8496,1,0,0:0:0:0:
264,176,8645,1,8,0:0:0:0:
264,176,8795,1,0,0:0:0:0:
264,176,8944,1,8,0:0:0:0:
272,168,9243,1,8,0:0:0:0:
264,176,9541,1,0,0:0:0:0:
264,176,9691,1,8,0:0:0:0:
264,176,9840,1,8,0:0:0:0:
272,168,9989,1,0,0:0:0:0:
264,176,10288,1,8,0:0:0:0:
264,176,10587,1,0,0:0:0:0:
256,192,11930,5,8,0:0:0:0:
256,192,12080,1,0,0:0:0:0:
256,192,12229,1,0,0:0:0:0:
256,192,12378,1,8,0:0:0:0:
256,176,12677,1,0,0:0:0:0:
256,176,12976,1,0,0:0:0:0:
256,176,13125,1,8,0:0:0:0:
256,176,13274,1,8,0:0:0:0:
256,176,13424,1,0,0:0:0:0:
256,176,13573,1,8,0:0:0:0:
256,176,13648,1,8,0:0:0:0:
256,176,13722,1,8,0:0:0:0:
256,176,13872,1,8,0:0:0:0:
256,176,14021,1,0,0:0:0:0:
256,168,14320,1,0,0:0:0:0:
256,160,14469,1,8,0:0:0:0:
256,168,14618,1,8,0:0:0:0:
256,160,14768,1,0,0:0:0:0:
256,160,15066,1,8,0:0:0:0:
256,160,15365,1,0,0:0:0:0:
256,152,15514,1,8,0:0:0:0:
256,160,15664,1,0,0:0:0:0:
256,160,15813,1,8,0:0:0:0:
256,160,15962,1,8,0:0:0:0:
248,168,16112,1,0,0:0:0:0:
248,152,16261,1,0,0:0:0:0:
248,160,16410,1,8,0:0:0:0:
248,160,16560,1,8,0:0:0:0:
248,168,16709,1,4,0:0:0:0:
248,168,17157,1,8,0:0:0:0:
248,168,17306,1,0,0:0:0:0:
248,168,17456,1,0,0:0:0:0:
248,168,17605,1,8,0:0:0:0:
248,168,17904,1,8,0:0:0:0:
248,168,18053,1,0,0:0:0:0:
248,168,18202,1,8,0:0:0:0:
248,168,18352,1,8,0:0:0:0:
248,168,18501,1,0,0:0:0:0:
248,168,18800,1,8,0:0:0:0:
248,168,19098,1,8,0:0:0:0:
248,168,19248,1,8,0:0:0:0:
248,168,19397,1,0,0:0:0:0:
248,168,19546,1,0,0:0:0:0:
248,168,19696,1,8,0:0:0:0:
240,160,19994,1,8,0:0:0:0:
240,160,20144,1,0,0:0:0:0:
256,192,20293,1,8,0:0:0:0:
256,192,20368,1,8,0:0:0:0:
256,192,20442,1,8,0:0:0:0:
256,192,20592,1,0,0:0:0:0:
256,192,20741,1,0,0:0:0:0:
256,192,20890,1,8,0:0:0:0:
256,192,21189,1,0,0:0:0:0:
248,184,21487,1,12,0:0:0:0:
248,184,22682,1,0,0:0:0:0:
248,184,23877,1,8,0:0:0:0:
248,184,25071,1,8,0:0:0:0:
272,176,25669,1,0,0:0:0:0:
272,176,25967,1,8,0:0:0:0:
248,184,26266,1,4,0:0:0:0:
248,184,26714,1,8,0:0:0:0:
248,184,26863,1,0,0:0:0:0:
248,184,27311,1,8,0:0:0:0:
248,184,27460,1,0,0:0:0:0:
248,184,27759,1,8,0:0:0:0:
248,184,28058,1,0,0:0:0:0:
248,184,28357,1,0,0:0:0:0:
248,184,28655,1,8,0:0:0:0:
248,184,28954,1,0,0:0:0:0:
248,184,29253,1,8,0:0:0:0:
248,184,29402,1,8,0:0:0:0:
248,184,29551,1,0,0:0:0:0:
248,184,29701,1,8,0:0:0:0:
240,160,29850,1,0,0:0:0:0:
240,176,31044,1,0,0:0:0:0:
240,176,31492,1,8,0:0:0:0:
240,176,31641,1,0,0:0:0:0:
240,176,32090,1,0,0:0:0:0:
232,176,32239,1,8,0:0:0:0:
240,176,32538,1,0,0:0:0:0:
240,176,32836,1,8,0:0:0:0:
232,176,33135,1,8,0:0:0:0:
240,176,33434,1,0,0:0:0:0:
240,176,33732,1,8,0:0:0:0:
232,176,34031,1,0,0:0:0:0:
240,176,34180,1,8,0:0:0:0:
240,176,34330,1,8,0:0:0:0:
240,176,34479,1,0,0:0:0:0:
264,176,34628,1,8,0:0:0:0:
248,184,35823,1,0,0:0:0:0:
248,184,36122,1,8,0:0:0:0:
248,184,36271,1,8,0:0:0:0:
248,184,36420,1,0,0:0:0:0:
248,184,36719,1,8,0:0:0:0:
240,176,37018,1,0,0:0:0:0:
240,176,37167,1,0,0:0:0:0:
240,176,37316,1,8,0:0:0:0:
240,176,37466,1,8,0:0:0:0:
240,176,37615,1,0,0:0:0:0:
240,176,37914,1,8,0:0:0:0:
240,176,38212,1,0,0:0:0:0:
240,176,38511,1,8,0:0:0:0:
240,168,38810,1,0,0:0:0:0:
240,168,38959,1,0,0:0:0:0:
240,168,39108,1,8,0:0:0:0:
232,168,39258,1,0,0:0:0:0:
240,168,39407,1,0,0:0:0:0:
256,192,40601,1,0,0:0:0:0:
256,192,41049,1,8,0:0:0:0:
256,192,41199,1,0,0:0:0:0:
256,192,41647,1,0,0:0:0:0:
256,192,41796,1,8,0:0:0:0:
248,192,42095,1,8,0:0:0:0:
248,192,42393,1,0,0:0:0:0:
248,192,42692,1,8,0:0:0:0:
248,192,42991,1,0,0:0:0:0:
248,192,43289,1,8,0:0:0:0:
248,192,43439,1,0,0:0:0:0:
248,192,43588,1,8,0:0:0:0:
248,192,43737,1,8,0:0:0:0:
248,192,43887,1,0,0:0:0:0:
248,192,44036,1,8,0:0:0:0:
248,192,44185,1,0,0:0:0:0:
248,192,44783,1,0,0:0:0:0:
248,192,45081,1,8,0:0:0:0:
240,184,45380,1,4,0:0:0:0:
240,184,45828,1,0,0:0:0:0:
240,184,45977,1,8,0:0:0:0:
240,184,46127,1,8,0:0:0:0:
240,184,46201,1,8,0:0:0:0:
240,184,46276,1,8,0:0:0:0:
240,184,46425,1,0,0:0:0:0:
240,184,46575,1,8,0:0:0:0:
240,184,46724,1,8,0:0:0:0:
240,184,46873,1,0,0:0:0:0:
240,184,47172,1,8,0:0:0:0:
240,184,47471,1,0,0:0:0:0:
240,184,47769,1,8,0:0:0:0:
248,184,47919,1,0,0:0:0:0:
248,184,47993,1,0,0:0:0:0:
248,184,48068,1,0,0:0:0:0:
248,184,48217,1,8,0:0:0:0:
248,184,48367,1,0,0:0:0:0:
248,184,48516,1,0,0:0:0:0:
248,184,48665,1,8,0:0:0:0:
248,184,48964,1,0,0:0:0:0:
248,184,49113,1,8,0:0:0:0:
248,184,49262,1,0,0:0:0:0:
248,184,49412,1,0,0:0:0:0:
248,184,49561,1,8,0:0:0:0:
256,192,49860,1,0,0:0:0:0:
248,184,50158,1,8,0:0:0:0:
256,192,50308,1,0,0:0:0:0:
256,192,50382,1,0,0:0:0:0:
256,192,50457,1,0,0:0:0:0:
256,192,50606,1,8,0:0:0:0:
248,184,50756,1,0,0:0:0:0:
248,184,50905,1,8,0:0:0:0:
248,184,51054,1,8,0:0:0:0:
240,184,51353,1,0,0:0:0:0:
240,184,51502,1,8,0:0:0:0:
240,176,51577,1,8,0:0:0:0:
240,176,51652,1,8,0:0:0:0:
240,176,51801,1,0,0:0:0:0:
240,176,51950,1,8,0:0:0:0:
240,176,52100,1,8,0:0:0:0:
240,176,52249,1,0,0:0:0:0:
240,176,52548,1,0,0:0:0:0:
240,176,52996,1,0,0:0:0:0:
240,176,53145,1,8,0:0:0:0:
240,176,53220,1,8,0:0:0:0:
240,176,53294,1,8,0:0:0:0:
240,176,53444,1,0,0:0:0:0:
240,176,53593,1,8,0:0:0:0:
240,176,53742,1,0,0:0:0:0:
240,176,54041,1,8,0:0:0:0:
240,176,54340,1,0,0:0:0:0:
232,200,54638,1,8,0:0:0:0:
240,176,54937,1,0,0:0:0:0:
240,176,55385,1,0,0:0:0:0:
240,176,55534,1,8,0:0:0:0:
240,176,55684,1,8,0:0:0:0:
240,176,55833,1,8,0:0:0:0:
232,168,55982,1,0,0:0:0:0:
232,168,56132,1,8,0:0:0:0:
232,168,56580,1,0,0:0:0:0:
232,168,56730,1,8,0:0:0:0:
232,168,56878,1,8,0:0:0:0:
232,168,57028,1,0,0:0:0:0:
232,168,57177,1,0,0:0:0:0:
224,160,57326,1,8,0:0:0:0:
224,160,57774,1,0,0:0:0:0:
224,160,57924,1,8,0:0:0:0:
224,160,58073,1,0,0:0:0:0:
224,160,58222,1,8,0:0:0:0:
224,160,58372,1,8,0:0:0:0:
224,160,58521,1,0,0:0:0:0:
216,160,58819,1,8,0:0:0:0:
216,152,59118,1,0,0:0:0:0:
216,144,59267,1,0,0:0:0:0:
216,144,59417,1,8,0:0:0:0:
216,152,59566,1,8,0:0:0:0:
216,152,59715,1,0,0:0:0:0:
216,152,60014,1,8,0:0:0:0:
208,152,60313,1,0,0:0:0:0:
216,152,60462,1,0,0:0:0:0:
216,152,60611,1,8,0:0:0:0:
216,152,60910,1,0,0:0:0:0:
216,152,61209,1,8,0:0:0:0:
264,168,61358,1,8,0:0:0:0:
264,168,61507,1,0,0:0:0:0:
248,160,61806,1,8,0:0:0:0:
248,160,61955,1,0,0:0:0:0:
248,160,62105,1,8,0:0:0:0:
256,176,62403,1,0,0:0:0:0:
256,176,62702,1,8,0:0:0:0:
256,176,63001,1,8,0:0:0:0:
256,168,63299,1,0,0:0:0:0:
256,168,63374,1,0,0:0:0:0:
288,232,63449,1,0,0:0:0:0:
256,168,63598,1,0,0:0:0:0:
272,176,63747,1,0,0:0:0:0:
256,176,63897,1,8,0:0:0:0:
248,176,64195,1,8,0:0:0:0:
256,192,64494,5,4,0:0:0:0:
256,192,64942,1,0,0:0:0:0:
256,192,65091,1,8,0:0:0:0:
256,184,65241,1,8,0:0:0:0:
256,192,65315,1,8,0:0:0:0:
256,192,65390,1,8,0:0:0:0:
256,176,65539,1,0,0:0:0:0:
256,176,65689,1,8,0:0:0:0:
256,176,65838,1,8,0:0:0:0:
256,176,65987,1,0,0:0:0:0:
248,176,66137,1,8,0:0:0:0:
248,176,66211,1,8,0:0:0:0:
248,176,66286,1,8,0:0:0:0:
256,176,66435,1,8,0:0:0:0:
256,176,66585,1,0,0:0:0:0:
256,176,66883,1,0,0:0:0:0:
256,176,67033,1,0,0:0:0:0:
256,176,67182,1,8,0:0:0:0:
256,176,67331,1,8,0:0:0:0:
256,176,67481,1,0,0:0:0:0:
256,176,67779,1,8,0:0:0:0:
256,192,68078,1,8,0:0:0:0:
256,192,68227,1,0,0:0:0:0:
256,192,68301,1,0,0:0:0:0:
256,192,68376,1,0,0:0:0:0:
256,192,68526,1,0,0:0:0:0:
256,192,68675,1,8,0:0:0:0:
256,192,68974,1,0,0:0:0:0:
248,200,69272,1,12,0:0:0:0:
248,200,69422,1,0,0:0:0:0:
248,200,69496,1,0,0:0:0:0:
248,200,69571,1,0,0:0:0:0:
248,200,69720,1,0,0:0:0:0:
248,192,69870,1,8,0:0:0:0:
248,192,70019,1,8,0:0:0:0:
248,200,70168,1,0,0:0:0:0:
256,192,70467,1,8,0:0:0:0:
256,192,70616,1,0,0:0:0:0:
256,192,70691,1,0,0:0:0:0:
248,192,70766,1,0,0:0:0:0:
248,192,70915,1,8,0:0:0:0:
256,192,71064,1,8,0:0:0:0:
256,192,71214,1,0,0:0:0:0:
256,192,71363,1,8,0:0:0:0:
256,192,71512,1,8,0:0:0:0:
256,192,71662,1,0,0:0:0:0:
256,192,71960,1,8,0:0:0:0:
256,192,72110,1,0,0:0:0:0:
256,192,72259,1,8,0:0:0:0:
256,192,72334,1,8,0:0:0:0:
256,192,72408,1,8,0:0:0:0:
256,192,72558,1,0,0:0:0:0:
248,192,72707,1,0,0:0:0:0:
248,192,72856,1,8,0:0:0:0:
248,192,73155,1,0,0:0:0:0:
248,192,73454,1,8,0:0:0:0:
248,192,74051,1,4,0:0:0:0:
248,192,74499,1,0,0:0:0:0:
248,192,74648,1,8,0:0:0:0:
256,200,74798,1,0,0:0:0:0:
248,192,74872,1,0,0:0:0:0:
248,192,74947,1,0,0:0:0:0:
248,192,75096,1,8,0:0:0:0:
248,192,75246,1,0,0:0:0:0:
248,192,75395,1,0,0:0:0:0:
248,192,75544,1,8,0:0:0:0:
248,184,75694,1,0,0:0:0:0:
248,184,75768,1,0,0:0:0:0:
248,192,75843,1,0,0:0:0:0:
240,184,75992,1,8,0:0:0:0:
240,184,76142,1,0,0:0:0:0:
240,184,76440,1,8,0:0:0:0:
232,192,76590,1,8,0:0:0:0:
248,184,76739,1,0,0:0:0:0:
240,184,76888,1,0,0:0:0:0:
240,184,77038,1,8,0:0:0:0:
240,184,77336,1,0,0:0:0:0:
248,184,77635,1,8,0:0:0:0:
240,184,77784,1,0,0:0:0:0:
240,184,77859,1,0,0:0:0:0:
240,184,77933,1,0,0:0:0:0:
248,184,78083,1,8,0:0:0:0:
248,184,78232,1,0,0:0:0:0:
232,184,78531,1,8,0:0:0:0:
240,184,78829,1,0,0:0:0:0:
232,184,78979,1,8,0:0:0:0:
232,184,79053,1,8,0:0:0:0:
232,184,79128,1,8,0:0:0:0:
232,184,79277,1,0,0:0:0:0:
232,184,79427,1,8,0:0:0:0:
240,184,79576,1,8,0:0:0:0:
232,184,79725,1,0,0:0:0:0:
224,176,80024,1,8,0:0:0:0:
232,184,80173,1,8,0:0:0:0:
232,184,80248,1,8,0:0:0:0:
232,184,80323,1,8,0:0:0:0:
232,176,80472,1,0,0:0:0:0:
232,176,80621,1,8,0:0:0:0:
232,176,80771,1,8,0:0:0:0:
224,176,80920,1,0,0:0:0:0:
232,176,81069,1,0,0:0:0:0:
232,176,81219,1,8,0:0:0:0:
232,176,81667,1,0,0:0:0:0:
240,168,81816,1,8,0:0:0:0:
240,176,81891,1,8,0:0:0:0:
232,176,81965,1,8,0:0:0:0:
232,176,82115,1,0,0:0:0:0:
240,184,82264,1,8,0:0:0:0:
232,168,82413,1,0,0:0:0:0:
224,160,82712,1,8,0:0:0:0:
216,144,83011,1,0,0:0:0:0:
216,144,83309,1,0,0:0:0:0:
216,144,83608,1,12,0:0:0:0:
224,160,84205,1,0,0:0:0:0:
224,160,84355,1,0,0:0:0:0:
224,160,84504,1,8,0:0:0:0:
256,192,84803,1,0,0:0:0:0:
264,197,85400,1,8,0:0:0:0:
256,192,85997,1,8,0:0:0:0:
248,192,86147,1,8,0:0:0:0:
248,192,86296,1,8,0:0:0:0:
248,192,86595,1,0,0:0:0:0:
264,197,87192,1,8,0:0:0:0:
264,197,87490,1,8,0:0:0:0:
264,197,87789,1,0,0:0:0:0:
264,197,88386,1,8,0:0:0:0:
274,195,88685,1,0,0:0:0:0:
273,195,88834,1,8,0:0:0:0:
273,195,88984,1,0,0:0:0:0:
276,193,89282,1,8,0:0:0:0:
274,195,89581,1,0,0:0:0:0:
273,195,89880,1,8,0:0:0:0:
268,198,90029,1,8,0:0:0:0:
268,202,90178,1,0,0:0:0:0:
268,202,90477,1,8,0:0:0:0:
266,198,90776,1,0,0:0:0:0:
268,198,91224,1,8,0:0:0:0:
271,194,91373,1,0,0:0:0:0:
272,208,91522,1,0,0:0:0:0:
266,198,91672,1,8,0:0:0:0:
304,216,91821,1,8,0:0:0:0:
268,198,91970,1,0,0:0:0:0:
271,194,92269,1,8,0:0:0:0:
270,188,92568,1,8,0:0:0:0:
270,188,92866,1,8,0:0:0:0:
271,194,93165,1,0,0:0:0:0:
272,198,93314,1,8,0:0:0:0:
272,198,93464,1,8,0:0:0:0:
272,198,93613,1,0,0:0:0:0:
275,199,93912,1,8,0:0:0:0:
271,194,94061,1,0,0:0:0:0:
272,198,94360,1,8,0:0:0:0:
284,207,94808,1,0,0:0:0:0:
284,207,95106,1,8,0:0:0:0:
284,207,95256,1,8,0:0:0:0:
284,207,95405,1,0,0:0:0:0:
284,207,95480,1,0,0:0:0:0:
284,207,95554,1,0,0:0:0:0:
284,207,95704,1,0,0:0:0:0:
280,213,95853,1,8,0:0:0:0:
284,207,96002,1,8,0:0:0:0:
287,213,96151,1,0,0:0:0:0:
284,207,96450,1,8,0:0:0:0:
284,207,96599,1,0,0:0:0:0:
280,213,96674,1,0,0:0:0:0:
280,213,96749,1,0,0:0:0:0:
285,217,96898,1,0,0:0:0:0:
285,217,97047,1,8,0:0:0:0:
276,222,97197,1,0,0:0:0:0:
276,222,97495,1,8,0:0:0:0:
276,222,97645,1,8,0:0:0:0:
271,231,97794,1,8,0:0:0:0:
288,224,98093,1,0,0:0:0:0:
288,224,98242,1,8,0:0:0:0:
288,224,98391,1,0,0:0:0:0:
288,224,98466,1,0,0:0:0:0:
288,224,98541,1,0,0:0:0:0:
288,224,98690,1,8,0:0:0:0:
280,216,98989,1,0,0:0:0:0:
280,216,99138,1,8,0:0:0:0:
280,216,99287,1,8,0:0:0:0:
280,216,99437,1,0,0:0:0:0:
280,216,99586,1,8,0:0:0:0:
280,216,99661,1,8,0:0:0:0:
280,216,99735,1,8,0:0:0:0:
280,216,99885,1,8,0:0:0:0:
280,208,100034,1,0,0:0:0:0:
288,208,100482,1,8,0:0:0:0:
288,208,100631,1,0,0:0:0:0:
288,208,100781,1,0,0:0:0:0:
288,208,101079,1,8,0:0:0:0:
288,208,101378,1,0,0:0:0:0:
288,208,101677,1,8,0:0:0:0:
288,208,101826,1,8,0:0:0:0:
288,208,101975,1,0,0:0:0:0:
288,208,102274,1,8,0:0:0:0:
288,208,102573,1,8,0:0:0:0:
265,198,102722,5,0,0:0:0:0:
265,198,102871,1,8,0:0:0:0:
271,228,103021,1,8,0:0:0:0:
271,228,103170,1,0,0:0:0:0:
264,208,103469,1,8,0:0:0:0:
264,208,103767,1,0,0:0:0:0:
264,208,103917,1,8,0:0:0:0:
264,208,104215,1,0,0:0:0:0:
264,208,104365,1,8,0:0:0:0:
264,208,104439,1,8,0:0:0:0:
264,208,104514,1,8,0:0:0:0:
264,208,104663,1,0,0:0:0:0:
264,208,104813,1,8,0:0:0:0:
264,200,105111,1,8,0:0:0:0:
264,200,105261,1,0,0:0:0:0:
264,200,105410,1,0,0:0:0:0:
264,200,105559,1,8,0:0:0:0:
264,200,105858,1,0,0:0:0:0:
264,200,106156,1,8,0:0:0:0:
264,200,106306,1,0,0:0:0:0:
264,200,106455,1,0,0:0:0:0:
264,200,106604,1,8,0:0:0:0:
264,200,106754,1,8,0:0:0:0:
264,200,106903,1,0,0:0:0:0:
264,200,107202,1,8,0:0:0:0:
264,192,107351,1,0,0:0:0:0:
256,192,107500,5,12,0:0:0:0:
256,192,107948,1,0,0:0:0:0:
256,192,108097,1,8,0:0:0:0:
256,192,108247,1,8,0:0:0:0:
256,192,108396,1,0,0:0:0:0:
256,192,108695,1,8,0:0:0:0:
256,192,108844,1,8,0:0:0:0:
256,192,108994,1,0,0:0:0:0:
256,192,109143,1,0,0:0:0:0:
256,192,109292,1,8,0:0:0:0:
264,192,109442,1,0,0:0:0:0:
256,192,109591,1,8,0:0:0:0:
256,192,109666,1,8,0:0:0:0:
256,192,109740,1,8,0:0:0:0:
264,192,109890,1,0,0:0:0:0:
256,192,110188,1,0,0:0:0:0:
256,184,110338,1,0,0:0:0:0:
245,190,110487,1,8,0:0:0:0:
256,192,110636,1,0,0:0:0:0:
253,188,110786,1,8,0:0:0:0:
256,192,110935,1,8,0:0:0:0:
256,192,111084,1,0,0:0:0:0:
251,183,111383,1,8,0:0:0:0:
253,188,111682,1,0,0:0:0:0:
251,183,111831,1,0,0:0:0:0:
251,183,111980,1,8,0:0:0:0:
251,183,112279,1,0,0:0:0:0:
