osu file format v14

[General]
AudioFilename: audio.mp3
AudioLeadIn: 0
PreviewTime: 64419
Countdown: 1
SampleSet: Normal
StackLeniency: 0.7
Mode: 1
LetterboxInBreaks: 0
WidescreenStoryboard: 0

[Editor]
DistanceSpacing: 0.8
BeatDivisor: 4
GridSize: 8
TimelineZoom: 1.1

[Metadata]
Title:Toono Gensou Monogatari (landcelita rmx)
TitleUnicode:遠野幻想物語 (landcelita rmx)
Artist:landcelita
ArtistUnicode:landcelita
Creator:Raphalge
Version:Kantan
Source:東方Project
Tags:tōhō touhou youyoumu perfect cherry blossom 凋叶棕 Diao ye zong
BeatmapID:1279278
BeatmapSetID:605485

[Difficulty]
HPDrainRate:8
CircleSize:2
OverallDifficulty:3
ApproachRate:10
SliderMultiplier:1.4
SliderTickRate:1

[Events]
//Background and Video events
0,0,"chennn.jpg",0,-220
//Break Periods
//Storyboard Layer 0 (Background)
//Storyboard Layer 1 (Fail)
//Storyboard Layer 2 (Pass)
//Storyboard Layer 3 (Foreground)
//Storyboard Sound Samples

[TimingPoints]
2374,298.656047784968,4,1,0,90,1,0
26266,-100,4,1,0,70,0,0
45380,-100,4,1,0,80,0,0
64494,-100,4,1,0,90,0,1
83608,-100,4,1,0,90,0,0

[HitObjects]
256,192,2374,5,8,0:0:0:0:
256,192,2821,1,0,0:0:0:0:
256,192,3269,1,0,0:0:0:0:
248,200,3568,1,8,0:0:0:0:
256,200,4016,1,0,0:0:0:0:
248,200,4763,1,8,0:0:0:0:
248,200,5211,1,0,0:0:0:0:
248,200,5659,1,0,0:0:0:0:
248,200,5957,1,8,0:0:0:0:
256,192,7152,1,0,0:0:0:0:
256,192,7451,1,0,0:0:0:0:
256,192,7749,1,8,0:0:0:0:
256,192,8347,1,8,0:0:0:0:
256,192,8795,1,0,0:0:0:0:
240,192,9541,1,0,0:0:0:0:
240,192,9989,1,8,0:0:0:0:
240,192,10288,1,0,0:0:0:0:
240,192,10587,1,8,0:0:0:0:
256,192,11930,1,8,0:0:0:0:
256,192,12378,1,0,0:0:0:0:
256,192,12677,1,0,0:0:0:0:
256,192,13125,1,8,0:0:0:0:
256,192,13573,1,0,0:0:0:0:
256,192,14320,1,8,0:0:0:0:
256,192,14768,5,0,0:0:0:0:
256,192,15066,1,0,0:0:0:0:
256,192,15365,1,8,0:0:0:0:
256,192,16709,1,12,0:0:0:0:
248,192,17306,1,0,0:0:0:0:
248,192,17904,1,8,0:0:0:0:
248,192,18202,1,0,0:0:0:0:
248,192,18501,1,8,0:0:0:0:
248,192,19098,1,8,0:0:0:0:
248,200,19696,1,0,0:0:0:0:
248,200,20293,1,8,0:0:0:0:
256,216,20592,1,0,0:0:0:0:
256,216,20890,1,8,0:0:0:0:
248,200,21487,1,12,0:0:0:0:
248,192,22682,1,0,0:0:0:0:
248,192,23877,1,8,0:0:0:0:
256,192,25071,1,8,0:0:0:0:
256,192,26266,1,0,0:0:0:0:
256,192,26863,1,0,0:0:0:0:
256,192,27461,1,0,0:0:0:0:
256,192,27759,1,8,0:0:0:0:
256,192,28058,1,0,0:0:0:0:
256,192,28655,1,0,0:0:0:0:
256,192,29253,1,8,0:0:0:0:
256,192,29850,1,0,0:0:0:0:
256,184,31044,1,0,0:0:0:0:
256,184,31642,1,8,0:0:0:0:
256,184,32239,1,0,0:0:0:0:
256,192,32538,1,0,0:0:0:0:
256,192,32836,1,8,0:0:0:0:
256,192,33434,1,0,0:0:0:0:
256,192,34031,1,8,0:0:0:0:
256,192,34628,1,0,0:0:0:0:
248,192,35823,5,8,0:0:0:0:
248,192,36420,1,0,0:0:0:0:
248,192,37018,1,0,0:0:0:0:
240,184,37615,1,8,0:0:0:0:
240,184,38212,1,0,0:0:0:0:
240,184,38810,1,8,0:0:0:0:
256,184,39407,1,0,0:0:0:0:
256,184,40601,1,0,0:0:0:0:
256,176,41199,1,8,0:0:0:0:
256,192,41796,1,0,0:0:0:0:
256,192,42095,1,0,0:0:0:0:
256,192,42393,1,8,0:0:0:0:
256,192,42991,1,0,0:0:0:0:
256,192,43588,1,8,0:0:0:0:
256,192,44185,1,0,0:0:0:0:
256,192,45380,1,8,0:0:0:0:
256,192,45977,1,8,0:0:0:0:
248,192,46575,1,0,0:0:0:0:
248,192,46873,1,0,0:0:0:0:
248,192,47172,1,8,0:0:0:0:
248,192,47769,1,0,0:0:0:0:
248,192,48367,1,8,0:0:0:0:
248,192,48964,1,8,0:0:0:0:
248,192,49262,1,8,0:0:0:0:
248,192,49561,1,0,0:0:0:0:
248,184,50158,1,0,0:0:0:0:
248,184,50756,1,8,0:0:0:0:
248,184,51353,1,0,0:0:0:0:
248,184,51950,1,0,0:0:0:0:
248,184,52548,1,8,0:0:0:0:
256,192,53742,1,0,0:0:0:0:
240,192,54340,1,0,0:0:0:0:
256,192,54937,1,0,0:0:0:0:
256,192,56132,1,0,0:0:0:0:
256,192,57326,1,8,0:0:0:0:
256,192,58521,1,0,0:0:0:0:
256,192,59715,1,0,0:0:0:0:
248,176,60313,1,8,0:0:0:0:
256,192,60910,1,0,0:0:0:0:
256,192,61507,1,8,0:0:0:0:
256,192,62105,1,0,0:0:0:0:
256,192,62702,1,0,0:0:0:0:
256,192,63299,1,8,0:0:0:0:
256,192,63897,1,8,0:0:0:0:
256,192,64494,1,4,0:0:0:0:
256,192,65091,1,8,0:0:0:0:
256,192,65689,1,0,0:0:0:0:
256,192,65987,1,8,0:0:0:0:
256,192,66286,1,0,0:0:0:0:
256,192,66883,1,0,0:0:0:0:
256,192,67481,1,8,0:0:0:0:
256,192,68078,1,0,0:0:0:0:
256,192,68376,1,0,0:0:0:0:
256,192,68675,1,8,0:0:0:0:
256,192,69272,1,0,0:0:0:0:
248,192,70467,1,8,0:0:0:0:
256,192,71662,1,0,0:0:0:0:
256,192,72259,1,8,0:0:0:0:
256,192,72856,1,0,0:0:0:0:
256,192,73155,1,0,0:0:0:0:
256,192,73454,1,8,0:0:0:0:
256,192,74051,1,0,0:0:0:0:
256,192,74648,1,8,0:0:0:0:
112,184,75246,5,0,0:0:0:0:
256,184,75544,1,8,0:0:0:0:
424,184,75843,1,0,0:0:0:0:
424,184,76440,1,8,0:0:0:0:
424,184,77038,1,0,0:0:0:0:
256,192,77635,1,8,0:0:0:0:
256,192,77933,1,8,0:0:0:0:
256,192,78232,1,0,0:0:0:0:
256,192,78829,1,8,0:0:0:0:
256,192,80024,1,0,0:0:0:0:
256,192,81219,1,8,0:0:0:0:
256,192,81816,1,0,0:0:0:0:
256,192,82413,1,8,0:0:0:0:
256,192,82712,1,8,0:0:0:0:
256,192,83011,1,8,0:0:0:0:
256,192,83608,1,12,0:0:0:0:
288,224,84803,1,0,0:0:0:0:
288,224,85997,1,8,0:0:0:0:
288,224,86595,1,8,0:0:0:0:
288,224,87192,1,8,0:0:0:0:
256,192,88386,1,0,0:0:0:0:
256,192,89581,1,8,0:0:0:0:
256,192,90776,1,0,0:0:0:0:
256,192,91373,1,8,0:0:0:0:
256,192,91970,1,0,0:0:0:0:
256,192,92269,1,8,0:0:0:0:
256,192,92568,1,0,0:0:0:0:
256,192,93165,1,0,0:0:0:0:
256,192,93613,1,8,0:0:0:0:
256,192,94061,1,0,0:0:0:0:
256,192,94360,1,8,0:0:0:0:
256,192,94808,1,0,0:0:0:0:
256,192,95554,1,8,0:0:0:0:
256,192,96002,1,0,0:0:0:0:
256,192,96450,1,0,0:0:0:0:
256,192,96748,1,8,0:0:0:0:
256,192,98093,1,8,0:0:0:0:
256,192,98541,1,0,0:0:0:0:
256,192,99138,1,8,0:0:0:0:
256,192,99586,1,0,0:0:0:0:
256,192,100482,1,0,0:0:0:0:
256,192,100781,1,8,0:0:0:0:
248,184,101378,1,8,0:0:0:0:
248,184,101975,1,0,0:0:0:0:
248,184,102722,1,8,0:0:0:0:
248,184,103170,1,0,0:0:0:0:
248,184,103618,1,8,0:0:0:0:
248,184,103917,1,8,0:0:0:0:
248,184,104365,1,0,0:0:0:0:
248,184,105111,1,8,0:0:0:0:
248,184,105559,1,0,0:0:0:0:
248,184,106007,1,0,0:0:0:0:
248,184,106306,1,8,0:0:0:0:
248,184,107500,1,12,0:0:0:0:
240,176,108098,1,0,0:0:0:0:
240,176,108695,1,8,0:0:0:0:
240,176,108994,1,8,0:0:0:0:
240,176,109292,1,0,0:0:0:0:
248,168,109890,1,8,0:0:0:0:
264,184,110487,1,0,0:0:0:0:
248,168,111084,1,8,0:0:0:0:
296,200,111682,1,8,0:0:0:0:
256,192,112279,1,0,0:0:0:0:
