osu file format v14

[General]
AudioFilename: audio.mp3
AudioLeadIn: 0
PreviewTime: 56137
Countdown: 0
SampleSet: Normal
StackLeniency: 0.7
Mode: 3
LetterboxInBreaks: 0
SpecialStyle: 0
WidescreenStoryboard: 0

[Editor]
Bookmarks: 11502,22665,33828,44991,56153,67316,78479,89642,100805,111967,123130,134293,145456,156619,167781,178944,190107,201270,212433,223595,234758,245921,258479
DistanceSpacing: 0.8
BeatDivisor: 4
GridSize: 32
TimelineZoom: 2.3

[Metadata]
Title:nil phonation
TitleUnicode:nil phonation
Artist:lalanoi
ArtistUnicode:lalanoi
Creator:Nimis
Version:mute
Source:
Tags:electronic instrumental AlphaVersion Records ill will marathon technical
BeatmapID:2792003
BeatmapSetID:1346901

[Difficulty]
HPDrainRate:8.7
CircleSize:4
OverallDifficulty:8.3
ApproachRate:5
SliderMultiplier:1.4
SliderTickRate:1

[Events]
//Background and Video events
0,0,"wow.png",0,0
//Break Periods
//Storyboard Layer 0 (Background)
//Storyboard Layer 1 (Fail)
//Storyboard Layer 2 (Pass)
//Storyboard Layer 3 (Foreground)
//Storyboard Layer 4 (Overlay)
//Storyboard Sound Samples

[TimingPoints]
324,348.837209302326,4,1,1,20,1,0

[HitObjects]
64,192,324,5,0,0:0:0:0:
320,192,498,1,0,0:0:0:0:
448,192,672,1,0,0:0:0:0:
320,192,1370,1,0,0:0:0:0:
448,192,1544,1,0,0:0:0:0:
448,192,2068,1,0,0:0:0:0:
320,192,2417,1,0,0:0:0:0:
192,192,2765,1,0,0:0:0:0:
64,192,3114,1,0,0:0:0:0:
448,192,3463,1,0,0:0:0:0:
448,192,4335,1,0,0:0:0:0:
192,192,4858,1,0,0:0:0:0:
320,192,5207,1,0,0:0:0:0:
192,192,5556,1,0,0:0:0:0:
320,192,5905,1,0,0:0:0:0:
64,192,6079,1,0,0:0:0:0:
448,192,6254,1,0,0:0:0:0:
192,192,6951,1,0,0:0:0:0:
448,192,7126,1,0,0:0:0:0:
192,192,7998,1,0,0:0:0:0:
320,192,8347,1,0,0:0:0:0:
64,192,8696,1,0,0:0:0:0:
320,192,8870,1,0,0:0:0:0:
448,192,9044,1,0,0:0:0:0:
320,192,9742,1,0,0:0:0:0:
448,192,9917,1,0,0:0:0:0:
192,192,10440,1,0,0:0:0:0:
320,192,10614,1,0,0:0:0:0:
320,192,11312,1,0,0:0:0:0:
64,192,11486,1,0,0:0:0:0:
192,192,11486,128,0,11544:0:0:0:0:
320,192,11661,128,0,11719:0:0:0:0:
448,192,11835,128,0,11893:0:0:0:0:
320,192,12533,128,0,12591:0:0:0:0:
448,192,12707,128,0,12765:0:0:0:0:
448,192,13230,128,0,13289:0:0:0:0:
320,192,13579,128,0,13637:0:0:0:0:
192,192,13928,128,0,13986:0:0:0:0:
64,192,14277,128,0,14335:0:0:0:0:
448,192,14626,128,0,14684:0:0:0:0:
448,192,15498,128,0,15556:0:0:0:0:
192,192,16021,128,0,16079:0:0:0:0:
320,192,16370,128,0,16428:0:0:0:0:
192,192,16719,128,0,16777:0:0:0:0:
320,192,17068,128,0,17126:0:0:0:0:
64,192,17242,128,0,17300:0:0:0:0:
448,192,17417,128,0,17475:0:0:0:0:
192,192,18114,128,0,18172:0:0:0:0:
448,192,18289,128,0,18347:0:0:0:0:
192,192,19161,128,0,19219:0:0:0:0:
320,192,19510,128,0,19568:0:0:0:0:
64,192,19858,128,0,19917:0:0:0:0:
320,192,20033,128,0,20091:0:0:0:0:
448,192,20207,128,0,20265:0:0:0:0:
320,192,20905,128,0,20963:0:0:0:0:
448,192,21079,128,0,21137:0:0:0:0:
192,192,21603,128,0,21661:0:0:0:0:
320,192,21777,128,0,21835:0:0:0:0:
320,192,22475,128,0,22533:0:0:0:0:
192,192,22649,1,0,0:0:0:0:
64,192,22649,1,0,0:0:0:0:
320,192,22693,1,0,0:0:0:0:
448,192,22736,1,0,0:0:0:0:
192,192,22780,1,0,0:0:0:0:
320,192,22824,1,0,0:0:0:0:
64,192,24393,1,0,0:0:0:0:
448,192,24917,1,0,0:0:0:0:
192,192,25440,1,0,0:0:0:0:
320,192,26486,1,0,0:0:0:0:
192,192,28230,1,0,0:0:0:0:
320,192,28260,1,0,0:0:0:0:
448,192,28318,1,0,0:0:0:0:
192,192,29975,1,0,0:0:0:0:
448,192,30149,1,0,0:0:0:0:
192,192,30498,128,0,30556:0:0:0:0:
448,192,30672,128,0,30730:0:0:0:0:
320,192,30847,128,0,30905:0:0:0:0:
448,192,31021,128,0,31079:0:0:0:0:
192,192,31065,1,0,0:0:0:0:
64,192,31108,1,0,0:0:0:0:
448,192,32068,128,0,32126:0:0:0:0:
320,192,32111,1,0,0:0:0:0:
320,192,33812,1,0,0:0:0:0:
192,192,33812,1,0,0:0:0:0:
448,192,33870,1,0,0:0:0:0:
320,192,33928,1,0,0:0:0:0:
192,192,33986,1,0,0:0:0:0:
64,192,34044,1,0,0:0:0:0:
192,192,34103,1,0,0:0:0:0:
448,192,34161,1,0,0:0:0:0:
64,192,34292,1,0,0:0:0:0:
192,192,34335,1,0,0:0:0:0:
320,192,34379,1,0,0:0:0:0:
64,192,34422,1,0,0:0:0:0:
448,192,34553,1,0,0:0:0:0:
448,192,34858,1,0,0:0:0:0:
192,192,34858,1,0,0:0:0:0:
448,192,35207,1,0,0:0:0:0:
192,192,35382,1,0,0:0:0:0:
448,192,35600,1,0,0:0:0:0:
192,192,35905,1,0,0:0:0:0:
192,192,36428,1,0,0:0:0:0:
192,192,37126,1,0,0:0:0:0:
64,192,37475,1,0,0:0:0:0:
192,192,37649,1,0,0:0:0:0:
448,192,37998,1,0,0:0:0:0:
320,192,38172,1,0,0:0:0:0:
192,192,38347,1,0,0:0:0:0:
448,192,38521,1,0,0:0:0:0:
320,192,38696,1,0,0:0:0:0:
192,192,38870,1,0,0:0:0:0:
448,192,39044,1,0,0:0:0:0:
192,192,39219,1,0,0:0:0:0:
320,192,39393,1,0,0:0:0:0:
448,192,39393,1,0,0:0:0:0:
192,192,39451,1,0,0:0:0:0:
64,192,39510,1,0,0:0:0:0:
320,192,39568,1,0,0:0:0:0:
192,192,39626,1,0,0:0:0:0:
448,192,39684,1,0,0:0:0:0:
64,192,39742,1,0,0:0:0:0:
448,192,39873,1,0,0:0:0:0:
192,192,39917,1,0,0:0:0:0:
64,192,40091,1,0,0:0:0:0:
320,192,40265,1,0,0:0:0:0:
192,192,40440,1,0,0:0:0:0:
64,192,40571,1,0,0:0:0:0:
320,192,40614,1,0,0:0:0:0:
448,192,40789,1,0,0:0:0:0:
192,192,40963,1,0,0:0:0:0:
448,192,41181,1,0,0:0:0:0:
64,192,41268,1,0,0:0:0:0:
320,192,41312,1,0,0:0:0:0:
192,192,41486,1,0,0:0:0:0:
448,192,41661,1,0,0:0:0:0:
320,192,41835,1,0,0:0:0:0:
192,192,42010,1,0,0:0:0:0:
448,192,42184,1,0,0:0:0:0:
320,192,42358,1,0,0:0:0:0:
64,192,42533,1,0,0:0:0:0:
192,192,42707,1,0,0:0:0:0:
448,192,42882,1,0,0:0:0:0:
320,192,43056,1,0,0:0:0:0:
192,192,43230,1,0,0:0:0:0:
448,192,43405,1,0,0:0:0:0:
320,192,43579,1,0,0:0:0:0:
192,192,43754,1,0,0:0:0:0:
64,192,43928,1,0,0:0:0:0:
320,192,44015,1,0,0:0:0:0:
448,192,44103,1,0,0:0:0:0:
320,192,44277,1,0,0:0:0:0:
192,192,44451,1,0,0:0:0:0:
64,192,44495,1,0,0:0:0:0:
192,192,44626,1,0,0:0:0:0:
448,192,44800,1,0,0:0:0:0:
64,192,44887,1,0,0:0:0:0:
320,192,44975,1,0,0:0:0:0:
192,192,44975,1,0,0:0:0:0:
448,192,45033,1,0,0:0:0:0:
320,192,45091,1,0,0:0:0:0:
192,192,45149,1,0,0:0:0:0:
64,192,45207,1,0,0:0:0:0:
192,192,45265,1,0,0:0:0:0:
448,192,45324,1,0,0:0:0:0:
64,192,45454,1,0,0:0:0:0:
192,192,45498,1,0,0:0:0:0:
320,192,45542,1,0,0:0:0:0:
64,192,45585,1,0,0:0:0:0:
448,192,45672,1,0,0:0:0:0:
192,192,45716,1,0,0:0:0:0:
320,192,45847,1,0,0:0:0:0:
448,192,46021,1,0,0:0:0:0:
192,192,46021,1,0,0:0:0:0:
64,192,46108,1,0,0:0:0:0:
320,192,46196,1,0,0:0:0:0:
448,192,46370,1,0,0:0:0:0:
320,192,46544,1,0,0:0:0:0:
192,192,46632,1,0,0:0:0:0:
64,192,46719,1,0,0:0:0:0:
448,192,46762,1,0,0:0:0:0:
320,192,46806,1,0,0:0:0:0:
448,192,46893,1,0,0:0:0:0:
192,192,46893,1,0,0:0:0:0:
192,192,47068,1,0,0:0:0:0:
64,192,47242,1,0,0:0:0:0:
320,192,47329,1,0,0:0:0:0:
448,192,47417,1,0,0:0:0:0:
192,192,47417,1,0,0:0:0:0:
320,192,47591,1,0,0:0:0:0:
192,192,47635,1,0,0:0:0:0:
320,192,47765,1,0,0:0:0:0:
64,192,47765,1,0,0:0:0:0:
64,192,47940,1,0,0:0:0:0:
192,192,48114,1,0,0:0:0:0:
448,192,48114,1,0,0:0:0:0:
64,192,48201,1,0,0:0:0:0:
192,192,48289,1,0,0:0:0:0:
448,192,48376,1,0,0:0:0:0:
320,192,48463,1,0,0:0:0:0:
192,192,48550,1,0,0:0:0:0:
64,192,48637,1,0,0:0:0:0:
320,192,48637,1,0,0:0:0:0:
192,192,48812,1,0,0:0:0:0:
448,192,48812,1,0,0:0:0:0:
320,192,48986,1,0,0:0:0:0:
64,192,48986,1,0,0:0:0:0:
192,192,49074,1,0,0:0:0:0:
448,192,49161,1,0,0:0:0:0:
320,192,49335,1,0,0:0:0:0:
64,192,49422,1,0,0:0:0:0:
192,192,49510,1,0,0:0:0:0:
320,192,49597,1,0,0:0:0:0:
448,192,49684,1,0,0:0:0:0:
320,192,49858,1,0,0:0:0:0:
64,192,49946,1,0,0:0:0:0:
192,192,50033,1,0,0:0:0:0:
320,192,50120,1,0,0:0:0:0:
448,192,50207,1,0,0:0:0:0:
192,192,50382,1,0,0:0:0:0:
448,192,50382,1,0,0:0:0:0:
320,192,50556,1,0,0:0:0:0:
448,192,50556,1,0,0:0:0:0:
192,192,50614,1,0,0:0:0:0:
64,192,50672,1,0,0:0:0:0:
320,192,50730,1,0,0:0:0:0:
192,192,50789,1,0,0:0:0:0:
448,192,50847,1,0,0:0:0:0:
64,192,50905,1,0,0:0:0:0:
320,192,50992,1,0,0:0:0:0:
448,192,51036,1,0,0:0:0:0:
192,192,51079,1,0,0:0:0:0:
448,192,51254,1,0,0:0:0:0:
64,192,51341,1,0,0:0:0:0:
192,192,51428,1,0,0:0:0:0:
448,192,51428,1,0,0:0:0:0:
192,192,51603,1,0,0:0:0:0:
320,192,51690,1,0,0:0:0:0:
64,192,51733,1,0,0:0:0:0:
448,192,51777,1,0,0:0:0:0:
192,192,51777,1,0,0:0:0:0:
320,192,51951,1,0,0:0:0:0:
64,192,51951,1,0,0:0:0:0:
448,192,52039,1,0,0:0:0:0:
192,192,52126,1,0,0:0:0:0:
64,192,52300,1,0,0:0:0:0:
448,192,52344,1,0,0:0:0:0:
192,192,52387,1,0,0:0:0:0:
64,192,52431,1,0,0:0:0:0:
320,192,52475,1,0,0:0:0:0:
192,192,52649,1,0,0:0:0:0:
448,192,52649,1,0,0:0:0:0:
448,192,52824,1,0,0:0:0:0:
320,192,52998,1,0,0:0:0:0:
64,192,52998,1,0,0:0:0:0:
192,192,53172,1,0,0:0:0:0:
448,192,53347,1,0,0:0:0:0:
192,192,53347,1,0,0:0:0:0:
320,192,53521,1,0,0:0:0:0:
64,192,53696,1,0,0:0:0:0:
320,192,53696,1,0,0:0:0:0:
448,192,53783,1,0,0:0:0:0:
192,192,53870,1,0,0:0:0:0:
64,192,53957,1,0,0:0:0:0:
448,192,54044,1,0,0:0:0:0:
320,192,54132,1,0,0:0:0:0:
192,192,54219,1,0,0:0:0:0:
448,192,54219,1,0,0:0:0:0:
64,192,54306,1,0,0:0:0:0:
320,192,54306,1,0,0:0:0:0:
192,192,54393,1,0,0:0:0:0:
448,192,54393,1,0,0:0:0:0:
64,192,54480,1,0,0:0:0:0:
320,192,54568,1,0,0:0:0:0:
192,192,54655,1,0,0:0:0:0:
320,192,54742,1,0,0:0:0:0:
64,192,54742,1,0,0:0:0:0:
192,192,54917,1,0,0:0:0:0:
320,192,55004,5,0,0:0:0:0:
64,192,55091,5,0,0:0:0:0:
320,192,55178,1,0,0:0:0:0:
448,192,55265,1,0,0:0:0:0:
192,192,55265,1,0,0:0:0:0:
320,192,55440,1,0,0:0:0:0:
192,192,55440,1,0,0:0:0:0:
448,192,55527,1,0,0:0:0:0:
192,192,55614,1,0,0:0:0:0:
320,192,55672,1,0,0:0:0:0:
448,192,55730,1,0,0:0:0:0:
192,192,55789,1,0,0:0:0:0:
64,192,55789,1,0,0:0:0:0:
320,192,55876,1,0,0:0:0:0:
448,192,55963,1,0,0:0:0:0:
448,192,56050,1,0,0:0:0:0:
320,192,56094,1,0,0:0:0:0:
192,192,56137,5,0,0:0:0:0:
64,192,56137,128,0,56486:0:0:0:0:
448,192,56486,1,0,0:0:0:0:
320,192,56661,1,0,0:0:0:0:
192,192,56661,1,0,0:0:0:0:
320,192,56748,1,0,0:0:0:0:
192,192,56792,1,0,0:0:0:0:
64,192,56835,1,0,0:0:0:0:
448,192,56835,1,0,0:0:0:0:
320,192,57010,1,0,0:0:0:0:
192,192,57053,1,0,0:0:0:0:
320,192,57184,1,0,0:0:0:0:
64,192,57184,128,0,57533:0:0:0:0:
448,192,57271,1,0,0:0:0:0:
192,192,57358,1,0,0:0:0:0:
448,192,57446,1,0,0:0:0:0:
320,192,57533,128,0,57707:0:0:0:0:
448,192,57707,1,0,0:0:0:0:
192,192,57707,1,0,0:0:0:0:
448,192,57794,1,0,0:0:0:0:
192,192,57794,1,0,0:0:0:0:
64,192,57882,1,0,0:0:0:0:
192,192,57882,1,0,0:0:0:0:
320,192,58056,1,0,0:0:0:0:
192,192,58056,1,0,0:0:0:0:
320,192,58143,1,0,0:0:0:0:
64,192,58230,1,0,0:0:0:0:
448,192,58230,1,0,0:0:0:0:
320,192,58361,1,0,0:0:0:0:
192,192,58405,1,0,0:0:0:0:
64,192,58405,1,0,0:0:0:0:
320,192,58579,128,0,58928:0:0:0:0:
64,192,58754,1,0,0:0:0:0:
192,192,58754,1,0,0:0:0:0:
192,192,58928,1,0,0:0:0:0:
64,192,58928,128,0,59277:0:0:0:0:
320,192,59103,1,0,0:0:0:0:
192,192,59146,1,0,0:0:0:0:
320,192,59190,1,0,0:0:0:0:
192,192,59233,1,0,0:0:0:0:
448,192,59277,128,0,59451:0:0:0:0:
320,192,59364,128,0,59451:0:0:0:0:
192,192,59451,1,0,0:0:0:0:
64,192,59451,1,0,0:0:0:0:
448,192,59539,1,0,0:0:0:0:
320,192,59539,1,0,0:0:0:0:
448,192,59626,1,0,0:0:0:0:
64,192,59626,128,0,59800:0:0:0:0:
448,192,59800,128,0,59975:0:0:0:0:
192,192,59975,1,0,0:0:0:0:
64,192,59975,1,0,0:0:0:0:
192,192,60062,1,0,0:0:0:0:
320,192,60149,1,0,0:0:0:0:
448,192,60236,1,0,0:0:0:0:
64,192,60324,1,0,0:0:0:0:
320,192,60345,1,0,0:0:0:0:
64,192,60411,1,0,0:0:0:0:
192,192,60433,1,0,0:0:0:0:
320,192,60498,1,0,0:0:0:0:
448,192,60498,1,0,0:0:0:0:
192,192,60585,1,0,0:0:0:0:
64,192,60585,1,0,0:0:0:0:
192,192,60672,1,0,0:0:0:0:
320,192,60672,1,0,0:0:0:0:
448,192,60672,1,0,0:0:0:0:
64,192,60760,1,0,0:0:0:0:
192,192,60803,1,0,0:0:0:0:
320,192,60847,1,0,0:0:0:0:
448,192,60847,1,0,0:0:0:0:
448,192,60934,1,0,0:0:0:0:
192,192,60934,1,0,0:0:0:0:
448,192,61021,1,0,0:0:0:0:
64,192,61021,1,0,0:0:0:0:
448,192,61196,128,0,61312:0:0:0:0:
192,192,61283,1,0,0:0:0:0:
64,192,61283,1,0,0:0:0:0:
448,192,61370,128,0,61486:0:0:0:0:
192,192,61457,128,0,61632:0:0:0:0:
448,192,61544,128,0,61603:0:0:0:0:
320,192,61632,1,0,0:0:0:0:
448,192,61675,1,0,0:0:0:0:
192,192,61719,5,0,0:0:0:0:
64,192,61719,128,0,62068:0:0:0:0:
448,192,62068,1,0,0:0:0:0:
320,192,62242,1,0,0:0:0:0:
192,192,62242,1,0,0:0:0:0:
320,192,62329,1,0,0:0:0:0:
192,192,62373,1,0,0:0:0:0:
64,192,62417,1,0,0:0:0:0:
448,192,62417,1,0,0:0:0:0:
320,192,62591,1,0,0:0:0:0:
192,192,62635,1,0,0:0:0:0:
320,192,62765,1,0,0:0:0:0:
64,192,62765,128,0,63114:0:0:0:0:
448,192,62853,1,0,0:0:0:0:
192,192,62940,1,0,0:0:0:0:
448,192,63027,1,0,0:0:0:0:
320,192,63114,128,0,63289:0:0:0:0:
448,192,63289,1,0,0:0:0:0:
192,192,63289,1,0,0:0:0:0:
448,192,63376,1,0,0:0:0:0:
192,192,63376,1,0,0:0:0:0:
64,192,63463,1,0,0:0:0:0:
192,192,63463,1,0,0:0:0:0:
320,192,63637,1,0,0:0:0:0:
192,192,63637,1,0,0:0:0:0:
320,192,63725,1,0,0:0:0:0:
64,192,63812,1,0,0:0:0:0:
448,192,63812,1,0,0:0:0:0:
320,192,63943,1,0,0:0:0:0:
192,192,63986,1,0,0:0:0:0:
64,192,63986,1,0,0:0:0:0:
320,192,64161,128,0,64335:0:0:0:0:
64,192,64335,1,0,0:0:0:0:
192,192,64335,1,0,0:0:0:0:
448,192,64422,128,0,64510:0:0:0:0:
64,192,64510,1,0,0:0:0:0:
192,192,64510,1,0,0:0:0:0:
64,192,64684,128,0,64858:0:0:0:0:
192,192,64728,1,0,0:0:0:0:
320,192,64771,1,0,0:0:0:0:
192,192,64815,1,0,0:0:0:0:
448,192,64858,1,0,0:0:0:0:
320,192,64902,1,0,0:0:0:0:
448,192,64946,1,0,0:0:0:0:
192,192,64989,1,0,0:0:0:0:
320,192,65033,1,0,0:0:0:0:
64,192,65033,1,0,0:0:0:0:
448,192,65076,1,0,0:0:0:0:
192,192,65120,1,0,0:0:0:0:
320,192,65164,1,0,0:0:0:0:
448,192,65207,1,0,0:0:0:0:
64,192,65207,128,0,65382:0:0:0:0:
192,192,65294,128,0,65382:0:0:0:0:
448,192,65382,1,0,0:0:0:0:
320,192,65382,128,0,65469:0:0:0:0:
448,192,65469,1,0,0:0:0:0:
192,192,65512,1,0,0:0:0:0:
320,192,65556,1,0,0:0:0:0:
64,192,65556,1,0,0:0:0:0:
192,192,65643,1,0,0:0:0:0:
320,192,65730,1,0,0:0:0:0:
448,192,65730,1,0,0:0:0:0:
64,192,65818,1,0,0:0:0:0:
192,192,65861,1,0,0:0:0:0:
320,192,65905,128,0,66254:0:0:0:0:
192,192,66254,128,0,66603:0:0:0:0:
448,192,66515,1,0,0:0:0:0:
448,192,66603,1,0,0:0:0:0:
64,192,66603,128,0,66951:0:0:0:0:
448,192,66951,128,0,67068:0:0:0:0:
448,192,67126,128,0,67242:0:0:0:0:
192,192,67300,5,0,0:0:0:0:
64,192,67300,128,0,67649:0:0:0:0:
448,192,67649,1,0,0:0:0:0:
320,192,67824,1,0,0:0:0:0:
192,192,67824,1,0,0:0:0:0:
320,192,67911,1,0,0:0:0:0:
192,192,67954,1,0,0:0:0:0:
64,192,67998,1,0,0:0:0:0:
448,192,67998,1,0,0:0:0:0:
320,192,68172,1,0,0:0:0:0:
192,192,68216,1,0,0:0:0:0:
320,192,68347,1,0,0:0:0:0:
64,192,68347,128,0,68696:0:0:0:0:
448,192,68434,1,0,0:0:0:0:
192,192,68521,1,0,0:0:0:0:
448,192,68608,1,0,0:0:0:0:
320,192,68696,128,0,68870:0:0:0:0:
448,192,68870,1,0,0:0:0:0:
192,192,68870,1,0,0:0:0:0:
448,192,68957,1,0,0:0:0:0:
192,192,68957,1,0,0:0:0:0:
64,192,69044,1,0,0:0:0:0:
192,192,69044,1,0,0:0:0:0:
320,192,69219,1,0,0:0:0:0:
192,192,69219,1,0,0:0:0:0:
320,192,69306,1,0,0:0:0:0:
64,192,69393,1,0,0:0:0:0:
448,192,69393,1,0,0:0:0:0:
320,192,69524,1,0,0:0:0:0:
192,192,69568,1,0,0:0:0:0:
64,192,69568,1,0,0:0:0:0:
320,192,69742,128,0,70091:0:0:0:0:
64,192,69917,1,0,0:0:0:0:
192,192,69917,1,0,0:0:0:0:
192,192,70091,1,0,0:0:0:0:
64,192,70091,1,0,0:0:0:0:
192,192,70178,1,0,0:0:0:0:
320,192,70265,1,0,0:0:0:0:
192,192,70309,1,0,0:0:0:0:
320,192,70353,1,0,0:0:0:0:
64,192,70396,1,0,0:0:0:0:
448,192,70440,1,0,0:0:0:0:
320,192,70483,1,0,0:0:0:0:
192,192,70527,1,0,0:0:0:0:
64,192,70571,1,0,0:0:0:0:
448,192,70614,1,0,0:0:0:0:
320,192,70614,1,0,0:0:0:0:
192,192,70658,1,0,0:0:0:0:
320,192,70701,1,0,0:0:0:0:
192,192,70745,1,0,0:0:0:0:
448,192,70789,1,0,0:0:0:0:
64,192,70789,128,0,70963:0:0:0:0:
448,192,70963,128,0,71137:0:0:0:0:
192,192,71137,1,0,0:0:0:0:
64,192,71137,1,0,0:0:0:0:
192,192,71225,1,0,0:0:0:0:
320,192,71312,1,0,0:0:0:0:
448,192,71399,1,0,0:0:0:0:
64,192,71486,1,0,0:0:0:0:
320,192,71508,1,0,0:0:0:0:
64,192,71574,1,0,0:0:0:0:
192,192,71595,1,0,0:0:0:0:
320,192,71661,1,0,0:0:0:0:
448,192,71661,1,0,0:0:0:0:
192,192,71748,1,0,0:0:0:0:
64,192,71748,1,0,0:0:0:0:
192,192,71835,1,0,0:0:0:0:
320,192,71835,1,0,0:0:0:0:
448,192,71835,1,0,0:0:0:0:
64,192,71922,1,0,0:0:0:0:
192,192,71966,1,0,0:0:0:0:
320,192,72010,1,0,0:0:0:0:
448,192,72010,1,0,0:0:0:0:
448,192,72097,1,0,0:0:0:0:
192,192,72097,1,0,0:0:0:0:
448,192,72184,1,0,0:0:0:0:
64,192,72184,1,0,0:0:0:0:
448,192,72358,128,0,72475:0:0:0:0:
192,192,72446,1,0,0:0:0:0:
64,192,72446,1,0,0:0:0:0:
448,192,72533,128,0,72649:0:0:0:0:
192,192,72620,128,0,72794:0:0:0:0:
448,192,72707,128,0,72765:0:0:0:0:
320,192,72794,1,0,0:0:0:0:
448,192,72838,1,0,0:0:0:0:
192,192,72882,5,0,0:0:0:0:
64,192,72882,128,0,73230:0:0:0:0:
448,192,73230,1,0,0:0:0:0:
320,192,73405,1,0,0:0:0:0:
192,192,73405,1,0,0:0:0:0:
320,192,73492,1,0,0:0:0:0:
192,192,73536,1,0,0:0:0:0:
64,192,73579,1,0,0:0:0:0:
448,192,73579,1,0,0:0:0:0:
320,192,73754,1,0,0:0:0:0:
192,192,73797,1,0,0:0:0:0:
320,192,73928,1,0,0:0:0:0:
64,192,73928,1,0,0:0:0:0:
448,192,74015,1,0,0:0:0:0:
64,192,74103,128,0,74277:0:0:0:0:
448,192,74190,1,0,0:0:0:0:
320,192,74277,128,0,74451:0:0:0:0:
448,192,74451,1,0,0:0:0:0:
192,192,74451,1,0,0:0:0:0:
448,192,74539,1,0,0:0:0:0:
192,192,74539,1,0,0:0:0:0:
64,192,74626,1,0,0:0:0:0:
192,192,74626,1,0,0:0:0:0:
320,192,74800,1,0,0:0:0:0:
192,192,74800,1,0,0:0:0:0:
320,192,74887,1,0,0:0:0:0:
64,192,74975,1,0,0:0:0:0:
448,192,74975,1,0,0:0:0:0:
320,192,75105,1,0,0:0:0:0:
192,192,75149,1,0,0:0:0:0:
64,192,75149,1,0,0:0:0:0:
320,192,75324,128,0,75498:0:0:0:0:
64,192,75498,1,0,0:0:0:0:
192,192,75498,1,0,0:0:0:0:
448,192,75585,128,0,75672:0:0:0:0:
64,192,75672,1,0,0:0:0:0:
320,192,75672,1,0,0:0:0:0:
64,192,75847,128,0,76021:0:0:0:0:
192,192,75890,1,0,0:0:0:0:
320,192,75934,1,0,0:0:0:0:
192,192,75978,1,0,0:0:0:0:
448,192,76021,1,0,0:0:0:0:
64,192,76108,1,0,0:0:0:0:
320,192,76196,1,0,0:0:0:0:
448,192,76196,1,0,0:0:0:0:
192,192,76239,1,0,0:0:0:0:
448,192,76283,1,0,0:0:0:0:
320,192,76283,1,0,0:0:0:0:
192,192,76326,1,0,0:0:0:0:
448,192,76370,1,0,0:0:0:0:
64,192,76370,1,0,0:0:0:0:
320,192,76457,1,0,0:0:0:0:
192,192,76544,1,0,0:0:0:0:
448,192,76632,128,0,76719:0:0:0:0:
64,192,76719,1,0,0:0:0:0:
192,192,76719,128,0,76806:0:0:0:0:
64,192,76806,128,0,76893:0:0:0:0:
192,192,76893,128,0,77068:0:0:0:0:
448,192,78201,128,0,78245:0:0:0:0:
448,192,78289,128,0,78376:0:0:0:0:
448,192,78419,1,0,0:0:0:0:
192,192,78463,1,0,0:0:0:0:
64,192,78463,128,0,78812:0:0:0:0:
320,192,78812,1,0,0:0:0:0:
320,192,78986,1,0,0:0:0:0:
192,192,78986,1,0,0:0:0:0:
192,192,79074,1,0,0:0:0:0:
320,192,79161,1,0,0:0:0:0:
64,192,79161,1,0,0:0:0:0:
448,192,79248,1,0,0:0:0:0:
320,192,79292,1,0,0:0:0:0:
192,192,79335,1,0,0:0:0:0:
64,192,79335,1,0,0:0:0:0:
320,192,79422,1,0,0:0:0:0:
64,192,79422,1,0,0:0:0:0:
192,192,79510,1,0,0:0:0:0:
448,192,79553,1,0,0:0:0:0:
320,192,79684,1,0,0:0:0:0:
448,192,79684,1,0,0:0:0:0:
320,192,79815,1,0,0:0:0:0:
448,192,79858,1,0,0:0:0:0:
192,192,79946,1,0,0:0:0:0:
320,192,80033,1,0,0:0:0:0:
320,192,80120,1,0,0:0:0:0:
192,192,80207,1,0,0:0:0:0:
448,192,80207,1,0,0:0:0:0:
192,192,80382,1,0,0:0:0:0:
64,192,80382,1,0,0:0:0:0:
320,192,80469,1,0,0:0:0:0:
64,192,80469,1,0,0:0:0:0:
192,192,80556,1,0,0:0:0:0:
448,192,80556,1,0,0:0:0:0:
320,192,80643,1,0,0:0:0:0:
192,192,80730,1,0,0:0:0:0:
64,192,80730,1,0,0:0:0:0:
448,192,80818,1,0,0:0:0:0:
192,192,80818,1,0,0:0:0:0:
320,192,80905,1,0,0:0:0:0:
448,192,80905,1,0,0:0:0:0:
64,192,80992,1,0,0:0:0:0:
192,192,81079,1,0,0:0:0:0:
448,192,81079,1,0,0:0:0:0:
320,192,81167,1,0,0:0:0:0:
192,192,81254,1,0,0:0:0:0:
64,192,81254,128,0,81603:0:0:0:0:
192,192,81428,128,0,81603:0:0:0:0:
448,192,81428,128,0,81603:0:0:0:0:
320,192,81603,1,0,0:0:0:0:
192,192,81777,1,0,0:0:0:0:
64,192,81777,1,0,0:0:0:0:
320,192,81864,1,0,0:0:0:0:
448,192,81864,1,0,0:0:0:0:
320,192,81951,1,0,0:0:0:0:
64,192,81951,1,0,0:0:0:0:
192,192,82039,1,0,0:0:0:0:
64,192,82082,1,0,0:0:0:0:
320,192,82126,1,0,0:0:0:0:
448,192,82126,1,0,0:0:0:0:
192,192,82213,1,0,0:0:0:0:
448,192,82213,1,0,0:0:0:0:
320,192,82300,128,0,82387:0:0:0:0:
64,192,82387,1,0,0:0:0:0:
448,192,82475,1,0,0:0:0:0:
320,192,82475,1,0,0:0:0:0:
448,192,82649,1,0,0:0:0:0:
64,192,82736,1,0,0:0:0:0:
320,192,82824,1,0,0:0:0:0:
448,192,82824,1,0,0:0:0:0:
192,192,82911,1,0,0:0:0:0:
192,192,82998,1,0,0:0:0:0:
448,192,82998,1,0,0:0:0:0:
320,192,83085,1,0,0:0:0:0:
192,192,83129,1,0,0:0:0:0:
64,192,83172,1,0,0:0:0:0:
320,192,83172,1,0,0:0:0:0:
192,192,83260,1,0,0:0:0:0:
448,192,83260,1,0,0:0:0:0:
64,192,83347,1,0,0:0:0:0:
320,192,83347,1,0,0:0:0:0:
64,192,83434,1,0,0:0:0:0:
320,192,83521,1,0,0:0:0:0:
448,192,83521,1,0,0:0:0:0:
320,192,83608,1,0,0:0:0:0:
64,192,83608,1,0,0:0:0:0:
192,192,83696,1,0,0:0:0:0:
448,192,83739,1,0,0:0:0:0:
320,192,83783,1,0,0:0:0:0:
64,192,83783,1,0,0:0:0:0:
192,192,83826,1,0,0:0:0:0:
448,192,83870,1,0,0:0:0:0:
192,192,83914,1,0,0:0:0:0:
320,192,83957,1,0,0:0:0:0:
448,192,84001,1,0,0:0:0:0:
192,192,84044,1,0,0:0:0:0:
64,192,84044,128,0,84393:0:0:0:0:
448,192,84219,128,0,84393:0:0:0:0:
320,192,84393,1,0,0:0:0:0:
192,192,84437,1,0,0:0:0:0:
64,192,84480,1,0,0:0:0:0:
448,192,84524,1,0,0:0:0:0:
192,192,84568,1,0,0:0:0:0:
320,192,84611,1,0,0:0:0:0:
448,192,84655,1,0,0:0:0:0:
64,192,84742,1,0,0:0:0:0:
448,192,84742,1,0,0:0:0:0:
448,192,84873,1,0,0:0:0:0:
320,192,84917,1,0,0:0:0:0:
192,192,84917,1,0,0:0:0:0:
64,192,85004,1,0,0:0:0:0:
192,192,85047,1,0,0:0:0:0:
320,192,85091,1,0,0:0:0:0:
64,192,85091,1,0,0:0:0:0:
192,192,85178,1,0,0:0:0:0:
320,192,85265,1,0,0:0:0:0:
448,192,85265,128,0,85353:0:0:0:0:
320,192,85396,1,0,0:0:0:0:
448,192,85440,1,0,0:0:0:0:
192,192,85527,1,0,0:0:0:0:
320,192,85614,1,0,0:0:0:0:
320,192,85701,1,0,0:0:0:0:
192,192,85789,1,0,0:0:0:0:
448,192,85789,1,0,0:0:0:0:
192,192,85963,1,0,0:0:0:0:
64,192,85963,1,0,0:0:0:0:
320,192,86050,1,0,0:0:0:0:
64,192,86050,1,0,0:0:0:0:
448,192,86137,1,0,0:0:0:0:
192,192,86137,128,0,86399:0:0:0:0:
320,192,86486,128,0,86661:0:0:0:0:
192,192,86661,128,0,86748:0:0:0:0:
320,192,86748,1,0,0:0:0:0:
448,192,86748,128,0,86835:0:0:0:0:
192,192,86835,1,0,0:0:0:0:
64,192,86835,1,0,0:0:0:0:
320,192,86879,1,0,0:0:0:0:
448,192,86922,1,0,0:0:0:0:
192,192,86966,1,0,0:0:0:0:
320,192,87010,1,0,0:0:0:0:
64,192,87053,1,0,0:0:0:0:
448,192,87097,1,0,0:0:0:0:
320,192,87126,1,0,0:0:0:0:
192,192,87155,1,0,0:0:0:0:
64,192,87184,1,0,0:0:0:0:
448,192,87228,1,0,0:0:0:0:
320,192,87271,1,0,0:0:0:0:
192,192,87315,1,0,0:0:0:0:
448,192,87358,1,0,0:0:0:0:
64,192,87402,1,0,0:0:0:0:
320,192,87446,1,0,0:0:0:0:
192,192,87489,1,0,0:0:0:0:
64,192,87533,1,0,0:0:0:0:
448,192,87533,1,0,0:0:0:0:
320,192,87620,1,0,0:0:0:0:
64,192,87707,1,0,0:0:0:0:
192,192,87707,1,0,0:0:0:0:
192,192,87794,1,0,0:0:0:0:
448,192,87794,1,0,0:0:0:0:
320,192,87882,128,0,88056:0:0:0:0:
448,192,87969,1,0,0:0:0:0:
192,192,88056,1,0,0:0:0:0:
64,192,88056,1,0,0:0:0:0:
192,192,88187,1,0,0:0:0:0:
448,192,88230,1,0,0:0:0:0:
320,192,88318,1,0,0:0:0:0:
64,192,88318,1,0,0:0:0:0:
192,192,88405,1,0,0:0:0:0:
64,192,88405,1,0,0:0:0:0:
320,192,88492,1,0,0:0:0:0:
192,192,88579,1,0,0:0:0:0:
448,192,88579,1,0,0:0:0:0:
64,192,88667,1,0,0:0:0:0:
320,192,88754,1,0,0:0:0:0:
192,192,88754,1,0,0:0:0:0:
320,192,88841,1,0,0:0:0:0:
448,192,88841,1,0,0:0:0:0:
64,192,88928,1,0,0:0:0:0:
192,192,89015,1,0,0:0:0:0:
448,192,89015,1,0,0:0:0:0:
320,192,89103,1,0,0:0:0:0:
448,192,89103,1,0,0:0:0:0:
448,192,89190,1,0,0:0:0:0:
64,192,89190,1,0,0:0:0:0:
64,192,89277,1,0,0:0:0:0:
320,192,89321,1,0,0:0:0:0:
192,192,89364,1,0,0:0:0:0:
320,192,89408,1,0,0:0:0:0:
64,192,89451,1,0,0:0:0:0:
192,192,89495,1,0,0:0:0:0:
320,192,89539,1,0,0:0:0:0:
448,192,89582,1,0,0:0:0:0:
192,192,89626,1,0,0:0:0:0:
64,192,89626,128,0,89975:0:0:0:0:
320,192,89975,1,0,0:0:0:0:
320,192,90149,1,0,0:0:0:0:
192,192,90149,1,0,0:0:0:0:
192,192,90236,1,0,0:0:0:0:
320,192,90324,1,0,0:0:0:0:
64,192,90324,1,0,0:0:0:0:
448,192,90411,1,0,0:0:0:0:
320,192,90454,1,0,0:0:0:0:
192,192,90498,1,0,0:0:0:0:
64,192,90498,1,0,0:0:0:0:
320,192,90585,1,0,0:0:0:0:
64,192,90585,1,0,0:0:0:0:
192,192,90672,1,0,0:0:0:0:
448,192,90716,1,0,0:0:0:0:
320,192,90847,1,0,0:0:0:0:
448,192,90847,1,0,0:0:0:0:
320,192,90978,1,0,0:0:0:0:
448,192,91021,1,0,0:0:0:0:
192,192,91108,1,0,0:0:0:0:
320,192,91196,1,0,0:0:0:0:
320,192,91283,1,0,0:0:0:0:
192,192,91370,1,0,0:0:0:0:
448,192,91370,1,0,0:0:0:0:
192,192,91544,1,0,0:0:0:0:
64,192,91544,1,0,0:0:0:0:
320,192,91632,1,0,0:0:0:0:
64,192,91632,1,0,0:0:0:0:
192,192,91719,1,0,0:0:0:0:
448,192,91719,1,0,0:0:0:0:
320,192,91806,1,0,0:0:0:0:
192,192,91893,1,0,0:0:0:0:
64,192,91893,1,0,0:0:0:0:
448,192,91980,1,0,0:0:0:0:
192,192,91980,1,0,0:0:0:0:
320,192,92068,1,0,0:0:0:0:
448,192,92068,1,0,0:0:0:0:
64,192,92155,1,0,0:0:0:0:
192,192,92242,1,0,0:0:0:0:
448,192,92242,1,0,0:0:0:0:
320,192,92329,1,0,0:0:0:0:
192,192,92417,1,0,0:0:0:0:
64,192,92417,128,0,92765:0:0:0:0:
192,192,92591,128,0,92765:0:0:0:0:
448,192,92591,128,0,92765:0:0:0:0:
320,192,92765,1,0,0:0:0:0:
192,192,92940,1,0,0:0:0:0:
64,192,92940,1,0,0:0:0:0:
320,192,93027,1,0,0:0:0:0:
448,192,93027,1,0,0:0:0:0:
320,192,93114,1,0,0:0:0:0:
64,192,93114,1,0,0:0:0:0:
192,192,93201,1,0,0:0:0:0:
64,192,93245,1,0,0:0:0:0:
320,192,93289,1,0,0:0:0:0:
448,192,93289,1,0,0:0:0:0:
192,192,93376,1,0,0:0:0:0:
448,192,93376,1,0,0:0:0:0:
320,192,93463,128,0,93550:0:0:0:0:
64,192,93550,1,0,0:0:0:0:
448,192,93637,1,0,0:0:0:0:
320,192,93637,1,0,0:0:0:0:
448,192,93812,1,0,0:0:0:0:
64,192,93899,1,0,0:0:0:0:
320,192,93986,1,0,0:0:0:0:
448,192,93986,1,0,0:0:0:0:
192,192,94074,1,0,0:0:0:0:
192,192,94161,1,0,0:0:0:0:
448,192,94161,1,0,0:0:0:0:
320,192,94248,1,0,0:0:0:0:
192,192,94292,1,0,0:0:0:0:
64,192,94335,1,0,0:0:0:0:
320,192,94335,1,0,0:0:0:0:
192,192,94422,1,0,0:0:0:0:
448,192,94422,1,0,0:0:0:0:
64,192,94510,1,0,0:0:0:0:
320,192,94510,1,0,0:0:0:0:
64,192,94597,1,0,0:0:0:0:
320,192,94684,1,0,0:0:0:0:
448,192,94684,1,0,0:0:0:0:
320,192,94771,1,0,0:0:0:0:
64,192,94771,1,0,0:0:0:0:
192,192,94858,1,0,0:0:0:0:
448,192,94902,1,0,0:0:0:0:
320,192,94946,1,0,0:0:0:0:
64,192,94946,1,0,0:0:0:0:
192,192,94989,1,0,0:0:0:0:
448,192,95033,1,0,0:0:0:0:
192,192,95076,1,0,0:0:0:0:
320,192,95120,1,0,0:0:0:0:
448,192,95164,1,0,0:0:0:0:
192,192,95207,1,0,0:0:0:0:
64,192,95207,128,0,95556:0:0:0:0:
448,192,95382,128,0,95556:0:0:0:0:
320,192,95556,1,0,0:0:0:0:
192,192,95600,1,0,0:0:0:0:
64,192,95643,1,0,0:0:0:0:
448,192,95687,1,0,0:0:0:0:
320,192,95730,1,0,0:0:0:0:
192,192,95774,1,0,0:0:0:0:
64,192,95818,1,0,0:0:0:0:
64,192,95905,1,0,0:0:0:0:
448,192,95905,1,0,0:0:0:0:
448,192,96036,1,0,0:0:0:0:
320,192,96079,1,0,0:0:0:0:
192,192,96079,1,0,0:0:0:0:
64,192,96123,1,0,0:0:0:0:
192,192,96167,1,0,0:0:0:0:
448,192,96210,1,0,0:0:0:0:
64,192,96254,1,0,0:0:0:0:
320,192,96254,1,0,0:0:0:0:
192,192,96341,1,0,0:0:0:0:
320,192,96428,1,0,0:0:0:0:
448,192,96428,128,0,96515:0:0:0:0:
320,192,96559,1,0,0:0:0:0:
448,192,96603,1,0,0:0:0:0:
192,192,96690,1,0,0:0:0:0:
320,192,96777,1,0,0:0:0:0:
320,192,96864,1,0,0:0:0:0:
192,192,96951,1,0,0:0:0:0:
448,192,96951,1,0,0:0:0:0:
192,192,97126,1,0,0:0:0:0:
64,192,97126,1,0,0:0:0:0:
320,192,97213,1,0,0:0:0:0:
64,192,97213,1,0,0:0:0:0:
448,192,97300,1,0,0:0:0:0:
192,192,97300,128,0,97562:0:0:0:0:
64,192,97649,128,0,97693:0:0:0:0:
320,192,97693,128,0,97736:0:0:0:0:
64,192,97736,128,0,97780:0:0:0:0:
448,192,97780,128,0,97824:0:0:0:0:
192,192,97780,128,0,97824:0:0:0:0:
320,192,97824,1,0,0:0:0:0:
192,192,97911,1,0,0:0:0:0:
64,192,97911,1,0,0:0:0:0:
320,192,97998,1,0,0:0:0:0:
448,192,97998,1,0,0:0:0:0:
192,192,98042,1,0,0:0:0:0:
64,192,98085,1,0,0:0:0:0:
320,192,98129,1,0,0:0:0:0:
192,192,98172,1,0,0:0:0:0:
448,192,98216,1,0,0:0:0:0:
64,192,98260,1,0,0:0:0:0:
192,192,98289,1,0,0:0:0:0:
320,192,98318,1,0,0:0:0:0:
448,192,98347,1,0,0:0:0:0:
64,192,98463,1,0,0:0:0:0:
448,192,98521,1,0,0:0:0:0:
320,192,98579,1,0,0:0:0:0:
192,192,98637,1,0,0:0:0:0:
448,192,98696,1,0,0:0:0:0:
64,192,98696,1,0,0:0:0:0:
320,192,98739,1,0,0:0:0:0:
192,192,98783,1,0,0:0:0:0:
448,192,98826,1,0,0:0:0:0:
320,192,98826,1,0,0:0:0:0:
64,192,98957,1,0,0:0:0:0:
192,192,99001,1,0,0:0:0:0:
64,192,99044,1,0,0:0:0:0:
320,192,99044,1,0,0:0:0:0:
192,192,99132,1,0,0:0:0:0:
64,192,99175,1,0,0:0:0:0:
320,192,99219,1,0,0:0:0:0:
448,192,99219,1,0,0:0:0:0:
192,192,99350,1,0,0:0:0:0:
448,192,99393,1,0,0:0:0:0:
192,192,99742,128,0,100033:0:0:0:0:
64,192,100033,1,0,0:0:0:0:
320,192,100033,128,0,100440:0:0:0:0:
448,192,100483,1,0,0:0:0:0:
192,192,100571,1,0,0:0:0:0:
64,192,100614,1,0,0:0:0:0:
448,192,100658,1,0,0:0:0:0:
192,192,100701,1,0,0:0:0:0:
448,192,100745,1,0,0:0:0:0:
320,192,100789,1,0,0:0:0:0:
64,192,100789,1,0,0:0:0:0:
448,192,101137,1,0,0:0:0:0:
320,192,101486,1,0,0:0:0:0:
64,192,101835,1,0,0:0:0:0:
192,192,102184,1,0,0:0:0:0:
448,192,104277,1,0,0:0:0:0:
320,192,105324,1,0,0:0:0:0:
64,192,105672,1,0,0:0:0:0:
320,192,106370,1,0,0:0:0:0:
64,192,106370,1,0,0:0:0:0:
448,192,106893,1,0,0:0:0:0:
448,192,107068,1,0,0:0:0:0:
448,192,107242,1,0,0:0:0:0:
448,192,107417,1,0,0:0:0:0:
448,192,107591,1,0,0:0:0:0:
192,192,107765,1,0,0:0:0:0:
448,192,108114,1,0,0:0:0:0:
448,192,108463,1,0,0:0:0:0:
320,192,108812,128,0,111951:0:0:0:0:
192,192,111951,1,0,0:0:0:0:
64,192,111951,1,0,0:0:0:0:
448,192,112126,1,0,0:0:0:0:
192,192,112475,1,0,0:0:0:0:
320,192,112518,1,0,0:0:0:0:
448,192,112562,1,0,0:0:0:0:
192,192,112998,1,0,0:0:0:0:
320,192,113347,1,0,0:0:0:0:
448,192,113521,1,0,0:0:0:0:
448,192,113696,1,0,0:0:0:0:
64,192,113870,1,0,0:0:0:0:
448,192,114044,1,0,0:0:0:0:
64,192,114742,1,0,0:0:0:0:
448,192,115265,1,0,0:0:0:0:
192,192,115309,1,0,0:0:0:0:
320,192,115440,1,0,0:0:0:0:
64,192,115614,1,0,0:0:0:0:
448,192,115789,1,0,0:0:0:0:
320,192,115963,1,0,0:0:0:0:
192,192,116312,1,0,0:0:0:0:
448,192,116486,1,0,0:0:0:0:
448,192,116661,1,0,0:0:0:0:
192,192,116835,1,0,0:0:0:0:
448,192,117010,1,0,0:0:0:0:
448,192,117184,1,0,0:0:0:0:
448,192,117358,1,0,0:0:0:0:
320,192,117533,1,0,0:0:0:0:
64,192,117576,1,0,0:0:0:0:
448,192,117882,1,0,0:0:0:0:
192,192,118056,1,0,0:0:0:0:
192,192,118579,1,0,0:0:0:0:
192,192,119103,1,0,0:0:0:0:
64,192,119626,1,0,0:0:0:0:
448,192,119800,1,0,0:0:0:0:
320,192,119975,1,0,0:0:0:0:
192,192,120324,1,0,0:0:0:0:
320,192,120672,1,0,0:0:0:0:
64,192,121021,1,0,0:0:0:0:
448,192,121370,1,0,0:0:0:0:
320,192,121719,1,0,0:0:0:0:
320,192,121893,1,0,0:0:0:0:
64,192,121980,1,0,0:0:0:0:
448,192,122068,1,0,0:0:0:0:
320,192,122242,1,0,0:0:0:0:
320,192,122649,1,0,0:0:0:0:
448,192,122940,128,0,123114:0:0:0:0:
192,192,123114,1,0,0:0:0:0:
64,192,123114,1,0,0:0:0:0:
64,192,123289,1,0,0:0:0:0:
448,192,123376,1,0,0:0:0:0:
448,192,123812,1,0,0:0:0:0:
192,192,123899,1,0,0:0:0:0:
320,192,123986,1,0,0:0:0:0:
448,192,124074,1,0,0:0:0:0:
64,192,124161,1,0,0:0:0:0:
192,192,124219,1,0,0:0:0:0:
320,192,124277,1,0,0:0:0:0:
64,192,124335,1,0,0:0:0:0:
448,192,124379,1,0,0:0:0:0:
192,192,124422,1,0,0:0:0:0:
320,192,124466,1,0,0:0:0:0:
448,192,124510,1,0,0:0:0:0:
448,192,124858,1,0,0:0:0:0:
320,192,124902,1,0,0:0:0:0:
64,192,124946,1,0,0:0:0:0:
320,192,125207,1,0,0:0:0:0:
64,192,125294,1,0,0:0:0:0:
192,192,125382,1,0,0:0:0:0:
192,192,125469,1,0,0:0:0:0:
320,192,125556,1,0,0:0:0:0:
448,192,125556,1,0,0:0:0:0:
192,192,125730,1,0,0:0:0:0:
448,192,125818,1,0,0:0:0:0:
192,192,125905,1,0,0:0:0:0:
64,192,125905,1,0,0:0:0:0:
320,192,126079,1,0,0:0:0:0:
448,192,126254,1,0,0:0:0:0:
64,192,126341,1,0,0:0:0:0:
448,192,126428,1,0,0:0:0:0:
320,192,126603,1,0,0:0:0:0:
64,192,126690,1,0,0:0:0:0:
192,192,126777,1,0,0:0:0:0:
448,192,126864,1,0,0:0:0:0:
192,192,126951,1,0,0:0:0:0:
64,192,126951,1,0,0:0:0:0:
320,192,127010,1,0,0:0:0:0:
448,192,127068,1,0,0:0:0:0:
192,192,127126,1,0,0:0:0:0:
64,192,127169,1,0,0:0:0:0:
320,192,127213,1,0,0:0:0:0:
192,192,127257,1,0,0:0:0:0:
448,192,127300,1,0,0:0:0:0:
64,192,127387,1,0,0:0:0:0:
192,192,127417,1,0,0:0:0:0:
448,192,127649,1,0,0:0:0:0:
320,192,127736,1,0,0:0:0:0:
192,192,127824,1,0,0:0:0:0:
192,192,127998,1,0,0:0:0:0:
320,192,128172,1,0,0:0:0:0:
448,192,128260,1,0,0:0:0:0:
192,192,128347,1,0,0:0:0:0:
64,192,128347,1,0,0:0:0:0:
320,192,128405,1,0,0:0:0:0:
448,192,128463,1,0,0:0:0:0:
192,192,128521,1,0,0:0:0:0:
320,192,128565,1,0,0:0:0:0:
64,192,128608,1,0,0:0:0:0:
192,192,128652,1,0,0:0:0:0:
448,192,128696,1,0,0:0:0:0:
320,192,128696,1,0,0:0:0:0:
192,192,128870,1,0,0:0:0:0:
320,192,129044,1,0,0:0:0:0:
448,192,129088,1,0,0:0:0:0:
64,192,129132,1,0,0:0:0:0:
192,192,129219,1,0,0:0:0:0:
448,192,129306,1,0,0:0:0:0:
320,192,129393,1,0,0:0:0:0:
64,192,129480,1,0,0:0:0:0:
320,192,129568,1,0,0:0:0:0:
448,192,129655,1,0,0:0:0:0:
192,192,129742,1,0,0:0:0:0:
64,192,129742,1,0,0:0:0:0:
320,192,129800,1,0,0:0:0:0:
448,192,129858,1,0,0:0:0:0:
192,192,129917,1,0,0:0:0:0:
64,192,129960,1,0,0:0:0:0:
320,192,130004,1,0,0:0:0:0:
192,192,130047,1,0,0:0:0:0:
448,192,130091,1,0,0:0:0:0:
192,192,130265,1,0,0:0:0:0:
320,192,130440,1,0,0:0:0:0:
192,192,130483,1,0,0:0:0:0:
64,192,130527,1,0,0:0:0:0:
320,192,130789,1,0,0:0:0:0:
192,192,130876,1,0,0:0:0:0:
64,192,130963,1,0,0:0:0:0:
448,192,131050,1,0,0:0:0:0:
192,192,131137,1,0,0:0:0:0:
64,192,131137,1,0,0:0:0:0:
192,192,131312,1,0,0:0:0:0:
64,192,131355,1,0,0:0:0:0:
448,192,131399,1,0,0:0:0:0:
192,192,131486,1,0,0:0:0:0:
320,192,131530,1,0,0:0:0:0:
448,192,131574,1,0,0:0:0:0:
64,192,131661,1,0,0:0:0:0:
192,192,131748,1,0,0:0:0:0:
448,192,131835,1,0,0:0:0:0:
320,192,131922,1,0,0:0:0:0:
192,192,131966,1,0,0:0:0:0:
448,192,132010,1,0,0:0:0:0:
320,192,132184,1,0,0:0:0:0:
64,192,132358,1,0,0:0:0:0:
448,192,132417,1,0,0:0:0:0:
192,192,132475,1,0,0:0:0:0:
320,192,132533,1,0,0:0:0:0:
64,192,132533,1,0,0:0:0:0:
448,192,132591,1,0,0:0:0:0:
192,192,132649,1,0,0:0:0:0:
64,192,132707,1,0,0:0:0:0:
448,192,132751,1,0,0:0:0:0:
320,192,132794,1,0,0:0:0:0:
192,192,132838,1,0,0:0:0:0:
64,192,132882,1,0,0:0:0:0:
448,192,132969,1,0,0:0:0:0:
320,192,132998,1,0,0:0:0:0:
64,192,133056,1,0,0:0:0:0:
448,192,133143,1,0,0:0:0:0:
192,192,133230,1,0,0:0:0:0:
192,192,133318,1,0,0:0:0:0:
320,192,133318,1,0,0:0:0:0:
448,192,133405,1,0,0:0:0:0:
320,192,133579,1,0,0:0:0:0:
192,192,133579,1,0,0:0:0:0:
448,192,133754,1,0,0:0:0:0:
64,192,133812,1,0,0:0:0:0:
448,192,133870,1,0,0:0:0:0:
320,192,133899,1,0,0:0:0:0:
192,192,133928,1,0,0:0:0:0:
64,192,134015,1,0,0:0:0:0:
320,192,134103,1,0,0:0:0:0:
64,192,134190,1,0,0:0:0:0:
192,192,134233,1,0,0:0:0:0:
320,192,134277,1,0,0:0:0:0:
448,192,134277,1,0,0:0:0:0:
320,192,134451,1,0,0:0:0:0:
64,192,134539,1,0,0:0:0:0:
448,192,134626,1,0,0:0:0:0:
448,192,134800,1,0,0:0:0:0:
192,192,134887,1,0,0:0:0:0:
64,192,134975,1,0,0:0:0:0:
320,192,135062,1,0,0:0:0:0:
192,192,135149,1,0,0:0:0:0:
64,192,135236,1,0,0:0:0:0:
448,192,135324,1,0,0:0:0:0:
320,192,135382,1,0,0:0:0:0:
192,192,135440,1,0,0:0:0:0:
448,192,135498,1,0,0:0:0:0:
64,192,135542,1,0,0:0:0:0:
320,192,135585,1,0,0:0:0:0:
192,192,135629,1,0,0:0:0:0:
64,192,135672,1,0,0:0:0:0:
320,192,135847,1,0,0:0:0:0:
64,192,136021,1,0,0:0:0:0:
320,192,136065,1,0,0:0:0:0:
192,192,136108,1,0,0:0:0:0:
448,192,136196,1,0,0:0:0:0:
192,192,136370,1,0,0:0:0:0:
448,192,136457,1,0,0:0:0:0:
320,192,136544,1,0,0:0:0:0:
320,192,136632,1,0,0:0:0:0:
192,192,136719,1,0,0:0:0:0:
64,192,136719,1,0,0:0:0:0:
320,192,136893,1,0,0:0:0:0:
64,192,136980,1,0,0:0:0:0:
320,192,137068,1,0,0:0:0:0:
448,192,137068,1,0,0:0:0:0:
192,192,137242,1,0,0:0:0:0:
64,192,137417,1,0,0:0:0:0:
448,192,137504,1,0,0:0:0:0:
64,192,137591,1,0,0:0:0:0:
192,192,137765,1,0,0:0:0:0:
448,192,137853,1,0,0:0:0:0:
320,192,137940,1,0,0:0:0:0:
64,192,138027,1,0,0:0:0:0:
320,192,138114,1,0,0:0:0:0:
448,192,138114,1,0,0:0:0:0:
192,192,138172,1,0,0:0:0:0:
64,192,138230,1,0,0:0:0:0:
320,192,138289,1,0,0:0:0:0:
448,192,138332,1,0,0:0:0:0:
192,192,138376,1,0,0:0:0:0:
320,192,138419,1,0,0:0:0:0:
64,192,138463,1,0,0:0:0:0:
448,192,138550,1,0,0:0:0:0:
320,192,138579,1,0,0:0:0:0:
64,192,138812,1,0,0:0:0:0:
192,192,138899,1,0,0:0:0:0:
320,192,138986,1,0,0:0:0:0:
320,192,139161,1,0,0:0:0:0:
192,192,139335,1,0,0:0:0:0:
64,192,139422,1,0,0:0:0:0:
320,192,139510,1,0,0:0:0:0:
448,192,139510,1,0,0:0:0:0:
192,192,139568,1,0,0:0:0:0:
64,192,139626,1,0,0:0:0:0:
320,192,139684,1,0,0:0:0:0:
192,192,139728,1,0,0:0:0:0:
448,192,139771,1,0,0:0:0:0:
320,192,139815,1,0,0:0:0:0:
64,192,139858,1,0,0:0:0:0:
192,192,139858,1,0,0:0:0:0:
320,192,140033,1,0,0:0:0:0:
192,192,140207,1,0,0:0:0:0:
64,192,140251,1,0,0:0:0:0:
448,192,140294,1,0,0:0:0:0:
320,192,140382,1,0,0:0:0:0:
64,192,140469,1,0,0:0:0:0:
192,192,140556,1,0,0:0:0:0:
448,192,140643,1,0,0:0:0:0:
192,192,140730,1,0,0:0:0:0:
64,192,140818,1,0,0:0:0:0:
320,192,140905,1,0,0:0:0:0:
448,192,140905,1,0,0:0:0:0:
192,192,140963,1,0,0:0:0:0:
64,192,141021,1,0,0:0:0:0:
320,192,141079,1,0,0:0:0:0:
448,192,141123,1,0,0:0:0:0:
192,192,141167,1,0,0:0:0:0:
320,192,141210,1,0,0:0:0:0:
64,192,141254,1,0,0:0:0:0:
320,192,141428,1,0,0:0:0:0:
192,192,141603,1,0,0:0:0:0:
320,192,141603,1,0,0:0:0:0:
448,192,141646,1,0,0:0:0:0:
64,192,141690,1,0,0:0:0:0:
448,192,141777,1,0,0:0:0:0:
192,192,141951,1,0,0:0:0:0:
320,192,141951,1,0,0:0:0:0:
64,192,142039,1,0,0:0:0:0:
448,192,142126,1,0,0:0:0:0:
192,192,142213,1,0,0:0:0:0:
64,192,142257,1,0,0:0:0:0:
320,192,142300,1,0,0:0:0:0:
448,192,142300,1,0,0:0:0:0:
320,192,142475,1,0,0:0:0:0:
448,192,142518,1,0,0:0:0:0:
64,192,142562,1,0,0:0:0:0:
320,192,142649,1,0,0:0:0:0:
192,192,142736,1,0,0:0:0:0:
448,192,142824,1,0,0:0:0:0:
320,192,142911,1,0,0:0:0:0:
64,192,142998,1,0,0:0:0:0:
192,192,143085,1,0,0:0:0:0:
320,192,143129,1,0,0:0:0:0:
64,192,143172,1,0,0:0:0:0:
192,192,143347,1,0,0:0:0:0:
448,192,143521,1,0,0:0:0:0:
64,192,143579,1,0,0:0:0:0:
320,192,143637,1,0,0:0:0:0:
192,192,143696,1,0,0:0:0:0:
448,192,143696,1,0,0:0:0:0:
64,192,143754,1,0,0:0:0:0:
320,192,143812,1,0,0:0:0:0:
448,192,143870,1,0,0:0:0:0:
64,192,143914,1,0,0:0:0:0:
192,192,143957,1,0,0:0:0:0:
320,192,144001,1,0,0:0:0:0:
448,192,144044,1,0,0:0:0:0:
64,192,144132,1,0,0:0:0:0:
192,192,144161,1,0,0:0:0:0:
448,192,144219,1,0,0:0:0:0:
64,192,144306,1,0,0:0:0:0:
320,192,144393,1,0,0:0:0:0:
320,192,144480,1,0,0:0:0:0:
192,192,144480,1,0,0:0:0:0:
64,192,144568,1,0,0:0:0:0:
192,192,144742,1,0,0:0:0:0:
320,192,144742,1,0,0:0:0:0:
320,192,144917,1,0,0:0:0:0:
192,192,144917,1,0,0:0:0:0:
64,192,145004,1,0,0:0:0:0:
448,192,145091,1,0,0:0:0:0:
448,192,145178,1,0,0:0:0:0:
320,192,145265,1,0,0:0:0:0:
64,192,145265,1,0,0:0:0:0:
192,192,145353,1,0,0:0:0:0:
320,192,145440,1,0,0:0:0:0:
448,192,145440,1,0,0:0:0:0:
448,192,145789,128,0,146137:0:0:0:0:
448,192,146486,128,0,146835:0:0:0:0:
64,192,146661,1,0,0:0:0:0:
320,192,146835,1,0,0:0:0:0:
64,192,146857,1,0,0:0:0:0:
320,192,147010,1,0,0:0:0:0:
64,192,147097,1,0,0:0:0:0:
448,192,147271,1,0,0:0:0:0:
448,192,147358,1,0,0:0:0:0:
448,192,147620,1,0,0:0:0:0:
192,192,147707,1,0,0:0:0:0:
448,192,147882,1,0,0:0:0:0:
320,192,147969,1,0,0:0:0:0:
64,192,148056,1,0,0:0:0:0:
320,192,148230,1,0,0:0:0:0:
64,192,148252,1,0,0:0:0:0:
320,192,148405,1,0,0:0:0:0:
64,192,148579,1,0,0:0:0:0:
192,192,148667,1,0,0:0:0:0:
448,192,148928,128,0,149015:0:0:0:0:
320,192,149277,1,0,0:0:0:0:
64,192,149451,1,0,0:0:0:0:
320,192,149626,1,0,0:0:0:0:
64,192,149648,1,0,0:0:0:0:
320,192,149800,1,0,0:0:0:0:
192,192,149844,1,0,0:0:0:0:
64,192,149975,1,0,0:0:0:0:
320,192,150062,1,0,0:0:0:0:
192,192,150149,1,0,0:0:0:0:
448,192,150236,1,0,0:0:0:0:
320,192,150324,128,0,150411:0:0:0:0:
192,192,150367,128,0,150411:0:0:0:0:
64,192,150411,1,0,0:0:0:0:
448,192,150498,1,0,0:0:0:0:
64,192,150556,1,0,0:0:0:0:
320,192,150614,1,0,0:0:0:0:
192,192,150672,1,0,0:0:0:0:
448,192,150730,1,0,0:0:0:0:
320,192,150789,1,0,0:0:0:0:
64,192,150847,1,0,0:0:0:0:
192,192,150876,1,0,0:0:0:0:
320,192,150905,1,0,0:0:0:0:
64,192,150963,1,0,0:0:0:0:
192,192,151021,1,0,0:0:0:0:
448,192,151043,1,0,0:0:0:0:
64,192,151428,1,0,0:0:0:0:
192,192,151486,1,0,0:0:0:0:
320,192,151544,1,0,0:0:0:0:
64,192,151603,1,0,0:0:0:0:
448,192,151661,1,0,0:0:0:0:
64,192,152126,1,0,0:0:0:0:
448,192,152184,1,0,0:0:0:0:
320,192,152242,1,0,0:0:0:0:
64,192,152242,1,0,0:0:0:0:
192,192,152300,1,0,0:0:0:0:
448,192,152358,1,0,0:0:0:0:
320,192,152417,128,0,152504:0:0:0:0:
64,192,152438,1,0,0:0:0:0:
192,192,152533,1,0,0:0:0:0:
448,192,152591,1,0,0:0:0:0:
64,192,152649,1,0,0:0:0:0:
320,192,152707,1,0,0:0:0:0:
448,192,152765,1,0,0:0:0:0:
192,192,152824,1,0,0:0:0:0:
320,192,152882,1,0,0:0:0:0:
64,192,152940,1,0,0:0:0:0:
192,192,152998,1,0,0:0:0:0:
448,192,153056,1,0,0:0:0:0:
448,192,153172,1,0,0:0:0:0:
192,192,153230,1,0,0:0:0:0:
320,192,153289,1,0,0:0:0:0:
448,192,153347,1,0,0:0:0:0:
64,192,153405,1,0,0:0:0:0:
320,192,153463,1,0,0:0:0:0:
192,192,153521,1,0,0:0:0:0:
448,192,153550,1,0,0:0:0:0:
320,192,153637,1,0,0:0:0:0:
64,192,153637,1,0,0:0:0:0:
192,192,153725,1,0,0:0:0:0:
320,192,153812,1,0,0:0:0:0:
64,192,153834,1,0,0:0:0:0:
448,192,153986,1,0,0:0:0:0:
64,192,154074,1,0,0:0:0:0:
320,192,154161,1,0,0:0:0:0:
448,192,154277,1,0,0:0:0:0:
192,192,154393,1,0,0:0:0:0:
448,192,154510,128,0,154597:0:0:0:0:
64,192,154626,1,0,0:0:0:0:
320,192,154858,1,0,0:0:0:0:
192,192,155033,1,0,0:0:0:0:
320,192,155207,1,0,0:0:0:0:
64,192,155229,1,0,0:0:0:0:
448,192,155440,1,0,0:0:0:0:
320,192,155643,1,0,0:0:0:0:
192,192,155643,1,0,0:0:0:0:
448,192,155905,128,0,155992:0:0:0:0:
320,192,155949,128,0,155992:0:0:0:0:
192,192,155992,1,0,0:0:0:0:
64,192,156079,1,0,0:0:0:0:
448,192,156167,1,0,0:0:0:0:
320,192,156254,1,0,0:0:0:0:
192,192,156254,1,0,0:0:0:0:
320,192,156428,1,0,0:0:0:0:
192,192,156603,1,0,0:0:0:0:
64,192,156603,1,0,0:0:0:0:
448,192,156690,1,0,0:0:0:0:
320,192,156777,1,0,0:0:0:0:
448,192,156951,128,0,157300:0:0:0:0:
64,192,157126,1,0,0:0:0:0:
64,192,157300,1,0,0:0:0:0:
320,192,157300,1,0,0:0:0:0:
320,192,157475,1,0,0:0:0:0:
448,192,157649,128,0,157998:0:0:0:0:
64,192,157824,1,0,0:0:0:0:
192,192,157911,1,0,0:0:0:0:
320,192,157998,1,0,0:0:0:0:
64,192,157998,1,0,0:0:0:0:
320,192,158172,1,0,0:0:0:0:
192,192,158260,1,0,0:0:0:0:
448,192,158347,128,0,158696:0:0:0:0:
192,192,158434,1,0,0:0:0:0:
64,192,158521,1,0,0:0:0:0:
320,192,158696,1,0,0:0:0:0:
64,192,158696,1,0,0:0:0:0:
320,192,158870,1,0,0:0:0:0:
448,192,159044,128,0,159393:0:0:0:0:
64,192,159219,1,0,0:0:0:0:
192,192,159306,1,0,0:0:0:0:
320,192,159393,1,0,0:0:0:0:
64,192,159393,1,0,0:0:0:0:
192,192,159480,1,0,0:0:0:0:
320,192,159568,1,0,0:0:0:0:
448,192,159742,128,0,160091:0:0:0:0:
192,192,159829,1,0,0:0:0:0:
64,192,159917,1,0,0:0:0:0:
320,192,160091,1,0,0:0:0:0:
64,192,160091,1,0,0:0:0:0:
320,192,160265,1,0,0:0:0:0:
448,192,160440,128,0,160789:0:0:0:0:
64,192,160614,1,0,0:0:0:0:
192,192,160701,1,0,0:0:0:0:
64,192,160789,1,0,0:0:0:0:
320,192,160789,1,0,0:0:0:0:
320,192,160963,1,0,0:0:0:0:
192,192,161050,1,0,0:0:0:0:
448,192,161137,128,0,161486:0:0:0:0:
192,192,161225,1,0,0:0:0:0:
64,192,161312,1,0,0:0:0:0:
320,192,161486,1,0,0:0:0:0:
64,192,161486,1,0,0:0:0:0:
320,192,161661,1,0,0:0:0:0:
448,192,161835,128,0,162184:0:0:0:0:
64,192,162010,1,0,0:0:0:0:
192,192,162097,1,0,0:0:0:0:
320,192,162184,1,0,0:0:0:0:
64,192,162184,1,0,0:0:0:0:
192,192,162271,1,0,0:0:0:0:
320,192,162358,1,0,0:0:0:0:
448,192,162533,128,0,162882:0:0:0:0:
192,192,162620,1,0,0:0:0:0:
64,192,162707,1,0,0:0:0:0:
64,192,162882,1,0,0:0:0:0:
320,192,162882,1,0,0:0:0:0:
320,192,163056,1,0,0:0:0:0:
448,192,163230,128,0,163579:0:0:0:0:
64,192,163405,1,0,0:0:0:0:
192,192,163492,1,0,0:0:0:0:
64,192,163579,1,0,0:0:0:0:
320,192,163579,1,0,0:0:0:0:
320,192,163754,1,0,0:0:0:0:
192,192,163841,1,0,0:0:0:0:
448,192,163928,128,0,164277:0:0:0:0:
192,192,164015,1,0,0:0:0:0:
64,192,164103,1,0,0:0:0:0:
320,192,164277,1,0,0:0:0:0:
64,192,164277,1,0,0:0:0:0:
320,192,164451,1,0,0:0:0:0:
448,192,164626,128,0,164975:0:0:0:0:
64,192,164800,1,0,0:0:0:0:
192,192,164887,1,0,0:0:0:0:
64,192,164975,1,0,0:0:0:0:
320,192,164975,1,0,0:0:0:0:
192,192,165062,1,0,0:0:0:0:
320,192,165149,1,0,0:0:0:0:
448,192,165324,128,0,165672:0:0:0:0:
192,192,165411,1,0,0:0:0:0:
64,192,165498,1,0,0:0:0:0:
64,192,165672,1,0,0:0:0:0:
320,192,165672,1,0,0:0:0:0:
320,192,165847,1,0,0:0:0:0:
448,192,166021,128,0,166370:0:0:0:0:
64,192,166196,1,0,0:0:0:0:
192,192,166283,1,0,0:0:0:0:
320,192,166370,1,0,0:0:0:0:
64,192,166370,1,0,0:0:0:0:
320,192,166544,1,0,0:0:0:0:
192,192,166632,1,0,0:0:0:0:
448,192,166719,128,0,167068:0:0:0:0:
192,192,166806,1,0,0:0:0:0:
64,192,166893,1,0,0:0:0:0:
320,192,167068,1,0,0:0:0:0:
64,192,167068,1,0,0:0:0:0:
320,192,167242,1,0,0:0:0:0:
448,192,167417,128,0,167635:0:0:0:0:
64,192,167591,1,0,0:0:0:0:
320,192,167678,1,0,0:0:0:0:
448,192,167722,1,0,0:0:0:0:
192,192,167765,5,0,0:0:0:0:
64,192,167765,128,0,168245:0:0:0:0:
192,192,168114,1,0,0:0:0:0:
320,192,168158,1,0,0:0:0:0:
448,192,168201,1,0,0:0:0:0:
320,192,168245,1,0,0:0:0:0:
192,192,168289,1,0,0:0:0:0:
64,192,168332,128,0,168463:0:0:0:0:
320,192,168376,128,0,168463:0:0:0:0:
192,192,168463,1,0,0:0:0:0:
448,192,168463,128,0,168550:0:0:0:0:
192,192,168550,128,0,168637:0:0:0:0:
448,192,168637,1,0,0:0:0:0:
64,192,168725,128,0,168812:0:0:0:0:
320,192,168812,1,0,0:0:0:0:
448,192,168812,1,0,0:0:0:0:
192,192,168899,1,0,0:0:0:0:
64,192,168943,1,0,0:0:0:0:
192,192,168986,1,0,0:0:0:0:
320,192,168986,1,0,0:0:0:0:
320,192,169074,1,0,0:0:0:0:
64,192,169161,1,0,0:0:0:0:
192,192,169161,1,0,0:0:0:0:
64,192,169248,1,0,0:0:0:0:
320,192,169248,1,0,0:0:0:0:
448,192,169335,128,0,169466:0:0:0:0:
320,192,169422,128,0,169466:0:0:0:0:
320,192,169510,1,0,0:0:0:0:
448,192,169510,1,0,0:0:0:0:
64,192,169597,1,0,0:0:0:0:
192,192,169684,1,0,0:0:0:0:
320,192,169684,1,0,0:0:0:0:
448,192,169771,1,0,0:0:0:0:
192,192,169771,1,0,0:0:0:0:
64,192,169858,1,0,0:0:0:0:
448,192,169858,1,0,0:0:0:0:
192,192,170556,5,0,0:0:0:0:
64,192,170556,128,0,171036:0:0:0:0:
192,192,170905,1,0,0:0:0:0:
320,192,170949,1,0,0:0:0:0:
448,192,170992,1,0,0:0:0:0:
320,192,171036,1,0,0:0:0:0:
192,192,171079,1,0,0:0:0:0:
64,192,171123,128,0,171254:0:0:0:0:
320,192,171167,128,0,171254:0:0:0:0:
192,192,171254,1,0,0:0:0:0:
448,192,171254,1,0,0:0:0:0:
64,192,171341,1,0,0:0:0:0:
448,192,171428,1,0,0:0:0:0:
448,192,171515,1,0,0:0:0:0:
320,192,171559,1,0,0:0:0:0:
192,192,171603,1,0,0:0:0:0:
64,192,171603,1,0,0:0:0:0:
448,192,171690,1,0,0:0:0:0:
320,192,171733,1,0,0:0:0:0:
448,192,171777,1,0,0:0:0:0:
64,192,171777,1,0,0:0:0:0:
192,192,171864,1,0,0:0:0:0:
64,192,171864,1,0,0:0:0:0:
448,192,171951,1,0,0:0:0:0:
320,192,171951,1,0,0:0:0:0:
320,192,172039,1,0,0:0:0:0:
64,192,172126,1,0,0:0:0:0:
192,192,172126,128,0,172184:0:0:0:0:
320,192,172184,128,0,172242:0:0:0:0:
448,192,172242,128,0,172300:0:0:0:0:
64,192,172300,1,0,0:0:0:0:
192,192,172300,1,0,0:0:0:0:
320,192,172387,1,0,0:0:0:0:
192,192,172475,1,0,0:0:0:0:
448,192,172475,1,0,0:0:0:0:
192,192,172562,1,0,0:0:0:0:
320,192,172562,1,0,0:0:0:0:
64,192,172649,1,0,0:0:0:0:
448,192,172649,128,0,172911:0:0:0:0:
320,192,172998,1,0,0:0:0:0:
448,192,172998,128,0,173347:0:0:0:0:
192,192,173260,1,0,0:0:0:0:
64,192,173260,1,0,0:0:0:0:
192,192,173347,5,0,0:0:0:0:
64,192,173347,128,0,173826:0:0:0:0:
192,192,173521,1,0,0:0:0:0:
320,192,173579,1,0,0:0:0:0:
448,192,173637,1,0,0:0:0:0:
192,192,173696,1,0,0:0:0:0:
320,192,173739,1,0,0:0:0:0:
448,192,173783,1,0,0:0:0:0:
320,192,173826,1,0,0:0:0:0:
192,192,173870,1,0,0:0:0:0:
64,192,173914,128,0,174044:0:0:0:0:
320,192,173957,128,0,174044:0:0:0:0:
192,192,174044,1,0,0:0:0:0:
448,192,174044,128,0,174132:0:0:0:0:
192,192,174132,128,0,174219:0:0:0:0:
448,192,174219,1,0,0:0:0:0:
64,192,174306,128,0,174393:0:0:0:0:
320,192,174393,1,0,0:0:0:0:
448,192,174393,1,0,0:0:0:0:
192,192,174480,1,0,0:0:0:0:
64,192,174524,1,0,0:0:0:0:
192,192,174568,1,0,0:0:0:0:
320,192,174568,1,0,0:0:0:0:
320,192,174655,1,0,0:0:0:0:
64,192,174742,1,0,0:0:0:0:
192,192,174742,1,0,0:0:0:0:
64,192,174829,1,0,0:0:0:0:
320,192,174829,1,0,0:0:0:0:
448,192,174917,128,0,175047:0:0:0:0:
320,192,175004,128,0,175047:0:0:0:0:
320,192,175091,1,0,0:0:0:0:
448,192,175091,1,0,0:0:0:0:
64,192,175178,1,0,0:0:0:0:
192,192,175265,1,0,0:0:0:0:
320,192,175265,1,0,0:0:0:0:
448,192,175353,1,0,0:0:0:0:
192,192,175353,1,0,0:0:0:0:
64,192,175440,1,0,0:0:0:0:
448,192,175440,1,0,0:0:0:0:
192,192,176050,1,0,0:0:0:0:
64,192,176050,1,0,0:0:0:0:
192,192,176137,5,0,0:0:0:0:
64,192,176137,128,0,176617:0:0:0:0:
192,192,176486,1,0,0:0:0:0:
320,192,176530,1,0,0:0:0:0:
448,192,176574,1,0,0:0:0:0:
320,192,176617,1,0,0:0:0:0:
192,192,176661,1,0,0:0:0:0:
64,192,176704,128,0,176835:0:0:0:0:
320,192,176748,128,0,176835:0:0:0:0:
192,192,176835,1,0,0:0:0:0:
448,192,176835,1,0,0:0:0:0:
64,192,176922,1,0,0:0:0:0:
448,192,177010,1,0,0:0:0:0:
448,192,177097,1,0,0:0:0:0:
320,192,177140,1,0,0:0:0:0:
192,192,177184,1,0,0:0:0:0:
64,192,177184,1,0,0:0:0:0:
448,192,177271,1,0,0:0:0:0:
320,192,177315,1,0,0:0:0:0:
448,192,177358,1,0,0:0:0:0:
64,192,177358,1,0,0:0:0:0:
192,192,177446,1,0,0:0:0:0:
64,192,177446,1,0,0:0:0:0:
448,192,177533,1,0,0:0:0:0:
320,192,177533,1,0,0:0:0:0:
320,192,177620,1,0,0:0:0:0:
64,192,177707,1,0,0:0:0:0:
192,192,177707,1,0,0:0:0:0:
320,192,177765,1,0,0:0:0:0:
448,192,177824,1,0,0:0:0:0:
64,192,177882,1,0,0:0:0:0:
192,192,177882,1,0,0:0:0:0:
320,192,177969,1,0,0:0:0:0:
192,192,178056,1,0,0:0:0:0:
448,192,178056,1,0,0:0:0:0:
192,192,178143,1,0,0:0:0:0:
320,192,178143,1,0,0:0:0:0:
64,192,178230,1,0,0:0:0:0:
448,192,178230,128,0,178492:0:0:0:0:
320,192,178579,1,0,0:0:0:0:
448,192,178579,128,0,178928:0:0:0:0:
192,192,178841,1,0,0:0:0:0:
64,192,178841,1,0,0:0:0:0:
192,192,178928,5,0,0:0:0:0:
64,192,178928,128,0,179408:0:0:0:0:
320,192,178972,1,0,0:0:0:0:
448,192,179015,128,0,179277:0:0:0:0:
192,192,179277,1,0,0:0:0:0:
320,192,179321,1,0,0:0:0:0:
448,192,179364,1,0,0:0:0:0:
320,192,179408,1,0,0:0:0:0:
192,192,179451,1,0,0:0:0:0:
64,192,179495,128,0,179626:0:0:0:0:
320,192,179539,128,0,179626:0:0:0:0:
192,192,179626,1,0,0:0:0:0:
448,192,179626,128,0,179713:0:0:0:0:
192,192,179713,128,0,179800:0:0:0:0:
448,192,179800,1,0,0:0:0:0:
64,192,179887,128,0,179975:0:0:0:0:
320,192,179975,1,0,0:0:0:0:
448,192,179975,1,0,0:0:0:0:
192,192,180062,1,0,0:0:0:0:
64,192,180105,1,0,0:0:0:0:
192,192,180149,1,0,0:0:0:0:
320,192,180149,1,0,0:0:0:0:
320,192,180236,1,0,0:0:0:0:
64,192,180324,1,0,0:0:0:0:
192,192,180324,1,0,0:0:0:0:
64,192,180411,1,0,0:0:0:0:
320,192,180411,1,0,0:0:0:0:
448,192,180498,128,0,180629:0:0:0:0:
320,192,180585,128,0,180629:0:0:0:0:
320,192,180672,1,0,0:0:0:0:
448,192,180672,1,0,0:0:0:0:
64,192,180760,1,0,0:0:0:0:
192,192,180847,1,0,0:0:0:0:
320,192,180847,1,0,0:0:0:0:
448,192,180934,1,0,0:0:0:0:
192,192,180934,1,0,0:0:0:0:
64,192,181021,1,0,0:0:0:0:
448,192,181021,1,0,0:0:0:0:
192,192,181719,5,0,0:0:0:0:
64,192,181719,128,0,182199:0:0:0:0:
320,192,181762,1,0,0:0:0:0:
448,192,181806,128,0,182068:0:0:0:0:
192,192,182068,1,0,0:0:0:0:
320,192,182111,1,0,0:0:0:0:
448,192,182155,1,0,0:0:0:0:
320,192,182199,1,0,0:0:0:0:
192,192,182242,1,0,0:0:0:0:
64,192,182286,128,0,182417:0:0:0:0:
320,192,182329,128,0,182417:0:0:0:0:
192,192,182417,1,0,0:0:0:0:
448,192,182417,1,0,0:0:0:0:
64,192,182504,1,0,0:0:0:0:
448,192,182591,1,0,0:0:0:0:
448,192,182678,1,0,0:0:0:0:
320,192,182722,1,0,0:0:0:0:
192,192,182765,1,0,0:0:0:0:
64,192,182765,1,0,0:0:0:0:
448,192,182853,1,0,0:0:0:0:
320,192,182896,1,0,0:0:0:0:
448,192,182940,1,0,0:0:0:0:
64,192,182940,1,0,0:0:0:0:
192,192,183027,1,0,0:0:0:0:
64,192,183027,1,0,0:0:0:0:
448,192,183114,1,0,0:0:0:0:
320,192,183114,1,0,0:0:0:0:
320,192,183201,1,0,0:0:0:0:
64,192,183289,1,0,0:0:0:0:
192,192,183289,128,0,183347:0:0:0:0:
320,192,183347,128,0,183405:0:0:0:0:
448,192,183405,128,0,183463:0:0:0:0:
64,192,183463,1,0,0:0:0:0:
192,192,183463,1,0,0:0:0:0:
320,192,183550,1,0,0:0:0:0:
192,192,183637,1,0,0:0:0:0:
448,192,183637,1,0,0:0:0:0:
192,192,183725,1,0,0:0:0:0:
320,192,183725,1,0,0:0:0:0:
64,192,183812,1,0,0:0:0:0:
448,192,183812,1,0,0:0:0:0:
64,192,184117,1,0,0:0:0:0:
320,192,184161,1,0,0:0:0:0:
448,192,184161,1,0,0:0:0:0:
320,192,184379,1,0,0:0:0:0:
192,192,184422,1,0,0:0:0:0:
64,192,184422,1,0,0:0:0:0:
448,192,184466,1,0,0:0:0:0:
192,192,184510,5,0,0:0:0:0:
64,192,184510,128,0,184989:0:0:0:0:
320,192,184553,1,0,0:0:0:0:
448,192,184597,128,0,184684:0:0:0:0:
192,192,184684,1,0,0:0:0:0:
320,192,184742,1,0,0:0:0:0:
448,192,184800,1,0,0:0:0:0:
192,192,184858,1,0,0:0:0:0:
320,192,184902,1,0,0:0:0:0:
448,192,184946,1,0,0:0:0:0:
320,192,184989,1,0,0:0:0:0:
192,192,185033,1,0,0:0:0:0:
64,192,185076,128,0,185207:0:0:0:0:
320,192,185120,128,0,185207:0:0:0:0:
192,192,185207,1,0,0:0:0:0:
448,192,185207,128,0,185294:0:0:0:0:
192,192,185294,128,0,185382:0:0:0:0:
448,192,185382,1,0,0:0:0:0:
64,192,185469,128,0,185556:0:0:0:0:
320,192,185556,1,0,0:0:0:0:
448,192,185556,1,0,0:0:0:0:
192,192,185643,1,0,0:0:0:0:
64,192,185687,1,0,0:0:0:0:
192,192,185730,1,0,0:0:0:0:
320,192,185730,1,0,0:0:0:0:
320,192,185818,1,0,0:0:0:0:
64,192,185905,1,0,0:0:0:0:
192,192,185905,1,0,0:0:0:0:
64,192,185992,1,0,0:0:0:0:
320,192,185992,1,0,0:0:0:0:
448,192,186079,128,0,186210:0:0:0:0:
320,192,186167,128,0,186210:0:0:0:0:
320,192,186254,1,0,0:0:0:0:
448,192,186254,1,0,0:0:0:0:
64,192,186341,1,0,0:0:0:0:
192,192,186428,1,0,0:0:0:0:
320,192,186428,1,0,0:0:0:0:
448,192,186515,1,0,0:0:0:0:
192,192,186515,1,0,0:0:0:0:
64,192,186603,1,0,0:0:0:0:
448,192,186603,1,0,0:0:0:0:
192,192,187213,1,0,0:0:0:0:
64,192,187213,1,0,0:0:0:0:
192,192,187300,5,0,0:0:0:0:
64,192,187300,128,0,187780:0:0:0:0:
320,192,187344,1,0,0:0:0:0:
448,192,187387,128,0,187649:0:0:0:0:
192,192,187649,1,0,0:0:0:0:
320,192,187693,1,0,0:0:0:0:
448,192,187736,1,0,0:0:0:0:
320,192,187780,1,0,0:0:0:0:
192,192,187824,1,0,0:0:0:0:
64,192,187867,128,0,187998:0:0:0:0:
320,192,187911,128,0,187998:0:0:0:0:
192,192,187998,1,0,0:0:0:0:
448,192,187998,1,0,0:0:0:0:
64,192,188085,1,0,0:0:0:0:
448,192,188172,1,0,0:0:0:0:
448,192,188260,1,0,0:0:0:0:
320,192,188303,1,0,0:0:0:0:
192,192,188347,1,0,0:0:0:0:
64,192,188347,1,0,0:0:0:0:
448,192,188434,1,0,0:0:0:0:
320,192,188478,1,0,0:0:0:0:
448,192,188521,1,0,0:0:0:0:
64,192,188521,1,0,0:0:0:0:
192,192,188608,1,0,0:0:0:0:
64,192,188608,1,0,0:0:0:0:
448,192,188696,1,0,0:0:0:0:
320,192,188696,1,0,0:0:0:0:
320,192,188783,1,0,0:0:0:0:
192,192,188870,1,0,0:0:0:0:
64,192,188870,1,0,0:0:0:0:
448,192,188957,1,0,0:0:0:0:
320,192,189044,1,0,0:0:0:0:
64,192,189044,1,0,0:0:0:0:
448,192,189132,128,0,189219:0:0:0:0:
192,192,189219,1,0,0:0:0:0:
448,192,189350,1,0,0:0:0:0:
64,192,189350,1,0,0:0:0:0:
192,192,189393,1,0,0:0:0:0:
320,192,189655,1,0,0:0:0:0:
192,192,189742,1,0,0:0:0:0:
64,192,189742,1,0,0:0:0:0:
320,192,189960,1,0,0:0:0:0:
448,192,189960,1,0,0:0:0:0:
192,192,190004,1,0,0:0:0:0:
192,192,190091,1,0,0:0:0:0:
64,192,190091,128,0,190701:0:0:0:0:
320,192,190265,1,0,0:0:0:0:
320,192,190614,1,0,0:0:0:0:
192,192,190789,1,0,0:0:0:0:
64,192,190789,128,0,191399:0:0:0:0:
192,192,191137,128,0,191312:0:0:0:0:
320,192,191312,1,0,0:0:0:0:
192,192,191486,1,0,0:0:0:0:
64,192,191486,128,0,192097:0:0:0:0:
320,192,191661,1,0,0:0:0:0:
192,192,191661,1,0,0:0:0:0:
320,192,191748,1,0,0:0:0:0:
448,192,191835,1,0,0:0:0:0:
320,192,192010,1,0,0:0:0:0:
192,192,192184,1,0,0:0:0:0:
64,192,192184,1,0,0:0:0:0:
192,192,192446,1,0,0:0:0:0:
448,192,192489,1,0,0:0:0:0:
320,192,192533,1,0,0:0:0:0:
320,192,192707,1,0,0:0:0:0:
192,192,192882,1,0,0:0:0:0:
64,192,192882,1,0,0:0:0:0:
320,192,193056,1,0,0:0:0:0:
320,192,193405,1,0,0:0:0:0:
192,192,193405,1,0,0:0:0:0:
192,192,193579,1,0,0:0:0:0:
64,192,193579,1,0,0:0:0:0:
320,192,193928,1,0,0:0:0:0:
320,192,194103,1,0,0:0:0:0:
192,192,194277,1,0,0:0:0:0:
64,192,194277,1,0,0:0:0:0:
320,192,194451,1,0,0:0:0:0:
192,192,194451,1,0,0:0:0:0:
448,192,194626,1,0,0:0:0:0:
448,192,194800,1,0,0:0:0:0:
192,192,194975,1,0,0:0:0:0:
64,192,194975,1,0,0:0:0:0:
320,192,195149,1,0,0:0:0:0:
192,192,195149,1,0,0:0:0:0:
448,192,195324,1,0,0:0:0:0:
192,192,195498,1,0,0:0:0:0:
448,192,195585,1,0,0:0:0:0:
320,192,195629,1,0,0:0:0:0:
192,192,195672,1,0,0:0:0:0:
64,192,195672,1,0,0:0:0:0:
448,192,195847,1,0,0:0:0:0:
320,192,196196,1,0,0:0:0:0:
192,192,196370,1,0,0:0:0:0:
64,192,196370,1,0,0:0:0:0:
320,192,196719,1,0,0:0:0:0:
448,192,196893,1,0,0:0:0:0:
192,192,197068,1,0,0:0:0:0:
64,192,197068,1,0,0:0:0:0:
320,192,197213,1,0,0:0:0:0:
192,192,197242,1,0,0:0:0:0:
448,192,197591,1,0,0:0:0:0:
192,192,197765,1,0,0:0:0:0:
64,192,197765,1,0,0:0:0:0:
192,192,198056,1,0,0:0:0:0:
320,192,198114,1,0,0:0:0:0:
448,192,198289,1,0,0:0:0:0:
192,192,198463,1,0,0:0:0:0:
64,192,198463,1,0,0:0:0:0:
448,192,198637,1,0,0:0:0:0:
320,192,198768,1,0,0:0:0:0:
64,192,198812,1,0,0:0:0:0:
320,192,198986,1,0,0:0:0:0:
192,192,199161,1,0,0:0:0:0:
64,192,199161,1,0,0:0:0:0:
320,192,199510,1,0,0:0:0:0:
320,192,199684,1,0,0:0:0:0:
192,192,199858,1,0,0:0:0:0:
64,192,199858,1,0,0:0:0:0:
320,192,200033,1,0,0:0:0:0:
192,192,200033,1,0,0:0:0:0:
448,192,200207,1,0,0:0:0:0:
448,192,200382,1,0,0:0:0:0:
192,192,200556,1,0,0:0:0:0:
64,192,200556,1,0,0:0:0:0:
320,192,200730,1,0,0:0:0:0:
192,192,200730,1,0,0:0:0:0:
192,192,200905,1,0,0:0:0:0:
64,192,200905,1,0,0:0:0:0:
320,192,201079,1,0,0:0:0:0:
192,192,201254,1,0,0:0:0:0:
64,192,201254,128,0,201864:0:0:0:0:
320,192,201428,1,0,0:0:0:0:
320,192,201777,1,0,0:0:0:0:
192,192,201951,1,0,0:0:0:0:
64,192,201951,128,0,202562:0:0:0:0:
192,192,202300,128,0,202475:0:0:0:0:
320,192,202475,1,0,0:0:0:0:
192,192,202649,1,0,0:0:0:0:
64,192,202649,128,0,203260:0:0:0:0:
320,192,202824,1,0,0:0:0:0:
192,192,202824,1,0,0:0:0:0:
320,192,202911,1,0,0:0:0:0:
448,192,202998,1,0,0:0:0:0:
320,192,203172,1,0,0:0:0:0:
192,192,203347,1,0,0:0:0:0:
64,192,203347,1,0,0:0:0:0:
192,192,203608,1,0,0:0:0:0:
448,192,203652,1,0,0:0:0:0:
320,192,203696,1,0,0:0:0:0:
320,192,203870,1,0,0:0:0:0:
192,192,204044,1,0,0:0:0:0:
64,192,204044,1,0,0:0:0:0:
320,192,204219,1,0,0:0:0:0:
320,192,204568,1,0,0:0:0:0:
192,192,204568,1,0,0:0:0:0:
192,192,204742,1,0,0:0:0:0:
64,192,204742,1,0,0:0:0:0:
320,192,205091,1,0,0:0:0:0:
320,192,205265,1,0,0:0:0:0:
192,192,205440,1,0,0:0:0:0:
64,192,205440,1,0,0:0:0:0:
320,192,205614,1,0,0:0:0:0:
192,192,205614,1,0,0:0:0:0:
448,192,205789,1,0,0:0:0:0:
448,192,205963,1,0,0:0:0:0:
192,192,206137,1,0,0:0:0:0:
64,192,206137,1,0,0:0:0:0:
320,192,206312,1,0,0:0:0:0:
192,192,206312,1,0,0:0:0:0:
448,192,206486,1,0,0:0:0:0:
192,192,206661,1,0,0:0:0:0:
448,192,206748,1,0,0:0:0:0:
320,192,206792,1,0,0:0:0:0:
192,192,206835,1,0,0:0:0:0:
64,192,206835,1,0,0:0:0:0:
448,192,207010,1,0,0:0:0:0:
320,192,207358,1,0,0:0:0:0:
192,192,207533,1,0,0:0:0:0:
64,192,207533,1,0,0:0:0:0:
320,192,207882,1,0,0:0:0:0:
448,192,208056,1,0,0:0:0:0:
192,192,208230,1,0,0:0:0:0:
64,192,208230,1,0,0:0:0:0:
320,192,208376,1,0,0:0:0:0:
192,192,208405,1,0,0:0:0:0:
448,192,208754,1,0,0:0:0:0:
192,192,208928,1,0,0:0:0:0:
64,192,208928,1,0,0:0:0:0:
192,192,209219,1,0,0:0:0:0:
320,192,209277,1,0,0:0:0:0:
448,192,209451,1,0,0:0:0:0:
192,192,209626,1,0,0:0:0:0:
64,192,209626,1,0,0:0:0:0:
448,192,209800,1,0,0:0:0:0:
320,192,209931,1,0,0:0:0:0:
64,192,209975,1,0,0:0:0:0:
320,192,210149,1,0,0:0:0:0:
192,192,210324,1,0,0:0:0:0:
64,192,210324,1,0,0:0:0:0:
320,192,210672,1,0,0:0:0:0:
320,192,210847,1,0,0:0:0:0:
192,192,211021,1,0,0:0:0:0:
64,192,211021,1,0,0:0:0:0:
320,192,211196,1,0,0:0:0:0:
192,192,211196,1,0,0:0:0:0:
448,192,211370,1,0,0:0:0:0:
448,192,211544,1,0,0:0:0:0:
192,192,211719,1,0,0:0:0:0:
64,192,211719,1,0,0:0:0:0:
320,192,211893,1,0,0:0:0:0:
192,192,211893,1,0,0:0:0:0:
192,192,212068,1,0,0:0:0:0:
64,192,212068,1,0,0:0:0:0:
320,192,212242,1,0,0:0:0:0:
64,192,212417,128,0,213027:0:0:0:0:
192,192,212417,1,0,0:0:0:0:
320,192,212591,1,0,0:0:0:0:
320,192,212940,1,0,0:0:0:0:
64,192,213114,128,0,213725:0:0:0:0:
448,192,213114,1,0,0:0:0:0:
320,192,213172,1,0,0:0:0:0:
448,192,213230,1,0,0:0:0:0:
192,192,213463,128,0,213637:0:0:0:0:
320,192,213637,1,0,0:0:0:0:
64,192,213812,128,0,214422:0:0:0:0:
192,192,213812,1,0,0:0:0:0:
192,192,213986,1,0,0:0:0:0:
320,192,213986,1,0,0:0:0:0:
320,192,214074,1,0,0:0:0:0:
448,192,214161,1,0,0:0:0:0:
320,192,214335,1,0,0:0:0:0:
64,192,214510,1,0,0:0:0:0:
448,192,214510,1,0,0:0:0:0:
192,192,214568,1,0,0:0:0:0:
64,192,214626,1,0,0:0:0:0:
192,192,214771,1,0,0:0:0:0:
448,192,214815,1,0,0:0:0:0:
320,192,214858,1,0,0:0:0:0:
320,192,215033,1,0,0:0:0:0:
64,192,215207,1,0,0:0:0:0:
192,192,215207,1,0,0:0:0:0:
320,192,215382,1,0,0:0:0:0:
192,192,215730,1,0,0:0:0:0:
320,192,215730,1,0,0:0:0:0:
64,192,215905,1,0,0:0:0:0:
448,192,215905,1,0,0:0:0:0:
320,192,215963,1,0,0:0:0:0:
448,192,216021,1,0,0:0:0:0:
320,192,216254,1,0,0:0:0:0:
320,192,216428,1,0,0:0:0:0:
64,192,216603,1,0,0:0:0:0:
192,192,216603,1,0,0:0:0:0:
192,192,216777,1,0,0:0:0:0:
320,192,216777,1,0,0:0:0:0:
448,192,216951,1,0,0:0:0:0:
448,192,217126,1,0,0:0:0:0:
64,192,217300,1,0,0:0:0:0:
448,192,217300,1,0,0:0:0:0:
192,192,217358,1,0,0:0:0:0:
64,192,217417,1,0,0:0:0:0:
192,192,217475,1,0,0:0:0:0:
320,192,217475,1,0,0:0:0:0:
448,192,217649,1,0,0:0:0:0:
192,192,217824,1,0,0:0:0:0:
448,192,217911,1,0,0:0:0:0:
320,192,217954,1,0,0:0:0:0:
64,192,217998,1,0,0:0:0:0:
192,192,217998,1,0,0:0:0:0:
448,192,218172,1,0,0:0:0:0:
320,192,218521,1,0,0:0:0:0:
64,192,218696,1,0,0:0:0:0:
448,192,218696,1,0,0:0:0:0:
320,192,218754,1,0,0:0:0:0:
448,192,218812,1,0,0:0:0:0:
320,192,219044,1,0,0:0:0:0:
448,192,219219,1,0,0:0:0:0:
64,192,219393,1,0,0:0:0:0:
192,192,219393,1,0,0:0:0:0:
320,192,219539,1,0,0:0:0:0:
192,192,219568,1,0,0:0:0:0:
448,192,219917,1,0,0:0:0:0:
64,192,220091,1,0,0:0:0:0:
448,192,220091,1,0,0:0:0:0:
192,192,220149,1,0,0:0:0:0:
64,192,220207,1,0,0:0:0:0:
192,192,220382,1,0,0:0:0:0:
320,192,220440,1,0,0:0:0:0:
448,192,220614,1,0,0:0:0:0:
64,192,220789,1,0,0:0:0:0:
192,192,220789,1,0,0:0:0:0:
448,192,220963,1,0,0:0:0:0:
320,192,221094,1,0,0:0:0:0:
64,192,221137,1,0,0:0:0:0:
320,192,221312,1,0,0:0:0:0:
64,192,221486,1,0,0:0:0:0:
448,192,221486,1,0,0:0:0:0:
320,192,221544,1,0,0:0:0:0:
448,192,221603,1,0,0:0:0:0:
320,192,221835,1,0,0:0:0:0:
320,192,222010,1,0,0:0:0:0:
64,192,222184,1,0,0:0:0:0:
192,192,222184,1,0,0:0:0:0:
192,192,222358,1,0,0:0:0:0:
320,192,222358,1,0,0:0:0:0:
448,192,222533,1,0,0:0:0:0:
448,192,222707,1,0,0:0:0:0:
64,192,222882,1,0,0:0:0:0:
448,192,222882,1,0,0:0:0:0:
192,192,222940,1,0,0:0:0:0:
64,192,222998,1,0,0:0:0:0:
192,192,223056,1,0,0:0:0:0:
320,192,223056,1,0,0:0:0:0:
64,192,223230,1,0,0:0:0:0:
192,192,223230,1,0,0:0:0:0:
320,192,223405,1,0,0:0:0:0:
192,192,223579,1,0,0:0:0:0:
64,192,223579,128,0,224190:0:0:0:0:
320,192,223754,1,0,0:0:0:0:
320,192,224103,1,0,0:0:0:0:
64,192,224277,128,0,224887:0:0:0:0:
448,192,224277,1,0,0:0:0:0:
320,192,224335,1,0,0:0:0:0:
448,192,224393,1,0,0:0:0:0:
192,192,224626,128,0,224800:0:0:0:0:
320,192,224800,1,0,0:0:0:0:
192,192,224975,1,0,0:0:0:0:
64,192,224975,128,0,225585:0:0:0:0:
320,192,225149,1,0,0:0:0:0:
192,192,225149,1,0,0:0:0:0:
320,192,225236,1,0,0:0:0:0:
448,192,225324,1,0,0:0:0:0:
320,192,225498,1,0,0:0:0:0:
64,192,225672,1,0,0:0:0:0:
448,192,225672,1,0,0:0:0:0:
192,192,225730,1,0,0:0:0:0:
64,192,225789,1,0,0:0:0:0:
192,192,225934,1,0,0:0:0:0:
448,192,225978,1,0,0:0:0:0:
320,192,226021,1,0,0:0:0:0:
320,192,226196,1,0,0:0:0:0:
192,192,226370,1,0,0:0:0:0:
64,192,226370,1,0,0:0:0:0:
320,192,226544,1,0,0:0:0:0:
320,192,226893,1,0,0:0:0:0:
192,192,226893,1,0,0:0:0:0:
64,192,227068,1,0,0:0:0:0:
448,192,227068,1,0,0:0:0:0:
320,192,227126,1,0,0:0:0:0:
448,192,227184,1,0,0:0:0:0:
320,192,227417,1,0,0:0:0:0:
320,192,227591,1,0,0:0:0:0:
192,192,227765,1,0,0:0:0:0:
64,192,227765,1,0,0:0:0:0:
320,192,227940,1,0,0:0:0:0:
192,192,227940,1,0,0:0:0:0:
448,192,228114,1,0,0:0:0:0:
448,192,228289,1,0,0:0:0:0:
448,192,228463,1,0,0:0:0:0:
64,192,228463,1,0,0:0:0:0:
192,192,228521,1,0,0:0:0:0:
64,192,228579,1,0,0:0:0:0:
320,192,228637,1,0,0:0:0:0:
192,192,228637,1,0,0:0:0:0:
448,192,228812,1,0,0:0:0:0:
192,192,228986,1,0,0:0:0:0:
448,192,229074,1,0,0:0:0:0:
320,192,229117,1,0,0:0:0:0:
192,192,229161,1,0,0:0:0:0:
64,192,229161,1,0,0:0:0:0:
448,192,229335,1,0,0:0:0:0:
320,192,229684,1,0,0:0:0:0:
64,192,229858,1,0,0:0:0:0:
448,192,229858,1,0,0:0:0:0:
320,192,229917,1,0,0:0:0:0:
448,192,229975,1,0,0:0:0:0:
320,192,230207,1,0,0:0:0:0:
448,192,230382,1,0,0:0:0:0:
192,192,230556,1,0,0:0:0:0:
64,192,230556,1,0,0:0:0:0:
320,192,230701,1,0,0:0:0:0:
192,192,230730,1,0,0:0:0:0:
448,192,231079,1,0,0:0:0:0:
64,192,231254,1,0,0:0:0:0:
448,192,231254,1,0,0:0:0:0:
192,192,231312,1,0,0:0:0:0:
64,192,231370,1,0,0:0:0:0:
192,192,231544,1,0,0:0:0:0:
320,192,231603,1,0,0:0:0:0:
448,192,231777,1,0,0:0:0:0:
192,192,231951,1,0,0:0:0:0:
64,192,231951,1,0,0:0:0:0:
448,192,232126,1,0,0:0:0:0:
320,192,232257,1,0,0:0:0:0:
64,192,232300,1,0,0:0:0:0:
320,192,232475,1,0,0:0:0:0:
64,192,232649,1,0,0:0:0:0:
448,192,232649,1,0,0:0:0:0:
320,192,232707,1,0,0:0:0:0:
448,192,232765,1,0,0:0:0:0:
320,192,232998,1,0,0:0:0:0:
320,192,233172,1,0,0:0:0:0:
192,192,233347,1,0,0:0:0:0:
64,192,233347,1,0,0:0:0:0:
320,192,233521,1,0,0:0:0:0:
192,192,233521,1,0,0:0:0:0:
448,192,233696,5,0,0:0:0:0:
448,192,233870,1,0,0:0:0:0:
64,192,234044,1,0,0:0:0:0:
448,192,234044,1,0,0:0:0:0:
192,192,234103,1,0,0:0:0:0:
64,192,234161,1,0,0:0:0:0:
320,192,234219,1,0,0:0:0:0:
192,192,234219,1,0,0:0:0:0:
192,192,234393,1,0,0:0:0:0:
64,192,234393,1,0,0:0:0:0:
320,192,234568,1,0,0:0:0:0:
192,192,234742,5,0,0:0:0:0:
448,192,234742,1,0,0:0:0:0:
192,192,235091,1,0,0:0:0:0:
320,192,235963,128,0,236399:0:0:0:0:
320,192,236486,128,0,238579:0:0:0:0:
448,192,236835,1,0,0:0:0:0:
192,192,237010,128,0,239539:0:0:0:0:
64,192,237533,128,0,239626:0:0:0:0:
448,192,238579,128,0,240324:0:0:0:0:
192,192,239626,1,0,0:0:0:0:
64,192,240324,128,0,240411:0:0:0:0:
320,192,240411,128,0,240934:0:0:0:0:
320,192,241021,128,0,241457:0:0:0:0:
320,192,241544,128,0,241980:0:0:0:0:
320,192,242068,128,0,242591:0:0:0:0:
448,192,242242,128,0,242678:0:0:0:0:
320,192,242678,128,0,245818:0:0:0:0:
448,192,242765,128,0,245818:0:0:0:0:
192,192,243114,128,0,245905:0:0:0:0:
64,192,244161,128,0,245905:0:0:0:0:
320,192,245905,1,0,0:0:0:0:
448,192,245905,1,0,0:0:0:0:
64,192,245963,1,0,0:0:0:0:
192,192,246021,1,0,0:0:0:0:
320,192,246079,1,0,0:0:0:0:
64,192,246254,1,0,0:0:0:0:
