osu file format v14

[General]
AudioFilename: Energy Flower 3007.mp3
AudioLeadIn: 0
PreviewTime: 75450
Countdown: 0
SampleSet: Soft
StackLeniency: 0.7
Mode: 3
LetterboxInBreaks: 0
SpecialStyle: 0
WidescreenStoryboard: 1

[Editor]
DistanceSpacing: 0.8
BeatDivisor: 8
GridSize: 8
TimelineZoom: 1.5

[Metadata]
Title:Denon&Remix 2
TitleUnicode:Denon&Remix 2
Artist:la's 10KCollection
ArtistUnicode:la's 10KCollection
Creator:SK_la
Version:Energy Flower 3007//LAST WORLD
Source:
Tags:10K
BeatmapID:1469528
BeatmapSetID:671833

[Difficulty]
HPDrainRate:8
CircleSize:10
OverallDifficulty:5
ApproachRate:5
SliderMultiplier:1.4
SliderTickRate:1

[Events]
//Background and Video events
0,0,"Energy Flower 3007.jpg",0,0
//Break Periods
//Storyboard Layer 0 (Background)
//Storyboard Layer 1 (Fail)
//Storyboard Layer 2 (Pass)
//Storyboard Layer 3 (Foreground)
//Storyboard Sound Samples

[TimingPoints]
3270,451.127819548872,4,2,1,50,1,0
17706,-100,4,2,1,50,0,1
46578,-100,4,2,1,50,0,0
75450,-100,4,2,1,50,0,1
104322,-100,4,2,1,50,0,0

[HitObjects]
179,192,2706,128,0,3269:0:0:0:0:
460,192,3269,5,0,0:0:0:0:
76,192,3269,1,0,0:0:0:0:
281,192,3269,1,0,0:0:0:0:
332,192,3495,1,0,0:0:0:0:
76,192,3721,1,0,0:0:0:0:
179,192,3721,1,0,0:0:0:0:
460,192,3946,1,8,0:0:0:0:
256,192,3946,1,0,0:0:0:0:
384,192,4172,1,0,0:0:0:0:
332,192,4172,1,0,0:0:0:0:
128,192,4172,1,0,0:0:0:0:
230,192,4397,1,0,0:0:0:0:
384,192,4623,1,0,0:0:0:0:
179,192,4623,1,0,0:0:0:0:
460,192,4848,1,8,0:0:0:0:
332,192,4848,1,0,0:0:0:0:
230,192,4848,1,0,0:0:0:0:
76,192,4848,1,0,0:0:0:0:
25,192,5074,1,0,0:0:0:0:
128,192,5074,1,0,0:0:0:0:
281,192,5074,1,0,0:0:0:0:
384,192,5074,1,0,0:0:0:0:
76,192,5525,1,0,0:0:0:0:
179,192,5525,1,0,0:0:0:0:
332,192,5525,1,0,0:0:0:0:
460,192,5751,1,8,0:0:0:0:
256,192,5751,1,0,0:0:0:0:
128,192,5976,1,0,0:0:0:0:
435,192,5976,1,0,0:0:0:0:
281,192,5976,1,0,0:0:0:0:
230,192,6202,1,0,0:0:0:0:
76,192,6315,1,0,0:0:0:0:
384,192,6427,1,0,0:0:0:0:
179,192,6427,1,0,0:0:0:0:
460,192,6653,1,8,0:0:0:0:
76,192,6653,1,0,0:0:0:0:
179,192,6766,1,0,0:0:0:0:
384,192,6879,1,0,0:0:0:0:
230,192,6879,1,0,0:0:0:0:
25,192,6879,1,0,0:0:0:0:
179,192,7330,1,0,0:0:0:0:
332,192,7330,1,0,0:0:0:0:
256,192,7555,1,0,0:0:0:0:
128,192,7555,1,0,0:0:0:0:
332,192,7781,1,0,0:0:0:0:
128,192,7781,1,0,0:0:0:0:
384,192,7781,1,0,0:0:0:0:
435,192,8006,1,0,0:0:0:0:
281,192,8006,1,0,0:0:0:0:
179,192,8119,1,0,0:0:0:0:
230,192,8232,1,0,0:0:0:0:
76,192,8232,1,0,0:0:0:0:
384,192,8232,1,0,0:0:0:0:
332,192,8232,1,0,0:0:0:0:
153,192,8457,1,8,0:0:0:0:
384,192,8457,1,0,0:0:0:0:
281,192,8457,1,0,0:0:0:0:
435,192,8683,1,0,0:0:0:0:
486,192,8683,1,0,0:0:0:0:
230,192,8683,1,0,0:0:0:0:
76,192,8683,1,0,0:0:0:0:
332,192,9021,1,0,0:0:0:0:
128,192,9134,1,0,0:0:0:0:
281,192,9134,1,0,0:0:0:0:
230,192,9134,1,0,0:0:0:0:
435,192,9134,1,0,0:0:0:0:
332,192,9360,1,0,0:0:0:0:
384,192,9360,1,0,0:0:0:0:
179,192,9360,1,0,0:0:0:0:
128,192,9360,1,0,0:0:0:0:
230,192,9585,1,0,0:0:0:0:
76,192,9585,1,0,0:0:0:0:
179,192,9811,1,0,0:0:0:0:
332,192,9924,1,0,0:0:0:0:
76,192,10036,1,2,0:0:0:0:
384,192,10036,1,0,0:0:0:0:
435,192,10036,1,0,0:0:0:0:
230,192,10036,1,0,0:0:0:0:
332,192,10262,1,0,0:0:0:0:
128,192,10262,1,0,0:0:0:0:
281,192,10375,1,0,0:0:0:0:
179,192,10375,1,0,0:0:0:0:
460,192,10488,1,8,0:0:0:0:
153,192,10488,1,0,0:0:0:0:
25,192,10488,1,0,0:0:0:0:
332,192,10488,1,0,0:0:0:0:
384,192,10600,1,0,0:0:0:0:
332,192,10713,1,0,0:0:0:0:
76,192,10939,1,0,0:0:0:0:
179,192,10939,1,0,0:0:0:0:
384,192,10939,1,0,0:0:0:0:
486,192,10939,1,0,0:0:0:0:
460,192,11164,1,8,0:0:0:0:
332,192,11164,1,0,0:0:0:0:
128,192,11164,1,0,0:0:0:0:
230,192,11277,1,0,0:0:0:0:
460,192,11390,1,8,0:0:0:0:
332,192,11390,1,0,0:0:0:0:
153,192,11615,1,0,0:0:0:0:
384,192,11615,1,0,0:0:0:0:
281,192,11615,1,0,0:0:0:0:
230,192,11728,1,0,0:0:0:0:
486,192,11841,1,0,0:0:0:0:
384,192,11841,1,0,0:0:0:0:
179,192,11841,1,0,0:0:0:0:
460,192,12066,1,8,0:0:0:0:
332,192,12066,1,0,0:0:0:0:
76,192,12066,1,0,0:0:0:0:
460,192,12292,1,8,0:0:0:0:
25,192,12292,1,0,0:0:0:0:
179,192,12292,1,0,0:0:0:0:
332,192,12292,1,0,0:0:0:0:
128,192,12292,1,0,0:0:0:0:
281,192,12518,1,0,0:0:0:0:
179,192,12630,1,0,0:0:0:0:
358,192,12743,1,2,0:0:0:0:
435,192,12743,1,0,0:0:0:0:
486,192,12743,1,0,0:0:0:0:
179,192,12969,1,0,0:0:0:0:
128,192,12969,1,0,0:0:0:0:
281,192,13082,1,0,0:0:0:0:
179,192,13194,1,0,0:0:0:0:
76,192,13194,1,0,0:0:0:0:
384,192,13194,1,0,0:0:0:0:
486,192,13194,1,0,0:0:0:0:
25,192,13194,1,0,0:0:0:0:
256,192,13420,1,0,0:0:0:0:
230,192,13420,1,0,0:0:0:0:
358,192,13645,1,2,0:0:0:0:
179,192,13645,1,0,0:0:0:0:
128,192,13645,1,0,0:0:0:0:
486,192,13645,1,0,0:0:0:0:
230,192,13871,1,0,0:0:0:0:
384,192,13871,1,0,0:0:0:0:
332,192,13984,1,0,0:0:0:0:
435,192,14097,1,0,0:0:0:0:
179,192,14097,1,0,0:0:0:0:
25,192,14097,1,0,0:0:0:0:
153,192,14322,1,0,0:0:0:0:
256,192,14435,1,0,0:0:0:0:
358,192,14548,1,0,0:0:0:0:
179,192,14548,1,0,0:0:0:0:
384,192,14548,1,0,0:0:0:0:
435,192,14773,1,0,0:0:0:0:
128,192,14773,1,0,0:0:0:0:
384,192,14886,1,0,0:0:0:0:
230,192,14886,1,0,0:0:0:0:
332,192,14999,1,0,0:0:0:0:
76,192,14999,1,0,0:0:0:0:
25,192,14999,1,0,0:0:0:0:
128,192,15224,1,0,0:0:0:0:
230,192,15224,1,0,0:0:0:0:
358,192,15337,1,0,0:0:0:0:
460,192,15450,1,2,0:0:0:0:
384,192,15450,1,0,0:0:0:0:
179,192,15450,1,0,0:0:0:0:
76,192,15450,1,0,0:0:0:0:
153,192,15676,1,0,0:0:0:0:
179,192,15676,1,0,0:0:0:0:
256,192,15788,1,0,0:0:0:0:
435,192,15788,1,0,0:0:0:0:
230,192,15901,1,0,0:0:0:0:
25,192,15901,1,0,0:0:0:0:
384,192,15901,1,0,0:0:0:0:
76,192,15901,1,0,0:0:0:0:
128,192,16127,1,0,0:0:0:0:
76,192,16239,1,0,0:0:0:0:
256,192,16352,1,0,0:0:0:0:
486,192,16352,1,0,0:0:0:0:
384,192,16352,1,0,0:0:0:0:
179,192,16352,1,0,0:0:0:0:
128,192,16465,1,0,0:0:0:0:
76,192,16578,1,0,0:0:0:0:
128,192,16691,1,0,0:0:0:0:
230,192,16803,1,0,0:0:0:0:
332,192,16803,1,0,0:0:0:0:
486,192,16803,1,0,0:0:0:0:
179,192,16803,1,0,0:0:0:0:
76,192,17029,1,0,0:0:0:0:
384,192,17029,1,0,0:0:0:0:
179,192,17142,1,0,0:0:0:0:
256,192,17254,1,0,0:0:0:0:
486,192,17254,1,0,0:0:0:0:
25,192,17254,1,0,0:0:0:0:
358,192,17367,1,0,0:0:0:0:
179,192,17367,1,0,0:0:0:0:
384,192,17480,1,0,0:0:0:0:
486,192,17480,1,0,0:0:0:0:
128,192,17480,1,0,0:0:0:0:
76,192,17480,1,0,0:0:0:0:
332,192,17593,1,0,0:0:0:0:
230,192,17593,1,0,0:0:0:0:
256,192,17706,1,4,0:0:0:0:
179,192,17706,1,0,0:0:0:0:
25,192,17706,1,0,0:0:0:0:
435,192,17706,1,0,0:0:0:0:
76,192,17706,1,0,0:0:0:0:
358,192,17818,1,0,0:0:0:0:
128,192,17818,1,0,0:0:0:0:
384,192,17931,1,0,0:0:0:0:
230,192,17931,1,0,0:0:0:0:
358,192,18044,1,0,0:0:0:0:
76,192,18044,1,0,0:0:0:0:
179,192,18044,1,0,0:0:0:0:
460,192,18157,1,2,0:0:0:0:
230,192,18157,1,0,0:0:0:0:
486,192,18157,1,0,0:0:0:0:
358,192,18269,1,0,0:0:0:0:
128,192,18269,1,0,0:0:0:0:
25,192,18382,1,0,0:0:0:0:
179,192,18382,1,0,0:0:0:0:
384,192,18382,1,0,0:0:0:0:
281,192,18495,1,0,0:0:0:0:
153,192,18608,1,8,0:0:0:0:
230,192,18608,1,0,0:0:0:0:
384,192,18608,1,0,0:0:0:0:
332,192,18608,1,0,0:0:0:0:
76,192,18721,1,0,0:0:0:0:
435,192,18721,1,0,0:0:0:0:
256,192,18833,1,0,0:0:0:0:
179,192,18833,1,0,0:0:0:0:
358,192,18946,1,0,0:0:0:0:
128,192,18946,1,0,0:0:0:0:
460,192,19059,1,2,0:0:0:0:
25,192,19059,1,0,0:0:0:0:
230,192,19059,1,0,0:0:0:0:
76,192,19059,1,0,0:0:0:0:
153,192,19172,1,0,0:0:0:0:
486,192,19172,1,0,0:0:0:0:
230,192,19285,1,0,0:0:0:0:
384,192,19285,1,0,0:0:0:0:
358,192,19397,1,0,0:0:0:0:
76,192,19397,1,0,0:0:0:0:
179,192,19397,1,0,0:0:0:0:
256,192,19510,1,0,0:0:0:0:
153,192,19510,1,8,0:0:0:0:
25,192,19510,1,0,0:0:0:0:
486,192,19510,1,0,0:0:0:0:
435,192,19510,1,0,0:0:0:0:
384,192,19623,1,0,0:0:0:0:
230,192,19623,1,0,0:0:0:0:
128,192,19736,1,0,0:0:0:0:
281,192,19736,1,0,0:0:0:0:
76,192,19848,1,0,0:0:0:0:
358,192,19848,1,0,0:0:0:0:
460,192,19961,1,2,0:0:0:0:
230,192,19961,1,0,0:0:0:0:
179,192,19961,1,0,0:0:0:0:
128,192,20074,1,0,0:0:0:0:
486,192,20074,1,0,0:0:0:0:
384,192,20187,1,0,0:0:0:0:
76,192,20187,1,0,0:0:0:0:
332,192,20300,1,0,0:0:0:0:
179,192,20300,1,0,0:0:0:0:
460,192,20412,1,0,0:0:0:0:
25,192,20412,1,0,0:0:0:0:
384,192,20412,1,0,0:0:0:0:
76,192,20412,1,0,0:0:0:0:
230,192,20412,1,0,0:0:0:0:
256,192,20525,1,0,0:0:0:0:
128,192,20525,1,0,0:0:0:0:
179,192,20638,1,0,0:0:0:0:
332,192,20638,1,0,0:0:0:0:
256,192,20751,1,0,0:0:0:0:
460,192,20751,1,0,0:0:0:0:
128,192,20751,1,0,0:0:0:0:
179,192,20863,1,0,0:0:0:0:
384,192,20863,1,0,0:0:0:0:
486,192,20976,1,0,0:0:0:0:
230,192,20976,1,0,0:0:0:0:
153,192,21089,1,0,0:0:0:0:
332,192,21089,1,0,0:0:0:0:
76,192,21202,1,0,0:0:0:0:
384,192,21202,1,0,0:0:0:0:
256,192,21315,1,0,0:0:0:0:
460,192,21315,1,0,0:0:0:0:
179,192,21315,1,0,0:0:0:0:
25,192,21315,1,0,0:0:0:0:
486,192,21315,1,0,0:0:0:0:
358,192,21427,1,0,0:0:0:0:
128,192,21427,1,0,0:0:0:0:
460,192,21540,1,0,0:0:0:0:
230,192,21540,1,0,0:0:0:0:
76,192,21653,1,0,0:0:0:0:
179,192,21653,1,0,0:0:0:0:
281,192,21653,1,0,0:0:0:0:
128,192,21766,1,0,0:0:0:0:
384,192,21766,1,0,0:0:0:0:
435,192,21766,1,0,0:0:0:0:
230,192,21879,1,0,0:0:0:0:
332,192,21879,1,0,0:0:0:0:
460,192,21991,1,0,0:0:0:0:
179,192,21991,1,0,0:0:0:0:
76,192,21991,1,0,0:0:0:0:
128,192,22104,1,0,0:0:0:0:
25,192,22217,1,0,0:0:0:0:
281,192,22217,1,0,0:0:0:0:
384,192,22217,1,0,0:0:0:0:
332,192,22330,1,0,0:0:0:0:
179,192,22330,1,0,0:0:0:0:
435,192,22442,1,0,0:0:0:0:
76,192,22442,1,0,0:0:0:0:
230,192,22555,1,0,0:0:0:0:
384,192,22555,1,0,0:0:0:0:
153,192,22668,1,2,0:0:0:0:
25,192,22668,1,0,0:0:0:0:
332,192,22668,1,0,0:0:0:0:
230,192,22781,1,0,0:0:0:0:
435,192,22781,1,0,0:0:0:0:
332,192,22894,1,0,0:0:0:0:
76,192,22894,1,0,0:0:0:0:
384,192,23006,1,0,0:0:0:0:
179,192,23006,1,0,0:0:0:0:
358,192,23119,1,0,0:0:0:0:
460,192,23119,1,8,0:0:0:0:
153,192,23119,1,0,0:0:0:0:
25,192,23119,1,0,0:0:0:0:
460,192,23345,1,0,0:0:0:0:
332,192,23345,1,0,0:0:0:0:
76,192,23570,1,0,0:0:0:0:
230,192,23570,1,0,0:0:0:0:
179,192,23570,1,0,0:0:0:0:
256,192,23796,1,0,0:0:0:0:
460,192,23796,1,0,0:0:0:0:
358,192,24021,1,8,0:0:0:0:
128,192,24021,1,0,0:0:0:0:
384,192,24021,1,0,0:0:0:0:
179,192,24021,1,0,0:0:0:0:
76,192,24247,1,0,0:0:0:0:
332,192,24247,1,0,0:0:0:0:
460,192,24360,1,0,0:0:0:0:
179,192,24360,1,0,0:0:0:0:
384,192,24585,1,0,0:0:0:0:
256,192,24698,1,0,0:0:0:0:
25,192,24698,1,0,0:0:0:0:
332,192,24754,1,0,0:0:0:0:
76,192,24754,1,0,0:0:0:0:
435,192,24811,1,0,0:0:0:0:
384,192,24867,1,0,0:0:0:0:
230,192,24924,1,0,0:0:0:0:
128,192,24924,1,0,0:0:0:0:
281,192,24924,1,0,0:0:0:0:
179,192,25036,1,0,0:0:0:0:
332,192,25036,1,0,0:0:0:0:
435,192,25036,1,0,0:0:0:0:
281,192,25149,1,0,0:0:0:0:
76,192,25149,1,0,0:0:0:0:
460,192,25262,1,0,0:0:0:0:
230,192,25262,1,0,0:0:0:0:
384,192,25262,1,0,0:0:0:0:
358,192,25375,1,2,0:0:0:0:
128,192,25375,1,0,0:0:0:0:
25,192,25375,1,0,0:0:0:0:
179,192,25488,1,0,0:0:0:0:
230,192,25488,1,0,0:0:0:0:
358,192,25600,1,0,0:0:0:0:
76,192,25600,1,0,0:0:0:0:
435,192,25600,1,0,0:0:0:0:
256,192,25713,1,0,0:0:0:0:
179,192,25713,1,0,0:0:0:0:
358,192,25826,1,8,0:0:0:0:
153,192,25826,1,0,0:0:0:0:
25,192,25826,1,0,0:0:0:0:
460,192,25939,1,0,0:0:0:0:
256,192,25939,1,0,0:0:0:0:
179,192,26051,1,0,0:0:0:0:
153,192,26164,1,0,0:0:0:0:
384,192,26164,1,0,0:0:0:0:
486,192,26164,1,0,0:0:0:0:
179,192,26277,1,0,0:0:0:0:
281,192,26277,1,0,0:0:0:0:
332,192,26277,1,0,0:0:0:0:
76,192,26390,1,0,0:0:0:0:
25,192,26390,1,0,0:0:0:0:
153,192,26503,1,0,0:0:0:0:
384,192,26503,1,0,0:0:0:0:
230,192,26503,1,0,0:0:0:0:
460,192,26615,1,0,0:0:0:0:
256,192,26615,1,0,0:0:0:0:
179,192,26728,1,0,0:0:0:0:
384,192,26728,1,0,0:0:0:0:
332,192,26728,1,0,0:0:0:0:
76,192,26728,1,0,0:0:0:0:
281,192,26841,1,0,0:0:0:0:
230,192,26841,1,0,0:0:0:0:
332,192,26954,1,0,0:0:0:0:
435,192,26954,1,0,0:0:0:0:
76,192,27066,1,0,0:0:0:0:
230,192,27066,1,0,0:0:0:0:
128,192,27066,1,0,0:0:0:0:
384,192,27179,1,0,0:0:0:0:
179,192,27179,1,0,0:0:0:0:
281,192,27292,1,0,0:0:0:0:
128,192,27292,1,0,0:0:0:0:
486,192,27292,1,0,0:0:0:0:
76,192,27405,1,0,0:0:0:0:
332,192,27405,1,0,0:0:0:0:
25,192,27405,1,0,0:0:0:0:
179,192,27518,1,0,0:0:0:0:
230,192,27630,1,8,0:0:0:0:
332,192,27630,1,0,0:0:0:0:
384,192,27630,1,0,0:0:0:0:
435,192,27743,1,0,0:0:0:0:
128,192,27743,1,0,0:0:0:0:
76,192,27856,1,0,0:0:0:0:
281,192,27856,1,0,0:0:0:0:
435,192,27969,1,0,0:0:0:0:
230,192,27969,1,0,0:0:0:0:
128,192,27969,1,0,0:0:0:0:
179,192,28082,1,0,0:0:0:0:
332,192,28082,1,0,0:0:0:0:
384,192,28082,1,0,0:0:0:0:
230,192,28194,1,0,0:0:0:0:
128,192,28194,1,0,0:0:0:0:
384,192,28307,1,0,0:0:0:0:
179,192,28307,1,0,0:0:0:0:
76,192,28307,1,0,0:0:0:0:
435,192,28420,1,0,0:0:0:0:
230,192,28420,1,0,0:0:0:0:
384,192,28533,1,0,0:0:0:0:
179,192,28533,1,0,0:0:0:0:
25,192,28533,1,0,0:0:0:0:
486,192,28533,1,0,0:0:0:0:
332,192,28645,1,0,0:0:0:0:
128,192,28645,1,0,0:0:0:0:
179,192,28758,1,0,0:0:0:0:
384,192,28758,1,0,0:0:0:0:
460,192,28871,1,0,0:0:0:0:
256,192,28871,1,0,0:0:0:0:
76,192,28871,1,0,0:0:0:0:
153,192,28984,1,2,0:0:0:0:
230,192,28984,1,0,0:0:0:0:
384,192,28984,1,0,0:0:0:0:
76,192,29097,1,0,0:0:0:0:
256,192,29097,1,0,0:0:0:0:
332,192,29097,1,0,0:0:0:0:
179,192,29209,1,0,0:0:0:0:
384,192,29209,1,0,0:0:0:0:
230,192,29322,1,0,0:0:0:0:
358,192,29435,1,8,0:0:0:0:
25,192,29435,1,0,0:0:0:0:
76,192,29435,1,0,0:0:0:0:
179,192,29435,1,0,0:0:0:0:
460,192,29548,1,0,0:0:0:0:
230,192,29548,1,0,0:0:0:0:
358,192,29660,1,0,0:0:0:0:
128,192,29660,1,0,0:0:0:0:
281,192,29660,1,0,0:0:0:0:
76,192,29660,1,0,0:0:0:0:
179,192,29773,1,0,0:0:0:0:
435,192,29773,1,0,0:0:0:0:
25,192,29886,1,0,0:0:0:0:
76,192,29886,1,0,0:0:0:0:
384,192,29886,1,0,0:0:0:0:
230,192,29999,1,0,0:0:0:0:
486,192,29999,1,0,0:0:0:0:
435,192,29999,1,0,0:0:0:0:
153,192,30112,1,0,0:0:0:0:
179,192,30112,1,0,0:0:0:0:
332,192,30112,1,0,0:0:0:0:
230,192,30224,1,0,0:0:0:0:
384,192,30224,1,0,0:0:0:0:
179,192,30337,1,0,0:0:0:0:
281,192,30337,1,0,0:0:0:0:
435,192,30337,1,0,0:0:0:0:
76,192,30337,1,0,0:0:0:0:
153,192,30563,1,0,0:0:0:0:
358,192,30563,1,0,0:0:0:0:
460,192,30788,1,2,0:0:0:0:
25,192,30788,1,0,0:0:0:0:
486,192,30788,1,0,0:0:0:0:
179,192,30788,1,0,0:0:0:0:
256,192,31014,1,0,0:0:0:0:
384,192,31014,1,0,0:0:0:0:
76,192,31239,1,0,0:0:0:0:
179,192,31239,1,0,0:0:0:0:
128,192,31465,1,0,0:0:0:0:
435,192,31578,1,0,0:0:0:0:
230,192,31578,1,0,0:0:0:0:
25,192,31691,1,0,0:0:0:0:
332,192,31691,1,0,0:0:0:0:
256,192,31803,1,0,0:0:0:0:
76,192,31803,1,0,0:0:0:0:
153,192,31916,1,8,0:0:0:0:
384,192,31916,1,0,0:0:0:0:
486,192,31916,1,0,0:0:0:0:
256,192,32029,1,0,0:0:0:0:
179,192,32029,1,0,0:0:0:0:
358,192,32142,1,8,0:0:0:0:
76,192,32142,1,2,0:0:0:0:
25,192,32142,1,0,0:0:0:0:
435,192,32142,1,0,0:0:0:0:
128,192,32254,1,0,0:0:0:0:
230,192,32367,1,0,0:0:0:0:
384,192,32367,1,0,0:0:0:0:
460,192,32593,1,2,0:0:0:0:
153,192,32593,1,0,0:0:0:0:
25,192,32593,1,0,0:0:0:0:
486,192,32593,1,0,0:0:0:0:
358,192,32818,1,8,0:0:0:0:
179,192,32818,1,0,0:0:0:0:
358,192,33044,1,8,0:0:0:0:
179,192,33044,1,0,0:0:0:0:
256,192,33157,1,0,0:0:0:0:
76,192,33157,1,0,0:0:0:0:
358,192,33269,1,8,0:0:0:0:
179,192,33269,1,0,0:0:0:0:
230,192,33382,1,0,0:0:0:0:
76,192,33495,1,0,0:0:0:0:
384,192,33495,1,0,0:0:0:0:
128,192,33495,1,0,0:0:0:0:
256,192,33608,1,0,0:0:0:0:
486,192,33608,1,0,0:0:0:0:
179,192,33721,1,0,0:0:0:0:
384,192,33721,1,0,0:0:0:0:
153,192,33946,1,0,0:0:0:0:
332,192,33946,1,0,0:0:0:0:
281,192,33946,1,0,0:0:0:0:
76,192,33946,1,0,0:0:0:0:
179,192,34172,1,0,0:0:0:0:
332,192,34172,1,0,0:0:0:0:
153,192,34397,1,0,0:0:0:0:
25,192,34397,1,0,0:0:0:0:
76,192,34397,1,0,0:0:0:0:
281,192,34397,1,0,0:0:0:0:
486,192,34510,1,0,0:0:0:0:
332,192,34623,1,0,0:0:0:0:
230,192,34623,1,0,0:0:0:0:
76,192,34736,1,0,0:0:0:0:
179,192,34736,1,0,0:0:0:0:
230,192,34848,1,0,0:0:0:0:
384,192,34848,1,0,0:0:0:0:
128,192,34961,1,0,0:0:0:0:
281,192,34961,1,0,0:0:0:0:
332,192,35074,1,0,0:0:0:0:
179,192,35074,1,0,0:0:0:0:
486,192,35074,128,0,35412:0:0:0:0:
358,192,35300,1,2,0:0:0:0:
230,192,35300,1,0,0:0:0:0:
25,192,35300,1,0,0:0:0:0:
128,192,35412,1,0,0:0:0:0:
435,192,35412,1,0,0:0:0:0:
179,192,35525,1,0,0:0:0:0:
281,192,35525,1,0,0:0:0:0:
230,192,35751,1,0,0:0:0:0:
179,192,35751,1,0,0:0:0:0:
384,192,35751,1,0,0:0:0:0:
435,192,35751,1,0,0:0:0:0:
76,192,35751,1,0,0:0:0:0:
128,192,35863,1,0,0:0:0:0:
332,192,35976,1,0,0:0:0:0:
179,192,36089,1,0,0:0:0:0:
256,192,36202,1,0,0:0:0:0:
460,192,36202,1,2,0:0:0:0:
486,192,36202,1,0,0:0:0:0:
76,192,36202,1,0,0:0:0:0:
25,192,36202,1,0,0:0:0:0:
153,192,36427,1,0,0:0:0:0:
358,192,36427,1,0,0:0:0:0:
358,192,36653,1,8,0:0:0:0:
153,192,36653,1,0,0:0:0:0:
25,192,36766,1,0,0:0:0:0:
230,192,36766,1,0,0:0:0:0:
358,192,36991,1,0,0:0:0:0:
179,192,36991,128,0,37330:0:0:0:0:
76,192,37104,1,0,0:0:0:0:
486,192,37104,1,0,0:0:0:0:
230,192,37104,1,0,0:0:0:0:
435,192,37217,1,0,0:0:0:0:
332,192,37217,1,0,0:0:0:0:
76,192,37330,1,0,0:0:0:0:
384,192,37330,1,0,0:0:0:0:
460,192,37555,1,8,0:0:0:0:
281,192,37555,1,0,0:0:0:0:
25,192,37555,1,0,0:0:0:0:
179,192,37555,1,0,0:0:0:0:
179,192,37781,1,0,0:0:0:0:
358,192,37894,1,0,0:0:0:0:
460,192,38006,1,2,0:0:0:0:
153,192,38006,1,0,0:0:0:0:
230,192,38006,1,0,0:0:0:0:
384,192,38006,1,0,0:0:0:0:
256,192,38119,1,0,0:0:0:0:
153,192,38232,1,0,0:0:0:0:
25,192,38232,1,0,0:0:0:0:
332,192,38232,1,0,0:0:0:0:
460,192,38457,1,0,0:0:0:0:
358,192,38457,1,2,0:0:0:0:
179,192,38457,1,0,0:0:0:0:
230,192,38570,1,0,0:0:0:0:
76,192,38683,1,0,0:0:0:0:
128,192,38683,1,0,0:0:0:0:
384,192,38796,128,0,39021:0:0:0:0:
486,192,38909,1,0,0:0:0:0:
179,192,38909,1,0,0:0:0:0:
358,192,39021,1,0,0:0:0:0:
230,192,39021,1,0,0:0:0:0:
128,192,39134,128,0,39360:0:0:0:0:
256,192,39247,1,2,0:0:0:0:
435,192,39247,1,0,0:0:0:0:
358,192,39360,1,8,0:0:0:0:
25,192,39360,1,0,0:0:0:0:
179,192,39360,1,0,0:0:0:0:
486,192,39473,1,0,0:0:0:0:
179,192,39585,1,0,0:0:0:0:
460,192,39811,1,0,0:0:0:0:
76,192,39811,1,0,0:0:0:0:
230,192,39811,1,0,0:0:0:0:
332,192,39924,1,0,0:0:0:0:
153,192,40036,1,0,0:0:0:0:
179,192,40036,1,0,0:0:0:0:
230,192,40262,1,0,0:0:0:0:
25,192,40262,1,0,0:0:0:0:
384,192,40262,1,0,0:0:0:0:
76,192,40488,1,0,0:0:0:0:
179,192,40488,1,0,0:0:0:0:
332,192,40488,1,0,0:0:0:0:
435,192,40600,128,0,40826:0:0:0:0:
128,192,40713,1,0,0:0:0:0:
384,192,40713,1,0,0:0:0:0:
281,192,40713,1,0,0:0:0:0:
230,192,40826,128,0,41051:0:0:0:0:
332,192,40939,1,0,0:0:0:0:
179,192,40939,1,0,0:0:0:0:
435,192,41051,1,0,0:0:0:0:
128,192,41051,1,0,0:0:0:0:
358,192,41164,1,8,0:0:0:0:
76,192,41164,1,0,0:0:0:0:
230,192,41164,1,0,0:0:0:0:
460,192,41277,1,0,0:0:0:0:
179,192,41390,1,0,0:0:0:0:
281,192,41390,1,0,0:0:0:0:
230,192,41503,1,0,0:0:0:0:
76,192,41503,1,0,0:0:0:0:
460,192,41615,1,0,0:0:0:0:
332,192,41615,1,0,0:0:0:0:
128,192,41615,1,0,0:0:0:0:
179,192,41728,1,0,0:0:0:0:
281,192,41728,1,0,0:0:0:0:
230,192,41841,1,0,0:0:0:0:
76,192,41841,1,0,0:0:0:0:
384,192,41841,1,0,0:0:0:0:
435,192,42066,1,0,0:0:0:0:
128,192,42066,1,0,0:0:0:0:
25,192,42066,1,0,0:0:0:0:
281,192,42066,1,0,0:0:0:0:
179,192,42292,1,0,0:0:0:0:
332,192,42292,1,0,0:0:0:0:
128,192,42405,128,0,42630:0:0:0:0:
435,192,42518,1,0,0:0:0:0:
332,192,42518,1,0,0:0:0:0:
230,192,42630,128,0,42856:0:0:0:0:
384,192,42630,1,0,0:0:0:0:
256,192,42743,1,8,0:0:0:0:
179,192,42743,1,0,0:0:0:0:
76,192,42743,1,0,0:0:0:0:
358,192,42856,1,2,0:0:0:0:
460,192,42969,1,8,0:0:0:0:
256,192,42969,1,0,0:0:0:0:
128,192,42969,1,0,0:0:0:0:
384,192,43194,1,0,0:0:0:0:
332,192,43194,1,0,0:0:0:0:
179,192,43194,1,0,0:0:0:0:
230,192,43307,1,0,0:0:0:0:
128,192,43307,1,0,0:0:0:0:
256,192,43420,1,2,0:0:0:0:
384,192,43420,1,0,0:0:0:0:
486,192,43420,1,0,0:0:0:0:
358,192,43533,1,0,0:0:0:0:
179,192,43533,1,0,0:0:0:0:
230,192,43645,1,0,0:0:0:0:
76,192,43645,1,0,0:0:0:0:
128,192,43758,1,0,0:0:0:0:
435,192,43871,1,0,0:0:0:0:
179,192,43871,1,0,0:0:0:0:
281,192,43871,1,0,0:0:0:0:
25,192,43984,1,0,0:0:0:0:
230,192,43984,1,0,0:0:0:0:
358,192,44209,1,0,0:0:0:0:
179,192,44209,1,0,0:0:0:0:
256,192,44322,1,2,0:0:0:0:
435,192,44322,128,0,44660:0:0:0:0:
128,192,44322,1,0,0:0:0:0:
384,192,44435,1,0,0:0:0:0:
179,192,44548,1,0,0:0:0:0:
358,192,44660,1,2,0:0:0:0:
281,192,44773,1,0,0:0:0:0:
384,192,44773,1,0,0:0:0:0:
230,192,44773,1,0,0:0:0:0:
128,192,44773,1,0,0:0:0:0:
76,192,44999,1,0,0:0:0:0:
179,192,44999,1,0,0:0:0:0:
76,192,45112,1,0,0:0:0:0:
332,192,45112,1,0,0:0:0:0:
256,192,45224,1,2,0:0:0:0:
128,192,45224,1,0,0:0:0:0:
384,192,45224,1,0,0:0:0:0:
332,192,45450,1,0,0:0:0:0:
179,192,45563,1,0,0:0:0:0:
332,192,45563,1,0,0:0:0:0:
460,192,45676,1,2,0:0:0:0:
486,192,45676,1,0,0:0:0:0:
230,192,45676,1,0,0:0:0:0:
76,192,45676,1,0,0:0:0:0:
179,192,45901,1,0,0:0:0:0:
332,192,45901,1,0,0:0:0:0:
358,192,46014,1,0,0:0:0:0:
179,192,46014,1,0,0:0:0:0:
256,192,46127,1,2,0:0:0:0:
76,192,46127,1,0,0:0:0:0:
384,192,46127,1,0,0:0:0:0:
435,192,46239,1,0,0:0:0:0:
128,192,46352,1,0,0:0:0:0:
179,192,46409,1,0,0:0:0:0:
230,192,46465,1,0,0:0:0:0:
281,192,46521,1,0,0:0:0:0:
460,192,46578,5,2,0:0:0:0:
25,192,46578,1,0,0:0:0:0:
332,192,46578,1,0,0:0:0:0:
179,192,46578,1,0,0:0:0:0:
230,192,46803,1,0,0:0:0:0:
128,192,46803,1,0,0:0:0:0:
460,192,47029,1,2,0:0:0:0:
486,192,47029,1,0,0:0:0:0:
281,192,47029,1,0,0:0:0:0:
384,192,47029,1,0,0:0:0:0:
358,192,47254,1,8,0:0:0:0:
153,192,47254,1,0,0:0:0:0:
76,192,47254,1,0,0:0:0:0:
358,192,47480,1,8,0:0:0:0:
153,192,47480,1,0,0:0:0:0:
435,192,47480,1,0,0:0:0:0:
76,192,47706,1,0,0:0:0:0:
332,192,47706,1,0,0:0:0:0:
76,192,47931,1,2,0:0:0:0:
25,192,47931,1,0,0:0:0:0:
179,192,47931,1,0,0:0:0:0:
435,192,47931,1,0,0:0:0:0:
256,192,48157,1,8,0:0:0:0:
384,192,48157,1,0,0:0:0:0:
76,192,48382,1,0,0:0:0:0:
358,192,48382,1,8,0:0:0:0:
486,192,48382,1,0,0:0:0:0:
179,192,48382,1,0,0:0:0:0:
460,192,48833,1,0,0:0:0:0:
256,192,48833,1,2,0:0:0:0:
128,192,48833,1,0,0:0:0:0:
384,192,48833,1,0,0:0:0:0:
76,192,49059,1,0,0:0:0:0:
230,192,49059,1,0,0:0:0:0:
460,192,49285,1,8,0:0:0:0:
332,192,49285,1,0,0:0:0:0:
179,192,49285,1,0,0:0:0:0:
128,192,49285,1,0,0:0:0:0:
25,192,49285,1,0,0:0:0:0:
256,192,49510,1,0,0:0:0:0:
460,192,49510,1,8,0:0:0:0:
179,192,49510,1,0,0:0:0:0:
128,192,49510,1,0,0:0:0:0:
25,192,49510,1,0,0:0:0:0:
358,192,49736,1,2,0:0:0:0:
76,192,49736,1,0,0:0:0:0:
384,192,49736,1,0,0:0:0:0:
128,192,49961,1,0,0:0:0:0:
76,192,49961,1,0,0:0:0:0:
358,192,50187,1,0,0:0:0:0:
486,192,50187,1,0,0:0:0:0:
179,192,50187,1,0,0:0:0:0:
230,192,50638,1,0,0:0:0:0:
179,192,50638,1,0,0:0:0:0:
435,192,50638,1,0,0:0:0:0:
332,192,50638,1,0,0:0:0:0:
179,192,50863,1,0,0:0:0:0:
76,192,50863,1,0,0:0:0:0:
281,192,51089,1,0,0:0:0:0:
332,192,51089,1,0,0:0:0:0:
25,192,51089,1,0,0:0:0:0:
76,192,51089,1,0,0:0:0:0:
179,192,51315,1,0,0:0:0:0:
230,192,51315,1,0,0:0:0:0:
460,192,51540,1,2,0:0:0:0:
384,192,51540,1,0,0:0:0:0:
76,192,51540,1,0,0:0:0:0:
128,192,51540,1,0,0:0:0:0:
358,192,51766,1,8,0:0:0:0:
281,192,51766,1,0,0:0:0:0:
230,192,51879,1,0,0:0:0:0:
128,192,51879,1,0,0:0:0:0:
435,192,51991,1,0,0:0:0:0:
281,192,51991,1,0,0:0:0:0:
384,192,51991,1,0,0:0:0:0:
256,192,52442,1,2,0:0:0:0:
179,192,52442,1,0,0:0:0:0:
384,192,52442,1,0,0:0:0:0:
358,192,52668,1,8,0:0:0:0:
230,192,52668,1,0,0:0:0:0:
128,192,52668,1,0,0:0:0:0:
256,192,52894,1,2,0:0:0:0:
384,192,52894,1,0,0:0:0:0:
179,192,52894,1,0,0:0:0:0:
76,192,53119,1,0,0:0:0:0:
230,192,53119,1,0,0:0:0:0:
332,192,53119,1,0,0:0:0:0:
460,192,53345,1,0,0:0:0:0:
332,192,53345,1,0,0:0:0:0:
179,192,53345,1,0,0:0:0:0:
153,192,53570,1,0,0:0:0:0:
384,192,53570,1,0,0:0:0:0:
281,192,53570,1,0,0:0:0:0:
384,192,53683,1,0,0:0:0:0:
281,192,53683,1,0,0:0:0:0:
179,192,53683,1,0,0:0:0:0:
460,192,53796,1,0,0:0:0:0:
230,192,53796,1,0,0:0:0:0:
179,192,53796,1,0,0:0:0:0:
76,192,53796,1,0,0:0:0:0:
256,192,54247,1,2,0:0:0:0:
76,192,54247,1,0,0:0:0:0:
179,192,54247,1,0,0:0:0:0:
384,192,54247,1,0,0:0:0:0:
358,192,54473,1,0,0:0:0:0:
25,192,54473,1,0,0:0:0:0:
76,192,54473,1,0,0:0:0:0:
460,192,54698,1,0,0:0:0:0:
179,192,54698,1,0,0:0:0:0:
128,192,54698,1,0,0:0:0:0:
384,192,54698,1,0,0:0:0:0:
460,192,54924,1,0,0:0:0:0:
179,192,54924,1,0,0:0:0:0:
76,192,54924,1,0,0:0:0:0:
384,192,54924,1,0,0:0:0:0:
76,192,55149,1,0,0:0:0:0:
256,192,55149,1,2,0:0:0:0:
128,192,55149,1,0,0:0:0:0:
486,192,55149,1,0,0:0:0:0:
435,192,55149,1,0,0:0:0:0:
179,192,55375,1,0,0:0:0:0:
384,192,55375,1,0,0:0:0:0:
256,192,55600,1,8,0:0:0:0:
128,192,55600,1,0,0:0:0:0:
486,192,55600,1,0,0:0:0:0:
256,192,56051,1,2,0:0:0:0:
384,192,56051,1,0,0:0:0:0:
179,192,56051,1,0,0:0:0:0:
230,192,56277,1,0,0:0:0:0:
384,192,56277,1,0,0:0:0:0:
128,192,56277,1,0,0:0:0:0:
358,192,56503,1,8,0:0:0:0:
25,192,56503,1,0,0:0:0:0:
76,192,56503,1,0,0:0:0:0:
358,192,56728,1,8,0:0:0:0:
76,192,56728,1,0,0:0:0:0:
25,192,56728,1,0,0:0:0:0:
179,192,56954,1,0,0:0:0:0:
384,192,56954,1,0,0:0:0:0:
486,192,56954,1,0,0:0:0:0:
332,192,57179,1,0,0:0:0:0:
230,192,57179,1,0,0:0:0:0:
76,192,57179,1,0,0:0:0:0:
76,192,57405,1,0,0:0:0:0:
384,192,57405,1,0,0:0:0:0:
281,192,57405,1,0,0:0:0:0:
128,192,57405,1,0,0:0:0:0:
76,192,57856,1,0,0:0:0:0:
435,192,57856,1,0,0:0:0:0:
486,192,57856,1,0,0:0:0:0:
230,192,57856,1,0,0:0:0:0:
153,192,58082,1,0,0:0:0:0:
358,192,58082,1,8,0:0:0:0:
358,192,58307,1,8,0:0:0:0:
25,192,58307,1,0,0:0:0:0:
76,192,58307,1,0,0:0:0:0:
358,192,58533,1,8,0:0:0:0:
25,192,58533,1,0,0:0:0:0:
76,192,58533,1,0,0:0:0:0:
76,192,58758,1,0,0:0:0:0:
384,192,58758,1,0,0:0:0:0:
435,192,58758,1,0,0:0:0:0:
460,192,58984,1,0,0:0:0:0:
358,192,58984,1,8,0:0:0:0:
179,192,59097,1,0,0:0:0:0:
76,192,59097,1,0,0:0:0:0:
486,192,59209,1,0,0:0:0:0:
384,192,59209,1,0,0:0:0:0:
128,192,59209,1,0,0:0:0:0:
179,192,59209,1,0,0:0:0:0:
358,192,59660,1,0,0:0:0:0:
153,192,59660,1,2,0:0:0:0:
230,192,59660,1,0,0:0:0:0:
435,192,59660,1,0,0:0:0:0:
25,192,59886,1,0,0:0:0:0:
281,192,59886,1,0,0:0:0:0:
76,192,60112,1,0,0:0:0:0:
128,192,60112,1,0,0:0:0:0:
384,192,60112,1,0,0:0:0:0:
179,192,60337,1,0,0:0:0:0:
128,192,60337,1,0,0:0:0:0:
332,192,60337,1,0,0:0:0:0:
179,192,60563,1,0,0:0:0:0:
25,192,60563,1,0,0:0:0:0:
435,192,60563,1,0,0:0:0:0:
384,192,60563,1,0,0:0:0:0:
76,192,60788,1,8,0:0:0:0:
153,192,60845,1,0,0:0:0:0:
435,192,60845,1,0,0:0:0:0:
384,192,60901,1,0,0:0:0:0:
179,192,60901,1,0,0:0:0:0:
358,192,60957,1,0,0:0:0:0:
256,192,61014,1,4,0:0:0:0:
76,192,61014,1,0,0:0:0:0:
486,192,61014,1,0,0:0:0:0:
230,192,61014,1,0,0:0:0:0:
25,192,61014,128,0,62818:0:0:0:0:
358,192,61465,1,0,0:0:0:0:
76,192,61465,1,0,0:0:0:0:
256,192,61465,1,2,0:0:0:0:
460,192,61916,1,0,0:0:0:0:
332,192,61916,1,0,0:0:0:0:
179,192,61916,1,0,0:0:0:0:
460,192,62367,1,0,0:0:0:0:
358,192,62367,1,2,0:0:0:0:
76,192,62367,1,0,0:0:0:0:
230,192,62593,1,0,0:0:0:0:
128,192,62593,1,0,0:0:0:0:
76,192,62818,1,0,0:0:0:0:
179,192,62818,1,0,0:0:0:0:
486,192,62818,128,0,64623:0:0:0:0:
435,192,62818,1,0,0:0:0:0:
358,192,63269,1,2,0:0:0:0:
153,192,63269,1,0,0:0:0:0:
76,192,63269,1,0,0:0:0:0:
179,192,63721,1,0,0:0:0:0:
384,192,63721,1,0,0:0:0:0:
435,192,64172,1,0,0:0:0:0:
128,192,64172,1,0,0:0:0:0:
25,192,64172,1,0,0:0:0:0:
358,192,64397,1,8,0:0:0:0:
128,192,64397,1,0,0:0:0:0:
256,192,64623,1,8,0:0:0:0:
128,192,64623,1,0,0:0:0:0:
435,192,64623,1,0,0:0:0:0:
179,192,64623,128,0,66427:0:0:0:0:
358,192,65074,1,2,0:0:0:0:
153,192,65074,1,0,0:0:0:0:
435,192,65074,1,0,0:0:0:0:
332,192,65300,1,0,0:0:0:0:
384,192,65300,1,0,0:0:0:0:
256,192,65525,1,8,0:0:0:0:
25,192,65525,1,0,0:0:0:0:
384,192,65525,1,0,0:0:0:0:
256,192,65751,1,8,0:0:0:0:
25,192,65751,1,0,0:0:0:0:
384,192,65751,1,0,0:0:0:0:
76,192,65976,1,0,0:0:0:0:
153,192,65976,1,0,0:0:0:0:
332,192,65976,1,0,0:0:0:0:
435,192,65976,1,0,0:0:0:0:
358,192,66202,1,8,0:0:0:0:
460,192,66315,1,0,0:0:0:0:
281,192,66315,1,0,0:0:0:0:
76,192,66315,1,0,0:0:0:0:
76,192,66427,1,0,0:0:0:0:
358,192,66427,1,0,0:0:0:0:
384,192,66427,128,0,68232:0:0:0:0:
25,192,66427,1,0,0:0:0:0:
460,192,66879,1,0,0:0:0:0:
256,192,66879,1,2,0:0:0:0:
179,192,66879,1,0,0:0:0:0:
128,192,66879,1,0,0:0:0:0:
358,192,67104,1,8,0:0:0:0:
25,192,67104,1,0,0:0:0:0:
460,192,67330,1,0,0:0:0:0:
76,192,67330,1,0,0:0:0:0:
179,192,67330,1,0,0:0:0:0:
358,192,67555,1,8,0:0:0:0:
25,192,67555,1,0,0:0:0:0:
460,192,67781,1,0,0:0:0:0:
179,192,67781,1,0,0:0:0:0:
128,192,67781,1,0,0:0:0:0:
358,192,68006,1,2,0:0:0:0:
76,192,68006,1,0,0:0:0:0:
153,192,68119,1,0,0:0:0:0:
256,192,68119,1,2,0:0:0:0:
460,192,68232,1,0,0:0:0:0:
358,192,68232,1,8,0:0:0:0:
25,192,68232,1,0,0:0:0:0:
179,192,68232,1,0,0:0:0:0:
230,192,68232,128,0,70036:0:0:0:0:
256,192,68683,1,2,0:0:0:0:
76,192,68683,1,0,0:0:0:0:
435,192,68683,1,0,0:0:0:0:
486,192,68683,1,0,0:0:0:0:
76,192,69134,1,0,0:0:0:0:
358,192,69134,1,8,0:0:0:0:
179,192,69134,1,0,0:0:0:0:
128,192,69134,1,0,0:0:0:0:
256,192,69585,1,2,0:0:0:0:
76,192,69585,1,0,0:0:0:0:
384,192,69585,1,0,0:0:0:0:
435,192,69585,1,0,0:0:0:0:
486,192,69811,1,0,0:0:0:0:
179,192,69811,1,0,0:0:0:0:
76,192,69924,1,0,0:0:0:0:
153,192,70036,1,0,0:0:0:0:
25,192,70036,1,0,0:0:0:0:
332,192,70036,1,0,0:0:0:0:
384,192,70036,1,0,0:0:0:0:
435,192,70149,1,0,0:0:0:0:
281,192,70262,1,0,0:0:0:0:
76,192,70262,1,0,0:0:0:0:
179,192,70375,1,0,0:0:0:0:
332,192,70488,1,0,0:0:0:0:
128,192,70488,1,0,0:0:0:0:
486,192,70488,1,0,0:0:0:0:
230,192,70600,1,0,0:0:0:0:
435,192,70713,1,0,0:0:0:0:
76,192,70713,1,0,0:0:0:0:
281,192,70826,1,0,0:0:0:0:
25,192,70939,1,0,0:0:0:0:
384,192,70939,1,0,0:0:0:0:
332,192,70939,1,0,0:0:0:0:
179,192,70939,1,0,0:0:0:0:
435,192,71164,1,0,0:0:0:0:
76,192,71390,1,0,0:0:0:0:
179,192,71390,1,0,0:0:0:0:
281,192,71390,1,0,0:0:0:0:
384,192,71390,1,0,0:0:0:0:
128,192,71615,1,0,0:0:0:0:
230,192,71615,1,0,0:0:0:0:
332,192,71615,1,0,0:0:0:0:
460,192,71841,1,0,0:0:0:0:
281,192,71841,1,0,0:0:0:0:
179,192,71841,1,0,0:0:0:0:
25,192,71841,1,0,0:0:0:0:
76,192,71954,1,0,0:0:0:0:
332,192,71954,1,0,0:0:0:0:
128,192,72066,1,0,0:0:0:0:
384,192,72066,1,0,0:0:0:0:
281,192,72179,1,0,0:0:0:0:
25,192,72179,1,0,0:0:0:0:
435,192,72179,1,0,0:0:0:0:
179,192,72292,1,0,0:0:0:0:
76,192,72292,1,0,0:0:0:0:
332,192,72292,1,0,0:0:0:0:
128,192,72405,1,0,0:0:0:0:
384,192,72405,1,0,0:0:0:0:
332,192,72518,1,0,0:0:0:0:
230,192,72518,1,0,0:0:0:0:
76,192,72630,1,0,0:0:0:0:
281,192,72630,1,0,0:0:0:0:
153,192,72743,1,8,0:0:0:0:
179,192,72743,1,0,0:0:0:0:
486,192,72743,1,0,0:0:0:0:
435,192,72743,1,0,0:0:0:0:
256,192,72856,1,0,0:0:0:0:
332,192,72856,1,0,0:0:0:0:
25,192,72856,1,0,0:0:0:0:
153,192,72969,1,8,0:0:0:0:
76,192,72969,1,0,0:0:0:0:
256,192,73082,1,0,0:0:0:0:
384,192,73082,1,0,0:0:0:0:
179,192,73194,1,0,0:0:0:0:
332,192,73194,1,0,0:0:0:0:
128,192,73194,1,0,0:0:0:0:
76,192,73307,1,0,0:0:0:0:
230,192,73307,1,0,0:0:0:0:
486,192,73307,1,0,0:0:0:0:
384,192,73420,1,0,0:0:0:0:
179,192,73420,1,0,0:0:0:0:
486,192,73533,1,0,0:0:0:0:
128,192,73533,1,0,0:0:0:0:
179,192,73645,1,0,0:0:0:0:
230,192,73702,1,0,0:0:0:0:
332,192,73702,1,0,0:0:0:0:
384,192,73758,1,0,0:0:0:0:
435,192,73815,1,0,0:0:0:0:
281,192,73871,1,0,0:0:0:0:
332,192,73927,1,0,0:0:0:0:
76,192,73927,1,0,0:0:0:0:
128,192,73984,1,0,0:0:0:0:
435,192,74040,1,0,0:0:0:0:
179,192,74040,1,0,0:0:0:0:
384,192,74097,1,0,0:0:0:0:
230,192,74097,1,0,0:0:0:0:
332,192,74153,1,0,0:0:0:0:
76,192,74209,1,0,0:0:0:0:
256,192,74322,1,0,0:0:0:0:
460,192,74435,5,0,0:0:0:0:
76,192,74435,1,0,0:0:0:0:
179,192,74548,1,0,0:0:0:0:
230,192,74548,1,0,0:0:0:0:
332,192,74548,1,0,0:0:0:0:
358,192,74773,1,0,0:0:0:0:
153,192,74773,1,0,0:0:0:0:
358,192,74886,1,0,0:0:0:0:
153,192,74886,1,0,0:0:0:0:
460,192,74999,1,0,0:0:0:0:
76,192,74999,1,0,0:0:0:0:
230,192,74999,1,0,0:0:0:0:
153,192,75112,1,0,0:0:0:0:
384,192,75112,1,0,0:0:0:0:
230,192,75224,1,0,0:0:0:0:
179,192,75337,1,0,0:0:0:0:
332,192,75337,1,0,0:0:0:0:
460,192,75450,5,8,0:0:0:0:
76,192,75450,1,2,0:0:0:0:
230,192,75450,1,0,0:0:0:0:
486,192,75450,1,0,0:0:0:0:
25,192,75450,1,0,0:0:0:0:
358,192,75563,1,0,0:0:0:0:
153,192,75563,1,0,0:0:0:0:
460,192,75676,1,0,0:0:0:0:
256,192,75676,1,0,0:0:0:0:
179,192,75676,1,0,0:0:0:0:
153,192,75788,1,0,0:0:0:0:
384,192,75788,1,0,0:0:0:0:
76,192,75901,1,0,0:0:0:0:
230,192,75901,1,0,0:0:0:0:
25,192,75901,1,0,0:0:0:0:
332,192,75901,1,0,0:0:0:0:
179,192,76014,1,0,0:0:0:0:
486,192,76014,1,0,0:0:0:0:
384,192,76014,1,0,0:0:0:0:
256,192,76127,1,0,0:0:0:0:
128,192,76127,1,0,0:0:0:0:
384,192,76239,1,0,0:0:0:0:
76,192,76239,1,0,0:0:0:0:
486,192,76352,1,0,0:0:0:0:
435,192,76352,1,0,0:0:0:0:
230,192,76352,1,0,0:0:0:0:
179,192,76352,1,0,0:0:0:0:
358,192,76465,1,0,0:0:0:0:
76,192,76465,1,0,0:0:0:0:
256,192,76578,1,0,0:0:0:0:
460,192,76578,1,0,0:0:0:0:
230,192,76578,1,0,0:0:0:0:
153,192,76691,1,0,0:0:0:0:
358,192,76691,1,0,0:0:0:0:
76,192,76803,1,0,0:0:0:0:
179,192,76803,1,0,0:0:0:0:
25,192,76803,1,0,0:0:0:0:
384,192,76803,1,0,0:0:0:0:
230,192,76916,1,0,0:0:0:0:
486,192,76916,1,0,0:0:0:0:
128,192,77029,1,0,0:0:0:0:
332,192,77029,1,0,0:0:0:0:
435,192,77029,1,0,0:0:0:0:
179,192,77142,1,0,0:0:0:0:
281,192,77142,1,0,0:0:0:0:
384,192,77254,1,0,0:0:0:0:
76,192,77254,1,0,0:0:0:0:
435,192,77254,1,0,0:0:0:0:
486,192,77254,1,0,0:0:0:0:
179,192,77367,1,0,0:0:0:0:
358,192,77367,1,0,0:0:0:0:
281,192,77480,1,0,0:0:0:0:
179,192,77480,1,0,0:0:0:0:
76,192,77593,1,0,0:0:0:0:
435,192,77593,1,0,0:0:0:0:
230,192,77593,1,0,0:0:0:0:
358,192,77706,1,2,0:0:0:0:
128,192,77706,1,0,0:0:0:0:
384,192,77706,1,0,0:0:0:0:
281,192,77706,1,0,0:0:0:0:
358,192,77818,1,0,0:0:0:0:
25,192,77818,1,0,0:0:0:0:
128,192,77931,1,0,0:0:0:0:
179,192,77931,1,0,0:0:0:0:
435,192,77931,1,0,0:0:0:0:
128,192,78044,1,0,0:0:0:0:
179,192,78044,1,0,0:0:0:0:
384,192,78044,1,0,0:0:0:0:
332,192,78157,1,0,0:0:0:0:
230,192,78157,1,0,0:0:0:0:
25,192,78157,1,0,0:0:0:0:
76,192,78157,1,0,0:0:0:0:
460,192,78269,1,0,0:0:0:0:
179,192,78269,1,0,0:0:0:0:
358,192,78382,1,0,0:0:0:0:
384,192,78382,1,0,0:0:0:0:
128,192,78382,1,0,0:0:0:0:
256,192,78495,1,0,0:0:0:0:
230,192,78495,1,0,0:0:0:0:
384,192,78608,1,0,0:0:0:0:
76,192,78608,1,0,0:0:0:0:
25,192,78608,1,0,0:0:0:0:
179,192,78721,1,0,0:0:0:0:
332,192,78721,1,0,0:0:0:0:
486,192,78721,1,0,0:0:0:0:
76,192,78833,1,0,0:0:0:0:
281,192,78833,1,0,0:0:0:0:
435,192,78833,1,0,0:0:0:0:
256,192,78946,1,0,0:0:0:0:
179,192,78946,1,0,0:0:0:0:
435,192,78946,1,0,0:0:0:0:
358,192,79059,1,8,0:0:0:0:
384,192,79059,1,0,0:0:0:0:
25,192,79059,1,0,0:0:0:0:
230,192,79059,1,0,0:0:0:0:
76,192,79059,1,0,0:0:0:0:
153,192,79172,1,0,0:0:0:0:
76,192,79172,1,0,0:0:0:0:
384,192,79285,1,0,0:0:0:0:
486,192,79285,1,0,0:0:0:0:
358,192,79397,1,0,0:0:0:0:
230,192,79397,1,0,0:0:0:0:
128,192,79397,1,0,0:0:0:0:
460,192,79510,1,0,0:0:0:0:
256,192,79510,1,2,0:0:0:0:
179,192,79510,1,0,0:0:0:0:
25,192,79510,1,0,0:0:0:0:
460,192,79623,1,0,0:0:0:0:
256,192,79623,1,0,0:0:0:0:
384,192,79736,1,0,0:0:0:0:
179,192,79736,1,0,0:0:0:0:
76,192,79848,1,0,0:0:0:0:
256,192,79848,1,0,0:0:0:0:
153,192,79961,1,8,0:0:0:0:
332,192,79961,1,0,0:0:0:0:
179,192,79961,1,0,0:0:0:0:
486,192,80074,1,0,0:0:0:0:
332,192,80074,1,0,0:0:0:0:
230,192,80074,1,0,0:0:0:0:
153,192,80187,1,0,0:0:0:0:
358,192,80300,1,0,0:0:0:0:
76,192,80300,1,0,0:0:0:0:
460,192,80412,1,0,0:0:0:0:
179,192,80412,1,0,0:0:0:0:
25,192,80412,1,0,0:0:0:0:
384,192,80412,1,0,0:0:0:0:
230,192,80525,1,0,0:0:0:0:
384,192,80525,1,0,0:0:0:0:
358,192,80638,1,0,0:0:0:0:
153,192,80638,1,0,0:0:0:0:
486,192,80638,1,0,0:0:0:0:
76,192,80751,1,0,0:0:0:0:
281,192,80751,1,0,0:0:0:0:
486,192,80863,1,0,0:0:0:0:
384,192,80863,1,0,0:0:0:0:
230,192,80863,1,0,0:0:0:0:
128,192,80863,1,0,0:0:0:0:
179,192,80863,1,0,0:0:0:0:
384,192,80976,1,0,0:0:0:0:
25,192,80976,1,0,0:0:0:0:
281,192,81089,1,0,0:0:0:0:
128,192,81089,1,0,0:0:0:0:
332,192,81202,1,0,0:0:0:0:
435,192,81202,1,0,0:0:0:0:
179,192,81202,1,0,0:0:0:0:
76,192,81315,1,0,0:0:0:0:
230,192,81315,1,0,0:0:0:0:
358,192,81427,1,0,0:0:0:0:
256,192,81427,1,0,0:0:0:0:
435,192,81540,1,0,0:0:0:0:
128,192,81540,1,0,0:0:0:0:
230,192,81540,1,0,0:0:0:0:
230,192,81653,1,0,0:0:0:0:
128,192,81653,1,0,0:0:0:0:
256,192,81766,1,8,0:0:0:0:
25,192,81766,1,0,0:0:0:0:
384,192,81766,1,0,0:0:0:0:
358,192,81879,1,0,0:0:0:0:
76,192,81879,1,0,0:0:0:0:
179,192,81991,1,0,0:0:0:0:
384,192,81991,1,0,0:0:0:0:
486,192,81991,1,0,0:0:0:0:
179,192,82104,1,0,0:0:0:0:
486,192,82104,1,0,0:0:0:0:
384,192,82104,1,0,0:0:0:0:
76,192,82217,1,2,0:0:0:0:
230,192,82217,1,0,0:0:0:0:
332,192,82217,1,0,0:0:0:0:
153,192,82330,1,0,0:0:0:0:
435,192,82330,1,0,0:0:0:0:
256,192,82442,1,0,0:0:0:0:
435,192,82442,1,0,0:0:0:0:
179,192,82442,1,0,0:0:0:0:
179,192,82555,1,0,0:0:0:0:
76,192,82555,1,0,0:0:0:0:
332,192,82555,1,0,0:0:0:0:
384,192,82668,1,0,0:0:0:0:
25,192,82668,1,0,0:0:0:0:
230,192,82668,1,0,0:0:0:0:
358,192,82781,1,0,0:0:0:0:
128,192,82781,1,0,0:0:0:0:
25,192,82781,1,0,0:0:0:0:
460,192,82894,1,0,0:0:0:0:
179,192,82894,1,0,0:0:0:0:
281,192,82894,1,0,0:0:0:0:
230,192,83006,1,0,0:0:0:0:
179,192,83119,1,0,0:0:0:0:
281,192,83119,1,0,0:0:0:0:
25,192,83119,1,0,0:0:0:0:
76,192,83119,1,0,0:0:0:0:
384,192,83119,1,0,0:0:0:0:
358,192,83232,1,0,0:0:0:0:
230,192,83232,1,0,0:0:0:0:
486,192,83232,1,0,0:0:0:0:
128,192,83345,1,0,0:0:0:0:
384,192,83345,1,0,0:0:0:0:
230,192,83457,1,0,0:0:0:0:
332,192,83457,1,0,0:0:0:0:
486,192,83457,1,0,0:0:0:0:
76,192,83570,1,8,0:0:0:0:
179,192,83570,1,0,0:0:0:0:
435,192,83570,1,0,0:0:0:0:
281,192,83570,1,0,0:0:0:0:
384,192,83683,1,0,0:0:0:0:
76,192,83683,1,0,0:0:0:0:
358,192,83796,1,0,0:0:0:0:
230,192,83796,1,0,0:0:0:0:
179,192,83909,1,0,0:0:0:0:
384,192,83909,1,0,0:0:0:0:
358,192,84021,1,0,0:0:0:0:
256,192,84021,1,2,0:0:0:0:
25,192,84021,1,0,0:0:0:0:
128,192,84021,1,0,0:0:0:0:
435,192,84021,1,0,0:0:0:0:
384,192,84134,1,0,0:0:0:0:
179,192,84134,1,0,0:0:0:0:
358,192,84247,1,0,0:0:0:0:
230,192,84247,1,0,0:0:0:0:
76,192,84247,1,0,0:0:0:0:
384,192,84360,1,0,0:0:0:0:
179,192,84360,1,0,0:0:0:0:
76,192,84473,1,8,0:0:0:0:
281,192,84473,1,0,0:0:0:0:
230,192,84473,1,0,0:0:0:0:
486,192,84473,1,0,0:0:0:0:
25,192,84473,1,0,0:0:0:0:
435,192,84473,1,0,0:0:0:0:
153,192,84585,1,0,0:0:0:0:
435,192,84585,1,0,0:0:0:0:
153,192,84698,1,0,0:0:0:0:
358,192,84698,1,0,0:0:0:0:
256,192,84811,1,0,0:0:0:0:
179,192,84811,1,0,0:0:0:0:
435,192,84811,1,0,0:0:0:0:
76,192,84924,1,0,0:0:0:0:
25,192,84924,1,0,0:0:0:0:
230,192,84924,1,0,0:0:0:0:
384,192,84924,1,0,0:0:0:0:
153,192,85036,1,0,0:0:0:0:
332,192,85036,1,0,0:0:0:0:
281,192,85036,1,0,0:0:0:0:
76,192,85149,1,0,0:0:0:0:
179,192,85149,1,0,0:0:0:0:
460,192,85262,1,0,0:0:0:0:
230,192,85262,1,0,0:0:0:0:
332,192,85262,1,0,0:0:0:0:
256,192,85375,1,8,0:0:0:0:
384,192,85375,1,0,0:0:0:0:
76,192,85375,1,0,0:0:0:0:
128,192,85375,1,0,0:0:0:0:
179,192,85488,1,0,0:0:0:0:
486,192,85488,1,0,0:0:0:0:
230,192,85600,1,0,0:0:0:0:
486,192,85600,1,0,0:0:0:0:
435,192,85600,1,0,0:0:0:0:
128,192,85600,1,0,0:0:0:0:
256,192,85713,1,0,0:0:0:0:
358,192,85826,1,2,0:0:0:0:
179,192,85826,1,0,0:0:0:0:
25,192,85826,1,0,0:0:0:0:
384,192,85826,1,0,0:0:0:0:
76,192,85939,1,0,0:0:0:0:
230,192,85939,1,0,0:0:0:0:
384,192,85939,1,0,0:0:0:0:
486,192,85939,1,0,0:0:0:0:
179,192,86051,1,0,0:0:0:0:
230,192,86051,1,0,0:0:0:0:
332,192,86051,1,0,0:0:0:0:
128,192,86164,1,0,0:0:0:0:
435,192,86164,1,0,0:0:0:0:
256,192,86277,1,8,0:0:0:0:
179,192,86277,1,0,0:0:0:0:
25,192,86277,1,0,0:0:0:0:
230,192,86277,1,0,0:0:0:0:
384,192,86277,1,0,0:0:0:0:
460,192,86390,1,0,0:0:0:0:
153,192,86390,1,0,0:0:0:0:
256,192,86503,1,0,0:0:0:0:
76,192,86503,1,0,0:0:0:0:
332,192,86503,1,0,0:0:0:0:
384,192,86615,1,0,0:0:0:0:
179,192,86615,1,0,0:0:0:0:
460,192,86728,1,0,0:0:0:0:
153,192,86728,1,2,0:0:0:0:
230,192,86728,1,0,0:0:0:0:
332,192,86728,1,0,0:0:0:0:
76,192,86841,1,0,0:0:0:0:
486,192,86841,1,0,0:0:0:0:
179,192,86954,1,0,0:0:0:0:
25,192,86954,1,0,0:0:0:0:
384,192,86954,1,0,0:0:0:0:
281,192,86954,1,0,0:0:0:0:
332,192,87066,1,0,0:0:0:0:
128,192,87066,1,0,0:0:0:0:
256,192,87179,1,8,0:0:0:0:
179,192,87179,1,0,0:0:0:0:
435,192,87179,1,0,0:0:0:0:
76,192,87179,1,0,0:0:0:0:
153,192,87292,1,0,0:0:0:0:
384,192,87292,1,0,0:0:0:0:
332,192,87292,1,0,0:0:0:0:
230,192,87405,1,0,0:0:0:0:
179,192,87405,1,0,0:0:0:0:
486,192,87405,1,0,0:0:0:0:
358,192,87518,1,0,0:0:0:0:
435,192,87518,1,0,0:0:0:0:
153,192,87630,1,2,0:0:0:0:
25,192,87630,1,0,0:0:0:0:
76,192,87630,1,0,0:0:0:0:
256,192,87743,1,0,0:0:0:0:
179,192,87743,1,0,0:0:0:0:
384,192,87743,1,0,0:0:0:0:
332,192,87856,1,0,0:0:0:0:
76,192,87856,1,0,0:0:0:0:
384,192,87856,1,0,0:0:0:0:
230,192,87969,1,0,0:0:0:0:
128,192,87969,1,0,0:0:0:0:
435,192,87969,1,0,0:0:0:0:
256,192,88082,1,8,0:0:0:0:
179,192,88082,1,0,0:0:0:0:
384,192,88082,1,0,0:0:0:0:
25,192,88082,1,0,0:0:0:0:
332,192,88082,1,0,0:0:0:0:
358,192,88194,1,0,0:0:0:0:
76,192,88194,1,0,0:0:0:0:
128,192,88307,1,0,0:0:0:0:
256,192,88307,1,0,0:0:0:0:
230,192,88307,1,0,0:0:0:0:
179,192,88420,1,0,0:0:0:0:
358,192,88533,1,2,0:0:0:0:
384,192,88533,1,0,0:0:0:0:
128,192,88533,1,0,0:0:0:0:
25,192,88533,1,0,0:0:0:0:
256,192,88645,1,0,0:0:0:0:
460,192,88645,1,0,0:0:0:0:
230,192,88645,1,0,0:0:0:0:
128,192,88645,1,0,0:0:0:0:
358,192,88758,1,0,0:0:0:0:
76,192,88758,1,0,0:0:0:0:
460,192,88871,1,0,0:0:0:0:
179,192,88871,1,0,0:0:0:0:
256,192,88984,1,8,0:0:0:0:
384,192,88984,1,0,0:0:0:0:
128,192,88984,1,0,0:0:0:0:
230,192,88984,1,0,0:0:0:0:
358,192,89097,1,0,0:0:0:0:
179,192,89097,1,0,0:0:0:0:
256,192,89209,1,0,0:0:0:0:
25,192,89209,1,0,0:0:0:0:
76,192,89209,1,0,0:0:0:0:
179,192,89322,1,0,0:0:0:0:
435,192,89322,1,0,0:0:0:0:
486,192,89322,1,0,0:0:0:0:
358,192,89435,1,2,0:0:0:0:
76,192,89435,1,0,0:0:0:0:
230,192,89435,1,0,0:0:0:0:
153,192,89548,1,0,0:0:0:0:
460,192,89548,1,0,0:0:0:0:
76,192,89660,1,0,0:0:0:0:
256,192,89660,1,2,0:0:0:0:
384,192,89660,1,0,0:0:0:0:
358,192,89773,1,2,0:0:0:0:
179,192,89773,1,0,0:0:0:0:
460,192,89886,5,8,0:0:0:0:
76,192,89886,1,2,0:0:0:0:
256,192,89886,1,0,0:0:0:0:
486,192,89886,1,0,0:0:0:0:
25,192,89886,1,0,0:0:0:0:
230,192,89886,1,0,0:0:0:0:
359,192,89999,1,0,0:0:0:0:
154,192,89999,1,0,0:0:0:0:
76,192,89999,1,0,0:0:0:0:
128,192,90112,1,0,0:0:0:0:
486,192,90112,1,0,0:0:0:0:
435,192,90112,1,0,0:0:0:0:
332,192,90112,1,0,0:0:0:0:
359,192,90224,1,0,0:0:0:0:
154,192,90224,1,0,0:0:0:0:
230,192,90224,1,0,0:0:0:0:
52,192,90337,1,0,0:0:0:0:
128,192,90337,1,0,0:0:0:0:
281,192,90337,1,0,0:0:0:0:
435,192,90337,1,0,0:0:0:0:
359,192,90450,1,0,0:0:0:0:
230,192,90450,1,0,0:0:0:0:
486,192,90450,1,0,0:0:0:0:
179,192,90563,1,0,0:0:0:0:
76,192,90563,1,0,0:0:0:0:
486,192,90563,1,0,0:0:0:0:
332,192,90563,1,0,0:0:0:0:
332,192,90676,1,0,0:0:0:0:
76,192,90676,1,0,0:0:0:0:
256,192,90788,1,8,0:0:0:0:
230,192,90788,1,0,0:0:0:0:
128,192,90788,1,0,0:0:0:0:
25,192,90788,1,0,0:0:0:0:
435,192,90788,1,0,0:0:0:0:
154,192,90901,1,0,0:0:0:0:
332,192,90901,1,0,0:0:0:0:
52,192,91014,1,0,0:0:0:0:
486,192,91014,1,0,0:0:0:0:
384,192,91014,1,0,0:0:0:0:
230,192,91127,1,0,0:0:0:0:
128,192,91127,1,0,0:0:0:0:
281,192,91127,1,0,0:0:0:0:
52,192,91239,1,0,0:0:0:0:
332,192,91239,1,0,0:0:0:0:
435,192,91239,1,0,0:0:0:0:
154,192,91352,1,0,0:0:0:0:
486,192,91352,1,0,0:0:0:0:
230,192,91465,1,0,0:0:0:0:
128,192,91465,1,0,0:0:0:0:
435,192,91465,1,0,0:0:0:0:
332,192,91465,1,0,0:0:0:0:
52,192,91578,1,0,0:0:0:0:
281,192,91578,1,0,0:0:0:0:
384,192,91578,1,0,0:0:0:0:
435,192,91691,1,0,0:0:0:0:
179,192,91691,1,0,0:0:0:0:
25,192,91691,1,0,0:0:0:0:
332,192,91691,1,0,0:0:0:0:
332,192,91803,1,0,0:0:0:0:
179,192,91803,1,0,0:0:0:0:
359,192,91916,1,0,0:0:0:0:
76,192,91916,1,0,0:0:0:0:
281,192,91916,1,0,0:0:0:0:
461,192,92029,1,0,0:0:0:0:
179,192,92029,1,0,0:0:0:0:
332,192,92142,1,0,0:0:0:0:
435,192,92142,1,0,0:0:0:0:
25,192,92142,1,0,0:0:0:0:
128,192,92142,1,0,0:0:0:0:
154,192,92254,1,0,0:0:0:0:
359,192,92254,1,0,0:0:0:0:
256,192,92367,1,0,0:0:0:0:
52,192,92367,1,0,0:0:0:0:
230,192,92367,1,0,0:0:0:0:
332,192,92480,1,0,0:0:0:0:
230,192,92480,1,0,0:0:0:0:
435,192,92480,1,0,0:0:0:0:
256,192,92593,1,8,0:0:0:0:
179,192,92593,1,0,0:0:0:0:
25,192,92593,1,0,0:0:0:0:
76,192,92593,1,0,0:0:0:0:
359,192,92706,1,0,0:0:0:0:
76,192,92762,1,0,0:0:0:0:
461,192,92818,1,0,0:0:0:0:
332,192,92818,1,0,0:0:0:0:
128,192,92818,1,0,0:0:0:0:
179,192,92875,1,0,0:0:0:0:
332,192,92931,1,0,0:0:0:0:
486,192,92931,1,0,0:0:0:0:
76,192,93044,1,0,0:0:0:0:
25,192,93044,1,0,0:0:0:0:
332,192,93044,1,0,0:0:0:0:
281,192,93044,1,0,0:0:0:0:
128,192,93044,1,0,0:0:0:0:
486,192,93157,1,0,0:0:0:0:
25,192,93157,1,0,0:0:0:0:
281,192,93157,1,0,0:0:0:0:
128,192,93269,1,0,0:0:0:0:
332,192,93269,1,0,0:0:0:0:
384,192,93269,1,0,0:0:0:0:
179,192,93269,1,0,0:0:0:0:
76,192,93382,1,0,0:0:0:0:
435,192,93382,1,0,0:0:0:0:
154,192,93495,1,8,0:0:0:0:
281,192,93495,1,0,0:0:0:0:
230,192,93495,1,0,0:0:0:0:
332,192,93495,1,0,0:0:0:0:
384,192,93608,1,0,0:0:0:0:
128,192,93608,1,0,0:0:0:0:
332,192,93721,1,0,0:0:0:0:
76,192,93721,1,0,0:0:0:0:
128,192,93833,1,0,0:0:0:0:
230,192,93833,1,0,0:0:0:0:
486,192,93833,1,0,0:0:0:0:
384,192,93833,1,0,0:0:0:0:
332,192,93946,1,0,0:0:0:0:
25,192,93946,1,0,0:0:0:0:
179,192,93946,1,0,0:0:0:0:
256,192,94059,1,0,0:0:0:0:
52,192,94059,1,0,0:0:0:0:
435,192,94059,1,0,0:0:0:0:
359,192,94172,1,0,0:0:0:0:
486,192,94172,1,0,0:0:0:0:
230,192,94172,1,0,0:0:0:0:
281,192,94285,1,0,0:0:0:0:
128,192,94285,1,0,0:0:0:0:
359,192,94397,1,8,0:0:0:0:
179,192,94397,1,0,0:0:0:0:
25,192,94397,1,0,0:0:0:0:
76,192,94397,1,0,0:0:0:0:
486,192,94397,1,0,0:0:0:0:
128,192,94510,1,0,0:0:0:0:
435,192,94510,1,0,0:0:0:0:
384,192,94510,1,0,0:0:0:0:
52,192,94623,1,0,0:0:0:0:
281,192,94623,1,0,0:0:0:0:
435,192,94736,1,0,0:0:0:0:
230,192,94736,1,0,0:0:0:0:
332,192,94848,1,0,0:0:0:0:
179,192,94848,1,0,0:0:0:0:
128,192,94848,1,0,0:0:0:0:
384,192,94848,1,0,0:0:0:0:
25,192,94961,1,0,0:0:0:0:
281,192,94961,1,0,0:0:0:0:
76,192,95074,1,0,0:0:0:0:
230,192,95074,1,0,0:0:0:0:
384,192,95074,1,0,0:0:0:0:
179,192,95187,1,0,0:0:0:0:
332,192,95187,1,0,0:0:0:0:
230,192,95300,1,0,0:0:0:0:
25,192,95300,1,0,0:0:0:0:
76,192,95300,1,0,0:0:0:0:
435,192,95300,1,0,0:0:0:0:
281,192,95300,1,0,0:0:0:0:
384,192,95412,1,0,0:0:0:0:
435,192,95412,1,0,0:0:0:0:
52,192,95525,1,0,0:0:0:0:
154,192,95525,1,0,0:0:0:0:
25,192,95525,1,0,0:0:0:0:
76,192,95638,1,0,0:0:0:0:
128,192,95638,1,0,0:0:0:0:
230,192,95638,1,0,0:0:0:0:
461,192,95751,1,0,0:0:0:0:
332,192,95751,1,0,0:0:0:0:
281,192,95751,1,0,0:0:0:0:
435,192,95751,1,0,0:0:0:0:
154,192,95863,1,0,0:0:0:0:
76,192,95863,1,0,0:0:0:0:
384,192,95863,1,0,0:0:0:0:
128,192,95976,1,0,0:0:0:0:
25,192,95976,1,0,0:0:0:0:
281,192,95976,1,0,0:0:0:0:
230,192,96089,1,0,0:0:0:0:
128,192,96089,1,0,0:0:0:0:
435,192,96089,1,0,0:0:0:0:
332,192,96089,1,0,0:0:0:0:
256,192,96202,1,8,0:0:0:0:
76,192,96202,1,0,0:0:0:0:
486,192,96202,1,0,0:0:0:0:
179,192,96202,1,0,0:0:0:0:
359,192,96315,1,0,0:0:0:0:
154,192,96315,1,0,0:0:0:0:
256,192,96427,1,0,0:0:0:0:
435,192,96427,1,0,0:0:0:0:
128,192,96427,1,0,0:0:0:0:
154,192,96540,1,0,0:0:0:0:
332,192,96540,1,0,0:0:0:0:
256,192,96653,1,0,0:0:0:0:
461,192,96653,1,2,0:0:0:0:
76,192,96653,1,0,0:0:0:0:
435,192,96653,1,0,0:0:0:0:
359,192,96766,1,0,0:0:0:0:
154,192,96766,1,0,0:0:0:0:
128,192,96879,1,0,0:0:0:0:
25,192,96879,1,0,0:0:0:0:
486,192,96879,1,0,0:0:0:0:
332,192,96879,1,0,0:0:0:0:
230,192,96991,1,0,0:0:0:0:
25,192,96991,1,0,0:0:0:0:
486,192,96991,1,0,0:0:0:0:
76,192,97104,1,0,0:0:0:0:
128,192,97104,1,0,0:0:0:0:
281,192,97104,1,0,0:0:0:0:
384,192,97104,1,0,0:0:0:0:
154,192,97217,1,0,0:0:0:0:
332,192,97217,1,0,0:0:0:0:
281,192,97217,1,0,0:0:0:0:
52,192,97330,1,0,0:0:0:0:
359,192,97330,1,0,0:0:0:0:
486,192,97330,1,0,0:0:0:0:
154,192,97442,1,0,0:0:0:0:
332,192,97442,1,0,0:0:0:0:
435,192,97555,1,0,0:0:0:0:
25,192,97555,1,0,0:0:0:0:
332,192,97668,1,0,0:0:0:0:
486,192,97668,1,0,0:0:0:0:
230,192,97668,1,0,0:0:0:0:
76,192,97668,1,0,0:0:0:0:
256,192,97781,1,0,0:0:0:0:
179,192,97781,1,0,0:0:0:0:
359,192,97894,1,0,0:0:0:0:
486,192,97894,1,0,0:0:0:0:
230,192,97894,1,0,0:0:0:0:
76,192,97894,1,0,0:0:0:0:
128,192,98006,1,0,0:0:0:0:
332,192,98006,1,0,0:0:0:0:
384,192,98006,1,0,0:0:0:0:
435,192,98006,1,0,0:0:0:0:
179,192,98006,1,0,0:0:0:0:
281,192,98119,1,0,0:0:0:0:
154,192,98232,1,0,0:0:0:0:
230,192,98232,1,0,0:0:0:0:
76,192,98232,1,0,0:0:0:0:
25,192,98232,1,0,0:0:0:0:
359,192,98345,1,0,0:0:0:0:
128,192,98345,1,0,0:0:0:0:
256,192,98457,1,0,0:0:0:0:
435,192,98457,1,0,0:0:0:0:
332,192,98457,1,0,0:0:0:0:
359,192,98570,1,0,0:0:0:0:
230,192,98570,1,0,0:0:0:0:
128,192,98570,1,0,0:0:0:0:
76,192,98683,1,0,0:0:0:0:
179,192,98683,1,0,0:0:0:0:
332,192,98683,1,0,0:0:0:0:
435,192,98796,1,0,0:0:0:0:
128,192,98796,1,0,0:0:0:0:
230,192,98796,1,0,0:0:0:0:
256,192,98909,1,0,0:0:0:0:
332,192,98909,1,0,0:0:0:0:
25,192,98909,1,0,0:0:0:0:
179,192,98909,1,0,0:0:0:0:
384,192,98909,1,0,0:0:0:0:
435,192,99021,1,0,0:0:0:0:
76,192,99021,1,0,0:0:0:0:
128,192,99134,1,0,0:0:0:0:
281,192,99134,1,0,0:0:0:0:
332,192,99247,1,0,0:0:0:0:
179,192,99247,1,0,0:0:0:0:
128,192,99360,1,0,0:0:0:0:
76,192,99360,1,0,0:0:0:0:
25,192,99360,1,0,0:0:0:0:
435,192,99360,1,0,0:0:0:0:
230,192,99473,1,0,0:0:0:0:
384,192,99473,1,0,0:0:0:0:
461,192,99585,1,0,0:0:0:0:
179,192,99585,1,0,0:0:0:0:
332,192,99585,1,0,0:0:0:0:
128,192,99585,1,0,0:0:0:0:
359,192,99698,1,0,0:0:0:0:
52,192,99698,1,0,0:0:0:0:
25,192,99811,1,0,0:0:0:0:
179,192,99811,1,0,0:0:0:0:
128,192,99811,1,0,0:0:0:0:
281,192,99811,1,0,0:0:0:0:
359,192,99924,1,0,0:0:0:0:
230,192,99924,1,0,0:0:0:0:
52,192,100036,1,0,0:0:0:0:
332,192,100036,1,0,0:0:0:0:
179,192,100036,1,0,0:0:0:0:
256,192,100149,1,0,0:0:0:0:
435,192,100149,1,0,0:0:0:0:
359,192,100262,1,0,0:0:0:0:
128,192,100262,1,0,0:0:0:0:
25,192,100262,1,0,0:0:0:0:
52,192,100375,1,0,0:0:0:0:
230,192,100375,1,0,0:0:0:0:
486,192,100375,1,0,0:0:0:0:
154,192,100488,1,0,0:0:0:0:
332,192,100488,1,0,0:0:0:0:
52,192,100600,1,0,0:0:0:0:
281,192,100600,1,0,0:0:0:0:
435,192,100600,1,0,0:0:0:0:
153,192,100713,1,0,0:0:0:0:
230,192,100713,1,0,0:0:0:0:
486,192,100713,1,0,0:0:0:0:
332,192,100713,1,0,0:0:0:0:
25,192,100713,1,0,0:0:0:0:
359,192,100826,1,0,0:0:0:0:
179,192,100826,1,0,0:0:0:0:
256,192,100939,1,0,0:0:0:0:
461,192,100939,1,0,0:0:0:0:
76,192,100939,1,0,0:0:0:0:
154,192,101051,1,0,0:0:0:0:
435,192,101051,1,0,0:0:0:0:
52,192,101164,1,2,0:0:0:0:
25,192,101164,1,0,0:0:0:0:
332,192,101164,1,0,0:0:0:0:
128,192,101164,1,0,0:0:0:0:
435,192,101277,1,0,0:0:0:0:
230,192,101277,1,0,0:0:0:0:
52,192,101390,1,0,0:0:0:0:
359,192,101390,1,0,0:0:0:0:
179,192,101390,1,0,0:0:0:0:
358,192,101503,1,0,0:0:0:0:
179,192,101503,1,0,0:0:0:0:
256,192,101615,1,8,0:0:0:0:
153,192,101615,1,0,0:0:0:0:
486,192,101615,1,0,0:0:0:0:
435,192,101615,1,0,0:0:0:0:
76,192,101728,1,0,0:0:0:0:
384,192,101728,1,0,0:0:0:0:
332,192,101841,1,0,0:0:0:0:
281,192,101841,1,0,0:0:0:0:
230,192,101841,1,0,0:0:0:0:
128,192,101841,1,0,0:0:0:0:
435,192,101954,1,0,0:0:0:0:
179,192,101954,1,0,0:0:0:0:
256,192,102066,1,0,0:0:0:0:
332,192,102066,1,0,0:0:0:0:
76,192,102066,1,0,0:0:0:0:
179,192,102179,1,0,0:0:0:0:
384,192,102179,1,0,0:0:0:0:
25,192,102179,1,0,0:0:0:0:
153,192,102292,1,0,0:0:0:0:
435,192,102292,1,0,0:0:0:0:
230,192,102292,1,0,0:0:0:0:
332,192,102292,1,0,0:0:0:0:
384,192,102405,1,0,0:0:0:0:
179,192,102405,1,0,0:0:0:0:
256,192,102518,1,8,0:0:0:0:
486,192,102518,1,0,0:0:0:0:
76,192,102518,1,0,0:0:0:0:
435,192,102574,1,0,0:0:0:0:
128,192,102574,1,0,0:0:0:0:
384,192,102630,1,0,0:0:0:0:
179,192,102630,1,0,0:0:0:0:
332,192,102687,1,0,0:0:0:0:
76,192,102743,1,0,0:0:0:0:
25,192,102800,1,0,0:0:0:0:
179,192,102856,1,0,0:0:0:0:
435,192,102856,1,0,0:0:0:0:
230,192,102912,1,0,0:0:0:0:
76,192,102969,1,2,0:0:0:0:
384,192,102969,1,0,0:0:0:0:
332,192,102969,1,0,0:0:0:0:
486,192,103082,1,0,0:0:0:0:
179,192,103082,1,0,0:0:0:0:
179,192,103307,1,0,0:0:0:0:
486,192,103307,1,0,0:0:0:0:
76,192,103420,1,2,0:0:0:0:
332,192,103420,1,0,0:0:0:0:
435,192,103420,1,0,0:0:0:0:
384,192,103420,1,0,0:0:0:0:
128,192,103589,1,0,0:0:0:0:
460,192,103645,1,0,0:0:0:0:
230,192,103645,1,0,0:0:0:0:
25,192,103702,1,0,0:0:0:0:
76,192,103758,1,0,0:0:0:0:
281,192,103758,1,0,0:0:0:0:
128,192,103815,1,0,0:0:0:0:
332,192,103815,1,0,0:0:0:0:
384,192,103871,1,0,0:0:0:0:
230,192,103871,1,0,0:0:0:0:
179,192,103927,1,0,0:0:0:0:
128,192,103984,1,0,0:0:0:0:
486,192,103984,1,0,0:0:0:0:
76,192,104040,1,0,0:0:0:0:
435,192,104040,1,0,0:0:0:0:
25,192,104097,1,0,0:0:0:0:
332,192,104097,1,0,0:0:0:0:
281,192,104097,1,0,0:0:0:0:
384,192,104097,1,0,0:0:0:0:
128,192,104153,1,0,0:0:0:0:
179,192,104209,1,0,0:0:0:0:
230,192,104266,1,0,0:0:0:0:
460,192,104322,1,2,0:0:0:0:
76,192,104322,1,8,0:0:0:0:
179,192,104322,1,0,0:0:0:0:
332,192,104322,1,0,0:0:0:0:
460,192,106127,1,4,0:0:0:0:
256,192,106127,1,8,0:0:0:0:
179,192,106127,1,0,0:0:0:0:
25,192,106127,1,0,0:0:0:0:
76,192,106352,1,0,0:0:0:0:
153,192,106465,1,0,0:0:0:0:
460,192,106578,1,2,0:0:0:0:
230,192,106578,1,0,0:0:0:0:
25,192,106578,1,0,0:0:0:0:
332,192,106578,1,0,0:0:0:0:
435,192,106803,1,0,0:0:0:0:
384,192,106916,1,0,0:0:0:0:
281,192,107029,1,0,0:0:0:0:
76,192,107029,1,0,0:0:0:0:
486,192,107029,1,0,0:0:0:0:
179,192,107029,1,0,0:0:0:0:
358,192,107254,1,8,0:0:0:0:
128,192,107254,1,0,0:0:0:0:
230,192,107367,1,0,0:0:0:0:
76,192,107480,1,0,0:0:0:0:
384,192,107480,1,0,0:0:0:0:
435,192,107480,1,0,0:0:0:0:
128,192,107480,1,0,0:0:0:0:
358,192,107706,1,8,0:0:0:0:
179,192,107706,1,0,0:0:0:0:
460,192,107931,1,8,0:0:0:0:
76,192,107931,1,0,0:0:0:0:
230,192,107931,1,0,0:0:0:0:
384,192,108157,1,0,0:0:0:0:
358,192,108269,1,0,0:0:0:0:
256,192,108382,1,2,0:0:0:0:
25,192,108382,1,0,0:0:0:0:
486,192,108382,1,0,0:0:0:0:
153,192,108608,1,0,0:0:0:0:
384,192,108608,1,0,0:0:0:0:
358,192,108833,1,8,0:0:0:0:
153,192,108833,1,0,0:0:0:0:
179,192,108833,1,0,0:0:0:0:
230,192,109059,1,0,0:0:0:0:
435,192,109059,1,0,0:0:0:0:
76,192,109172,1,0,0:0:0:0:
332,192,109172,1,0,0:0:0:0:
460,192,109285,1,2,0:0:0:0:
179,192,109285,1,0,0:0:0:0:
230,192,109285,1,0,0:0:0:0:
384,192,109454,1,0,0:0:0:0:
358,192,109510,1,8,0:0:0:0:
281,192,109566,1,0,0:0:0:0:
179,192,109623,1,0,0:0:0:0:
358,192,109736,1,8,0:0:0:0:
76,192,109736,1,0,0:0:0:0:
25,192,109736,1,0,0:0:0:0:
486,192,109736,1,0,0:0:0:0:
179,192,109961,1,0,0:0:0:0:
384,192,110074,1,0,0:0:0:0:
460,192,110187,1,0,0:0:0:0:
256,192,110187,1,2,0:0:0:0:
128,192,110187,1,0,0:0:0:0:
358,192,110412,1,8,0:0:0:0:
179,192,110412,1,0,0:0:0:0:
153,192,110638,1,0,0:0:0:0:
435,192,110638,1,0,0:0:0:0:
384,192,110638,1,0,0:0:0:0:
76,192,110638,1,0,0:0:0:0:
230,192,110863,1,0,0:0:0:0:
179,192,110863,1,0,0:0:0:0:
256,192,110976,1,0,0:0:0:0:
384,192,110976,1,0,0:0:0:0:
486,192,111089,1,0,0:0:0:0:
128,192,111089,1,0,0:0:0:0:
25,192,111089,1,0,0:0:0:0:
332,192,111315,1,0,0:0:0:0:
435,192,111315,1,0,0:0:0:0:
76,192,111427,1,0,0:0:0:0:
230,192,111427,1,0,0:0:0:0:
486,192,111540,1,0,0:0:0:0:
76,192,111540,1,0,0:0:0:0:
179,192,111540,1,0,0:0:0:0:
230,192,111766,1,0,0:0:0:0:
358,192,111879,1,0,0:0:0:0:
460,192,111991,1,0,0:0:0:0:
179,192,111991,1,0,0:0:0:0:
128,192,111991,1,0,0:0:0:0:
281,192,112217,1,0,0:0:0:0:
179,192,112330,1,0,0:0:0:0:
76,192,112442,1,0,0:0:0:0:
435,192,112442,1,0,0:0:0:0:
384,192,112442,1,0,0:0:0:0:
179,192,112668,1,0,0:0:0:0:
384,192,112668,1,0,0:0:0:0:
256,192,112781,1,0,0:0:0:0:
76,192,112781,1,0,0:0:0:0:
384,192,112894,1,0,0:0:0:0:
179,192,112894,1,0,0:0:0:0:
486,192,112894,1,0,0:0:0:0:
460,192,113119,1,0,0:0:0:0:
179,192,113119,1,0,0:0:0:0:
460,192,113232,1,0,0:0:0:0:
179,192,113232,1,0,0:0:0:0:
76,192,113345,1,0,0:0:0:0:
25,192,113345,1,0,0:0:0:0:
128,192,113401,1,0,0:0:0:0:
230,192,113457,1,0,0:0:0:0:
358,192,113683,1,0,0:0:0:0:
76,192,113796,1,0,0:0:0:0:
230,192,113796,1,0,0:0:0:0:
179,192,113796,1,0,0:0:0:0:
435,192,113796,1,0,0:0:0:0:
384,192,113796,1,0,0:0:0:0:
358,192,114021,1,8,0:0:0:0:
384,192,114021,1,0,0:0:0:0:
128,192,114021,1,0,0:0:0:0:
153,192,114247,1,0,0:0:0:0:
230,192,114247,1,0,0:0:0:0:
76,192,114247,1,0,0:0:0:0:
281,192,114247,1,0,0:0:0:0:
358,192,114473,1,8,0:0:0:0:
435,192,114473,1,0,0:0:0:0:
486,192,114473,1,0,0:0:0:0:
179,192,114473,1,0,0:0:0:0:
230,192,114585,1,0,0:0:0:0:
281,192,114698,1,0,0:0:0:0:
384,192,114698,1,0,0:0:0:0:
179,192,114698,1,0,0:0:0:0:
358,192,114924,1,8,0:0:0:0:
128,192,114924,1,0,0:0:0:0:
460,192,115149,1,8,0:0:0:0:
25,192,115149,1,0,0:0:0:0:
230,192,115149,1,0,0:0:0:0:
76,192,115375,1,0,0:0:0:0:
230,192,115488,1,0,0:0:0:0:
384,192,115600,1,0,0:0:0:0:
76,192,115600,1,0,0:0:0:0:
358,192,115826,1,0,0:0:0:0:
153,192,115826,1,8,0:0:0:0:
358,192,116051,1,0,0:0:0:0:
179,192,116051,1,0,0:0:0:0:
153,192,116277,1,8,0:0:0:0:
435,192,116277,1,0,0:0:0:0:
256,192,116390,1,0,0:0:0:0:
435,192,116503,1,0,0:0:0:0:
128,192,116503,1,0,0:0:0:0:
76,192,116503,1,0,0:0:0:0:
153,192,116728,1,8,0:0:0:0:
358,192,116728,1,0,0:0:0:0:
486,192,116954,1,0,0:0:0:0:
179,192,116954,1,0,0:0:0:0:
384,192,116954,1,0,0:0:0:0:
25,192,116954,1,0,0:0:0:0:
384,192,117179,1,0,0:0:0:0:
281,192,117292,1,0,0:0:0:0:
76,192,117405,1,0,0:0:0:0:
435,192,117405,1,0,0:0:0:0:
486,192,117405,1,0,0:0:0:0:
128,192,117405,1,0,0:0:0:0:
358,192,117630,1,8,0:0:0:0:
179,192,117630,1,0,0:0:0:0:
256,192,117743,1,0,0:0:0:0:
153,192,117856,1,0,0:0:0:0:
384,192,117856,1,0,0:0:0:0:
358,192,118082,1,8,0:0:0:0:
230,192,118082,1,0,0:0:0:0:
435,192,118082,1,0,0:0:0:0:
281,192,118194,1,0,0:0:0:0:
486,192,118307,1,0,0:0:0:0:
179,192,118307,1,0,0:0:0:0:
76,192,118307,1,0,0:0:0:0:
435,192,118533,1,0,0:0:0:0:
128,192,118533,1,0,0:0:0:0:
230,192,118645,1,0,0:0:0:0:
332,192,118645,1,0,0:0:0:0:
25,192,118758,1,0,0:0:0:0:
384,192,118758,1,0,0:0:0:0:
435,192,118758,1,0,0:0:0:0:
76,192,118984,1,0,0:0:0:0:
179,192,119097,1,0,0:0:0:0:
460,192,119209,1,0,0:0:0:0:
153,192,119209,1,2,0:0:0:0:
281,192,119209,1,0,0:0:0:0:
179,192,119435,1,0,0:0:0:0:
281,192,119548,1,0,0:0:0:0:
153,192,119660,1,2,0:0:0:0:
384,192,119660,1,0,0:0:0:0:
435,192,119660,1,0,0:0:0:0:
256,192,119886,1,8,0:0:0:0:
76,192,119886,1,0,0:0:0:0:
435,192,119886,1,0,0:0:0:0:
179,192,119999,1,0,0:0:0:0:
153,192,120112,1,2,0:0:0:0:
384,192,120112,1,0,0:0:0:0:
281,192,120112,1,0,0:0:0:0:
486,192,120337,1,0,0:0:0:0:
25,192,120337,1,0,0:0:0:0:
179,192,120337,1,0,0:0:0:0:
435,192,120394,1,0,0:0:0:0:
256,192,120450,1,0,0:0:0:0:
128,192,120450,1,0,0:0:0:0:
332,192,120506,1,0,0:0:0:0:
76,192,120506,1,0,0:0:0:0:
179,192,120563,1,0,0:0:0:0:
384,192,120563,1,0,0:0:0:0:
230,192,120563,1,0,0:0:0:0:
435,192,120563,1,0,0:0:0:0:
