osu file format v14

[General]
AudioFilename: audio.mp3
AudioLeadIn: 0
PreviewTime: 161324
Countdown: 0
SampleSet: Soft
StackLeniency: 0.7
Mode: 0
LetterboxInBreaks: 0
WidescreenStoryboard: 0

[Editor]
Bookmarks: 27574,54240,80907,94240,120907,147574,162574,189240,202574
DistanceSpacing: 0.5
BeatDivisor: 4
GridSize: 32
TimelineZoom: 1.7

[Metadata]
Title:loop
TitleUnicode:loop
Artist:la la larks
ArtistUnicode:la la larks
Creator:Gibune
Version:Insane
Source:
Tags:maid nightlys Jp japanese pop rock jrock j-rock j-pop school food punishment sfp culture vulture yumi Uchimura 内村友įžŽ
BeatmapID:2601115
BeatmapSetID:1251472

[Difficulty]
HPDrainRate:6.5
CircleSize:4
OverallDifficulty:8
ApproachRate:8.4
SliderMultiplier:1.6
SliderTickRate:1

[Events]
//Background and Video events
0,0,"bg.jpg",0,0
//Break Periods
//Storyboard Layer 0 (Background)
//Storyboard Layer 1 (Fail)
//Storyboard Layer 2 (Pass)
//Storyboard Layer 3 (Foreground)
//Storyboard Layer 4 (Overlay)
//Storyboard Sound Samples

[TimingPoints]
7574,416.666666666667,4,2,2,55,1,0
12990,-142.857142857143,4,2,2,50,0,0
14240,-100,4,2,2,65,0,0
14449,416.666666666667,4,2,2,55,1,0
27574,-111.111111111111,4,2,2,50,0,0
39657,-166.666666666666,4,2,2,50,0,0
40386,-111.111111111111,4,2,2,60,0,0
54240,-90.9090909090908,4,2,2,70,0,0
67157,-125,4,2,2,70,0,0
67574,-90.9090909090909,4,2,2,70,0,0
80907,-100,4,2,2,65,0,0
94240,-111.111111111111,4,2,2,50,0,0
107574,-111.111111111111,4,2,2,60,0,0
120907,-90.9090909090908,4,2,2,70,0,0
135490,-125,4,2,2,70,0,0
135907,-90.9090909090909,4,2,2,70,0,0
189240,-100,4,2,2,60,0,0
202574,-100,4,2,2,70,0,0
215490,392.156862745099,4,2,2,60,1,0
216666,-100,4,2,2,30,0,0
217058,397.350993377483,4,2,2,30,1,0
217455,428.571428571429,4,2,2,30,1,0
217883,397.350993377483,4,2,2,30,1,0
218282,410.958904109589,4,2,2,30,1,0
218692,428.571428571429,4,2,2,30,1,0
219120,499.999999999999,4,2,2,30,1,0
219620,666.666666666667,4,2,2,30,1,0
220286,863.309352517986,4,2,2,30,1,0

[Colours]
Combo1 : 255,163,102
Combo2 : 153,255,102
Combo3 : 128,255,255
Combo4 : 255,102,102

[HitObjects]
442,45,7574,5,4,1:2:0:0:
391,122,7783,2,0,L|295:112,1,80,0|0,0:1|1:0,0:0:0:0:
192,200,8199,1,0,0:0:0:0:
192,200,8407,2,0,L|271:191,1,80,0|0,1:0|0:0,0:0:0:0:
134,321,8824,2,0,L|25:310,1,80,0|0,1:0|0:0,0:0:0:0:
0,192,9240,5,0,1:2:0:0:
0,192,9657,1,0,1:0:0:0:
123,138,9865,1,0,3:0:0:0:
174,199,10074,1,0,1:0:0:0:
249,224,10282,1,0,3:0:0:0:
324,198,10490,1,2,1:3:0:0:
384,144,10699,1,0,3:0:0:0:
472,291,10907,6,0,P|395:280|325:317,1,160,0|0,1:0|1:0,0:0:0:0:
480,363,11532,1,0,3:0:0:0:
472,213,11740,2,0,L|456:115,1,80,0|0,1:0|0:0,0:0:0:0:
382,13,12157,1,0,1:0:0:0:
267,0,12365,1,4,3:0:0:0:
459,134,12574,5,4,1:0:0:0:
459,134,12990,2,2,P|423:121|377:180,1,111.999996582031,2|0,0:0|0:0,0:0:0:0:
325,266,13615,2,0,L|328:298,2,18.6666660970052,8|8|8,0:0|0:0|0:0,0:0:0:0:
308,256,13824,2,0,L|306:229,3,18.6666660970052,8|8|8|8,0:0|0:0|0:0|0:0,0:0:0:0:
209,199,14240,6,0,L|26:214,1,160,4|0,1:0|1:0,0:0:0:0:
169,279,14865,1,8,0:0:0:0:
223,126,15073,2,0,L|206:43,1,80,2|0,1:2|0:0,0:0:0:0:
188,26,15386,1,8,0:0:0:0:
188,26,15490,1,0,1:0:0:0:
388,74,15699,1,8,0:0:0:0:
309,16,15907,6,0,L|324:202,1,160,2|0,1:2|1:0,0:0:0:0:
254,307,16532,2,0,P|205:291|162:282,1,80,8|0,0:0|0:0,0:0:0:0:
47,226,16949,2,0,P|85:216|123:203,1,80,0|0,1:0|1:0,0:0:0:0:
189,16,17365,1,8,0:0:0:0:
116,43,17574,6,0,L|124:215,1,160,4|0,1:0|1:0,0:0:0:0:
250,111,18199,1,8,0:0:0:0:
323,165,18407,2,0,P|365:146|415:146,1,80,2|0,1:2|0:0,0:0:0:0:
419,125,18719,1,8,0:0:0:0:
419,125,18824,1,0,1:0:0:0:
261,21,19032,1,8,0:0:0:0:
323,165,19240,6,0,L|315:351,1,160,2|0,1:2|1:0,0:0:0:0:
398,269,19865,1,8,0:0:0:0:
240,210,20073,1,0,3:0:0:0:
82,269,20282,1,0,1:0:0:0:
168,362,20490,1,8,0:0:0:0:
182,355,20594,1,8,0:0:0:0:
198,349,20698,1,8,0:0:0:0:
198,349,20907,6,0,B|107:327|142:388|45:368,1,160,4|0,1:0|1:0,0:0:0:0:
11,189,21532,1,8,0:0:0:0:
70,246,21740,2,0,L|184:233,1,80,2|0,1:2|0:0,0:0:0:0:
171,218,22053,1,8,0:0:0:0:
171,218,22157,1,0,1:0:0:0:
291,159,22365,1,8,0:0:0:0:
141,53,22574,6,0,P|227:56|315:23,1,160,2|0,1:2|1:0,0:0:0:0:
417,77,23199,1,8,0:0:0:0:
483,19,23407,1,0,3:0:0:0:
435,164,23615,1,8,0:0:0:0:
440,195,23719,1,8,0:0:0:0:
445,226,23824,1,8,0:0:0:0:
450,257,23928,1,0,1:0:0:0:
440,287,24032,1,0,1:0:0:0:
443,306,24136,1,0,1:0:0:0:
447,325,24240,6,0,B|389:315|389:315|346:327|346:327|271:313,1,160,4|0,1:0|1:0,0:0:0:0:
150,188,24865,1,8,0:0:0:0:
234,232,25074,2,0,L|223:128,1,80,2|0,1:2|0:0,0:0:0:0:
246,134,25386,1,8,0:0:0:0:
246,134,25490,1,0,1:0:0:0:
151,58,25699,1,8,0:0:0:0:
0,161,25907,6,0,P|73:133|159:166,1,160,4|0,1:0|1:0,0:0:0:0:
26,229,26532,1,8,0:0:0:0:
21,65,26740,1,0,1:0:0:0:
43,31,26844,1,0,1:0:0:0:
77,10,26949,1,0,1:0:0:0:
116,5,27053,1,0,1:0:0:0:
153,17,27157,1,0,1:0:0:0:
190,40,27261,1,0,1:0:0:0:
233,36,27365,1,8,0:0:0:0:
374,55,27574,6,0,B|314:28|271:61|224:31,1,143.999995605469,4|0,1:2|1:0,0:0:0:0:
113,95,28199,1,8,0:0:0:0:
221,174,28407,1,0,1:0:0:0:
127,269,28615,2,0,L|296:289,1,143.999995605469,2|8,0:0|0:0,0:0:0:0:
415,337,29240,6,0,P|381:270|388:176,1,143.999995605469,2|2,1:2|1:2,0:0:0:0:
476,104,29865,1,8,0:0:0:0:
476,104,30281,1,2,1:2:0:0:
389,130,30490,1,2,1:2:0:0:
407,25,30698,1,10,0:0:0:0:
458,209,30906,5,2,1:2:0:0:
458,209,31323,1,0,1:0:0:0:
316,177,31532,1,8,0:0:0:0:
264,44,31740,2,0,L|430:21,1,143.999995605469,0|0,1:0|1:0,0:0:0:0:
512,138,32365,1,8,0:0:0:0:
458,209,32573,6,0,L|472:337,1,107.999996704102,0|0,1:0|0:0,0:0:0:0:
487,333,32990,1,0,1:0:0:0:
353,382,33198,1,8,0:0:0:0:
353,382,33615,1,0,1:0:0:0:
257,344,33824,1,0,1:0:0:0:
160,378,34032,1,8,0:0:0:0:
259,242,34240,6,0,B|228:148|289:183|264:73,1,143.999995605469,0|0,1:0|1:0,0:0:0:0:
331,200,34865,1,10,0:0:0:0:
193,122,35073,1,0,1:0:0:0:
122,179,35282,2,0,P|51:155|25:96,1,143.999995605469,2|8,3:2|0:0,0:0:0:0:
0,241,35907,6,0,L|10:400,1,143.999995605469,2|0,1:2|1:0,0:0:0:0:
131,326,36532,1,8,0:0:0:0:
131,326,36740,1,2,3:2:0:0:
138,247,36949,1,0,1:0:0:0:
217,254,37157,1,0,1:0:0:0:
210,333,37365,1,10,0:0:0:0:
59,240,37574,6,0,L|79:79,1,143.999995605469,2|0,1:2|1:0,0:0:0:0:
200,9,38198,1,8,0:0:0:0:
261,69,38407,2,0,L|430:48,1,143.999995605469,0|0,1:0|1:0,0:0:0:0:
475,183,39032,1,8,3:2:0:0:
506,7,39240,5,6,1:2:0:0:
506,7,39657,2,2,B|460:-2|437:101|385:90,1,143.999995605469,0|0,0:0|1:0,0:0:0:0:
383,64,40386,1,0,1:0:0:0:
380,99,40490,1,8,0:0:0:0:
376,134,40594,1,8,0:0:0:0:
372,170,40699,1,8,0:0:0:0:
372,170,40907,6,0,P|291:156|212:151,1,143.999995605469,4|0,1:2|1:0,0:0:0:0:
116,88,41532,2,0,P|162:79|194:72,1,71.9999978027344,10|0,0:0|0:0,0:0:0:0:
292,69,41949,1,2,1:2:0:0:
229,151,42157,1,0,1:0:0:0:
292,233,42365,1,8,0:0:0:0:
202,336,42574,6,0,P|159:330|102:323,1,71.9999978027344,2|0,1:2|0:0,0:0:0:0:
3,249,42990,2,0,P|38:244|74:239,1,71.9999978027344,2|8,1:2|0:0,0:0:0:0:
121,128,43407,1,0,3:0:0:0:
217,98,43615,1,0,1:0:0:0:
240,0,43824,1,0,1:0:0:0:
144,30,44032,1,10,0:0:0:0:
314,68,44240,6,0,P|387:53|481:70,1,143.999995605469,2|0,1:2|1:0,0:0:0:0:
488,165,44865,1,8,0:0:0:0:
488,165,45282,1,0,1:0:0:0:
497,265,45490,1,0,1:0:0:0:
506,365,45698,1,10,0:0:0:0:
297,329,45907,6,0,L|451:319,1,143.999995605469,2|0,1:2|1:0,0:0:0:0:
297,329,46531,1,8,0:0:0:0:
286,192,46739,1,0,3:0:0:0:
286,192,46844,1,0,3:0:0:0:
286,192,46948,2,0,L|293:110,1,71.9999978027344,2|0,1:2|1:0,0:0:0:0:
191,27,47365,1,10,0:0:0:0:
123,83,47574,6,0,L|131:250,1,143.999995605469,2|0,1:2|1:0,0:0:0:0:
164,347,48199,1,8,0:0:0:0:
164,347,48615,2,0,P|219:355|257:362,1,71.9999978027344,0|0,1:0|1:0,0:0:0:0:
371,280,49032,1,10,0:0:0:0:
303,219,49240,6,0,L|316:47,1,143.999995605469,2|0,1:2|1:0,0:0:0:0:
202,113,49865,1,8,0:0:0:0:
109,24,50073,1,2,3:2:0:0:
109,24,50281,2,0,L|22:35,1,71.9999978027344,2|0,1:2|1:0,0:0:0:0:
28,172,50699,1,10,0:0:0:0:
202,113,50907,6,0,P|274:102|353:121,1,143.999995605469,6|2,1:2|1:2,0:0:0:0:
359,156,51428,1,2,0:2:0:0:
401,165,51532,1,10,0:2:0:0:
266,242,51741,5,0,1:0:0:0:
185,245,51949,1,10,0:0:0:0:
232,89,52157,5,2,1:2:0:0:
226,327,52366,1,8,0:0:0:0:
404,81,52574,6,0,L|246:68,1,143.999995605469,4|8,1:2|0:0,0:0:0:0:
100,96,53199,1,8,0:0:0:0:
33,163,53407,2,0,L|41:238,1,71.9999978027344,0|8,1:0|0:0,0:0:0:0:
222,205,53824,2,0,L|214:280,1,71.9999978027344,2|0,1:3|0:0,0:0:0:0:
58,159,54240,6,2,B|153:154|115:220|223:204,1,176.000005371094,6|2,1:0|1:0,0:1:0:0:
367,251,54865,1,8,0:0:0:0:
500,175,55074,2,0,L|486:77,1,88.000002685547,2|0,3:1|1:0,0:0:0:0:
367,251,55491,2,0,L|353:349,1,88.000002685547,2|8,1:0|0:0,0:0:0:0:
166,237,55907,6,2,P|185:171|197:65,1,176.000005371094,2|2,1:0|1:0,0:1:0:0:
312,4,56532,1,8,0:0:0:0:
421,72,56740,1,2,0:1:0:0:
343,174,56948,1,2,1:0:0:0:
348,190,57053,1,8,0:0:0:0:
353,206,57157,1,2,1:2:0:0:
436,163,57365,1,10,0:1:0:0:
197,64,57574,6,2,L|18:80,1,176.000005371094,2|2,1:0|1:0,0:1:0:0:
128,246,58199,1,8,0:0:0:0:
157,236,58304,1,0,3:0:0:0:
343,347,58511,1,0,3:0:0:0:
312,341,58615,1,0,1:0:0:0:
429,187,58824,1,0,1:0:0:0:
260,89,59032,1,8,0:0:0:0:
312,341,59240,6,0,L|318:180,1,132.00000402832,0|0,1:2|3:0,0:0:0:0:
337,186,59657,1,0,1:0:0:0:
469,36,59865,2,0,P|477:90|486:141,1,88.000002685547,8|0,0:0|0:0,0:0:0:0:
425,268,60282,1,8,0:0:0:0:
425,268,60386,1,8,0:0:0:0:
425,268,60490,1,0,1:0:0:0:
299,122,60699,1,10,0:1:0:0:
469,36,60907,6,2,L|281:15,1,176.000005371094,2|2,1:0|1:0,0:1:0:0:
117,91,61532,1,8,0:0:0:0:
212,252,61740,1,0,1:0:0:0:
214,269,61844,1,0,1:0:0:0:
216,286,61949,2,0,L|112:295,1,88.000002685547,0|0,1:0|1:0,0:0:0:0:
299,122,62365,1,10,0:1:0:0:
457,323,62574,6,2,P|376:288|285:336,1,176.000005371094,2|0,1:0|1:0,0:1:0:0:
128,293,63199,2,0,P|119:243|104:190,1,88.000002685547,8|0,0:0|0:0,0:0:0:0:
137,30,63615,1,0,1:0:0:0:
215,195,63824,1,2,1:0:0:0:
2,159,64032,1,10,0:1:0:0:
74,106,64240,6,0,L|255:123,1,176.000005371094,6|0,1:0|1:0,0:0:0:0:
463,44,64865,1,8,0:0:0:0:
368,2,65074,2,0,L|384:199,1,176.000005371094,2|2,1:0|1:0,0:0:0:0:
454,348,65699,1,8,0:0:0:0:
264,247,65907,6,2,B|207:240|207:240|158:278|158:278|87:268,1,176.000005371094,6|0,1:0|1:0,0:1:0:0:
109,304,66428,1,8,0:0:0:0:
125,334,66532,1,8,0:0:0:0:
154,353,66636,1,0,1:0:0:0:
186,365,66741,1,2,1:0:0:0:
221,365,66845,1,0,1:0:0:0:
255,355,66949,1,0,1:0:0:0:
454,348,67157,2,0,P|405:334|369:322,1,64,2|8,1:0|0:0,0:0:0:0:
188,134,67574,6,2,P|287:124|343:49,1,176.000005371094,6|2,1:0|1:0,0:1:0:0:
112,28,68199,1,8,0:0:0:0:
40,81,68407,2,0,L|46:277,1,176.000005371094,2|2,3:1|1:0,0:0:0:0:
246,235,69032,1,8,0:0:0:0:
102,373,69241,6,2,P|161:333|249:343,1,132.00000402832,2|0,1:0|0:0,0:1:0:0:
242,358,69657,1,2,1:0:0:0:
424,256,69866,1,8,0:0:0:0:
264,159,70074,1,2,1:0:0:0:
395,27,70281,1,0,3:0:0:0:
435,44,70386,1,8,0:0:0:0:
476,58,70490,1,0,1:0:0:0:
344,207,70699,1,10,0:1:0:0:
196,43,70907,6,2,L|9:28,1,176.000005371094,6|2,1:0|1:0,0:1:0:0:
4,222,71532,1,8,0:0:0:0:
31,213,71636,1,0,3:0:0:0:
186,271,71844,1,0,3:0:0:0:
160,267,71948,1,0,1:0:0:0:
231,149,72157,1,0,1:0:0:0:
344,207,72365,1,8,0:0:0:0:
474,46,72574,6,0,L|489:165,1,88.000002685547,0|0,1:0|3:0,0:0:0:0:
473,162,72886,1,0,3:0:0:0:
473,162,72990,1,0,1:0:0:0:
419,314,73199,1,8,0:0:0:0:
325,180,73406,1,2,1:0:0:0:
474,46,73614,1,0,3:0:0:0:
439,50,73719,1,8,0:0:0:0:
404,57,73824,1,2,1:0:0:0:
212,15,74032,1,14,0:1:0:0:
48,118,74240,6,2,B|149:108|103:182|221:166,1,176.000005371094,6|0,1:0|1:0,0:1:0:0:
56,209,74865,1,8,0:0:0:0:
212,15,75073,2,0,L|310:28,1,88.000002685547,2|0,3:1|1:0,0:0:0:0:
450,140,75490,2,0,L|352:153,1,88.000002685547,2|8,1:0|0:0,0:0:0:0:
189,294,75907,6,0,L|392:320,1,176.000005371094,2|2,1:0|1:0,0:0:0:0:
489,227,76532,1,8,0:0:0:0:
412,52,76740,1,0,3:0:0:0:
412,52,76844,1,0,3:0:0:0:
412,52,76949,1,2,1:0:0:0:
287,186,77157,1,2,1:0:0:0:
450,140,77365,1,10,0:1:0:0:
188,31,77574,6,2,L|167:225,1,176.000005371094,6|0,1:0|1:0,0:1:0:0:
262,358,78199,1,8,0:0:0:0:
344,313,78407,2,0,L|444:326,1,88.000002685547,2|0,3:1|1:0,0:0:0:0:
256,194,78824,2,0,L|168:205,1,88.000002685547,2|8,1:0|0:0,0:0:0:0:
426,21,79240,6,2,B|473:55|416:157|499:183,1,176.000005371094,6|2,1:0|1:0,0:1:0:0:
331,229,79865,1,8,0:0:0:0:
193,142,80074,2,0,L|204:46,1,88.000002685547,2|0,1:0|1:0,0:0:0:0:
5,176,80490,1,8,0:0:0:0:
48,179,80595,1,8,0:0:0:0:
83,204,80699,1,8,0:0:0:0:
101,243,80803,1,8,0:0:0:0:
97,286,80907,6,0,B|191:274|146:338|265:327,1,160,6|0,1:2|1:0,0:0:0:0:
372,301,81532,1,8,0:0:0:0:
490,354,81740,2,0,L|497:259,1,80,2|0,1:2|0:0,0:0:0:0:
508,248,82053,1,0,3:0:0:0:
508,248,82157,1,0,1:0:0:0:
381,141,82365,1,8,0:0:0:0:
309,195,82574,6,0,L|147:180,1,160,2|0,1:2|1:0,0:0:0:0:
4,107,83198,2,0,P|54:99|87:88,1,80,8|0,0:0|0:0,0:0:0:0:
98,67,83510,1,0,3:0:0:0:
98,67,83615,1,0,3:0:0:0:
195,44,83823,1,0,1:0:0:0:
292,21,84031,1,8,0:0:0:0:
449,93,84240,6,0,P|385:122|373:220,1,160,2|0,1:2|1:0,0:0:0:0:
443,310,84865,1,8,0:0:0:0:
321,357,85074,1,2,1:2:0:0:
239,268,85282,1,0,3:0:0:0:
239,268,85386,1,8,0:0:0:0:
239,268,85491,2,0,L|140:283,1,80,0|8,1:0|0:0,0:0:0:0:
6,139,85907,6,0,L|185:148,1,160,2|0,1:2|1:0,0:0:0:0:
159,279,86532,1,8,0:0:0:0:
57,349,86741,1,0,3:0:0:0:
261,349,86949,1,0,1:0:0:0:
300,344,87053,1,8,0:0:0:0:
340,340,87157,1,0,1:0:0:0:
363,318,87262,1,0,1:0:0:0:
394,314,87366,1,0,1:0:0:0:
426,310,87470,1,0,1:0:0:0:
457,306,87574,6,0,P|440:235|442:127,1,160,4|0,1:2|1:0,0:0:0:0:
337,58,88199,1,8,0:0:0:0:
215,122,88407,2,0,L|222:229,1,80,2|0,1:2|0:0,0:0:0:0:
236,224,88720,1,8,0:0:0:0:
236,224,88824,1,0,1:0:0:0:
296,179,89033,1,8,0:0:0:0:
132,138,89240,6,0,P|54:117|39:29,1,160,2|0,1:2|1:0,0:0:0:0:
195,12,89865,2,0,L|281:21,1,80,8|0,0:0|0:0,0:0:0:0:
388,89,90282,1,2,1:3:0:0:
296,179,90490,1,2,0:0:0:0:
298,206,90594,1,2,0:0:0:0:
300,234,90698,1,8,0:0:0:0:
302,262,90802,1,8,0:0:0:0:
305,290,90907,6,0,P|396:278|472:277,1,160,4|0,1:2|1:0,0:0:0:0:
367,114,91532,1,8,0:0:0:0:
296,179,91740,2,0,L|197:188,1,80,2|0,1:2|0:0,0:0:0:0:
191,172,92053,1,8,0:0:0:0:
191,172,92157,1,0,1:0:0:0:
149,300,92365,1,8,0:0:0:0:
21,344,92574,6,0,P|9:232|0:169,1,160,4|0,1:2|1:0,0:0:0:0:
70,45,93199,1,8,0:0:0:0:
163,164,93408,1,0,3:0:0:0:
237,14,93615,1,0,1:0:0:0:
276,9,93719,1,0,1:0:0:0:
314,20,93824,1,0,1:0:0:0:
344,46,93928,1,0,1:0:0:0:
362,81,94032,1,8,0:0:0:0:
362,81,94240,6,0,B|344:121|344:121|358:179|358:179|340:247,1,143.999995605469,4|0,1:2|1:0,0:0:0:0:
287,315,94865,2,0,P|240:323|187:336,1,71.9999978027344,10|0,0:0|1:0,0:0:0:0:
99,229,95282,2,0,P|146:237|199:250,1,71.9999978027344,2|0,0:0|1:0,0:0:0:0:
347,218,95699,1,10,0:0:0:0:
288,159,95907,6,0,P|246:139|213:80,1,107.999996704102,2|0,1:2|0:0,0:0:0:0:
225,64,96324,2,0,L|228:31,2,23.9999992675781,0|0|0,1:0|0:0|0:0,0:0:0:0:
268,67,96532,1,8,0:0:0:0:
400,29,96740,2,0,L|493:21,1,71.9999978027344,2|0,0:0|1:0,0:0:0:0:
502,103,97157,1,0,1:0:0:0:
375,185,97365,1,10,0:0:0:0:
446,232,97574,6,0,L|458:397,1,143.999995605469,2|0,1:2|1:0,0:0:0:0:
306,286,98199,1,8,0:0:0:0:
245,341,98407,2,0,L|90:326,1,143.999995605469,0|0,1:0|1:0,0:0:0:0:
27,224,99032,1,8,0:0:0:0:
151,149,99240,6,0,P|138:192|128:225,1,71.9999978027344,0|0,1:0|0:0,0:0:0:0:
248,212,99657,1,0,1:0:0:0:
348,160,99865,1,8,0:0:0:0:
447,232,100074,1,0,3:0:0:0:
447,232,100178,1,0,3:0:0:0:
447,232,100282,1,0,1:0:0:0:
327,181,100490,1,0,1:0:0:0:
467,90,100699,1,8,0:0:0:0:
321,13,100907,6,0,L|166:26,1,143.999995605469,4|0,1:2|1:0,0:0:0:0:
68,92,101532,2,0,P|77:132|80:166,1,71.9999978027344,10|0,0:0|1:0,0:0:0:0:
150,242,101949,1,2,3:2:0:0:
251,219,102157,1,0,1:0:0:0:
247,116,102365,1,8,0:0:0:0:
217,302,102573,6,0,P|160:321|108:354,1,107.999996704102,2|0,1:2|0:0,0:0:0:0:
120,370,102990,1,0,1:0:0:0:
0,239,103198,2,0,P|47:244|90:249,1,71.9999978027344,8|0,0:0|3:0,0:0:0:0:
90,230,103511,1,0,3:0:0:0:
90,230,103615,1,0,1:0:0:0:
155,160,103824,1,0,1:0:0:0:
251,161,104032,1,10,0:0:0:0:
412,103,104240,6,0,P|383:168|376:242,1,143.999995605469,6|0,1:2|1:0,0:0:0:0:
451,351,104866,1,8,0:0:0:0:
307,291,105074,1,0,1:0:0:0:
460,220,105282,1,0,3:0:0:0:
465,206,105387,1,0,3:0:0:0:
469,192,105491,1,0,1:0:0:0:
331,72,105699,1,10,0:0:0:0:
256,133,105907,6,0,L|113:115,1,143.999995605469,6|0,1:2|0:0,0:0:0:0:
47,26,106532,2,0,L|0:20,2,47.9999985351563,8|8|8,0:0|0:0|0:0,0:0:0:0:
150,34,106948,1,8,0:0:0:0:
185,26,107052,1,8,0:0:0:0:
220,19,107157,1,0,1:0:0:0:
255,11,107261,1,0,1:0:0:0:
283,17,107365,1,0,1:0:0:0:
311,23,107469,1,0,1:0:0:0:
338,30,107574,6,0,P|410:67|468:23,1,143.999995605469,4|0,1:2|1:0,0:0:0:0:
477,162,108199,2,0,L|486:241,1,71.9999978027344,10|0,0:0|0:0,0:0:0:0:
370,338,108616,2,0,L|378:266,1,71.9999978027344,2|0,1:2|1:0,0:0:0:0:
304,165,109032,1,8,0:0:0:0:
151,256,109240,6,0,L|303:246,1,143.999995605469,2|0,1:2|1:0,0:0:0:0:
192,332,109865,1,8,0:0:0:0:
152,174,110073,1,0,3:0:0:0:
156,160,110178,1,0,3:0:0:0:
161,146,110282,1,2,1:2:0:0:
56,32,110490,1,2,1:2:0:0:
23,195,110698,1,10,0:0:0:0:
148,53,110907,6,0,L|305:67,1,143.999995605469,2|0,1:2|1:0,0:0:0:0:
311,201,111532,2,0,P|265:185|221:175,1,71.9999978027344,8|0,0:0|0:0,0:0:0:0:
143,286,111949,2,0,P|177:276|211:264,1,71.9999978027344,0|0,1:0|1:0,0:0:0:0:
379,363,112365,1,10,0:0:0:0:
452,324,112574,6,0,L|464:161,1,143.999995605469,2|0,1:2|1:0,0:0:0:0:
406,58,113199,2,0,L|325:66,1,71.9999978027344,8|0,0:0|0:0,0:0:0:0:
236,167,113615,1,2,1:2:0:0:
120,176,113824,1,2,1:2:0:0:
173,95,114032,1,10,0:0:0:0:
183,248,114240,6,0,P|109:280|47:318,1,143.999995605469,6|0,1:2|1:0,0:0:0:0:
186,359,114865,2,0,P|229:363|258:368,1,71.9999978027344,8|0,0:0|0:0,0:0:0:0:
352,288,115282,1,0,1:0:0:0:
430,300,115490,1,0,1:0:0:0:
508,312,115699,1,10,0:0:0:0:
468,163,115907,6,0,L|387:170,1,71.9999978027344,2|0,1:2|0:0,0:0:0:0:
292,98,116324,1,0,1:0:0:0:
396,26,116532,2,0,L|467:32,1,71.9999978027344,8|0,0:0|0:0,0:0:0:0:
396,169,116949,1,2,1:2:0:0:
292,98,117157,1,2,1:2:0:0:
117,176,117365,1,10,0:0:0:0:
197,112,117574,6,0,L|203:230,1,107.999996704102,6|0,1:2|0:0,0:0:0:0:
187,256,117990,1,0,1:0:0:0:
153,276,118094,1,0,3:0:0:0:
116,291,118199,1,8,0:0:0:0:
265,357,118407,1,0,3:0:0:0:
202,219,118615,1,0,1:0:0:0:
122,370,118824,1,0,1:0:0:0:
285,236,119032,1,8,0:0:0:0:
53,120,119240,6,0,L|205:111,1,143.999995605469,4|8,1:2|0:0,0:0:0:0:
316,27,119865,1,8,0:0:0:0:
462,138,120073,1,0,1:0:0:0:
512,73,120281,1,8,0:0:0:0:
348,146,120490,1,0,1:0:0:0:
348,146,120560,1,0,1:0:0:0:
348,146,120629,1,0,1:0:0:0:
348,146,120699,1,0,1:0:0:0:
275,166,120907,6,2,B|182:158|223:232|98:210,1,176.000005371094,6|2,1:0|1:0,0:1:0:0:
47,332,121532,1,8,0:0:0:0:
108,381,121741,2,0,L|197:364,1,88.000002685547,2|0,3:1|1:0,0:0:0:0:
391,308,122157,2,0,L|304:291,1,88.000002685547,2|8,1:0|0:0,0:0:0:0:
100,174,122574,6,2,L|285:166,1,176.000005371094,2|2,1:0|1:0,0:1:0:0:
460,108,123199,1,8,0:0:0:0:
291,13,123407,1,2,0:1:0:0:
303,146,123615,1,2,1:0:0:0:
303,146,123719,1,8,0:0:0:0:
303,146,123824,1,2,1:2:0:0:
100,174,124032,1,10,0:1:0:0:
172,238,124240,6,2,L|179:60,1,176.000005371094,2|2,1:0|1:0,0:1:0:0:
347,23,124865,1,8,0:0:0:0:
373,35,124969,1,0,3:0:0:0:
479,184,125178,1,0,3:0:0:0:
451,177,125282,1,0,1:0:0:0:
361,298,125490,1,0,0:0:0:0:
224,170,125699,1,8,0:0:0:0:
156,230,125907,6,0,L|65:245,1,88.000002685547,0|0,1:2|0:0,0:0:0:0:
214,76,126324,2,0,L|305:91,1,88.000002685547,0|8,1:0|0:0,0:0:0:0:
466,209,126741,1,0,0:0:0:0:
340,367,126949,1,0,1:0:0:0:
296,359,127053,1,8,0:0:0:0:
253,349,127157,1,0,1:0:0:0:
256,221,127365,1,10,0:1:0:0:
488,383,127574,6,2,L|465:201,1,176.000005371094,6|2,1:0|1:0,0:1:0:0:
506,12,128199,1,8,0:0:0:0:
454,79,128408,2,0,L|340:62,1,88.000002685547,0|0,1:0|1:0,0:0:0:0:
258,165,128824,1,0,1:0:0:0:
191,15,129032,1,10,0:1:0:0:
15,183,129240,6,2,P|96:205|128:296,1,176.000005371094,2|0,1:0|1:0,0:1:0:0:
28,363,129865,1,8,0:0:0:0:
220,360,130074,1,0,3:0:0:0:
235,351,130178,1,8,0:0:0:0:
250,342,130282,1,0,1:0:0:0:
328,204,130490,1,2,1:0:0:0:
250,62,130699,1,10,0:1:0:0:
203,139,130907,6,0,L|52:116,1,132.00000402832,6|0,1:0|0:0,0:0:0:0:
72,119,131324,2,0,L|73:229,1,88.000002685547,2|8,1:0|0:0,0:0:0:0:
170,334,131740,2,0,P|221:324|281:313,1,88.000002685547,2|0,1:0|0:0,0:0:0:0:
443,273,132157,2,0,P|399:264|356:256,1,88.000002685547,0|8,1:0|0:0,0:0:0:0:
72,119,132574,6,2,P|160:132|214:60,1,176.000005371094,6|0,1:0|1:0,0:1:0:0:
246,69,133095,1,8,0:0:0:0:
276,51,133199,1,8,0:0:0:0:
310,47,133303,1,0,1:0:0:0:
344,55,133407,1,2,1:0:0:0:
373,74,133511,1,0,1:0:0:0:
392,103,133615,1,0,1:0:0:0:
458,359,133824,2,0,L|442:272,1,88.000002685547,2|8,1:0|0:0,0:0:0:0:
186,343,134240,6,2,L|-7:326,1,176.000005371094,6|2,1:0|1:0,0:1:0:0:
169,177,134865,1,8,0:0:0:0:
221,235,135074,2,0,L|318:243,1,88.000002685547,2|0,3:1|1:0,0:0:0:0:
223,53,135490,2,0,B|182:57|182:57|112:38,1,96,12|0,0:0|0:0,0:0:0:0:
129,42,135907,6,2,B|233:30|189:89|301:64,1,176.000005371094,6|2,1:0|1:0,0:1:0:0:
494,37,136531,1,8,0:0:0:0:
476,217,136740,2,0,L|384:228,1,88.000002685547,2|0,1:0|3:0,0:0:0:0:
308,360,137157,1,0,1:0:0:0:
207,216,137365,1,10,0:1:0:0:
298,64,137574,6,2,L|309:247,1,176.000005371094,6|2,1:0|1:0,0:1:0:0:
216,358,138199,1,8,0:0:0:0:
189,361,138303,1,0,3:0:0:0:
165,190,138511,1,0,3:0:0:0:
192,183,138616,1,0,1:0:0:0:
48,251,138824,1,0,1:0:0:0:
24,362,139032,1,8,0:0:0:0:
192,183,139240,6,0,P|261:165|340:177,1,132.00000402832,0|0,1:0|3:0,0:0:0:0:
320,170,139658,2,0,L|332:70,1,88.000002685547,0|8,1:0|0:0,0:0:0:0:
402,195,140074,1,2,1:0:0:0:
252,64,140282,1,0,3:0:0:0:
212,58,140387,1,8,0:0:0:0:
172,53,140491,1,2,1:0:0:0:
126,212,140699,1,10,0:1:0:0:
0,40,140907,6,2,L|196:54,1,176.000005371094,6|2,1:0|1:0,0:1:0:0:
192,78,141427,1,0,3:0:0:0:
192,78,141532,1,8,0:0:0:0:
354,7,141740,1,2,3:1:0:0:
319,190,141949,1,2,1:0:0:0:
499,128,142157,1,2,1:0:0:0:
302,93,142365,1,8,0:0:0:0:
380,328,142574,6,0,P|442:336|486:344,1,88.000002685547,2|0,1:0|0:0,0:0:0:0:
272,242,142990,1,0,1:0:0:0:
208,300,143198,2,0,P|146:308|102:316,1,88.000002685547,8|0,0:0|3:0,0:0:0:0:
97,331,143511,1,0,3:0:0:0:
97,331,143615,1,2,1:0:0:0:
171,158,143823,1,2,1:0:0:0:
10,42,144032,1,10,0:1:0:0:
96,9,144240,6,2,L|83:217,1,176.000005371094,6|0,1:0|1:0,0:1:0:0:
309,283,144865,1,8,0:0:0:0:
226,323,145073,2,0,L|241:133,1,176.000005371094,2|2,3:1|1:0,0:0:0:0:
412,7,145698,1,8,0:0:0:0:
467,262,145907,6,2,P|384:242|308:282,1,176.000005371094,6|0,1:0|1:0,0:1:0:0:
489,353,146532,1,8,0:0:0:0:
467,170,146740,1,2,1:0:0:0:
447,130,146844,1,0,1:0:0:0:
411,103,146948,1,8,0:0:0:0:
369,89,147053,1,8,0:0:0:0:
325,84,147157,1,8,0:0:0:0:
285,106,147261,1,8,0:0:0:0:
242,117,147365,1,8,0:0:0:0:
198,112,147469,1,8,0:0:0:0:
161,86,147574,6,2,P|99:69|56:178,1,176.000005371094,6|0,1:0|1:0,0:1:0:0:
134,259,148199,1,8,0:0:0:0:
266,210,148407,1,0,3:0:0:0:
389,280,148615,1,0,1:0:0:0:
257,329,148824,1,2,1:0:0:0:
398,161,149032,1,10,0:1:0:0:
166,0,149240,6,2,L|178:184,1,176.000005371094,2|0,1:0|1:0,0:1:0:0:
296,321,149865,2,0,L|291:369,1,44.0000013427735,8|0,0:0|0:0,0:0:0:0:
186,315,150074,2,0,P|133:307|95:291,1,88.000002685547,2|0,3:1|1:0,0:0:0:0:
33,127,150490,1,0,1:0:0:0:
177,175,150699,1,8,0:0:0:0:
321,127,150907,6,0,L|474:142,1,132.00000402832,6|0,1:0|0:0,0:0:0:0:
452,139,151324,1,2,1:0:0:0:
391,265,151532,1,8,0:0:0:0:
439,281,151636,1,2,0:1:0:0:
467,240,151740,1,4,1:0:0:0:
397,18,151949,1,2,3:1:0:0:
196,150,152157,2,2,P|205:222|206:298,1,132.00000402832,0|0,1:0|0:0,0:1:0:0:
229,310,152574,5,6,1:0:0:0:
140,69,152782,2,2,P|94:68|37:80,1,88.000002685547,2|0,0:1|1:0,0:1:0:0:
0,196,153095,2,0,L|51:186,1,44.0000013427735,2|8,0:1|0:0,0:0:0:0:
353,201,153407,2,2,B|274:193|303:307|212:312,1,176.000005371094,2|0,3:1|0:0,0:1:0:0:
184,310,153928,1,8,0:0:0:0:
140,304,154032,1,8,0:0:0:0:
96,296,154136,1,8,0:0:0:0:
52,289,154241,5,4,1:0:0:0:
52,289,154657,2,0,L|45:233,1,44.0000013427735,2|0,1:0|0:0,0:0:0:0:
150,147,154866,2,0,L|144:190,1,44.0000013427735,8|0,0:0|0:0,0:0:0:0:
53,109,155074,1,2,3:1:0:0:
262,49,155282,2,0,B|306:47|349:56,2,88.000002685547,0|0|10,1:0|1:0|0:1,0:0:0:0:
342,295,155907,6,2,P|406:299|485:287,1,132.00000402832,2|2,0:1|0:1,0:1:0:0:
505,182,156323,2,0,L|451:200,1,44.0000013427735,2|0,1:0|0:0,0:0:0:0:
379,179,156531,1,8,0:0:0:0:
509,13,156740,2,2,B|412:-4|437:66|335:37,1,176.000005371094,2|2,1:0|1:3,0:1:0:0:
125,128,157365,1,10,0:1:0:0:
304,301,157574,6,0,L|155:318,1,132.00000402832,6|0,1:0|0:0,0:0:0:0:
151,343,157991,1,0,1:0:0:0:
288,137,158199,1,8,0:0:0:0:
288,137,158303,2,0,L|336:142,1,44.0000013427735,2|0,0:1|3:0,0:0:0:0:
133,40,158616,2,0,L|122:147,1,88.000002685547,2|2,1:0|1:3,0:0:0:0:
191,194,158928,2,0,L|181:246,1,44.0000013427735,2|8,0:1|0:0,0:0:0:0:
14,384,159241,6,2,L|7:195,1,176.000005371094,6|2,1:0|1:3,0:1:0:0:
133,40,159866,1,8,0:0:0:0:
333,107,160074,2,2,L|318:315,1,176.000005371094,2|0,1:0|1:0,0:1:0:0:
475,365,160699,1,12,0:0:0:0:
475,365,161116,5,0,0:0:0:0:
438,192,161324,2,0,L|431:242,1,44.0000013427735,0|0,1:0|0:0,0:0:0:0:
399,54,161636,1,8,0:0:0:0:
389,20,161740,1,8,0:0:0:0:
306,137,161949,2,0,L|262:127,2,29.3333342285157,8|8|8,0:0|0:0|0:0,0:0:0:0:
341,149,162157,2,0,L|369:142,2,29.3333342285157,8|8|8,0:0|0:0|0:0,0:0:0:0:
328,187,162365,2,0,L|326:218,2,22.0000006713867,10|2|2,0:0|0:0|0:0,0:0:0:0:
257,236,162574,6,2,B|167:227|200:295|68:286,1,176.000005371094,6|2,1:0|1:0,0:1:0:0:
261,356,163199,1,8,0:0:0:0:
98,173,163408,1,2,3:1:0:0:
94,155,163512,1,8,0:0:0:0:
91,137,163615,1,0,1:0:0:0:
214,49,163824,1,2,1:0:0:0:
348,110,164032,1,8,0:0:0:0:
512,12,164240,6,2,L|357:8,1,132.00000402832,2|0,1:0|0:0,0:1:0:0:
380,8,164657,2,0,P|385:68|386:120,1,88.000002685547,2|8,1:0|0:0,0:0:0:0:
471,245,165074,1,2,1:1:0:0:
297,194,165282,1,2,1:0:0:0:
255,209,165386,1,8,0:0:0:0:
218,233,165490,1,2,1:2:0:0:
413,312,165699,1,10,0:1:0:0:
471,245,165907,6,2,L|457:57,1,176.000005371094,6|0,1:0|1:0,0:1:0:0:
378,20,166428,1,0,3:0:0:0:
378,20,166532,2,0,L|310:15,1,44.0000013427735,10|0,0:1|0:0,0:0:0:0:
241,66,166740,1,0,3:0:0:0:
390,186,166949,1,0,1:0:0:0:
211,271,167157,2,0,L|112:260,1,88.000002685547,0|8,1:0|0:0,0:0:0:0:
18,75,167574,6,0,P|108:72|168:16,1,176.000005371094,0|0,1:2|1:0,0:0:0:0:
306,130,168199,1,8,0:0:0:0:
123,191,168407,1,0,1:0:0:0:
270,342,168615,1,8,0:0:0:0:
280,299,168719,1,8,0:0:0:0:
286,255,168824,1,0,1:0:0:0:
362,91,169032,1,10,0:1:0:0:
445,334,169240,6,2,L|252:342,1,176.000005371094,6|2,1:0|1:0,0:1:0:0:
108,261,169865,2,0,P|62:268|-2:284,1,88.000002685547,8|0,0:0|1:0,0:0:0:0:
161,375,170282,1,0,1:0:0:0:
251,252,170490,1,0,1:0:0:0:
161,129,170699,1,10,0:1:0:0:
351,6,170907,6,2,L|482:14,1,132.00000402832,2|0,1:0|0:0,0:1:0:0:
482,14,171324,2,0,P|476:62|473:104,1,88.000002685547,0|8,1:0|0:0,0:0:0:0:
448,281,171740,1,0,3:0:0:0:
287,183,171949,1,0,1:0:0:0:
244,194,172053,1,8,0:0:0:0:
201,204,172157,1,2,1:0:0:0:
11,81,172366,1,10,0:1:0:0:
66,25,172574,6,0,L|242:14,1,176.000005371094,6|0,1:0|1:0,0:0:0:0:
390,138,173199,1,8,0:0:0:0:
314,197,173407,2,0,L|327:291,1,88.000002685547,2|0,1:0|0:0,0:0:0:0:
155,191,173824,2,0,L|168:97,1,88.000002685547,0|8,1:0|0:0,0:0:0:0:
11,310,174241,6,2,B|60:298|60:298|125:335|125:335|185:316,1,176.000005371094,6|0,1:0|1:0,0:1:0:0:
196,346,174762,1,8,0:0:0:0:
225,327,174866,1,8,0:0:0:0:
257,314,174970,1,8,0:0:0:0:
292,310,175074,1,2,1:0:0:0:
326,317,175178,1,0,1:0:0:0:
357,332,175282,1,0,1:0:0:0:
512,218,175490,2,0,P|452:207|414:201,1,88.000002685547,2|8,1:0|0:0,0:0:0:0:
203,61,175907,6,2,L|390:40,1,176.000005371094,6|2,1:0|1:0,0:1:0:0:
334,227,176532,1,8,0:0:0:0:
262,188,176740,2,0,L|160:207,1,88.000002685547,2|0,3:1|0:0,0:0:0:0:
19,341,177157,2,0,L|121:360,1,88.000002685547,0|8,1:0|0:0,0:0:0:0:
352,307,177574,6,2,L|148:292,1,176.000005371094,6|2,1:0|1:0,0:1:0:0:
18,144,178199,1,8,0:0:0:0:
237,80,178407,2,0,L|251:176,1,88.000002685547,2|0,1:0|3:0,0:0:0:0:
71,261,178824,1,0,1:0:0:0:
139,67,179033,2,0,L|135:23,1,44.0000013427735,10|0,0:1|0:0,0:0:0:0:
215,7,179241,6,2,B|270:-1|318:52|395:20,1,176.000005371094,6|2,1:0|1:0,0:1:0:0:
508,182,179866,2,0,P|452:172|405:167,1,88.000002685547,8|0,0:0|0:0,0:0:0:0:
263,285,180283,1,0,1:0:0:0:
263,285,180387,1,8,0:0:0:0:
263,285,180491,1,0,1:0:0:0:
470,341,180699,1,8,0:0:0:0:
512,263,180908,6,0,L|329:248,1,176.000005371094,4|0,1:0|1:0,0:0:0:0:
181,96,181532,1,8,0:0:0:0:
246,32,181740,5,2,1:0:0:0:
196,244,181948,1,0,3:0:0:0:
196,244,182053,1,8,0:0:0:0:
196,244,182157,1,2,1:0:0:0:
5,162,182365,2,0,L|58:153,1,44.0000013427735,10|0,0:1|0:0,0:0:0:0:
111,86,182573,6,2,L|258:107,1,132.00000402832,6|0,1:0|0:0,0:1:0:0:
255,132,182990,1,0,1:0:0:0:
166,310,183198,1,8,0:0:0:0:
98,264,183407,2,0,L|85:167,1,88.000002685547,2|0,3:1|1:0,0:0:0:0:
253,17,183824,2,0,L|240:114,1,88.000002685547,2|8,1:0|0:0,0:0:0:0:
384,262,184240,6,0,L|494:254,1,88.000002685547,2|0,1:0|0:0,0:0:0:0:
321,384,184657,2,0,L|233:377,1,88.000002685547,0|8,1:0|0:0,0:0:0:0:
86,252,185074,1,0,3:0:0:0:
82,234,185178,1,0,3:0:0:0:
78,216,185282,1,2,1:0:0:0:
246,100,185490,1,2,1:0:0:0:
214,288,185699,1,10,0:1:0:0:
420,119,185907,6,2,L|239:99,1,176.000005371094,6|0,1:0|1:0,0:1:0:0:
62,20,186531,1,8,0:0:0:0:
1,72,186740,2,0,L|10:177,1,88.000002685547,2|0,3:1|1:0,0:0:0:0:
65,259,187156,1,2,1:0:0:0:
161,195,187365,1,8,0:0:0:0:
416,298,187573,6,2,L|435:137,1,132.00000402832,6|0,1:0|0:0,0:1:0:0:
457,149,187990,1,0,1:0:0:0:
362,21,188198,1,8,0:0:0:0:
267,146,188406,5,2,1:0:0:0:
228,167,188510,1,0,1:0:0:0:
184,170,188615,1,8,0:0:0:0:
147,145,188719,1,8,0:0:0:0:
114,114,188823,1,8,0:0:0:0:
70,109,188927,1,8,0:0:0:0:
29,125,189031,1,8,0:0:0:0:
10,164,189135,1,8,0:0:0:0:
17,207,189240,6,0,P|63:262|41:351,1,160,6|0,1:2|1:0,0:0:0:0:
221,266,189865,1,8,0:0:0:0:
257,341,190074,2,0,L|425:331,1,160,2|0,1:2|1:0,0:0:0:0:
459,152,190699,1,8,0:0:0:0:
389,210,190907,6,0,L|244:196,1,120,2|0,1:2|0:0,0:0:0:0:
247,216,191324,1,0,1:0:0:0:
366,131,191532,1,8,0:0:0:0:
364,285,191740,1,0,3:0:0:0:
355,323,191844,1,0,3:0:0:0:
347,362,191949,1,0,1:0:0:0:
221,292,192157,1,0,1:0:0:0:
101,368,192365,1,8,0:0:0:0:
3,218,192574,6,0,P|83:197|138:129,1,160,2|0,1:2|1:0,0:0:0:0:
270,22,193199,1,8,0:0:0:0:
346,63,193408,2,0,L|337:170,1,80,2|0,1:2|3:0,0:0:0:0:
319,162,193720,1,0,3:0:0:0:
319,162,193824,1,0,1:0:0:0:
462,109,194033,1,8,0:0:0:0:
506,262,194241,6,0,L|382:244,1,120,2|0,1:2|0:0,0:0:0:0:
387,244,194658,2,0,P|378:291|374:343,1,80,0|8,1:0|0:0,0:0:0:0:
217,351,195074,1,0,3:0:0:0:
157,209,195282,1,0,1:0:0:0:
150,248,195386,1,0,3:0:0:0:
143,287,195490,1,0,1:0:0:0:
179,271,195594,1,0,1:0:0:0:
214,252,195698,1,0,1:0:0:0:
248,232,195802,1,0,1:0:0:0:
282,212,195907,6,0,L|410:197,1,120,4|0,1:2|0:0,0:0:0:0:
424,214,196323,1,0,1:0:0:0:
353,109,196532,1,8,0:0:0:0:
234,68,196740,2,0,L|124:76,1,80,2|0,1:2|0:0,0:0:0:0:
134,94,197052,1,8,0:0:0:0:
134,94,197157,1,0,1:0:0:0:
11,18,197365,1,8,0:0:0:0:
0,194,197573,6,0,L|180:202,1,160,2|0,1:2|1:0,0:0:0:0:
305,280,198198,1,8,0:0:0:0:
305,280,198615,1,2,1:3:0:0:
433,369,198824,1,0,3:0:0:0:
464,344,198928,1,8,0:0:0:0:
483,308,199032,1,8,0:0:0:0:
485,268,199136,1,8,0:0:0:0:
468,231,199240,5,4,1:2:0:0:
468,231,199657,1,0,1:0:0:0:
344,173,199865,1,8,0:0:0:0:
237,259,200074,2,0,L|327:270,1,80,2|0,1:2|0:0,0:0:0:0:
330,292,200386,1,8,0:0:0:0:
330,292,200490,1,0,1:0:0:0:
175,360,200699,1,8,0:0:0:0:
34,279,200907,6,0,L|22:150,1,120,14|8,1:2|0:0,0:0:0:0:
40,137,201324,1,0,1:0:0:0:
208,38,201532,1,12,0:0:0:0:
268,204,201740,1,10,0:0:0:0:
268,204,201844,1,8,0:0:0:0:
268,204,201949,1,2,1:2:0:0:
268,204,202053,1,8,0:0:0:0:
268,204,202157,2,0,L|270:248,1,40,10|2,0:0|1:2,0:0:0:0:
225,362,202365,1,0,1:0:0:0:
225,362,202469,1,0,1:0:0:0:
225,362,202574,5,4,1:2:0:0:
55,307,202782,1,2,0:0:0:0:
31,303,202886,1,2,0:0:0:0:
7,300,202990,1,0,1:0:0:0:
176,226,203199,1,10,0:0:0:0:
235,281,203407,2,0,L|349:266,1,80,4|2,1:2|0:0,0:0:0:0:
474,243,203824,1,2,0:0:0:0:
474,243,203928,1,0,1:0:0:0:
474,243,204032,1,8,0:0:0:0:
389,99,204240,6,0,L|385:197,1,80,6|0,1:2|0:0,0:0:0:0:
397,200,204553,1,2,0:0:0:0:
397,200,204657,1,0,1:0:0:0:
279,102,204865,1,8,0:0:0:0:
279,102,205282,1,0,1:0:0:0:
224,183,205490,1,8,0:0:0:0:
196,179,205594,1,8,0:0:0:0:
168,176,205699,1,8,0:0:0:0:
140,173,205803,1,8,0:0:0:0:
112,170,205907,6,0,L|119:279,1,80,4|2,1:2|0:0,0:0:0:0:
11,55,206324,2,0,L|63:42,1,40,0|0,1:0|0:0,0:0:0:0:
122,82,206531,1,8,0:0:0:0:
277,7,206740,2,0,L|171:2,1,80,2|0,1:2|0:0,0:0:0:0:
187,25,207053,1,8,0:0:0:0:
187,25,207157,1,0,1:0:0:0:
357,121,207365,1,8,0:0:0:0:
419,172,207574,6,0,L|411:275,1,80,4|2,1:2|0:0,0:0:0:0:
427,270,207887,1,8,0:0:0:0:
427,270,207991,1,0,1:0:0:0:
251,373,208199,2,0,L|242:327,1,40,8|0,0:0|0:0,0:0:0:0:
315,305,208407,2,0,L|318:260,1,40,0|0,1:0|1:0,0:0:0:0:
279,200,208615,5,0,1:0:0:0:
273,176,208719,1,0,1:0:0:0:
268,152,208823,1,0,1:0:0:0:
262,128,208927,1,0,1:0:0:0:
244,111,209031,1,8,0:0:0:0:
237,96,209136,1,8,0:0:0:0:
232,80,209240,6,0,L|403:63,1,160,6|2,1:2|1:2,0:0:0:0:
270,0,209865,1,8,0:0:0:0:
158,81,210074,2,0,L|39:89,1,120,6|0,1:2|0:0,0:0:0:0:
24,69,210490,1,2,1:2:0:0:
132,212,210699,1,8,0:0:0:0:
67,260,210907,6,0,L|78:384,1,120,6|0,1:2|0:0,0:0:0:0:
77,379,211324,1,0,1:0:0:0:
231,284,211532,1,8,0:0:0:0:
231,284,211949,1,2,1:3:0:0:
269,295,212053,1,8,0:0:0:0:
308,299,212157,1,0,1:0:0:0:
346,289,212262,1,0,1:0:0:0:
372,259,212366,1,0,1:0:0:0:
381,220,212470,1,0,1:0:0:0:
374,180,212574,6,0,L|514:173,1,120,4|0,1:2|0:0,0:0:0:0:
487,201,212991,1,0,1:0:0:0:
477,170,213095,1,2,0:0:0:0:
466,139,213199,1,8,0:0:0:0:
237,115,213407,2,0,L|67:106,1,160,4|0,1:2|1:0,0:0:0:0:
60,129,213928,1,2,0:0:0:0:
60,129,214032,1,8,0:0:0:0:
288,236,214240,6,0,P|241:241|153:329,1,160,4|8,1:2|0:0,0:0:0:0:
188,340,214761,1,8,0:0:0:0:
226,350,214865,1,0,1:0:0:0:
263,362,214969,1,0,1:0:0:0:
301,375,215074,1,0,1:0:0:0:
291,344,215178,1,0,1:0:0:0:
281,313,215282,1,4,1:2:0:0:
281,313,215490,5,4,1:0:0:0:
316,275,216666,1,0,0:0:0:0:
371,197,217058,1,0,0:0:0:0:
344,116,217455,1,0,0:0:0:0:
271,97,217883,1,0,0:0:0:0:
214,137,218282,1,0,0:0:0:0:
204,189,218692,1,0,0:0:0:0:
211,240,219120,1,0,0:0:0:0:
226,270,219620,1,0,0:0:0:0:
242,285,220286,1,0,0:0:0:0:
252,293,221149,1,0,0:0:0:0:
