osu file format v14

[General]
AudioFilename: audio.mp3
AudioLeadIn: 0
PreviewTime: 33264
Countdown: 0
SampleSet: Soft
StackLeniency: 1
Mode: 0
LetterboxInBreaks: 0
WidescreenStoryboard: 1

[Editor]
Bookmarks: 1110,11322,21535,34301,54727,64939,75152,85205
DistanceSpacing: 1.5
BeatDivisor: 4
GridSize: 32
TimelineZoom: 2.9

[Metadata]
Title:ego-izm (TV Size)
TitleUnicode:ego-izm (TV Size)
Artist:la la larks
ArtistUnicode:la la larks
Creator:Sharpay
Version:shayks' har-d
Source:M3~ソノ黒キ鋼~
Tags:lalalarks sfp school food punishment yumi uchimura egoizm egoism tetsu dark metal sono kuroki hagane ending ed japanese anime normal hard insane extra reconsider zekk shayks maot xahlt kuon- gweon sua jrock rock
BeatmapID:3666829
BeatmapSetID:1788476

[Difficulty]
HPDrainRate:5
CircleSize:3.6
OverallDifficulty:6
ApproachRate:8
SliderMultiplier:1.42
SliderTickRate:1

[Events]
//Background and Video events
0,0,"bg.jpg",0,0
//Break Periods
//Storyboard Layer 0 (Background)
//Storyboard Layer 1 (Fail)
//Storyboard Layer 2 (Pass)
//Storyboard Layer 3 (Foreground)
//Storyboard Layer 4 (Overlay)
//Storyboard Sound Samples

[TimingPoints]
1110,319.148936170213,4,2,21,40,1,0
1110,-125,4,2,21,40,0,0
11322,-125,4,2,21,50,0,0
11721,-125,4,2,21,5,0,0
11801,-125,4,2,21,50,0,0
21535,-111.111111111111,4,2,21,60,0,0
23370,-111.111111111111,4,2,21,5,0,0
23450,-111.111111111111,4,2,21,60,0,0
24008,-111.111111111111,4,2,21,5,0,0
24088,-111.111111111111,4,2,21,60,0,0
27519,-111.111111111111,4,2,21,5,0,0
27599,-111.111111111111,4,2,21,60,0,0
29115,-111.111111111111,4,2,21,5,0,0
29195,-111.111111111111,4,2,21,70,0,0
32546,-111.111111111111,4,2,21,65,0,0
32705,-111.111111111111,4,2,21,5,0,0
32785,-111.111111111111,4,2,21,65,0,0
32945,-111.111111111111,4,2,21,5,0,0
33024,-111.111111111111,4,2,21,65,0,0
33184,-111.111111111111,4,2,21,5,0,0
33344,-111.111111111111,4,2,21,40,0,0
34301,-99.9999999999999,4,2,21,70,0,0
35498,-99.9999999999999,4,2,21,5,0,0
35578,-99.9999999999999,4,2,21,70,0,0
39328,-99.9999999999999,4,2,21,5,0,0
39407,-99.9999999999999,4,2,21,70,0,0
40604,-99.9999999999999,4,2,21,5,0,0
40684,-99.9999999999999,4,2,21,70,0,0
41562,-99.9999999999999,4,2,21,5,0,0
41641,-99.9999999999999,4,2,21,70,0,0
45711,-99.9999999999999,4,2,21,5,0,0
45790,-99.9999999999999,4,2,21,70,0,0
49860,-99.9999999999999,4,2,21,5,0,0
49939,-99.9999999999999,4,2,21,70,0,0
50817,-99.9999999999999,4,2,21,5,0,0
50897,-99.9999999999999,4,2,21,70,0,0
51774,-99.9999999999999,4,2,21,5,0,0
51854,-99.9999999999999,4,2,21,70,0,0
55923,-99.9999999999999,4,2,21,5,0,0
56003,-99.9999999999999,4,2,21,70,0,0
56881,-99.9999999999999,4,2,21,5,0,0
56961,-99.9999999999999,4,2,21,70,0,0
58157,-99.9999999999999,4,2,21,5,0,0
58237,-99.9999999999999,4,2,21,70,0,0
59753,-99.9999999999999,4,2,21,5,0,0
59833,-99.9999999999999,4,2,21,70,0,0
61030,-99.9999999999999,4,2,21,5,0,0
61110,-99.9999999999999,4,2,21,70,0,0
61987,-99.9999999999999,4,2,21,5,0,0
62067,-99.9999999999999,4,2,21,70,0,0
63104,-99.9999999999999,4,2,21,5,0,0
63184,-99.9999999999999,4,2,21,70,0,0
63583,-99.9999999999999,4,2,21,5,0,0
63663,-99.9999999999999,4,2,21,70,0,0
65817,-99.9999999999999,4,2,21,5,0,0
65897,-99.9999999999999,4,2,21,70,0,0
69966,-99.9999999999999,4,2,21,5,0,0
70046,-99.9999999999999,4,2,21,70,0,0
70764,-99.9999999999999,4,2,21,5,0,0
70844,-99.9999999999999,4,2,21,70,0,0
71242,-99.9999999999999,4,2,21,5,0,0
71322,-99.9999999999999,4,2,21,70,0,0
71881,-99.9999999999999,4,2,21,5,0,0
71961,-99.9999999999999,4,2,21,70,0,0
72519,-99.9999999999999,4,2,21,5,0,0
72599,-99.9999999999999,4,2,21,70,0,0
74115,-99.9999999999999,4,2,21,5,0,0
74195,-99.9999999999999,4,2,21,70,0,0
75152,-111.111111111111,4,2,21,55,0,0
75870,-111.111111111111,4,2,21,5,0,0
75950,-111.111111111111,4,2,21,55,0,0
76349,-111.111111111111,4,2,21,5,0,0
76429,-111.111111111111,4,2,21,55,0,0
77625,-111.111111111111,4,2,21,5,0,0
77705,-111.111111111111,4,2,21,55,0,0
78423,-111.111111111111,4,2,21,5,0,0
78503,-111.111111111111,4,2,21,55,0,0
78902,-111.111111111111,4,2,21,5,0,0
78982,-111.111111111111,4,2,21,55,0,0
80179,-111.111111111111,4,2,21,5,0,0
80258,-111.111111111111,4,2,21,55,0,0
81774,-111.111111111111,4,2,21,5,0,0
81854,-111.111111111111,4,2,21,55,0,0
82732,-111.111111111111,4,2,21,5,0,0
82812,-111.111111111111,4,2,21,55,0,0

[Colours]
Combo1 : 255,128,64
Combo2 : 128,128,192
Combo3 : 199,84,84
Combo4 : 135,216,133

[HitObjects]
67,119,1110,6,0,P|125:122|199:128,1,113.6,2|0,0:0|0:0,0:0:0:0:
252,180,1588,1,2,0:0:0:0:
252,180,1748,2,0,L|257:255,2,56.8,0|0|2,0:0|0:0|0:3,0:0:0:0:
288,102,2227,1,0,0:0:0:0:
355,41,2386,6,0,P|391:55|408:129,1,113.6,2|0,3:2|0:0,0:0:0:0:
377,206,2865,1,2,0:0:0:0:
377,206,3024,2,0,P|378:237|381:283,1,56.8
392,347,3344,2,0,P|365:360|323:347,1,56.8,2|0,0:1|0:0,0:0:0:0:
267,310,3663,6,0,P|209:315|145:322,1,113.6,2|0,0:0|0:0,0:0:0:0:
76,367,4141,1,2,0:0:0:0:
76,367,4301,2,0,L|5:372,2,56.8,0|0|2,0:0|0:0|0:0,0:0:0:0:
153,320,4780,1,0,0:0:0:0:
18,175,5099,5,2,0:0:0:0:
67,92,5258,2,0,P|125:98|189:105,1,113.6,2|2,0:0|0:0,0:0:0:0:
248,154,5737,1,0,0:0:0:0:
368,33,6056,1,2,0:0:0:0:
368,33,6375,6,0,P|400:73|380:143,1,113.6,2|2,0:0|3:2,0:0:0:0:
304,157,6854,1,0,0:0:0:0:
304,157,7014,2,0,L|227:152,2,56.8,0|2|2,0:0|0:3|0:0,0:0:0:0:
362,218,7492,5,0,0:0:0:0:
425,275,7652,2,0,P|369:281|298:287,1,113.6
232,309,8131,1,0,0:0:0:0:
232,309,8290,2,0,P|244:342|284:361,2,56.8,0|0|2,3:0|0:0|0:3,0:0:0:0:
243,224,8769,6,0,L|124:236,1,113.6,0|0,3:0|0:0,0:0:0:0:
64,289,9248,1,2,3:0:0:0:
64,289,9407,2,0,P|47:268|44:232,1,56.8
85,166,9727,1,2,0:0:0:0:
85,166,9886,1,0,0:0:0:0:
256,192,10046,12,2,11003,0:3:0:0:
77,81,11322,6,0,B|114:63|152:82|142:101|183:120|222:96,1,142,10|0,0:3|0:0,0:0:0:0:
223,90,11801,2,0,P|284:96|341:101,1,113.6,2|0,0:0|0:0,0:0:0:0:
411,139,12280,6,0,P|434:166|395:245,1,113.6,2|0,1:2|0:0,0:0:0:0:
372,307,12758,1,0,0:0:0:0:
372,307,12918,2,0,P|374:338|377:369,2,56.8
296,255,13397,2,0,P|267:259|232:265,1,56.8,2|2,0:0|1:2,0:0:0:0:
165,315,13716,1,0,0:0:0:0:
71,294,13875,6,0,P|47:252|70:182,1,113.6,2|0,3:2|0:0,0:0:0:0:
128,138,14354,1,2,0:0:0:0:
54,74,14514,2,0,P|84:66|132:52,1,56.8,2|0,0:0|0:0,0:0:0:0:
195,16,14833,1,2,1:2:0:0:
195,16,14992,1,2,0:0:0:0:
343,139,15312,5,2,1:2:0:0:
420,195,15471,2,0,P|415:227|409:273,1,56.8,2|0,0:2|0:0,0:0:0:0:
380,342,15790,2,0,L|454:370,2,56.8,2|2|0,0:2|1:2|0:0,0:0:0:0:
327,274,16269,1,2,0:2:0:0:
258,334,16429,6,0,P|212:352|145:320,1,113.6,10|0,0:3|0:0,0:0:0:0:
98,266,16907,2,0,P|95:210|88:128,1,113.6
31,75,17386,6,0,P|77:45|144:62,1,113.6,2|0,0:0|3:0,0:0:0:0:
196,110,17865,2,0,L|192:177,2,56.8,0|0|0,0:0|0:0|3:2,0:0:0:0:
276,75,18344,1,0,0:0:0:0:
276,75,18503,2,0,L|279:9,2,56.8
328,142,18982,6,0,P|372:151|397:132,1,56.8,8|0,0:3|0:0,0:0:0:0:
465,107,19301,1,0,0:0:0:0:
465,107,19461,2,0,L|449:240,1,113.6
436,309,19939,1,0,0:0:0:0:
346,349,20099,1,0,0:0:0:0:
212,225,20418,5,2,0:1:0:0:
307,243,20578,1,2,0:1:0:0:
131,345,20897,1,2,0:1:0:0:
30,292,21056,1,2,0:1:0:0:
13,56,21535,6,0,B|53:42|79:57|71:72|92:89|157:72,1,127.799996099854,6|0,3:1|3:0,0:0:0:0:
207,15,22014,1,2,0:1:0:0:
253,98,22173,2,0,P|283:103|324:95,1,63.8999980499268,0|0,3:0|0:0,0:0:0:0:
381,19,22492,6,2,P|425:23|463:106,1,127.799996099854,2|0,1:1|3:0,0:1:0:0:
400,168,22971,1,0,0:0:0:0:
485,223,23131,2,0,P|480:269|472:343,1,95.8499970748902,0|2,1:0|0:2,0:0:0:0:
470,337,23450,2,0,P|426:327|401:343,1,63.8999980499268,0|0,1:0|0:0,0:0:0:0:
323,376,23769,2,0,P|273:372|221:365,1,95.8499970748902,0|0,1:0|0:0,0:0:0:0:
214,353,24088,6,0,P|200:315|221:283,1,63.8999980499268,2|0,3:1|0:0,0:0:0:0:
274,225,24407,1,2,1:2:0:0:
274,225,24567,2,0,P|267:161|257:90,1,127.799996099854,2|2,3:1|0:0,0:0:0:0:
204,26,25046,6,2,P|143:5|75:42,1,127.799996099854,2|2,1:1|3:2,0:2:0:0:
15,91,25524,1,2,1:0:0:0:
81,168,25684,2,0,P|68:230|54:296,1,127.799996099854,0|0,1:0|1:0,0:0:0:0:
5,375,26163,1,0,0:0:0:0:
100,373,26322,2,0,P|147:375|171:359,1,63.8999980499268,0|2,1:0|1:2,0:0:0:0:
208,284,26641,6,0,P|274:295|349:307,1,127.799996099854,6|0,3:1|1:0,0:0:0:0:
415,356,27120,2,0,P|452:331|451:251,1,127.799996099854,2|2,3:1|0:0,0:0:0:0:
419,170,27599,2,0,L|434:91,1,63.8999980499268,2|0,1:1|0:0,0:0:0:0:
475,21,27918,6,0,P|442:15|411:30,1,63.8999980499268,0|0,3:0|0:0,0:0:0:0:
347,94,28237,2,0,P|313:90|277:87,1,63.8999980499268,2|2,3:2|0:0,0:0:0:0:
202,60,28556,1,0,3:0:0:0:
202,60,28716,1,0,3:0:0:0:
111,28,28875,2,0,P|121:76|130:130,1,95.8499970748902,12|0,1:2|0:0,0:0:0:0:
128,148,29195,5,8,1:1:0:0:
79,234,29354,2,0,P|107:248|120:298,1,63.8999980499268,8|0,1:0|3:0,0:0:0:0:
201,329,29673,1,8,1:1:0:0:
269,254,29833,1,8,1:0:0:0:
269,254,29992,1,0,3:0:0:0:
357,305,30152,6,0,P|378:270|341:193,1,127.799996099854,12|0,1:1|1:0,0:0:0:0:
282,129,30631,1,0,1:0:0:0:
282,129,30711,1,0,1:0:0:0:
282,129,30790,2,0,P|254:132|223:137,3,31.9499990249634,0|0|0|0,1:0|1:0|1:0|1:0,0:0:0:0:
240,139,31110,2,0,P|217:136|195:133,3,31.9499990249634,0|0|0|0,1:0|1:0|1:0|1:0,0:0:0:0:
195,131,31429,2,0,P|169:135|142:143,3,31.9499990249634,0|0|0|0,1:0|1:0|1:0|1:0,0:0:0:0:
152,151,31748,6,0,P|158:200|165:255,2,95.8499970748902,14|6|6,3:1|3:1|3:1,0:0:0:0:
38,95,32546,6,0,P|43:48|49:-1,2,95.8499970748902,8|8|8,1:0|1:0|1:0,0:0:0:0:
29,345,34301,6,0,B|62:318|103:333|95:351|134:368|178:333,1,142,6|0,3:1|3:0,0:0:0:0:
245,275,34780,2,0,P|282:280|320:289,1,71,10|0,1:0|0:0,0:0:0:0:
397,355,35099,1,2,0:0:0:0:
487,305,35258,2,0,P|462:256|496:189,1,106.5,10|0,1:1|0:0,0:0:0:0:
491,192,35578,6,0,P|487:153|482:117,1,71,0|0,3:0|0:0,0:0:0:0:
420,34,35897,2,0,P|383:33|347:44,1,71,0|8,3:0|1:0,0:0:0:0:
246,66,36216,2,0,P|263:114|281:171,2,106.5,2|2|10,3:2|1:2|1:0,0:0:0:0:
161,0,36854,6,0,P|110:20|98:117,1,142,6|0,3:1|3:0,0:0:0:0:
120,200,37333,1,8,1:0:0:0:
49,288,37492,2,0,P|85:294|137:303,1,71,2|0,3:0|0:0,0:0:0:0:
139,301,37732,1,2,1:2:0:0:
139,301,37812,1,8,1:0:0:0:
219,359,37971,1,2,1:2:0:0:
269,264,38131,6,0,B|305:249|342:258|334:282|363:300|408:278,1,142,6|0,3:1|3:0,0:0:0:0:
497,341,38610,2,0,P|485:259|476:173,1,142,8|0,1:0|0:0,0:0:0:0:
507,90,39088,2,0,P|474:75|418:110,1,106.5,10|8,1:0|1:1,0:0:0:0:
417,126,39407,6,0,P|379:127|338:124,1,71,6|2,3:1|0:2,0:0:0:0:
260,71,39727,1,0,3:0:0:0:
174,120,39886,2,0,P|161:158|181:205,1,71,10|0,1:0|0:0,0:0:0:0:
239,255,40205,1,0,3:0:0:0:
172,347,40365,2,0,P|116:342|64:335,1,106.5,10|0,1:0|0:0,0:0:0:0:
47,323,40684,6,0,P|31:297|50:253,1,71,4|0,3:2|0:0,0:0:0:0:
142,195,41003,2,0,P|153:227|136:257,1,71,0|8,3:0|1:1,0:0:0:0:
51,165,41322,2,0,P|66:121|91:62,1,106.5,2|0,3:2|0:0,0:0:0:0:
93,43,41641,2,0,P|127:54|175:35,1,71,2|0,3:2|0:0,0:0:0:0:
247,2,41961,6,0,P|319:12|392:18,1,142,4|0,3:1|3:0,0:0:0:0:
476,76,42439,2,0,P|447:106|442:139,1,71,8|2,1:0|3:2,0:0:0:0:
496,276,42758,2,0,P|487:242|461:218,1,71,2|2,0:0|3:2,0:0:0:0:
362,200,43078,1,0,0:0:0:0:
309,292,43237,6,0,P|257:295|196:302,2,106.5,2|2|10,3:1|1:1|1:1,0:0:0:0:
400,347,43875,2,0,P|429:287|383:222,1,142,14|8,3:2|1:1,0:0:0:0:
329,150,44354,1,2,1:1:0:0:
412,52,44514,6,2,P|342:61|254:71,1,142,6|2,3:1|3:0,0:0:0:0:
177,14,44992,2,0,P|128:35|101:125,1,142,10|0,1:1|0:0,0:0:0:0:
160,193,45471,2,0,P|147:257|141:329,1,106.5,10|0,1:1|0:0,0:0:0:0:
150,314,45790,6,0,P|187:303|237:326,1,71,0|0,3:0|0:0,0:0:0:0:
292,377,46110,2,0,L|371:372,1,71,0|8,3:2|1:0,0:0:0:0:
404,282,46429,2,0,P|447:316|452:343,2,71,2|0|10,3:1|3:0|1:0,0:0:0:0:
304,272,46907,1,2,3:2:0:0:
304,272,47067,6,0,P|322:203|345:122,1,142,4|0,3:2|3:0,0:0:0:0:
421,76,47546,1,8,1:0:0:0:
325,53,47705,2,0,P|341:4|411:1,2,106.5,0|2|2,3:0|1:2|1:3,0:0:0:0:
270,145,48344,6,0,P|196:138|99:132,1,142,6|0,3:1|3:0,0:0:0:0:
62,59,48822,1,0,0:0:0:0:
3,148,48982,2,0,P|31:173|26:289,1,142,8|2,1:0|3:1,0:0:0:0:
6,366,49461,1,8,1:0:0:0:
115,335,49620,6,0,P|168:338|239:344,1,106.5,6|0,3:2|0:0,0:0:0:0:
237,348,49939,1,0,3:0:0:0:
323,374,50099,2,0,P|340:333|322:295,1,71,8|0,1:0|3:0,0:0:0:0:
269,232,50418,1,2,0:0:0:0:
318,142,50578,2,0,P|269:147|203:155,1,106.5,8|0,1:0|3:0,0:0:0:0:
192,169,50897,6,0,P|163:147|161:110,1,71,4|0,3:2|0:0,0:0:0:0:
193,23,51216,1,0,3:0:0:0:
193,23,51375,1,8,1:0:0:0:
297,45,51535,2,0,P|349:51|402:56,1,106.5,0|0,3:0|0:0,0:0:0:0:
421,54,51854,2,0,P|453:84|450:127,1,71,8|0,1:0|0:0,0:0:0:0:
419,209,52173,5,0,1:0:0:0:
454,309,52333,1,0,1:0:0:0:
454,309,52413,1,0,1:0:0:0:
454,309,52492,2,0,P|428:312|402:319,3,35.5,0|0|0|0,1:0|1:0|1:0|1:0,0:0:0:0:
401,329,52812,2,0,P|377:328|336:322,3,35.5,0|0|0|0,1:0|1:0|1:0|1:0,0:0:0:0:
346,312,53131,2,0,P|324:316|301:322,3,35.5,0|0|0|0,1:0|1:0|1:0|1:0,0:0:0:0:
291,333,53450,5,2,1:0:0:0:
209,264,53610,2,2,P|169:271|124:281,1,71,2|2,1:0|1:0,1:0:0:0:
77,355,53929,1,2,1:0:0:0:
3,285,54088,2,2,P|-9:252|15:202,1,71,2|2,1:0|1:0,1:0:0:0:
94,153,54407,2,0,P|102:186|90:219,1,71,0|2,1:0|1:0,0:0:0:0:
2,92,54727,6,0,P|67:77|160:60,1,142,14|0,3:1|3:0,0:0:0:0:
219,2,55205,1,10,1:0:0:0:
283,77,55365,2,0,P|330:82|357:65,1,71,0|0,3:0|0:0,0:0:0:0:
444,7,55684,2,0,P|441:63|436:141,1,106.5,2|0,3:1|0:0,0:0:0:0:
433,130,56003,6,0,P|453:166|447:207,1,71,4|0,3:2|0:0,0:0:0:0:
386,270,56322,1,2,3:0:0:0:
436,356,56482,1,10,1:0:0:0:
436,356,56641,2,0,P|378:357|303:363,1,106.5,2|2,3:1|1:2,0:0:0:0:
311,360,56961,1,10,1:1:0:0:
232,299,57120,1,2,1:2:0:0:
144,360,57280,6,0,P|106:325|129:238,1,142,6|0,3:1|3:0,0:0:0:0:
193,175,57758,1,10,1:0:0:0:
124,93,57918,2,0,P|175:85|242:80,1,106.5,0|8,1:0|1:0,0:0:0:0:
244,90,58237,2,0,P|285:97|310:79,1,71,2|8,3:1|1:0,0:0:0:0:
385,8,58556,6,0,P|394:72|407:162,1,142,6|0,3:1|3:0,0:0:0:0:
458,232,59035,1,10,1:0:0:0:
407,326,59195,2,0,P|365:313|328:329,1,71,0|2,3:0|0:3,0:0:0:0:
239,372,59514,2,0,P|188:366|122:354,1,106.5,10|0,1:0|3:0,0:0:0:0:
116,351,59833,6,0,P|92:315|108:279,1,71,6|0,3:1|0:0,0:0:0:0:
160,212,60152,1,0,3:0:0:0:
73,162,60312,2,0,P|80:122|87:78,1,71,10|0,1:0|3:0,0:0:0:0:
144,12,60631,1,2,0:0:0:0:
215,90,60790,2,0,P|263:106|317:74,1,106.5,10|2,1:0|1:3,0:0:0:0:
320,60,61110,6,0,P|356:64|398:72,1,71,4|0,3:2|0:0,0:0:0:0:
466,146,61429,2,0,P|430:151|395:156,1,71,0|10,3:0|1:0,0:0:0:0:
289,164,61748,2,0,P|293:221|338:242,1,106.5,0|0,3:0|0:0,0:0:0:0:
350,232,62067,2,0,P|351:273|340:313,1,71,10|0,1:0|0:0,0:0:0:0:
273,382,62386,6,0,P|228:363|185:371,1,71,6|2,3:2|1:2,0:0:0:0:
107,362,62705,1,0,3:2:0:0:
13,310,62865,2,0,L|26:179,1,106.5,10|0,1:0|0:0,0:0:0:0:
29,186,63184,1,2,0:0:0:0:
3,82,63344,2,0,P|42:65|107:108,1,106.5,10|0,1:0|0:0,0:0:0:0:
107,108,63663,5,2,3:1:0:0:
197,52,63822,1,8,1:1:0:0:
197,52,63902,1,10,1:1:0:0:
197,52,63982,2,0,L|238:57,3,35.5,8|0|2|0,3:1|1:0|1:1|1:3,0:0:0:0:
251,64,64301,2,0,L|322:52,1,71,2|0,3:2|0:0,0:0:0:0:
341,58,64540,1,10,1:0:0:0:
361,65,64620,2,0,L|432:52,1,71,2|10,3:0|1:0,0:0:0:0:
495,133,64939,6,0,P|498:180|508:277,1,142,6|0,3:1|3:0,0:0:0:0:
455,367,65418,1,10,1:0:0:0:
349,369,65578,2,0,P|298:378|230:344,1,106.5,2|0,3:0|0:0,0:0:0:0:
234,351,65897,2,0,P|193:352|155:355,1,71,10|0,1:1|1:0,1:0:0:0:
55,384,66216,6,0,P|31:339|83:267,1,142,4|0,3:2|3:0,0:0:0:0:
175,258,66695,1,10,1:0:0:0:
257,191,66854,2,0,P|314:198|382:203,2,106.5,0|2|2,3:0|1:2|1:3,0:0:0:0:
175,258,67492,6,0,P|133:201|164:133,1,142,6|0,3:1|3:0,0:0:0:0:
234,78,67971,1,10,1:0:0:0:
313,17,68131,2,0,P|369:19|430:23,2,106.5,2|2|2,3:2|1:2|1:2,0:0:0:0:
234,78,68769,6,2,P|181:34|111:62,1,142,2|0,3:2|3:0,0:1:0:0:
32,120,69248,2,0,P|36:193|44:266,1,142,10|0,1:0|1:0,0:0:0:0:
15,364,69727,2,0,P|53:375|122:323,1,106.5,8|0,1:0|1:0,0:0:0:0:
116,326,70046,6,0,P|152:329|203:331,1,71,6|0,3:1|0:0,0:0:0:0:
280,279,70365,1,2,3:0:0:0:
372,331,70524,2,0,P|364:277|353:201,1,106.5,10|0,1:1|0:0,0:0:0:0:
355,208,70844,1,2,1:2:0:0:
297,127,71003,2,0,P|351:108|413:144,1,106.5,10|2,1:0|1:3,0:0:0:0:
424,143,71322,6,0,P|414:101|408:59,1,71,6|0,3:2|0:0,1:0:0:0:
330,10,71641,2,0,P|284:5|228:54,1,106.5,12|0,3:1|0:0,1:1:0:0:
205,56,71961,2,0,P|187:54|169:52,2,35.5,4|4|4,3:0|3:0|3:0,0:0:0:0:
71,4,72280,2,0,P|42:48|64:106,1,106.5,12|0,1:0|0:0,0:0:0:0:
74,109,72599,6,0,L|69:197,1,71,10|0,1:1|0:0,0:0:0:0:
98,275,72918,1,10,1:1:0:0:
41,364,73078,1,8,1:0:0:0:
41,364,73237,2,0,P|82:365|141:369,1,71,10|8,1:0|1:0,0:0:0:0:
196,314,73556,1,10,1:0:0:0:
296,349,73716,1,8,1:0:0:0:
296,349,73875,6,0,P|289:288|281:228,1,106.5,10|0,1:0|0:0,0:0:0:0:
276,226,74195,1,10,1:0:0:0:
340,141,74354,1,8,1:0:0:0:
278,53,74514,1,8,1:0:0:0:
22,258,75152,6,0,B|53:239|91:254|75:271|111:289|150:269,1,127.799996099854,6|2,3:2|1:0,0:0:0:0:
217,211,75631,2,0,P|251:206|301:251,1,95.8499970748902,0|0,3:0|0:0,0:0:0:0:
297,260,75950,1,0,3:0:0:0:
339,346,76110,2,0,P|371:344|417:342,1,63.8999980499268,8|0,1:0|3:0,0:0:0:0:
451,260,76429,6,0,P|495:273|508:324,2,95.8499970748902,0|0|0,1:0|1:0|1:0,0:0:0:0:
366,237,77067,2,0,P|369:204|376:163,1,63.8999980499268,2|2,0:0|0:0,0:0:0:0:
451,128,77386,2,0,P|449:90|445:47,1,63.8999980499268,8|2,1:0|0:0,0:0:0:0:
360,89,77705,5,2,3:2:0:0:
295,26,77865,2,0,P|257:16|231:28,1,63.8999980499268,2|0,0:0|1:0,0:0:0:0:
182,97,78184,2,0,P|121:86|54:73,1,127.799996099854,0|0,1:0|3:0,0:0:0:0:
86,164,78663,2,0,P|51:191|46:218,1,63.8999980499268,8|0,1:0|0:0,0:0:0:0:
103,285,78982,6,0,P|56:298|-1:313,2,95.8499970748902,4|0|0,3:2|3:0|1:0,0:0:0:0:
168,223,79620,2,0,P|203:232|216:278,1,63.8999980499268,0|0,0:0|1:0,0:0:0:0:
214,343,79939,2,0,P|265:338|326:332,1,95.8499970748902,4|0,1:1|0:0,0:0:0:0:
324,328,80258,6,0,P|366:338|387:327,1,63.8999980499268,4|0,3:2|0:0,0:0:0:0:
440,259,80578,1,0,3:0:0:0:
495,188,80737,2,0,P|478:148|494:116,1,63.8999980499268,8|0,1:0|3:0,0:0:0:0:
500,41,81056,1,0,1:0:0:0:
408,71,81216,2,0,P|371:73|317:82,1,63.8999980499268,8|0,1:0|0:0,0:0:0:0:
254,44,81535,6,0,P|238:92|271:144,1,95.8499970748902,0|0,3:0|0:0,0:0:0:0:
268,138,81854,1,0,3:0:0:0:
324,223,82014,2,0,P|260:219|178:217,1,127.799996099854,8|0,1:0|3:0,0:0:0:0:
105,170,82492,2,0,P|65:157|18:196,1,95.8499970748902,8|0,1:0|0:0,0:0:0:0:
16,196,82812,6,0,P|20:229|23:264,1,63.8999980499268,4|0,3:2|0:0,0:0:0:0:
65,338,83131,1,0,3:0:0:0:
133,271,83290,2,0,P|168:267|191:286,1,63.8999980499268,8|2,1:0|0:0,0:0:0:0:
245,362,83610,1,0,3:0:0:0:
315,297,83769,2,0,P|307:232|297:149,1,127.799996099854,8|4,1:0|3:1,0:0:0:0:
309,81,84248,5,10,1:0:0:0:
392,123,84407,2,0,P|423:127|469:133,1,63.8999980499268,10|0,1:0|3:0,0:0:0:0:
309,81,84727,1,10,1:0:0:0:
217,125,84886,2,0,P|181:130|147:136,1,63.8999980499268,10|2,1:0|3:3,0:0:0:0:
62,102,85205,1,12,1:0:0:0:
