osu file format v14

[General]
AudioFilename: audio.mp3
AudioLeadIn: 0
PreviewTime: 33264
Countdown: 0
SampleSet: Soft
StackLeniency: 0.5
Mode: 0
LetterboxInBreaks: 0
WidescreenStoryboard: 0

[Editor]
DistanceSpacing: 1
BeatDivisor: 4
GridSize: 32
TimelineZoom: 2.5

[Metadata]
Title:ego-izm (TV Size)
TitleUnicode:ego-izm (TV Size)
Artist:la la larks
ArtistUnicode:la la larks
Creator:Sharpay
Version:re-consider
Source:M3~ソノ黒キ鋼~
Tags:lalalarks sfp school food punishment yumi uchimura egoizm egoism tetsu dark metal sono kuroki hagane ending ed japanese anime normal hard insane extra reconsider zekk shayks maot xahlt kuon- gweon sua jrock rock
BeatmapID:3664344
BeatmapSetID:1788476

[Difficulty]
HPDrainRate:5.6
CircleSize:4
OverallDifficulty:9
ApproachRate:9.2
SliderMultiplier:1.72
SliderTickRate:1

[Events]
//Background and Video events
0,0,"bg.jpg",0,0
//Break Periods
//Storyboard Layer 0 (Background)
//Storyboard Layer 1 (Fail)
//Storyboard Layer 2 (Pass)
//Storyboard Layer 3 (Foreground)
//Storyboard Layer 4 (Overlay)
//Storyboard Sound Samples

[TimingPoints]
1110,319.148936170213,4,2,21,40,1,0
11322,-125,4,2,21,50,0,0
21535,-111.111111111111,4,2,21,60,0,0
29195,-111.111111111111,4,2,21,70,0,0
30471,-100,4,2,21,70,0,0
31748,-76.9230769230769,4,2,21,70,0,0
32546,-62.5,4,2,21,65,0,0
32705,-62.5,4,2,21,5,0,0
32785,-62.5,4,2,21,65,0,0
32945,-62.5,4,2,21,5,0,0
33024,-62.5,4,2,21,65,0,0
33184,-62.5,4,2,21,5,0,0
33344,-62.5,4,2,21,40,0,0
34301,-100,4,2,21,70,0,0
63344,-83.3333333333333,4,2,21,70,0,0
63663,-100,4,2,21,70,0,0
75152,-125,4,2,21,55,0,0
84248,-125,4,2,21,65,0,0

[Colours]
Combo1 : 255,128,64
Combo2 : 128,128,192
Combo3 : 199,84,84
Combo4 : 135,216,133

[HitObjects]
64,192,1110,5,2,0:0:0:0:
55,170,1269,1,0,0:0:0:0:
64,150,1429,1,0,0:0:0:0:
187,88,1588,5,2,0:0:0:0:
172,106,1747,1,0,0:0:0:0:
150,109,1907,1,0,0:0:0:0:
57,40,2067,5,2,0:3:0:0:
72,62,2227,1,0,0:0:0:0:
142,199,2386,5,2,3:2:0:0:
136,224,2545,1,0,0:0:0:0:
131,249,2705,1,0,0:0:0:0:
105,373,2865,5,2,0:0:0:0:
110,348,3025,1,0,0:0:0:0:
116,323,3184,1,0,0:0:0:0:
231,303,3344,5,2,0:1:0:0:
206,297,3503,1,0,0:0:0:0:
379,205,3663,5,2,0:0:0:0:
364,223,3822,1,0,0:0:0:0:
342,226,3982,1,0,0:0:0:0:
225,161,4142,5,2,0:0:0:0:
248,164,4301,1,0,0:0:0:0:
261,182,4461,1,0,0:0:0:0:
231,303,4620,5,2,0:0:0:0:
246,281,4780,1,0,0:0:0:0:
512,160,5098,5,2,0:0:0:0:
489,232,5258,1,2,0:0:0:0:
23,232,5578,5,2,0:0:0:0:
0,160,5738,1,2,0:0:0:0:
256,0,6056,5,2,0:0:0:0:
288,83,6375,1,2,0:0:0:0:
262,77,6534,1,0,0:0:0:0:
237,71,6694,1,2,3:2:0:0:
227,158,6854,5,0,0:0:0:0:
253,152,7013,1,0,0:0:0:0:
278,146,7173,1,2,0:3:0:0:
259,190,7333,1,2,0:0:0:0:
283,269,7492,5,0,0:0:0:0:
278,266,7652,1,0,0:0:0:0:
252,260,7811,1,0,0:0:0:0:
227,254,7971,1,0,0:0:0:0:
227,158,8131,5,0,0:0:0:0:
253,152,8290,1,0,3:0:0:0:
278,146,8450,1,0,0:0:0:0:
259,190,8610,1,2,0:3:0:0:
283,269,8769,5,0,3:0:0:0:
283,269,8928,1,2,0:0:0:0:
257,263,9087,1,0,0:0:0:0:
232,257,9247,1,2,3:0:0:0:
224,339,9407,5,0,0:0:0:0:
250,333,9566,1,0,0:0:0:0:
275,327,9726,1,2,0:0:0:0:
256,371,9886,1,0,0:0:0:0:
439,256,10046,5,2,0:3:0:0:
358,286,10205,1,2,0:3:0:0:
419,344,10365,1,2,0:3:0:0:
421,254,10524,1,2,0:3:0:0:
359,298,10683,1,2,0:3:0:0:
432,330,10843,1,2,0:3:0:0:
512,384,11322,6,0,B|423:359|469:348|387:326,1,137.6,10|0,0:3|0:0,0:0:0:0:
315,262,11801,2,0,B|290:244|290:244|254:259|254:259|243:301|203:318,1,137.6,2|0,0:0|0:0,0:0:0:0:
74,384,12280,2,0,B|123:361|123:361|91:283,1,137.6,2|0,1:2|0:0,0:0:0:0:
58,197,12758,2,0,P|35:193|-7:157,2,68.8
128,135,13237,1,0,0:0:0:0:
141,48,13397,1,2,0:0:0:0:
54,65,13556,1,2,1:2:0:0:
54,65,13875,6,0,B|132:83|93:99|182:124,1,137.6
342,118,14354,1,2,0:0:0:0:
294,143,14514,1,2,0:0:0:0:
278,194,14673,1,0,0:0:0:0:
278,194,14833,2,0,L|297:273,1,68.8,2|2,1:2|0:0,0:0:0:0:
483,384,15312,5,2,1:2:0:0:
450,315,15471,1,2,0:2:0:0:
62,315,15790,5,2,0:2:0:0:
29,384,15949,1,2,1:2:0:0:
256,192,16269,5,2,0:2:0:0:
457,137,16429,6,0,L|390:120,1,68.8,10|0,0:3|0:0,0:0:0:0:
226,44,16748,1,0,0:0:0:0:
292,27,16907,2,0,L|221:45,1,68.8,0|2,0:0|1:2,0:0:0:0:
31,99,17227,1,0,0:0:0:0:
31,99,17386,2,0,B|83:116|83:116|97:145|97:145|119:155|173:174,1,137.6,2|0,0:0|3:0,0:0:0:0:
260,220,17865,1,0,0:0:0:0:
277,266,18024,1,0,0:0:0:0:
283,190,18184,1,0,3:2:0:0:
234,286,18343,1,0,0:0:0:0:
284,384,18503,5,0,0:0:0:0:
376,359,18662,1,0,0:0:0:0:
468,332,18822,2,0,P|494:276|451:205,1,137.6,2|0,0:0|0:0,0:0:0:0:
380,124,19301,2,0,B|261:152|325:203|194:232,1,206.4,2|0,0:0|0:0,0:0:0:0:
0,87,19939,5,0,0:0:0:0:
110,119,20099,1,0,0:0:0:0:
398,0,20418,5,2,0:1:0:0:
316,61,20578,1,2,0:1:0:0:
306,384,20897,5,2,0:1:0:0:
261,273,21057,1,2,0:1:0:0:
261,273,21535,6,0,P|300:288|355:296,1,77.3999976379395,6|0,3:1|0:0,0:0:0:0:
512,348,21854,2,0,P|474:340|438:326,1,77.3999976379395,0|2,3:0|0:1,0:0:0:0:
338,104,22173,2,0,P|344:137|354:193,1,77.3999976379395,0|0,3:0|0:0,0:0:0:0:
512,91,22492,2,2,P|506:124|496:180,1,77.3999976379395,2|0,1:1|0:0,0:1:0:0:
453,0,22812,6,0,B|356:27|413:44|297:75,1,154.799995275879,0|0,3:0|1:0,0:0:0:0:
193,25,23290,1,0,0:0:0:0:
185,38,23370,1,2,0:2:0:0:
189,52,23450,1,0,1:0:0:0:
323,172,23689,1,2,0:2:0:0:
318,184,23769,1,0,1:0:0:0:
208,320,23929,1,0,1:0:0:0:
91,216,24088,6,0,P|140:204|170:196,1,77.3999976379395,2|0,3:1|0:0,0:0:0:0:
392,233,24407,1,2,1:2:0:0:
467,251,24567,2,0,P|418:239|388:231,1,77.3999976379395,2|0,3:1|0:0,0:0:0:0:
138,308,24886,1,2,0:0:0:0:
152,384,25046,2,2,L|138:308,1,77.3999976379395,2|0,1:1|0:0,0:2:0:0:
362,309,25365,2,0,L|347:385,1,77.3999976379395,2|2,3:2|1:0,0:0:0:0:
96,194,25684,2,0,P|133:203|171:212,1,77.3999976379395,0|0,1:0|0:0,0:0:0:0:
381,174,26003,5,0,1:0:0:0:
202,58,26242,1,2,1:3:0:0:
207,70,26322,1,0,1:0:0:0:
373,0,26482,1,2,1:2:0:0:
270,180,26641,6,0,P|219:168|141:148,1,116.099996456909,6|0,3:1|0:0,0:0:0:0:
131,145,26961,1,0,1:0:0:0:
152,384,27120,2,0,B|123:338|153:293|173:312|206:275|178:222,1,154.799995275879,2|2,3:1|0:0,0:0:0:0:
6,68,27519,1,0,0:0:0:0:
0,77,27599,6,0,B|59:95|59:95|83:131|83:131|135:146,1,154.799995275879,2|0,1:1|3:0,0:0:0:0:
267,0,28078,1,0,0:0:0:0:
267,0,28237,2,0,L|244:77,1,77.3999976379395,2|2,3:2|0:0,0:0:0:0:
244,74,28556,1,0,3:0:0:0:
362,214,28716,5,0,3:0:0:0:
41,48,28875,1,12,1:2:0:0:
41,48,29195,5,8,1:1:0:0:
112,325,29353,1,8,1:1:0:0:
112,325,29513,1,0,3:0:0:0:
470,48,29674,5,8,1:0:0:0:
396,325,29832,1,8,1:0:0:0:
396,325,29992,1,0,3:0:0:0:
226,197,30152,6,0,P|187:189|137:178,1,77.3999976379395,12|0,1:1|0:0,0:0:0:0:
8,77,30471,5,0,1:0:0:0:
31,72,30550,1,0,1:0:0:0:
54,68,30630,1,0,1:0:0:0:
77,63,30710,1,0,1:0:0:0:
118,31,30790,5,0,1:0:0:0:
145,35,30869,1,0,1:0:0:0:
173,40,30949,1,0,1:0:0:0:
200,46,31029,1,0,1:0:0:0:
235,87,31110,5,0,1:0:0:0:
268,81,31189,1,0,1:0:0:0:
301,74,31269,1,0,1:0:0:0:
334,68,31349,1,0,1:0:0:0:
356,32,31429,5,0,1:0:0:0:
398,14,31508,1,0,1:0:0:0:
445,21,31588,1,0,1:0:0:0:
481,49,31668,1,0,1:0:0:0:
502,88,31748,2,0,B|484:115|488:152|488:152|455:175|455:175|466:213|426:278,2,167.699992323304,14|6|6,3:1|3:1|3:1,0:0:0:0:
502,88,32546,6,0,P|448:79|378:169,1,137.6,8|0,1:0|0:0,0:0:0:0:
340,240,32785,2,0,P|381:207|367:103,1,137.6,8|0,1:0|0:0,0:0:0:0:
290,50,33024,2,0,P|311:100|425:109,1,137.6,8|0,1:0|0:0,0:0:0:0:
256,320,33344,5,2,0:0:0:0:
155,185,33663,5,2,0:0:0:0:
239,116,33982,5,2,0:0:0:0:
41,384,34301,5,6,3:1:0:0:
107,71,34461,2,0,P|99:113|90:155,1,86,2|0,0:0|3:0,0:0:0:0:
41,384,34780,2,0,P|50:341|57:299,1,86,10|0,1:0|0:0,0:0:0:0:
212,112,35099,1,2,0:0:0:0:
267,317,35258,6,0,P|223:299|183:287,1,86,10|0,1:1|0:0,0:0:0:0:
327,83,35578,1,0,3:0:0:0:
421,120,35738,1,0,0:0:0:0:
383,215,35897,1,0,3:0:0:0:
287,177,36057,1,8,1:0:0:0:
393,358,36216,5,2,3:2:0:0:
389,345,36296,1,0,1:0:0:0:
508,192,36455,1,2,1:2:0:0:
512,179,36535,1,8,1:0:0:0:
339,0,36695,1,2,0:0:0:0:
441,115,36854,6,0,B|376:131|376:131|356:159|356:159|270:179,1,172,6|0,3:1|3:0,0:0:0:0:
86,236,37333,1,8,1:0:0:0:
53,382,37492,5,2,3:0:0:0:
49,369,37572,1,2,1:2:0:0:
173,222,37731,1,2,1:2:0:0:
177,209,37811,1,8,1:0:0:0:
23,17,37971,1,2,1:2:0:0:
8,133,38131,6,0,P|78:134|109:39,1,172,6|0,3:1|3:0,0:0:0:0:
112,49,38610,1,8,1:0:0:0:
0,224,38769,2,0,P|10:279|19:321,1,86,0|0,3:0|0:0,0:0:0:0:
268,370,39008,1,0,0:0:0:0:
255,384,39088,2,0,B|214:387|184:349|184:349|163:360|133:353,1,129,10|8,1:0|1:1,0:0:0:0:
103,377,39407,1,6,3:1:0:0:
276,196,39567,2,0,B|286:238|286:238|265:275,1,86,2|0,0:2|3:0,0:0:0:0:
39,137,39886,6,0,B|98:119|98:119|123:82|123:82|222:55,1,172,10|0,1:0|3:0,0:0:0:0:
366,5,40365,2,0,B|395:54|353:104|353:104|298:92|300:49,1,172,10|4,1:0|3:2,0:0:0:0:
302,68,40844,1,0,0:0:0:0:
501,0,41003,2,0,P|493:41|481:88,1,86,0|8,3:0|1:1,0:0:0:0:
415,338,41322,2,0,P|425:296|433:254,1,86,2|0,3:2|1:1,0:0:0:0:
381,0,41641,1,2,3:2:0:0:
228,132,41801,1,0,0:0:0:0:
347,285,41961,6,0,P|339:232|325:155,1,129,4|0,3:1|0:0,0:0:0:0:
311,82,42280,1,0,3:0:0:0:
97,227,42439,2,0,P|139:220|192:204,1,86,8|2,1:0|3:2,0:0:0:0:
479,121,42758,2,0,P|437:114|384:98,1,86,2|2,0:0|3:2,0:0:0:0:
286,0,43078,1,0,0:0:0:0:
164,179,43237,6,0,P|177:132|162:97,1,86,2|0,3:1|0:0,0:0:0:0:
95,61,43477,1,2,1:1:0:0:
0,271,43716,1,10,1:1:0:0:
0,271,43796,1,0,0:0:0:0:
0,271,43875,2,0,B|37:243|77:246|77:246|86:273|129:310,1,129,14|2,3:2|1:1,0:0:0:0:
158,330,44195,1,8,1:1:0:0:
321,229,44354,1,2,1:1:0:0:
143,384,44514,6,2,P|132:305|110:189,1,172,6|2,3:1|3:0,0:0:0:0:
209,85,44913,1,0,0:0:0:0:
222,103,44992,2,0,B|282:121|282:121|307:160|307:160|368:180,1,172,10|0,1:1|0:0,0:0:0:0:
456,384,45471,2,0,B|495:358|495:358|464:270,1,129,10|0,1:1|0:0,0:0:0:0:
455,251,45790,1,0,3:0:0:0:
407,126,45950,1,0,0:0:0:0:
182,272,46110,1,0,3:2:0:0:
225,150,46270,1,8,1:0:0:0:
364,384,46429,5,2,3:1:0:0:
346,376,46508,1,0,1:0:0:0:
200,264,46668,1,2,0:0:0:0:
182,272,46747,1,10,1:0:0:0:
19,384,46907,1,2,3:2:0:0:
0,239,47067,6,0,P|51:230|98:324,1,172,4|0,3:2|3:0,0:0:0:0:
98,322,47546,1,8,1:0:0:0:
27,119,47705,5,0,3:0:0:0:
45,127,47784,1,2,1:2:0:0:
200,238,47944,1,2,1:2:0:0:
218,230,48023,1,8,1:0:0:0:
374,128,48183,1,2,1:3:0:0:
249,0,48344,6,0,P|273:94|289:176,1,172,6|0,3:1|3:0,0:0:0:0:
287,167,48822,1,0,0:0:0:0:
473,332,48982,2,0,B|436:308|436:308|387:318,1,86,8|0,1:0|0:0,0:0:0:0:
373,340,49221,1,8,1:0:0:0:
373,340,49301,1,2,3:1:0:0:
264,235,49461,1,8,1:0:0:0:
132,384,49620,5,6,3:2:0:0:
132,384,49780,2,0,P|196:375|233:346,1,86,2|0,0:0|3:0,0:0:0:0:
48,207,50099,2,0,P|23:266|30:313,1,86,8|0,1:0|3:0,0:0:0:0:
193,174,50418,1,2,0:0:0:0:
251,235,50578,2,0,P|211:184|167:166,1,86,8|0,1:0|3:0,0:0:0:0:
0,10,50897,6,0,B|27:21|50:28|50:28|63:52|63:52|86:57|116:73,1,129,4|0,3:2|0:0,0:0:0:0:
108,69,51216,1,0,3:0:0:0:
268,44,51375,1,8,1:0:0:0:
290,128,51535,2,0,P|279:83|268:43,1,86,0|0,3:0|0:0,0:0:0:0:
429,0,51854,1,8,1:0:0:0:
360,49,52173,5,8,1:0:0:0:
360,49,52333,5,0,1:0:0:0:
342,87,52412,1,0,1:0:0:0:
342,130,52492,1,0,1:0:0:0:
361,168,52572,1,0,1:0:0:0:
391,199,52652,1,0,1:0:0:0:
408,237,52731,1,0,1:0:0:0:
408,280,52811,1,0,1:0:0:0:
389,318,52891,1,0,1:0:0:0:
366,354,52971,5,0,1:0:0:0:
338,321,53050,1,0,1:0:0:0:
297,311,53130,1,0,1:0:0:0:
257,325,53210,1,0,1:0:0:0:
231,359,53290,1,0,1:0:0:0:
197,384,53369,1,0,1:0:0:0:
154,384,53450,6,2,P|146:357|137:321,1,43,2|0,1:0|1:0,1:0:0:0:
17,113,53610,2,2,P|11:133|5:154,1,43,2|0,1:0|1:0,1:0:0:0:
0,384,53769,2,0,P|8:357|17:321,1,43,2|2,1:0|1:0,1:0:0:0:
161,114,53929,2,2,P|166:134|172:155,1,43,2|0,1:0|1:0,1:0:0:0:
274,312,54088,5,2,1:0:0:0:
294,306,54167,1,0,1:0:0:0:
315,301,54247,1,2,1:0:0:0:
336,296,54327,1,0,1:0:0:0:
356,288,54407,5,0,1:0:0:0:
393,254,54486,1,2,1:0:0:0:
411,206,54566,1,2,1:0:0:0:
406,156,54646,1,2,1:0:0:0:
382,109,54727,6,0,B|319:127|319:127|299:164|299:164|218:189,1,172,14|0,3:1|3:0,0:0:0:0:
20,120,55205,1,10,1:0:0:0:
178,60,55365,1,0,3:0:0:0:
183,71,55445,1,0,1:0:0:0:
45,240,55604,1,8,1:0:0:0:
40,251,55684,1,2,3:1:0:0:
178,384,55844,1,8,1:0:0:0:
312,234,56003,5,4,3:2:0:0:
181,295,56163,1,0,0:0:0:0:
210,155,56322,1,2,3:0:0:0:
366,384,56482,1,10,1:0:0:0:
426,333,56641,2,0,B|461:314|461:314|478:252|416:215,1,129,2|2,3:1|1:2,0:0:0:0:
409,206,56961,1,10,1:1:0:0:
508,118,57120,1,2,1:2:0:0:
271,0,57280,6,0,P|293:59|400:52,1,172,6|0,3:1|3:0,0:0:0:0:
390,61,57758,1,10,1:0:0:0:
275,267,57918,6,0,B|307:212|307:212|263:149,1,129,0|8,1:0|1:0,0:0:0:0:
245,133,58237,1,2,3:1:0:0:
132,305,58397,1,8,1:0:0:0:
0,146,58556,1,6,3:1:0:0:
88,180,58715,1,0,0:0:0:0:
177,213,58875,1,0,3:0:0:0:
278,384,59035,2,0,P|266:320|262:292,1,86,10|0,1:0|3:0,0:0:0:0:
358,111,59354,1,2,0:3:0:0:
262,299,59514,1,10,1:0:0:0:
267,304,59833,5,6,3:1:0:0:
267,304,59992,2,0,P|219:294|149:279,1,86,2|0,0:0|3:0,0:0:0:0:
64,99,60312,2,0,P|74:147|89:217,1,86,10|0,1:0|3:0,0:0:0:0:
42,309,60631,1,2,0:0:0:0:
0,384,60790,2,0,P|21:346|42:309,1,86,10|0,1:0|0:0,0:0:0:0:
52,300,61030,1,2,1:3:0:0:
62,292,61110,2,0,P|117:276|159:260,1,86,4|0,3:2|0:0,0:0:0:0:
270,124,61429,6,0,B|247:162|268:206,1,86,0|10,3:0|1:0,0:0:0:0:
429,345,61748,2,0,B|407:306|358:302,1,86,0|0,3:0|1:0,0:0:0:0:
185,357,62067,1,10,1:0:0:0:
189,362,62386,1,6,3:2:0:0:
189,362,62546,6,0,P|227:372|283:387,1,86,2|0,1:2|3:2,0:0:0:0:
508,305,62865,2,0,P|466:315|424:327,1,86,10|2,1:0|3:2,0:0:0:0:
271,240,63184,1,2,0:0:0:0:
202,116,63344,6,0,P|262:110|314:202,1,154.799995275879,10|0,1:0|0:0,0:0:0:0:
279,247,63663,1,2,3:1:0:0:
279,247,63742,1,2,0:3:0:0:
279,247,63822,2,0,L|211:267,1,43,8|10,1:1|1:1,0:0:0:0:
82,325,63982,1,8,3:1:0:0:
0,165,64141,1,2,1:1:0:0:
0,165,64220,1,0,1:3:0:0:
0,165,64301,2,0,L|68:185,1,43,2|0,3:2|0:0,0:0:0:0:
262,6,64540,5,10,1:0:0:0:
257,21,64620,1,2,3:0:0:0:
119,91,64780,1,10,1:0:0:0:
167,203,64939,6,0,B|230:186|230:186|255:152|255:152|332:132,1,172,6|0,3:1|3:0,0:0:0:0:
479,200,65418,1,10,1:0:0:0:
333,348,65578,2,0,B|304:299|346:249|346:249|401:261|399:304,1,172,2|10,3:0|1:1,0:0:0:0:
396,284,66056,1,0,1:0:0:0:
235,384,66216,6,0,P|182:369|55:338,1,172,4|0,3:2|3:0,0:0:0:0:
68,340,66695,1,10,1:0:0:0:
0,224,66854,1,0,3:0:0:0:
6,235,66934,1,0,1:0:0:0:
185,141,67094,1,2,1:2:0:0:
179,152,67174,1,0,3:0:0:0:
10,59,67333,1,2,1:3:0:0:
143,0,67492,6,0,B|250:23|197:58|289:84,1,172,6|0,3:1|3:0,0:0:0:0:
420,37,67971,1,10,1:0:0:0:
512,135,68131,1,2,3:2:0:0:
501,141,68211,1,0,1:0:0:0:
436,268,68370,1,2,1:2:0:0:
425,262,68450,1,10,1:0:0:0:
302,194,68610,1,2,1:2:0:0:
512,225,68769,6,2,P|514:321|448:359,1,172,2|0,3:2|3:0,0:1:0:0:
456,357,69248,1,10,1:0:0:0:
252,272,69407,2,0,P|291:284|351:299,1,86,0|0,3:0|1:0,0:0:0:0:
245,103,69727,2,0,P|203:113|162:126,1,86,8|0,1:0|1:0,0:0:0:0:
22,278,70046,1,6,3:1:0:0:
22,278,70205,2,0,B|3:240|3:240|24:193,1,86,2|2,0:0|3:0,0:0:0:0:
270,300,70524,5,10,1:1:0:0:
142,384,70684,2,0,P|132:347|113:286,1,86,0|2,0:0|1:2,0:0:0:0:
42,38,71003,2,0,P|54:79|65:120,1,86,10|0,1:0|0:0,0:0:0:0:
308,256,71322,2,0,P|266:243|225:232,1,86,6|0,3:2|0:0,1:0:0:0:
269,73,71641,1,12,3:1:0:0:
269,73,71961,5,4,3:0:0:0:
310,83,72040,1,4,3:0:0:0:
351,95,72120,1,4,3:0:0:0:
392,106,72200,1,4,3:0:0:0:
434,120,72280,2,0,P|469:164|454:246,1,129,12|0,1:0|0:0,0:0:0:0:
450,273,72599,1,10,1:1:0:0:
450,273,72918,5,10,1:1:0:0:
302,230,73078,1,8,1:0:0:0:
40,116,73237,5,10,1:0:0:0:
186,75,73397,1,8,1:0:0:0:
461,301,73556,5,10,1:0:0:0:
286,251,73716,1,8,1:0:0:0:
12,96,73875,5,10,1:0:0:0:
186,47,74035,1,8,1:0:0:0:
264,364,74195,5,10,1:0:0:0:
115,170,74354,1,8,1:0:0:0:
359,124,74514,1,8,1:0:0:0:
359,124,75152,6,0,P|302:140|272:151,1,68.8,6|0,3:2|0:0,0:0:0:0:
161,166,75471,1,2,1:0:0:0:
101,42,75631,2,0,P|165:42|214:111,1,137.6,0|0,3:0|3:0,0:0:0:0:
161,166,76110,2,0,P|128:176|94:184,1,68.8,8|0,1:0|3:0,0:0:0:0:
14,343,76429,2,0,B|35:295|35:295|11:251,2,103.2,0|0|0,1:0|1:0|1:0,0:0:0:0:
221,293,77067,5,2,0:0:0:0:
152,333,77227,1,2,0:0:0:0:
152,253,77386,1,8,1:0:0:0:
233,301,77546,1,2,0:0:0:0:
315,360,77705,1,2,3:2:0:0:
315,360,77865,6,0,P|349:351|383:345,1,68.8,2|0,0:0|1:0,0:0:0:0:
512,237,78184,2,0,P|478:230|444:221,1,68.8,0|0,1:0|0:0,0:0:0:0:
365,129,78503,2,0,P|331:136|297:144,1,68.8,0|8,3:0|1:0,0:0:0:0:
164,115,78822,1,0,0:0:0:0:
168,208,78982,2,0,B|188:159|188:159|164:115,2,103.2,4|0|0,3:2|3:0|1:0,0:0:0:0:
54,332,79620,5,0,0:0:0:0:
126,297,79780,1,0,1:0:0:0:
60,253,79939,1,4,1:1:0:0:
60,253,80258,6,0,B|110:271|110:271|131:297|131:297|198:318,1,137.6,4|0,3:2|3:0,0:0:0:0:
288,384,80737,2,0,B|301:353|278:311,1,68.8,8|0,1:0|3:0,0:0:0:0:
188,217,81056,1,0,1:0:0:0:
242,179,81216,2,0,B|206:185|187:217,1,68.8,8|0,1:0|0:0,0:0:0:0:
188,231,81455,1,0,1:0:0:0:
188,244,81535,6,0,P|195:285|200:319,1,68.8,0|0,3:0|0:0,0:0:0:0:
470,210,81854,1,0,3:0:0:0:
388,157,82014,2,0,P|381:198|376:232,1,68.8,8|0,1:0|1:0,0:0:0:0:
139,97,82333,1,0,3:0:0:0:
231,125,82493,2,0,P|225:91|220:58,1,68.8,8|0,1:0|0:0,0:0:0:0:
130,265,82812,6,0,P|71:229|84:157,1,137.6,4|0,3:2|3:0,0:0:0:0:
139,97,83290,2,0,L|66:72,1,68.8,8|2,1:0|0:0,0:0:0:0:
313,23,83610,1,0,3:0:0:0:
239,0,83769,1,8,1:0:0:0:
216,74,83929,1,0,0:0:0:0:
290,96,84088,1,4,3:1:0:0:
463,337,84248,5,10,1:0:0:0:
393,61,84407,1,10,1:0:0:0:
393,61,84567,1,0,3:0:0:0:
53,337,84727,5,10,1:0:0:0:
123,61,84886,1,10,1:0:0:0:
123,61,85046,1,2,3:3:0:0:
256,384,85205,5,12,1:0:0:0:
