osu file format v14

[General]
AudioFilename: audio.mp3
AudioLeadIn: 0
PreviewTime: 33264
Countdown: 0
SampleSet: Soft
StackLeniency: 0.5
Mode: 0
LetterboxInBreaks: 0
WidescreenStoryboard: 0

[Editor]
DistanceSpacing: 1
BeatDivisor: 4
GridSize: 32
TimelineZoom: 5.999996

[Metadata]
Title:ego-izm (TV Size)
TitleUnicode:ego-izm (TV Size)
Artist:la la larks
ArtistUnicode:la la larks
Creator:Sharpay
Version:maot's ex-tra
Source:M3~ソノ黒キ鋼~
Tags:lalalarks sfp school food punishment yumi uchimura egoizm egoism tetsu dark metal sono kuroki hagane ending ed japanese anime normal hard insane extra reconsider zekk shayks maot xahlt kuon- gweon sua jrock rock
BeatmapID:3670049
BeatmapSetID:1788476

[Difficulty]
HPDrainRate:5.3
CircleSize:3.8
OverallDifficulty:9
ApproachRate:9.2
SliderMultiplier:1.66
SliderTickRate:1

[Events]
//Background and Video events
0,0,"bg.jpg",0,0
//Break Periods
//Storyboard Layer 0 (Background)
//Storyboard Layer 1 (Fail)
//Storyboard Layer 2 (Pass)
//Storyboard Layer 3 (Foreground)
//Storyboard Layer 4 (Overlay)
//Storyboard Sound Samples

[TimingPoints]
1110,319.148936170213,4,2,21,40,1,0
1110,-142.857142857143,4,2,21,40,0,0
11322,-129.87012987013,4,2,21,50,0,0
21535,-117.647058823529,4,2,21,50,0,0
26641,-117.647058823529,4,2,21,50,0,0
30152,-83.3333333333333,4,2,21,60,0,0
31748,-50,4,2,21,60,0,0
31987,-58.8235294117647,4,2,21,60,0,0
32227,-62.5,4,2,21,60,0,0
32546,-62.5000000000001,4,2,21,60,0,0
33344,-333.333333333333,4,2,21,40,0,0
34301,-76.9230769230769,4,2,21,70,0,0
43237,-50,4,2,21,70,0,0
44195,-76.9230769230769,4,2,21,70,0,0
44354,-50,4,2,21,70,0,0
44514,-76.9230769230769,4,2,21,70,0,0
44992,-90.9090909090909,4,2,21,70,0,0
46429,-76.9230769230769,4,2,21,70,0,0
48663,-100,4,2,21,70,0,0
49620,-76.9230769230769,4,2,21,70,0,0
51854,-83.3333333333333,4,2,21,70,0,0
53450,-76.9230769230769,4,2,21,70,0,1
53530,-76.9230769230769,4,2,21,70,0,0
53610,-71.4285714285714,4,2,21,70,0,1
53689,-71.4285714285714,4,2,21,70,0,0
53769,-66.6666666666667,4,2,21,70,0,1
53849,-66.6666666666667,4,2,21,70,0,0
53929,-62.5,4,2,21,70,0,1
54008,-62.5,4,2,21,70,0,0
54088,-58.8235294117647,4,2,21,70,0,1
54727,-70.4225352112677,4,2,21,75,0,0
55205,-76.9230769230769,4,2,21,75,0,0
56003,-70.4225352112676,4,2,21,75,0,0
56641,-76.9230769230769,4,2,21,75,0,0
57280,-70.4225352112676,4,2,21,75,0,0
58556,-74.0740740740741,4,2,21,75,0,0
59035,-79.3650793650794,4,2,21,75,0,0
59833,-72.992700729927,4,2,21,75,0,0
60312,-80,4,2,21,75,0,0
60790,-76.9230769230769,4,2,21,75,0,0
63982,-50,4,2,21,75,0,0
64780,-58.8235294117647,4,2,21,75,0,0
64939,-76.9230769230769,4,2,21,75,0,0
65418,-79.3650793650794,4,2,21,75,0,0
68769,-73.5294117647059,4,2,21,75,0,0
69088,-79.3650793650794,4,2,21,75,0,0
70046,-72.463768115942,4,2,21,75,0,0
71003,-84.7457627118643,4,2,21,75,0,0
71322,-73.5294117647059,4,2,21,75,0,0
72280,-87.719298245614,4,2,21,75,0,0
72599,-96.1538461538461,4,2,21,70,0,0
74514,-151.515151515152,4,2,21,40,0,0
75152,-104.166666666667,4,2,21,55,0,0

[Colours]
Combo1 : 115,71,71
Combo2 : 128,128,192
Combo3 : 174,243,209
Combo4 : 255,76,76

[HitObjects]
105,15,1110,5,2,0:0:0:0:
145,53,1269,1,0,0:0:0:0:
115,93,1429,1,0,0:0:0:0:
121,106,1588,2,0,L|110:177,2,58.0999982269288,2|0|0,0:0|0:0|0:0,0:0:0:0:
215,155,2067,1,2,0:3:0:0:
252,180,2227,1,0,0:0:0:0:
280,163,2386,1,2,3:2:0:0:
294,163,2546,2,0,L|363:177,1,58.0999982269288
483,207,2865,1,2,0:0:0:0:
475,222,3024,2,0,L|418:233,1,58.0999982269288
337,266,3344,6,0,B|322:324|367:325|343:389,1,116.199996453858,2|2,0:1|0:0,0:0:0:0:
263,355,3822,1,0,0:0:0:0:
188,332,3982,1,0,0:0:0:0:
146,349,4141,1,2,0:0:0:0:
136,359,4301,1,0,0:0:0:0:
140,369,4461,1,0,0:0:0:0:
189,301,4620,2,0,P|184:274|169:220,1,58.0999982269288,2|0,0:0|0:0,0:0:0:0:
323,83,5099,6,0,P|327:109|343:164,1,58.0999982269288,2|2,0:0|0:0,0:0:0:0:
138,12,5578,2,0,P|133:38|118:93,1,58.0999982269288,2|2,0:0|0:0,0:0:0:0:
410,287,6056,6,0,P|425:199|437:154,1,116.199996453858,2|2,0:0|0:0,0:0:0:0:
496,118,6535,1,0,0:0:0:0:
502,127,6695,1,2,3:2:0:0:
413,88,6854,1,0,0:0:0:0:
398,72,7014,2,0,P|392:28|390:8,1,58.0999982269288,0|2,0:0|0:3,0:0:0:0:
249,96,7333,2,0,P|321:116|320:162,1,116.199996453858,2|0,0:0|0:0,0:0:0:0:
240,204,7812,2,0,P|191:230|133:289,1,116.199996453858
65,256,8290,1,0,3:0:0:0:
29,215,8450,1,0,0:0:0:0:
34,197,8610,1,2,0:3:0:0:
48,194,8769,6,0,P|43:233|33:268,1,58.0999982269288,0|2,3:0|0:0,0:0:0:0:
55,371,9088,1,0,0:0:0:0:
67,355,9248,1,2,3:0:0:0:
109,326,9407,1,0,0:0:0:0:
188,315,9567,1,0,0:0:0:0:
252,363,9727,2,0,P|285:357|315:344,1,58.0999982269288,2|0,0:0|0:0,0:0:0:0:
379,305,10046,5,2,0:3:0:0:
390,303,10125,1,2,0:3:0:0:
405,303,10205,1,2,0:3:0:0:
427,309,10285,1,2,0:3:0:0:
443,330,10365,2,0,P|437:346|434:358,8,29.0499991134644,2|2|2|2|2|2|2|2|2,0:3|0:3|0:3|0:3|0:3|0:3|0:3|0:3|0:3,0:3:0:0:
46,72,11322,6,0,P|114:85|139:153,1,127.819997464508,10|0,0:3|0:0,0:0:0:0:
348,223,11801,2,0,P|280:236|255:304,1,127.819997464508,2|0,0:0|0:0,0:0:0:0:
237,152,12280,2,0,P|255:90|262:27,1,127.819997464508,2|0,1:2|0:0,0:0:0:0:
50,140,12758,5,0,0:0:0:0:
50,140,12918,2,0,P|55:169|77:210,1,63.9099987322541
155,235,13237,1,0,0:0:0:0:
111,299,13397,1,2,0:0:0:0:
147,338,13556,1,2,1:2:0:0:
139,361,13716,1,0,0:0:0:0:
151,242,13875,6,0,P|161:159|176:89,1,127.819997464508,2|0,3:2|0:0,0:0:0:0:
108,61,14354,2,0,P|106:45|106:28,1,31.954999366127,2|0,0:0|0:0,0:0:0:0:
121,25,14514,2,0,P|120:40|119:56,1,31.954999366127,2|0,0:0|0:0,0:0:0:0:
263,138,14833,2,0,P|262:122|261:107,1,31.954999366127,2|0,1:2|0:0,0:0:0:0:
250,111,14993,2,0,P|249:127|248:143,1,31.954999366127,2|0,0:0|0:0,0:0:0:0:
98,226,15312,5,2,1:2:0:0:
147,307,15471,1,2,0:2:0:0:
113,334,15790,5,2,0:2:0:0:
129,206,15949,1,2,1:2:0:0:
86,180,16269,5,2,0:2:0:0:
147,354,16429,2,0,P|240:361|289:368,1,127.819997464508,10|0,0:3|0:0,0:0:0:0:
313,286,16907,1,0,0:0:0:0:
351,207,17067,2,0,P|349:175|345:143,1,63.9099987322541,2|0,1:2|0:0,0:0:0:0:
171,155,17386,6,0,P|204:207|265:211,1,127.819997464508,2|0,0:0|3:0,0:0:0:0:
400,282,17865,2,0,P|440:288|463:313,1,63.9099987322541
406,362,18184,1,0,3:2:0:0:
406,362,18344,1,0,0:0:0:0:
444,195,18503,1,0,0:0:0:0:
443,195,18663,2,0,P|473:187|502:172,1,63.9099987322541
307,297,18982,6,0,B|234:296|262:331|187:330,1,127.819997464508,8|0,0:3|0:0,0:0:0:0:
5,255,19461,1,0,0:0:0:0:
5,255,19620,2,0,P|85:238|143:225,1,127.819997464508
187,164,20099,1,0,0:0:0:0:
199,158,20418,5,2,0:1:0:0:
124,23,20578,1,2,0:1:0:0:
405,124,20897,5,2,0:1:0:0:
310,328,21056,1,2,0:1:0:0:
247,26,21535,6,0,B|235:102|291:75|285:156,1,141.100002691269,6|0,3:1|3:0,0:0:0:0:
196,211,22014,2,0,P|127:232|63:258,1,141.100002691269,2|0,0:1|0:0,0:0:0:0:
377,273,22492,2,2,P|441:283|509:321,1,141.100002691269,2|0,1:1|3:0,0:1:0:0:
282,328,23051,5,2,0:2:0:0:
273,314,23131,1,0,1:0:0:0:
379,161,23370,1,2,0:2:0:0:
370,175,23450,1,0,1:0:0:0:
169,172,23689,1,2,0:2:0:0:
183,181,23769,1,0,1:0:0:0:
277,216,23929,1,0,1:0:0:0:
260,114,24088,6,0,P|241:44|236:2,1,105.825002018452,2|0,3:1|0:0,0:0:0:0:
252,4,24407,1,2,1:2:0:0:
399,41,24567,2,0,P|383:91|375:143,1,105.825002018452,2|0,3:1|0:0,0:0:0:0:
384,158,24886,1,2,0:0:0:0:
202,280,25046,2,2,P|132:292|64:311,1,141.100002691269,2|2,1:1|3:2,0:2:0:0:
292,329,25524,5,2,1:0:0:0:
292,329,25604,1,2,1:3:0:0:
296,333,25684,2,0,P|299:297|307:263,1,70.5500013456345,0|0,1:0|0:0,0:0:0:0:
156,190,26003,1,0,1:0:0:0:
265,19,26243,1,2,1:3:0:0:
270,34,26322,1,0,1:0:0:0:
236,129,26482,1,2,1:2:0:0:
320,174,26641,6,0,P|389:200|415:264,1,141.100002691269,6|0,3:1|1:0,0:0:0:0:
168,366,27120,2,0,P|168:314|207:281,1,105.825002018452,2|0,3:1|0:0,0:0:0:0:
221,287,27439,1,2,0:0:0:0:
134,209,27599,2,0,P|66:228|0:252,1,141.100002691269,2|0,1:1|3:0,0:0:0:0:
230,154,28078,2,0,P|226:115|234:72,1,70.5500013456345,0|2,0:0|3:2,0:0:0:0:
231,85,28317,1,2,1:2:0:0:
231,85,28397,1,2,0:0:0:0:
319,187,28556,1,0,3:0:0:0:
258,353,28716,1,0,3:0:0:0:
233,261,28875,5,12,1:2:0:0:
134,223,29035,1,2,0:0:0:0:
333,293,29195,5,8,1:1:0:0:
439,256,29354,1,8,1:1:0:0:
504,348,29514,1,0,3:0:0:0:
277,174,29673,5,8,1:0:0:0:
134,223,29833,1,8,1:0:0:0:
57,81,29992,1,0,3:0:0:0:
217,8,30152,6,0,P|208:50|195:113,1,99.5999969604493,12|0,1:1|0:0,0:0:0:0:
400,273,30471,5,0,1:0:0:0:
416,237,30551,1,0,1:0:0:0:
403,201,30631,1,0,1:0:0:0:
370,181,30711,1,0,1:0:0:0:
353,146,30790,1,0,1:0:0:0:
361,130,30870,2,0,L|415:139,2,49.7999984802247,0|0|0,1:0|1:0|1:0,0:0:0:0:
300,260,31110,2,0,L|309:314,3,49.7999984802247,0|0|0|0,1:0|1:0|1:0|1:0,0:0:0:0:
175,269,31429,5,0,1:0:0:0:
139,275,31508,1,0,1:0:0:0:
100,289,31588,1,0,1:0:0:0:
58,307,31668,1,0,1:0:0:0:
15,332,31748,6,0,B|-12:233|70:267|51:180,1,166,14|0,3:1|0:0,0:0:0:0:
180,130,31987,6,0,B|92:105|92:105|124:119|126:151,1,141.100002691269,6|0,3:1|0:0,0:0:0:0:
227,206,32227,6,0,L|358:162,1,132.8,6|0,3:1|0:0,0:0:0:0:
384,238,32546,6,0,B|378:273|338:297|338:297|362:275|363:238,1,132.8,8|0,1:0|0:0,0:0:0:0:
421,105,32785,6,0,B|454:92|495:114|495:114|464:104|441:117,1,132.8,8|0,1:0|0:0,0:0:0:0:
282,131,33024,6,0,B|254:108|253:62|253:62|260:94|283:107,1,132.8,8|0,1:0|0:0,0:0:0:0:
361,156,33344,5,2,0:0:0:0:
371,163,33663,1,2,0:0:0:0:
364,166,33982,1,2,0:0:0:0:
279,259,34301,5,6,3:1:0:0:
192,74,34461,2,0,B|148:81|148:81|126:100|126:100|79:110,1,107.89999506073,2|0,0:0|3:0,0:0:0:0:
7,89,34700,1,2,3:0:0:0:
0,99,34780,2,0,P|78:138|82:224,1,161.849992591095,10|0,1:0|0:0,0:0:0:0:
74,218,35099,1,2,0:0:0:0:
187,356,35258,2,0,P|180:302|181:248,1,107.89999506073,10|0,1:1|0:0,0:0:0:0:
355,147,35578,5,0,3:0:0:0:
270,114,35737,1,0,0:0:0:0:
192,161,35897,1,0,3:0:0:0:
192,161,36056,1,8,1:0:0:0:
427,208,36216,6,0,P|496:186|508:109,1,107.89999506073,2|0,3:2|0:0,0:0:0:0:
511,158,36455,1,2,1:2:0:0:
511,158,36535,2,0,P|507:131|478:109,1,53.9499975303651,8|0,1:0|0:0,0:0:0:0:
338,232,36695,5,2,0:0:0:0:
338,232,36774,1,2,1:3:0:0:
338,232,36854,2,0,B|338:320|403:267|408:367,1,161.849992591095,6|0,3:1|0:0,0:0:0:0:
401,378,37173,2,0,L|319:388,2,53.9499975303651,0|0|8,3:0|0:0|1:0,0:0:0:0:
449,211,37492,5,2,3:0:0:0:
436,216,37572,1,2,1:2:0:0:
279,325,37732,1,2,1:2:0:0:
265,315,37812,1,8,1:0:0:0:
95,216,37971,5,2,1:2:0:0:
95,216,38051,1,0,3:2:0:0:
95,216,38131,2,0,P|34:238|33:332,1,161.849992591095,6|0,3:1|0:0,0:0:0:0:
50,338,38450,1,0,3:0:0:0:
207,228,38610,2,0,P|201:201|197:175,1,53.9499975303651,8|0,1:0|0:0,0:0:0:0:
201,181,38769,2,0,P|254:174|306:159,1,107.89999506073,0|0,3:0|0:0,0:0:0:0:
409,259,39088,2,0,P|455:285|477:333,1,107.89999506073,10|0,1:0|0:0,0:0:0:0:
390,349,39328,5,8,1:1:0:0:
373,347,39407,1,6,3:1:0:0:
512,182,39567,2,0,P|459:175|407:160,1,107.89999506073,2|0,0:2|3:0,0:0:0:0:
294,10,39886,2,0,P|247:36|225:84,1,107.89999506073,10|0,1:0|0:0,0:0:0:0:
225,84,40125,1,0,3:0:0:0:
225,84,40205,1,0,3:0:0:0:
137,332,40365,2,0,P|120:265|87:167,1,161.849992591095,10|0,1:0|0:0,0:0:0:0:
78,170,40684,6,0,P|33:210|48:278,1,107.89999506073,4|0,3:2|0:0,0:0:0:0:
233,315,41003,2,0,P|290:330|354:382,1,107.89999506073,0|8,3:0|1:1,0:0:0:0:
494,202,41322,5,2,3:2:0:0:
446,175,41482,1,0,1:1:0:0:
364,203,41641,1,2,3:2:0:0:
266,157,41801,1,0,0:0:0:0:
158,186,41961,6,0,B|52:199|120:241|1:257,1,161.849992591095,4|0,3:1|0:0,0:0:0:0:
7,246,42280,1,0,3:0:0:0:
262,369,42439,2,0,L|243:254,1,107.89999506073,8|2,1:0|3:2,0:0:0:0:
244,262,42679,1,2,0:0:0:0:
244,262,42758,1,2,0:0:0:0:
244,262,42838,1,2,0:0:0:0:
244,262,42918,2,0,P|333:281|386:313,1,107.89999506073,2|0,3:2|0:0,0:0:0:0:
460,191,43157,5,2,1:2:0:0:
445,178,43237,2,0,B|383:160|345:198|345:198|391:195|419:229,1,166,2|0,3:1|0:0,0:0:0:0:
324,372,43477,6,0,P|402:373|438:303,1,166,2|0,1:1|0:0,0:0:0:0:
284,93,43716,2,0,P|277:133|265:173,1,83,10|0,1:1|0:0,0:0:0:0:
154,320,43875,6,0,P|82:282|57:205,1,166,14|2,3:2|1:0,0:0:0:0:
57,205,44115,1,2,1:1:0:0:
57,205,44195,2,0,P|105:196|126:186,1,53.9499975303651,8|0,1:1|0:0,0:0:0:0:
225,253,44354,2,0,P|232:293|244:333,1,83,2|0,1:1|0:0,0:0:0:0:
1,11,44514,6,2,P|99:3|107:100,1,215.79999012146,6|2,3:1|3:0,0:0:0:0:
286,152,44992,2,0,P|373:123|462:102,1,182.60000557251,10|0,1:1|0:0,0:0:0:0:
137,287,45471,2,0,P|126:339|112:391,1,91.300002786255,10|0,1:1|0:0,0:0:0:0:
247,249,45790,5,0,3:0:0:0:
190,168,45950,1,0,0:0:0:0:
190,168,46110,1,0,3:2:0:0:
219,78,46269,1,8,1:0:0:0:
106,198,46429,2,0,P|54:212|-14:218,1,107.89999506073,2|0,3:1|3:0,0:0:0:0:
0,218,46668,1,2,0:0:0:0:
0,218,46748,2,0,P|32:233|48:259,1,53.9499975303651,10|0,1:0|0:0,0:0:0:0:
225,362,46907,5,2,3:2:0:0:
225,362,46987,1,0,3:0:0:0:
225,362,47067,2,0,P|334:326|338:255,1,161.849992591095,4|0,3:2|0:0,0:0:0:0:
338,282,47386,2,0,P|300:267|269:263,2,53.9499975303651,0|0|8,3:0|0:0|1:0,0:0:0:0:
418,179,47705,5,0,3:0:0:0:
426,174,47785,1,2,1:2:0:0:
245,79,47945,1,2,1:2:0:0:
238,69,48024,1,8,1:0:0:0:
322,11,48184,5,2,1:3:0:0:
162,191,48344,2,0,P|81:194|34:119,1,161.849992591095,6|0,3:1|0:0,0:0:0:0:
46,123,48663,2,0,P|86:115|128:114,1,83,0|0,3:0|0:0,0:0:0:0:
202,306,48982,5,8,1:0:0:0:
89,341,49221,1,8,1:0:0:0:
98,352,49301,1,2,3:1:0:0:
182,206,49461,1,8,1:0:0:0:
317,330,49620,6,0,P|413:346|494:383,1,161.849992591095,6|0,3:2|0:0,0:0:0:0:
477,379,49939,1,0,3:0:0:0:
327,128,50099,2,0,B|317:170|317:170|298:186|298:186|288:226,1,107.89999506073,8|0,1:0|3:0,0:0:0:0:
162,304,50418,1,2,0:0:0:0:
45,174,50578,1,8,1:0:0:0:
162,217,50737,5,0,3:0:0:0:
162,217,50817,1,0,3:0:0:0:
162,217,50897,2,0,P|73:251|34:327,1,161.849992591095,4|0,3:2|0:0,0:0:0:0:
48,327,51216,1,0,3:0:0:0:
266,144,51375,1,8,1:0:0:0:
266,144,51535,2,0,P|283:94|266:44,1,107.89999506073,0|0,3:0|0:0,0:0:0:0:
370,264,51854,2,0,P|419:275|465:294,1,99.5999969604493,8|0,1:0|0:0,0:0:0:0:
193,83,52173,5,0,1:0:0:0:
154,92,52252,1,0,1:0:0:0:
122,116,52332,1,0,1:0:0:0:
105,152,52412,1,0,1:0:0:0:
73,176,52492,1,0,1:0:0:0:
33,172,52571,1,0,1:0:0:0:
20,165,52652,2,0,P|26:136|32:110,1,49.7999984802247,0|0,1:0|1:0,0:0:0:0:
85,333,52812,2,0,P|79:309|75:284,3,49.7999984802247,0|0|0|0,1:0|1:0|1:0|1:0,0:0:0:0:
181,290,53131,5,0,1:0:0:0:
184,267,53210,1,0,1:0:0:0:
214,244,53290,1,0,1:0:0:0:
259,242,53370,1,0,1:0:0:0:
274,246,53450,6,2,P|285:263|279:297,1,53.9499975303651,2|0,1:0|1:0,1:0:0:0:
411,208,53610,6,2,P|393:186|365:182,1,58.0999982269288,2|0,1:0|1:0,1:0:0:0:
386,37,53769,6,0,P|355:39|334:61,1,62.2500023746491,2|2,1:0|1:0,1:0:0:0:
213,1,53929,6,2,P|196:28|201:61,1,66.4,2|0,1:0|1:0,1:0:0:0:
131,162,54088,6,2,P|144:194|175:210,1,70.5500013456345,2|0,1:0|1:0,1:0:0:0:
265,155,54248,1,2,1:0:0:0:
265,155,54328,1,0,1:0:0:0:
265,155,54407,1,0,1:0:0:0:
203,148,54486,1,2,1:0:0:0:
144,173,54566,1,2,1:0:0:0:
87,226,54646,1,2,1:0:0:0:
74,312,54727,6,0,B|64:259|64:259|76:229|76:229|56:138,1,176.789991097916,14|0,3:1|0:0,0:0:0:0:
56,141,55046,2,0,L|-1:158,1,58.9299970326387,0|0,3:0|0:0,0:0:0:0:
95,35,55205,2,0,B|124:28|124:28|210:57,1,107.89999506073,10|0,1:0|3:0,0:0:0:0:
409,155,55604,1,8,1:0:0:0:
415,152,55684,1,2,3:1:0:0:
495,102,55844,1,8,1:0:0:0:
291,47,56003,6,0,B|280:101|280:101|324:150|324:150|314:204,1,176.789991097916,4|0,3:2|0:0,0:0:0:0:
314,226,56322,1,2,3:0:0:0:
227,251,56482,1,10,1:0:0:0:
156,293,56641,1,2,3:1:0:0:
146,304,56721,1,2,1:0:0:0:
47,229,56881,1,2,1:2:0:0:
28,227,56960,1,10,1:1:0:0:
234,349,57120,5,2,1:2:0:0:
234,349,57200,1,2,1:2:0:0:
234,349,57280,2,0,P|208:273|183:141,1,176.789991097916,6|0,3:1|0:0,0:0:0:0:
187,178,57599,2,0,P|166:187|139:219,1,58.9299970326387,0|0,3:0|0:0,0:0:0:0:
355,239,57758,2,0,P|404:255|408:331,1,117.859994065277,10|0,1:0|1:0,0:0:0:0:
346,56,58078,5,2,1:3:0:0:
346,56,58157,1,8,1:0:0:0:
346,56,58237,2,0,L|331:0,1,58.9299970326387,2|0,3:1|0:0,0:0:0:0:
424,102,58397,2,0,L|480:117,1,58.9299970326387,8|0,1:0|0:0,0:0:0:0:
338,150,58556,6,0,B|271:171|271:171|279:232|216:264,1,168.075000641155,6|0,3:1|0:0,0:0:0:0:
216,264,58875,1,0,3:0:0:0:
28,70,59035,2,0,P|100:83|146:91,1,104.579996808472,10|0,1:0|3:0,0:0:0:0:
181,179,59274,5,2,0:3:0:0:
173,183,59354,1,2,0:3:0:0:
105,249,59514,1,10,1:0:0:0:
20,219,59673,2,0,L|34:168,1,52.2899984042359,0|0,3:0|3:0,3:0:0:0:
287,314,59833,6,0,B|343:327|343:327|379:374|379:374|433:385,1,170.565004814839,6|0,3:1|0:0,0:0:0:0:
450,375,60152,1,0,3:0:0:0:
219,254,60312,2,0,B|190:296|190:296|201:347,1,103.75,10|0,1:0|3:0,0:0:0:0:
344,201,60631,1,2,0:0:0:0:
234,110,60790,2,0,P|184:121|128:126,1,107.89999506073,10|0,1:0|0:0,0:0:0:0:
58,63,61030,5,2,1:3:0:0:
52,78,61110,2,0,B|47:169|128:117|106:253,1,161.849992591095,4|0,3:2|0:0,0:0:0:0:
97,239,61429,1,0,3:0:0:0:
33,365,61588,1,10,1:0:0:0:
2,216,61748,5,0,3:0:0:0:
171,309,61907,1,0,1:0:0:0:
319,216,62067,2,0,L|498:257,1,161.849992591095,10|0,1:0|0:0,0:0:0:0:
476,252,62386,5,6,3:2:0:0:
393,257,62546,1,2,1:2:0:0:
315,312,62705,1,0,3:2:0:0:
53,189,62865,5,10,1:0:0:0:
208,172,63024,1,2,3:2:0:0:
293,42,63184,1,2,0:0:0:0:
96,66,63344,5,10,1:0:0:0:
299,225,63503,1,2,0:2:0:0:
116,360,63663,1,2,3:1:0:0:
115,339,63742,1,2,0:3:0:0:
140,303,63822,1,8,1:1:0:0:
195,285,63902,5,10,1:1:0:0:
207,287,63982,2,0,P|284:309|358:356,1,166,8|2,3:1|1:1,0:0:0:0:
441,125,64221,5,0,1:3:0:0:
424,118,64301,2,0,B|311:140|311:140|341:142|357:159,1,166,2|0,3:2|0:0,0:0:0:0:
440,316,64540,5,10,1:0:0:0:
449,302,64620,2,0,P|449:261|425:227,1,83,2|0,3:0|0:0,0:0:0:0:
254,75,64780,2,0,P|263:41|280:10,1,70.5500013456345,10|0,1:0|0:0,0:0:0:0:
167,216,64939,6,0,B|86:205|103:263|1:249,1,161.849992591095,6|0,3:1|0:0,0:0:0:0:
0,240,65258,1,0,3:0:0:0:
257,383,65418,2,0,B|266:330|266:330|251:281,1,104.579996808472,10|2,1:0|3:0,0:0:0:0:
165,322,65737,1,0,3:0:0:0:
333,164,65897,2,0,L|462:198,1,104.579996808472,10|0,1:1|1:0,1:0:0:0:
441,199,66136,5,8,1:0:0:0:
441,199,66216,2,0,P|381:241|388:344,1,156.869995212708,4|0,3:2|0:0,0:0:0:0:
388,333,66535,1,0,3:0:0:0:
235,158,66695,2,0,P|250:99|262:23,1,104.579996808472,10|0,1:0|3:0,0:0:0:0:
103,235,67014,1,2,1:2:0:0:
97,254,67094,2,0,P|60:273|-10:293,1,104.579996808472,2|0,1:2|0:0,0:0:0:0:
150,161,67333,5,2,1:3:0:0:
150,161,67413,1,2,1:2:0:0:
150,161,67492,2,0,B|207:172|207:172|237:206|237:206|289:218,1,156.869995212708,6|0,3:1|0:0,0:0:0:0:
305,210,67812,1,0,3:0:0:0:
398,246,67971,1,10,1:0:0:0:
484,200,68131,1,2,3:2:0:0:
478,188,68211,1,0,1:0:0:0:
319,313,68370,1,2,1:2:0:0:
327,323,68450,1,10,1:0:0:0:
235,152,68610,5,2,1:2:0:0:
235,152,68689,1,2,1:2:0:0:
235,152,68769,2,2,B|259:53|259:53|334:67,1,169.320001033447,2|0,3:2|0:0,0:1:0:0:
346,82,69088,1,0,3:0:0:0:
141,231,69248,2,0,B|177:225|177:225|194:290,1,104.579996808472,10|0,1:0|3:0,0:0:0:0:
126,331,69487,1,2,1:3:0:0:
115,332,69567,1,0,1:0:0:0:
268,384,69727,6,0,L|284:319,3,52.2899984042359,8|0|0|0,1:0|1:0|1:0|1:0,0:0:0:0:
373,282,70046,2,0,B|454:290|454:290|478:309|478:309|416:303,1,171.810000262161,6|0,3:1|0:0,0:0:0:0:
281,237,70365,6,0,L|267:181,1,57.2700000873871,2|0,3:0|0:0,0:0:0:0:
187,119,70524,2,0,B|106:127|106:127|81:146|81:146|144:140,1,171.810000262161,10|0,1:1|0:0,0:0:0:0:
170,135,70844,1,2,1:2:0:0:
276,49,71003,2,0,B|348:57|348:57|374:87,1,97.9399965627748,10|0,1:0|0:0,0:0:0:0:
480,50,71242,5,2,1:3:0:0:
485,68,71322,2,0,P|388:119|369:183,1,169.320001033447,6|0,3:2|1:0,1:0:0:0:
260,336,71641,2,0,P|250:282|233:218,1,112.880000688965,12|0,3:1|1:1,1:1:0:0:
62,336,71961,1,4,3:0:0:0:
102,365,72041,1,4,3:0:0:0:
147,355,72120,1,4,3:0:0:0:
381,266,72280,6,0,P|443:279|481:351,1,141.929998267456,12|0,1:0|0:0,0:0:0:0:
475,348,72599,2,0,P|436:357|382:358,1,86.3199994731445,10|0,1:1|0:0,0:0:0:0:
312,206,72918,5,10,1:1:0:0:
271,304,73078,1,8,1:0:0:0:
208,363,73237,5,10,1:0:0:0:
158,215,73397,1,8,1:0:0:0:
85,166,73556,5,10,1:0:0:0:
16,315,73716,1,8,1:0:0:0:
230,166,73875,5,10,1:0:0:0:
133,17,74035,1,8,1:0:0:0:
356,116,74195,5,10,1:0:0:0:
222,283,74354,1,8,1:0:0:0:
222,283,74514,6,0,B|311:272|282:335|386:320,1,164.339999498474,8|0,1:0|0:0,0:0:0:0:
151,176,75152,6,0,P|190:171|229:164,1,79.6800019453126,6|0,3:2|0:0,0:0:0:0:
90,119,75471,1,2,1:0:0:0:
234,157,75631,2,0,P|169:173|148:272,1,159.360003890625,0|0,3:0|3:0,0:0:0:0:
42,318,76110,2,0,B|50:278|50:278|32:239,1,79.6800019453126,8|0,1:0|3:0,0:0:0:0:
242,287,76429,5,0,1:0:0:0:
336,318,76668,1,0,1:0:0:0:
436,355,76907,1,0,1:0:0:0:
460,122,77067,5,2,0:0:0:0:
387,190,77227,1,2,0:0:0:0:
471,137,77386,2,0,P|482:170|483:217,1,79.6800019453126,8|2,1:0|0:0,0:0:0:0:
313,296,77705,2,0,P|301:258|300:218,1,79.6800019453126,2|2,3:2|0:0,0:0:0:0:
300,218,77945,1,0,3:0:0:0:
300,218,78024,1,0,1:0:0:0:
187,111,78184,6,0,B|100:129|114:84|30:105,1,159.360003890625,0|0,1:0|3:0,0:0:0:0:
141,344,78663,2,0,P|170:324|179:243,1,119.520002917969,8|0,1:0|0:0,0:0:0:0:
167,234,78982,6,0,P|102:243|63:260,1,79.6800019453126,4|2,3:2|0:0,0:0:0:0:
89,247,79221,1,0,3:0:0:0:
89,247,79301,1,2,1:0:0:0:
270,318,79461,2,0,P|346:343|419:374,1,159.360003890625,0|0,1:0|1:0,0:0:0:0:
512,233,79939,2,0,P|454:241|419:262,1,79.6800019453126,4|0,1:1|0:0,0:0:0:0:
279,161,80258,6,0,P|205:139|166:56,1,159.360003890625,4|0,3:2|3:0,0:0:0:0:
239,20,80737,2,0,P|278:26|317:35,1,79.6800019453126,8|0,1:0|3:0,0:0:0:0:
239,20,81056,1,0,1:0:0:0:
200,238,81216,2,0,P|207:202|180:151,1,79.6800019453126,8|0,1:0|0:0,0:0:0:0:
191,162,81455,5,0,1:0:0:0:
191,162,81535,2,0,P|125:178|61:251,1,159.360003890625,0|0,3:0|3:0,0:0:0:0:
292,328,82014,2,0,P|277:276|276:241,1,79.6800019453126,8|0,1:0|1:0,0:0:0:0:
407,189,82333,1,0,3:0:0:0:
407,189,82413,1,0,1:0:0:0:
407,189,82492,2,0,P|457:212|475:257,1,79.6800019453126,8|0,1:0|0:0,0:0:0:0:
370,333,82812,6,0,B|279:332|322:380|199:386,1,159.360003890625,4|0,3:2|3:0,0:0:0:0:
100,229,83290,2,0,B|119:261|119:261|112:303,1,79.6800019453126,8|2,1:0|0:0,0:0:0:0:
27,277,83610,1,0,3:0:0:0:
196,147,83769,2,0,L|344:176,1,119.520002917969,8|0,1:0|0:0,0:0:0:0:
313,169,84088,1,4,3:1:0:0:
396,209,84248,5,10,1:0:0:0:
462,156,84407,1,10,1:0:0:0:
107,307,84567,5,0,3:0:0:0:
234,262,84727,1,10,1:0:0:0:
352,311,84886,1,10,1:0:0:0:
384,110,85046,5,2,3:3:0:0:
221,384,85205,1,12,1:0:0:0:
