osu file format v14

[General]
AudioFilename: audio.mp3
AudioLeadIn: 0
PreviewTime: 34419
Countdown: 0
SampleSet: Soft
StackLeniency: 0.7
Mode: 0
LetterboxInBreaks: 0
WidescreenStoryboard: 0

[Editor]
DistanceSpacing: 0.3
BeatDivisor: 4
GridSize: 32
TimelineZoom: 2.4

[Metadata]
Title:ego-izm (TV Size)
TitleUnicode:ego-izm (TV Size)
Artist:la la larks
ArtistUnicode:la la larks
Creator:- Frontier -
Version:Lost's Insane
Source:M3~ソノ黒キ鋼~
Tags:lalalarks sfp school food punishment yumi uchimura egoizm egoism tetsu dark metal M3: Sono Kuroki Hagane ending ed japanese anime [_lost_] c_o_n_n_e_r shockolatte xhappy- p_kung
BeatmapID:1894357
BeatmapSetID:907759

[Difficulty]
HPDrainRate:6
CircleSize:4
OverallDifficulty:7
ApproachRate:9
SliderMultiplier:1.72
SliderTickRate:1

[Events]
//Background and Video events
0,0,"BG.jpg",0,0
Video,1865,"video.avi"
//Break Periods
//Storyboard Layer 0 (Background)
//Storyboard Layer 1 (Fail)
//Storyboard Layer 2 (Pass)
//Storyboard Layer 3 (Foreground)
//Storyboard Sound Samples

[TimingPoints]
2185,319.148936170213,4,2,1,40,1,0
2185,-133.333333333333,4,2,1,40,0,0
4419,-133.333333333333,4,2,1,20,0,0
4578,-133.333333333333,4,2,1,40,0,0
6972,-133.333333333333,4,2,1,30,0,0
7131,-133.333333333333,4,2,1,25,0,0
7450,-133.333333333333,4,2,1,40,0,0
7929,-133.333333333333,4,2,1,25,0,0
8089,-133.333333333333,4,2,1,40,0,0
12397,-133.333333333333,4,2,1,50,0,0
13514,-133.333333333333,4,2,1,30,0,0
13674,-133.333333333333,4,2,1,50,0,0
22610,-100,4,2,2,60,0,0
22849,-100,4,2,2,5,0,0
22929,-100,4,2,2,60,0,0
23807,-100,4,2,2,5,0,0
23887,-100,4,2,2,60,0,0
25403,-100,4,2,2,5,0,0
25482,-100,4,2,2,60,0,0
26041,-100,4,2,2,5,0,0
26121,-100,4,2,2,60,0,0
27956,-100,4,2,2,5,0,0
28036,-100,4,2,2,60,0,0
28913,-100,4,2,2,5,0,0
28993,-100,4,2,2,60,0,0
30270,-100,4,2,2,70,0,0
30589,-100,4,2,2,60,0,0
30748,-100,4,2,2,70,0,0
31067,-100,4,2,2,60,0,0
31227,-100,4,2,2,70,0,0
31466,-100,4,2,2,5,0,0
31546,-100,4,2,2,40,0,0
31865,-100,4,2,2,50,0,0
32185,-100,4,2,2,60,0,0
32504,-100,4,2,2,70,0,0
32823,-83.3333333333333,4,2,2,70,0,0
33302,-83.3333333333333,4,2,2,70,0,0
33621,-66.6666666666667,4,2,2,60,0,0
34419,-125,4,2,1,20,0,0
34658,-125,4,2,1,5,0,0
34738,-100,4,2,1,40,0,0
34977,-100,4,2,1,5,0,0
35057,-83.3333333333333,4,2,1,60,0,0
35296,-83.3333333333333,4,2,1,5,0,0
35376,-83.3333333333333,4,2,1,60,0,1
36892,-83.3333333333333,4,2,1,5,0,1
36972,-83.3333333333333,4,2,1,60,0,1
38169,-83.3333333333333,4,2,1,5,0,1
38248,-83.3333333333333,4,2,1,60,0,1
39445,-83.3333333333333,4,2,1,5,0,1
39525,-83.3333333333333,4,2,1,60,0,1
40403,-83.3333333333333,4,2,1,5,0,1
40482,-83.3333333333333,4,2,1,60,0,1
41998,-83.3333333333333,4,2,1,5,0,1
42078,-83.3333333333333,4,2,1,60,0,1
43275,-83.3333333333333,4,2,1,5,0,1
43355,-83.3333333333333,4,2,1,60,0,1
44312,-83.3333333333333,4,2,1,70,0,1
45509,-83.3333333333333,4,2,1,5,0,1
45589,-83.3333333333333,4,2,1,70,0,0
45669,-83.3333333333333,4,2,1,60,0,1
45908,-83.3333333333333,4,2,1,60,0,1
48381,-83.3333333333333,4,2,1,5,0,1
48461,-83.3333333333333,4,2,1,60,0,1
49658,-83.3333333333333,4,2,1,5,0,1
49738,-83.3333333333333,4,2,1,70,0,1
50935,-83.3333333333333,4,2,1,5,0,1
51014,-83.3333333333333,4,2,1,60,0,1
52211,-83.3333333333333,4,2,1,5,0,1
52291,-83.3333333333333,4,2,1,60,0,1
53169,-83.3333333333333,4,2,1,5,0,1
53248,-83.3333333333333,4,2,1,30,0,1
53567,-83.3333333333333,4,2,1,35,0,1
53887,-83.3333333333333,4,2,1,40,0,1
54206,-83.3333333333333,4,2,1,45,0,1
54525,-83.3333333333333,4,2,1,50,0,1
54844,-83.3333333333333,4,2,1,55,0,1
55163,-83.3333333333333,4,2,1,60,0,1
55482,-83.3333333333333,4,2,1,65,0,1
55802,-83.3333333333333,4,2,1,70,0,0
55881,-83.3333333333333,4,2,1,60,0,1
56041,-83.3333333333333,4,2,1,5,0,1
56121,-83.3333333333333,4,2,1,60,0,1
57956,-83.3333333333333,4,2,1,5,0,1
58036,-83.3333333333333,4,2,1,60,0,1
59871,-83.3333333333333,4,2,1,5,0,1
59950,-83.3333333333333,4,2,1,60,0,1
60828,-83.3333333333333,4,2,1,5,0,1
60908,-83.3333333333333,4,2,1,60,0,1
62424,-83.3333333333333,4,2,1,5,0,1
62504,-83.3333333333333,4,2,1,60,0,1
63780,-83.3333333333333,4,2,1,60,0,1
64738,-83.3333333333333,4,2,1,70,0,1
65615,-83.3333333333333,4,2,1,5,0,1
65695,-83.3333333333333,4,2,1,70,0,1
66014,-83.3333333333333,4,2,1,70,0,0
66094,-83.3333333333333,4,2,1,60,0,1
66254,-83.3333333333333,4,2,1,5,0,1
66333,-83.3333333333333,4,2,1,60,0,1
68807,-83.3333333333333,4,2,1,5,0,1
68887,-83.3333333333333,4,2,1,60,0,1
70083,-83.3333333333333,4,2,1,5,0,1
70163,-83.3333333333333,4,2,1,60,0,1
71360,-83.3333333333333,4,2,1,5,0,1
71440,-83.3333333333333,4,2,1,60,0,1
72637,-83.3333333333333,4,2,1,5,0,1
72716,-83.3333333333333,4,2,1,60,0,1
73355,-83.3333333333333,4,2,1,70,0,1
73674,-83.3333333333333,4,2,1,60,0,1
73913,-83.3333333333333,4,2,1,5,0,1
73993,-83.3333333333333,4,2,1,30,0,1
74153,-83.3333333333333,4,2,1,35,0,1
74312,-83.3333333333333,4,2,1,40,0,1
74472,-83.3333333333333,4,2,1,45,0,1
74631,-83.3333333333333,4,2,1,50,0,1
74791,-83.3333333333333,4,2,1,55,0,1
74950,-83.3333333333333,4,2,1,60,0,1
75110,-83.3333333333333,4,2,1,65,0,1
75270,-83.3333333333333,4,2,1,70,0,1
75589,-142.857142857143,4,2,1,40,0,0
76147,-142.857142857143,4,2,1,5,0,0
76227,-100,4,2,1,50,0,1
76307,-100,4,2,1,50,0,0
76786,-100,4,2,1,5,0,0
76865,-100,4,2,1,50,0,0
77504,-100,4,2,1,50,0,0
79020,-100,4,2,1,5,0,0
79099,-100,4,2,1,50,0,0
81573,-100,4,2,1,5,0,0
81653,-100,4,2,1,50,0,0
82849,-100,4,2,1,5,0,0
82929,-100,4,2,1,50,0,0
84126,-100,4,2,1,5,0,0
84206,-100,4,2,1,50,0,0
85323,-100,4,2,1,70,0,0
85642,-100,4,2,1,50,0,0
85802,-100,4,2,1,70,0,0
86121,-100,4,2,1,50,0,0
86280,-100,4,2,1,70,0,0
86360,-100,4,2,1,20,0,0
88993,-100,4,2,1,5,0,0

[Colours]
Combo1 : 44,100,233
Combo2 : 128,64,64
Combo3 : 198,226,255
Combo4 : 255,88,100

[HitObjects]
129,214,2185,6,0,P|176:208|204:199,1,64.5000024604798,0|2,0:0|0:0,0:0:0:0:
171,70,2504,2,0,L|156:143,1,64.5000024604798,0|0,0:0|0:0,0:0:0:0:
72,71,2823,2,0,P|64:25|57:2,1,64.5000024604798,2|0,0:0|0:0,0:0:0:0:
243,123,3142,2,0,P|290:117|318:108,1,64.5000024604798,0|2,3:0|0:0,0:0:0:0:
129,214,3461,6,0,P|71:175|-12:178,1,129.00000492096,8|0,0:0|0:0,0:0:0:0:
72,377,3940,2,0,P|63:313|52:249,1,129.00000492096,8|0,0:0|0:0,0:0:0:0:
143,298,4419,2,0,P|174:286|199:262,1,64.5000024604798,6|0,0:0|0:0,0:0:0:0:
420,224,4738,6,0,P|373:218|345:209,1,64.5000024604798,0|2,0:0|0:0,0:0:0:0:
378,80,5057,2,0,L|393:153,1,64.5000024604798,0|0,0:0|0:0,0:0:0:0:
477,81,5376,2,0,P|485:35|492:12,1,64.5000024604798,2|0,0:0|0:0,0:0:0:0:
306,133,5695,2,0,P|259:127|231:118,1,64.5000024604798,0|2,0:0|0:0,0:0:0:0:
230,110,6174,5,0,0:0:0:0:
310,150,6333,2,0,L|296:220,1,64.5000024604798,2|0,0:0|0:0,0:0:0:0:
150,317,6653,5,0,0:0:0:0:
230,277,6812,2,0,L|216:207,1,64.5000024604798,2|0,0:0|3:0,0:0:0:0:
75,97,7131,5,0,1:0:0:0:
155,137,7291,2,0,L|141:207,1,64.5000024604798,0|0,0:0|0:0,0:0:0:0:
149,45,7610,6,0,P|192:38|214:26,1,64.5000024604798,2|8,0:0|0:0,0:0:0:0:
75,97,7929,2,0,P|45:83|13:80,1,64.5000024604798,4|0,0:3|0:0,0:0:0:0:
81,216,8248,2,0,P|112:212|142:199,1,64.5000024604798,0|2,3:0|0:0,0:0:0:0:
38,372,8567,6,0,P|-5:343|30:277,1,129.00000492096,0|2,0:0|0:0,0:0:0:0:
227,296,9046,2,0,P|177:306|83:315,1,129.00000492096,0|10,0:0|0:0,0:0:0:0:
307,350,9525,2,0,P|348:360|380:378,1,64.5000024604798,0|0,0:0|3:0,0:0:0:0:
319,255,9844,6,0,P|310:218|314:188,1,64.5000024604798,8|2,0:0|0:0,0:0:0:0:
447,173,10163,2,0,P|419:199|391:210,1,64.5000024604798,0|8,0:0|0:0,0:0:0:0:
312,100,10482,2,0,P|348:110|372:129,1,64.5000024604798,2|0,0:0|0:0,0:0:0:0:
235,217,10802,2,0,P|196:204|167:198,1,64.5000024604798,0|0,0:0|0:0,0:0:0:0:
167,102,11121,6,0,P|198:94|228:84,1,64.5000024604798,0|0,0:0|0:0,0:0:0:0:
91,157,11440,2,0,P|75:194|70:229,1,64.5000024604798,2|0,0:0|0:0,0:0:0:0:
77,63,11759,2,0,P|70:31|56:2,1,64.5000024604798,0|2,0:0|0:0,0:0:0:0:
173,199,12078,1,0,0:0:0:0:
173,199,12397,6,0,P|216:195|246:184,1,64.5000024604798,4|0,0:3|0:0,0:0:0:0:
308,134,12716,1,0,0:0:0:0:
322,310,12876,2,0,P|277:286|197:286,1,129.00000492096,10|0,0:0|0:0,0:0:0:0:
354,215,13355,2,0,P|399:214|425:203,1,64.5000024604798,8|8,3:2|0:0,0:0:0:0:
499,258,13674,6,0,P|477:311|461:385,1,129.00000492096,0|2,0:0|0:0,0:0:0:0:
427,189,14153,2,0,P|413:125|389:66,1,129.00000492096,0|0,0:0|0:0,0:0:0:0:
511,17,14631,2,0,P|494:55|488:90,1,64.5000024604798,2|0,3:2|0:0,0:0:0:0:
330,61,14950,6,0,P|370:47|397:45,1,64.5000024604798,4|0,0:3|0:0,0:0:0:0:
247,17,15270,1,0,0:0:0:0:
193,102,15429,6,0,P|233:116|260:118,1,64.5000024604798,8|0,2:0|0:0,0:0:0:0:
119,153,15748,1,0,0:0:0:0:
65,58,15908,6,0,P|105:44|132:42,1,64.5000024604798,8|4,2:2|2:3,0:0:0:0:
122,29,16387,6,0,P|90:33|60:45,1,64.5000024604798,0|2,3:0|0:0,0:0:0:0:
193,102,16706,1,0,0:0:0:0:
123,163,16865,6,0,P|95:145|65:135,1,64.5000024604798,0|2,0:0|3:2,0:0:0:0:
42,262,17185,2,0,P|32:231|15:203,1,64.5000024604798,0|0,0:0|0:0,0:0:0:0:
118,326,17504,6,0,P|154:324|185:306,1,64.5000024604798,4|0,0:3|0:0,0:0:0:0:
233,239,17823,1,8,0:0:0:0:
297,301,17982,2,0,B|361:286|358:333|437:311,1,129.00000492096,4|0,2:3|0:0,0:0:0:0:
482,246,18461,2,0,P|487:202|474:171,1,64.5000024604798,8|4,0:0|3:0,0:0:0:0:
414,121,18780,6,0,P|360:110|307:182,1,129.00000492096,0|0,0:0|0:0,0:0:0:0:
185,0,19259,2,0,P|202:52|291:62,1,129.00000492096,2|8,0:0|0:3,0:0:0:0:
219,215,19738,2,0,P|227:174|222:136,1,64.5000024604798,10|0,0:0|0:0,0:0:0:0:
121,82,20057,6,0,P|113:123|118:161,1,64.5000024604798,4|0,0:3|0:0,0:0:0:0:
131,234,20376,1,0,0:0:0:0:
222,132,20536,1,4,3:0:0:0:
36,167,20695,2,0,P|50:231|61:299,1,129.00000492096,0|8,0:0|0:0,0:0:0:0:
136,342,21174,1,4,2:3:0:0:
136,342,21493,5,0,3:2:0:0:
263,295,21653,2,0,P|227:284|197:287,1,64.5000024604798,4|0,0:0|0:0,0:0:0:0:
336,370,21972,5,8,0:0:0:0:
416,251,22131,1,4,3:2:0:0:
416,251,22610,6,0,P|404:197|399:106,1,129,8|0,0:0|0:0,0:0:0:0:
407,132,22929,2,0,P|419:90|420:48,1,86,8|0,0:0|1:2,0:0:0:0:
307,0,23248,2,0,P|294:41|293:83,1,86,8|0,0:0|0:0,0:0:0:0:
303,202,23567,2,0,P|257:183|166:172,1,129,2|0,1:2|0:0,0:0:0:0:
167,176,23887,6,0,P|210:162|250:143,1,86,8|0,0:0|0:0,0:0:0:0:
66,221,24206,2,0,P|56:265|53:309,1,86,10|0,0:0|0:0,0:0:0:0:
182,92,24525,2,0,P|178:49|169:7,1,86,10|0,0:0|0:0,0:0:0:0:
157,11,24764,1,2,0:0:0:0:
143,16,24844,2,0,P|74:9|44:2,1,86,10|2,0:0|0:0,0:0:0:0:
8,141,25163,6,0,P|54:123|137:158,1,129,0|0,1:0|0:0,0:0:0:0:
141,161,25482,2,0,P|152:208|155:253,1,86,0|0,0:0|1:0,0:0:0:0:
115,360,25802,2,0,B|174:335|214:339|214:339|261:362,1,129,0|0,0:0|0:0,0:0:0:0:
254,360,26121,2,0,P|308:357|346:331,1,86,6|0,1:2|0:0,0:0:0:0:
293,187,26440,6,0,L|280:278,1,86,8|0,0:0|0:0,0:0:0:0:
369,98,26759,2,0,P|334:72|293:60,1,86,8|0,0:0|0:0,0:0:0:0:
396,219,27078,2,0,P|442:205|473:180,1,86,10|0,0:0|0:0,0:0:0:0:
479,167,27317,1,2,0:0:0:0:
487,151,27397,2,0,L|474:60,1,86,10|2,0:0|0:0,0:0:0:0:
367,10,27716,6,0,P|319:29|237:44,1,129,0|0,1:0|0:0,0:0:0:0:
229,40,28036,2,0,P|186:23|137:18,1,86,8|2,0:0|1:2,0:0:0:0:
23,123,28355,2,0,P|66:106|115:101,1,86,0|0,0:0|0:0,0:0:0:0:
241,204,28674,2,0,B|191:179|148:176|148:176|168:189|177:204,1,129,6|0,1:2|0:0,0:0:0:0:
180,206,28993,6,0,L|194:117,1,86,2|0,0:0|0:0,0:0:0:0:
57,233,29312,2,0,L|71:322,1,86,10|0,0:0|0:0,0:0:0:0:
249,328,29631,2,0,P|198:306|158:299,1,86,8|0,0:0|1:0,0:0:0:0:
337,249,29950,2,0,P|378:239|417:221,1,86,4|0,0:0|0:0,0:0:0:0:
276,125,30270,5,0,1:0:0:0:
426,212,30429,2,0,P|416:264|412:308,1,86,0|0,1:0|0:0,0:0:0:0:
241,204,30748,5,0,1:0:0:0:
391,117,30907,2,0,P|381:64|377:21,1,86,0|0,1:0|0:0,0:0:0:0:
163,82,31227,2,0,P|216:124|285:121,1,129,0|0,1:0|0:0,0:0:0:0:
290,112,31546,6,0,L|281:61,3,43,0|0|0|0,1:0|1:0|1:0|1:0,0:0:0:0:
241,204,31865,2,0,L|232:255,3,43,0|0|0|0,1:0|1:0|1:0|1:0,0:0:0:0:
157,97,32185,5,0,1:0:0:0:
135,83,32264,1,0,1:0:0:0:
109,77,32344,1,0,1:0:0:0:
83,77,32424,1,0,1:0:0:0:
50,84,32504,6,0,P|25:94|8:113,1,43,0|0,1:0|1:0,0:0:0:0:
107,214,32663,2,0,P|102:193|93:174,1,43,0|0,1:0|1:0,0:0:0:0:
0,298,32823,6,0,B|53:285|53:285|101:298|101:298|157:285,2,154.799995275879,4|4|4,1:2|1:2|1:2,0:0:0:0:
315,141,33621,6,0,P|247:164|155:91,2,193.50000738144,0|0|0,1:2|1:2|1:2,0:0:0:0:
371,54,34259,1,0,0:0:0:0:
247,190,34419,6,0,P|264:229|279:294,1,103.2,4|0,0:0|0:0,0:0:0:0:
230,358,34738,6,0,B|290:339|293:387|384:356,1,129,4|0,0:0|0:0,0:0:0:0:
467,313,35057,6,0,P|413:296|357:372,1,154.799995275879,4|0,0:0|0:0,0:0:0:0:
365,286,35376,6,0,P|383:229|384:178,1,103.199996850586,4|0,1:1|0:0,0:0:0:0:
279,86,35695,1,8,0:0:0:0:
394,205,35855,2,0,L|502:180,1,103.199996850586,8|0,1:0|0:0,0:0:0:0:
354,42,36174,1,8,0:0:0:0:
255,263,36333,2,0,L|363:288,1,103.199996850586,8|0,1:0|0:0,0:0:0:0:
265,86,36653,6,0,P|205:74|135:138,1,154.799995275879,8|0,2:0|0:0,0:0:0:0:
116,143,36972,2,0,P|51:143|15:105,1,103.199996850586,8|8,2:0|1:0,0:0:0:0:
172,221,37291,2,0,P|167:288|142:324,1,103.199996850586,8|0,0:0|0:0,0:0:0:0:
0,216,37610,2,0,P|5:149|30:113,1,103.199996850586,8|0,1:0|0:0,0:0:0:0:
151,51,37929,6,0,B|232:41|223:94|311:79,1,154.799995275879,4|0,1:1|0:0,0:0:0:0:
366,38,38248,2,0,P|423:36|463:67,1,103.199996850586,8|8,2:0|1:0,0:0:0:0:
498,201,38567,1,8,0:0:0:0:
364,258,38727,1,0,0:0:0:0:
349,269,38807,1,0,0:0:0:0:
335,282,38887,2,0,L|318:176,1,103.199996850586,8|0,1:0|0:0,0:0:0:0:
449,360,39206,6,0,P|382:324|296:321,1,154.799995275879,8|0,0:0|0:0,0:0:0:0:
285,329,39525,2,0,L|166:360,1,103.199996850586,0|8,1:0|1:0,0:0:0:0:
112,213,39844,2,0,P|166:224|200:275,1,103.199996850586,8|8,1:0|2:0,0:0:0:0:
45,368,40163,2,0,B|3:315|3:315|29:198,1,154.799995275879,0|0,1:0|0:0,0:0:0:0:
28,214,40482,6,0,L|17:112,1,103.199996850586,4|0,1:0|0:0,0:0:0:0:
120,8,40802,1,8,0:0:0:0:
225,105,40961,2,0,P|285:101|327:73,1,103.199996850586,8|0,1:0|0:0,0:0:0:0:
120,8,41280,1,8,2:0:0:0:
156,192,41440,2,0,P|200:216|251:217,1,103.199996850586,8|0,1:0|0:0,0:0:0:0:
348,71,41759,6,0,P|271:28|184:26,1,154.799995275879,8|0,2:0|0:0,0:0:0:0:
189,34,42078,2,0,P|142:65|87:78,1,103.199996850586,8|0,1:0|1:0,0:0:0:0:
404,190,42397,2,0,P|354:175|312:146,1,103.199996850586,8|8,0:0|0:0,0:0:0:0:
156,277,42716,2,0,P|198:248|247:233,1,103.199996850586,8|8,1:0|0:0,0:0:0:0:
349,366,43036,6,0,B|332:265|332:265|362:278|395:281,1,154.799995275879,12|0,1:0|0:0,0:0:0:0:
397,283,43355,2,0,P|452:268|484:233,1,103.199996850586,8|8,2:0|1:0,0:0:0:0:
332,75,43674,2,0,L|314:186,1,103.199996850586,0|8,0:0|2:0,0:0:0:0:
477,102,43993,2,0,L|460:0,1,103.199996850586,8|12,1:0|1:0,0:0:0:0:
321,80,44312,6,0,P|266:78|166:38,2,154.799995275879,4|4|4,1:2|0:2|1:2,0:0:0:0:
216,169,44950,2,0,P|194:225|185:278,1,103.199996850586,12|0,2:0|0:0,0:0:0:0:
106,161,45270,2,0,P|86:99|42:14,1,154.799995275879,8|0,1:0|0:0,0:0:0:0:
31,29,45589,6,0,P|81:51|217:1,1,206.399993701172,4|8,1:0|2:0,0:0:0:0:
337,79,46067,1,8,1:0:0:0:
337,79,46147,1,0,0:0:0:0:
337,79,46227,2,0,P|405:74|448:50,1,103.199996850586,8|0,2:0|0:0,0:0:0:0:
505,227,46546,2,0,P|457:207|406:207,1,103.199996850586,8|0,1:0|0:0,0:0:0:0:
325,353,46865,5,8,1:0:0:0:
435,297,47025,1,0,0:0:0:0:
221,184,47185,5,8,0:0:0:0:
331,240,47345,1,8,1:0:0:0:
132,348,47504,6,0,P|192:324|255:308,1,103.199996850586,8|0,2:0|0:0,0:0:0:0:
221,184,47823,2,0,P|165:169|125:123,1,103.199996850586,8|0,1:0|0:0,0:0:0:0:
0,79,48142,6,0,P|12:141|27:265,1,154.799995275879,8|0,0:1|0:0,0:0:0:0:
16,246,48461,2,0,P|76:222|139:206,1,103.199996850586,8|8,2:0|1:0,0:0:0:0:
179,56,48780,2,0,P|129:41|81:21,1,103.199996850586,0|8,0:0|2:0,0:0:0:0:
227,204,49099,2,0,P|280:180|313:125,1,103.199996850586,8|0,1:0|0:0,0:0:0:0:
391,26,49419,6,0,B|353:71|353:71|370:185,1,154.799995275879,8|0,1:1|0:0,0:0:0:0:
378,177,49738,2,0,P|331:156|268:141,1,103.199996850586,8|8,1:2|1:1,0:0:0:0:
375,308,50057,2,0,P|424:295|471:273,1,103.199996850586,8|0,1:0|1:0,0:0:0:0:
481,260,50296,1,0,1:0:0:0:
489,244,50376,2,0,L|476:135,1,103.199996850586,8|0,1:0|1:0,0:0:0:0:
376,326,50695,6,0,P|303:318|235:234,1,154.799995275879,4|0,1:0|0:0,0:0:0:0:
234,245,51014,2,0,P|251:302|256:357,1,103.199996850586,8|8,2:0|1:0,0:0:0:0:
127,181,51333,2,0,P|167:137|212:105,1,103.199996850586,0|8,0:0|2:0,0:0:0:0:
136,314,51653,2,0,P|78:300|28:277,1,103.199996850586,8|0,1:0|0:0,0:0:0:0:
35,91,51972,6,0,B|106:75|105:130|211:114,1,154.799995275879,8|0,1:0|0:0,0:0:0:0:
202,111,52291,2,0,P|212:50|201:7,1,103.199996850586,8|8,0:0|1:0,0:0:0:0:
312,181,52610,2,0,P|373:191|416:180,1,103.199996850586,8|0,2:0|0:0,0:0:0:0:
468,18,52929,2,0,P|420:9|367:91,1,154.799995275879,8|0,1:0|0:0,0:0:0:0:
372,104,53248,6,0,L|319:89,3,51.599998425293,4|0|0|0,1:0|1:0|1:0|1:0,0:0:0:0:
436,187,53567,2,0,L|489:172,3,51.599998425293,0|0|0|0,1:0|1:0|1:0|1:0,0:0:0:0:
341,218,53887,6,0,L|288:203,3,51.599998425293,0|0|0|0,1:0|1:0|1:0|1:0,0:0:0:0:
405,301,54206,2,0,L|458:286,3,51.599998425293,0|0|0|0,1:0|1:0|1:0|1:0,0:0:0:0:
323,358,54525,5,6,1:2:0:0:
297,339,54605,1,0,1:0:0:0:
267,328,54685,1,2,1:2:0:0:
236,323,54764,1,0,1:0:0:0:
205,326,54844,6,0,L|161:355,1,51.599998425293,2|0,1:2|1:0,0:0:0:0:
154,243,55004,2,0,P|163:206|165:182,1,51.599998425293,2|0,1:2|1:0,0:0:0:0:
52,123,55163,5,0,1:2:0:0:
83,130,55243,1,0,1:0:0:0:
115,128,55323,1,0,1:2:0:0:
145,121,55402,1,0,1:2:0:0:
173,106,55482,6,0,P|195:79|202:62,1,51.599998425293,4|2,1:2|1:2,0:0:0:0:
252,168,55642,2,0,P|255:193|262:218,1,51.599998425293,0|0,1:2|0:0,0:0:0:0:
461,115,55802,6,0,P|403:82|317:99,1,154.799995275879,4|0,1:0|0:0,0:0:0:0:
305,102,56121,2,0,P|346:67|361:16,1,103.199996850586,8|8,0:0|0:0,0:0:0:0:
381,189,56440,2,0,P|369:255|388:299,1,103.199996850586,8|0,1:0|0:0,0:0:0:0:
394,305,56679,1,8,1:0:0:0:
405,320,56759,2,0,L|512:304,1,103.199996850586,0|8,1:0|1:0,0:0:0:0:
219,306,57078,5,0,1:0:0:0:
331,377,57238,1,0,0:0:0:0:
124,260,57397,5,8,0:0:0:0:
236,189,57557,1,8,1:0:0:0:
47,301,57716,6,0,L|219:323,1,154.799995275879,0|0,1:0|2:0,0:0:0:0:
219,306,58036,2,0,P|230:263|214:201,1,103.199996850586,12|8,1:0|1:0,0:0:0:0:
106,52,58355,6,0,B|106:104|106:104|143:155,1,103.199996850586,4|0,1:2|0:0,0:0:0:0:
295,42,58674,2,0,P|232:33|183:19,1,103.199996850586,8|8,0:0|1:0,0:0:0:0:
245,181,58993,2,0,P|294:168|346:161,1,103.199996850586,0|0,1:0|0:0,0:0:0:0:
361,164,59232,1,8,1:0:0:0:
375,166,59312,2,0,L|389:57,1,103.199996850586,8|8,1:0|1:0,0:0:0:0:
476,288,59631,6,0,P|420:264|328:260,1,154.799995275879,8|0,2:2|0:0,0:0:0:0:
315,274,59950,2,0,L|329:383,1,103.199996850586,8|8,0:0|1:0,0:0:0:0:
168,233,60270,2,0,L|182:124,1,103.199996850586,8|0,2:0|2:0,0:0:0:0:
203,347,60589,2,0,P|143:348|70:291,1,154.799995275879,12|8,1:0|2:0,0:0:0:0:
62,278,60908,6,0,P|75:329|60:385,1,103.199996850586,4|0,1:0|0:0,0:0:0:0:
6,169,61227,1,8,0:0:0:0:
163,251,61387,2,0,P|221:243|268:224,1,103.199996850586,8|8,1:0|0:0,0:0:0:0:
15,151,61706,1,8,0:0:0:0:
218,31,61865,2,0,P|210:82|190:130,1,103.199996850586,12|8,1:0|2:0,0:0:0:0:
52,15,62185,6,0,B|132:3|132:51|224:35,1,154.799995275879,4|0,1:0|0:0,0:0:0:0:
218,31,62504,2,0,P|275:13|329:21,1,103.199996850586,8|8,2:0|1:0,0:0:0:0:
273,193,62823,2,0,P|305:142|351:113,1,103.199996850586,8|0,0:0|0:0,0:0:0:0:
388,313,63142,2,0,P|380:253|397:201,1,103.199996850586,12|0,1:0|0:0,0:0:0:0:
399,196,63381,1,0,0:0:0:0:
408,182,63461,6,0,L|512:196,1,103.199996850586,12|0,0:2|0:0,0:0:0:0:
376,326,63780,2,0,L|272:312,1,103.199996850586,8|12,0:0|1:0,0:0:0:0:
167,93,64099,2,0,B|247:81|247:129|339:113,1,154.799995275879,8|0,0:0|0:0,0:0:0:0:
335,106,64419,2,0,P|346:50|333:6,1,103.199996850586,8|8,1:0|0:0,0:0:0:0:
190,179,64738,5,4,1:2:0:0:
190,179,64817,1,0,0:0:0:0:
190,179,64897,2,0,L|200:241,1,51.599998425293,0|12,1:0|0:0,0:0:0:0:
133,333,65057,5,8,0:0:0:0:
133,333,65136,1,0,0:0:0:0:
133,333,65216,2,0,L|123:271,1,51.599998425293,4|0,1:2|1:0,0:0:0:0:
212,361,65376,6,0,B|132:349|132:397|40:381,1,154.799995275879,4|8,1:3|1:0,0:0:0:0:
45,374,65695,2,0,P|34:318|47:274,1,103.199996850586,0|8,0:0|1:0,0:0:0:0:
251,128,66014,6,0,P|193:149|112:92,1,154.799995275879,12|0,2:0|0:0,0:0:0:0:
108,83,66333,2,0,P|119:139|106:183,1,103.199996850586,8|8,0:0|1:0,0:0:0:0:
200,17,66653,2,0,P|254:10|308:35,1,103.199996850586,8|0,2:0|0:0,0:0:0:0:
280,238,66972,2,0,P|226:245|172:220,1,103.199996850586,8|0,1:0|1:0,0:0:0:0:
170,219,67211,1,0,0:0:0:0:
159,209,67291,5,8,2:0:0:0:
254,346,67450,1,0,0:0:0:0:
76,239,67610,5,8,0:0:0:0:
251,128,67770,1,8,1:0:0:0:
135,348,67929,6,0,P|78:334|15:326,1,103.199996850586,8|0,0:0|0:0,0:0:0:0:
149,107,68248,2,0,P|206:121|269:129,1,103.199996850586,8|8,1:0|0:0,0:0:0:0:
70,225,68567,6,0,P|56:144|36:57,1,154.799995275879,8|0,1:2|0:0,0:0:0:0:
27,61,68887,2,0,P|82:42|121:3,1,103.199996850586,8|8,0:0|1:0,0:0:0:0:
230,180,69206,2,0,P|191:146|142:131,1,103.199996850586,8|0,0:0|0:0,0:0:0:0:
286,53,69525,2,0,P|334:36|372:1,1,103.199996850586,8|8,1:0|2:0,0:0:0:0:
371,171,69844,6,0,P|354:254|373:337,1,154.799995275879,4|0,1:0|0:0,0:0:0:0:
376,332,70163,2,0,L|480:311,1,103.199996850586,8|8,1:0|1:0,0:0:0:0:
178,255,70482,2,0,L|282:276,1,103.199996850586,8|0,1:0|2:0,0:0:0:0:
5,349,70802,2,0,L|109:328,1,103.199996850586,8|0,0:0|0:0,0:0:0:0:
230,171,71121,6,0,P|163:163|98:73,1,154.799995275879,12|0,2:1|0:0,0:0:0:0:
101,87,71440,2,0,L|88:200,1,103.199996850586,8|8,0:0|1:0,0:0:0:0:
286,103,71759,2,0,P|284:50|259:-4,1,103.199996850586,0|8,0:0|0:0,0:0:0:0:
157,253,72078,2,0,P|158:305|184:360,1,103.199996850586,8|0,1:0|0:0,0:0:0:0:
419,259,72397,6,0,P|351:221|262:245,1,154.799995275879,8|0,0:0|0:0,0:0:0:0:
265,240,72716,2,0,P|315:212|340:165,1,103.199996850586,8|0,2:3|2:0,0:0:0:0:
340,312,73036,1,4,0:3:0:0:
334,335,73115,1,4,0:3:0:0:
329,360,73195,1,4,0:3:0:0:
210,167,73355,2,0,P|196:109|181:64,1,103.199996850586,12|0,2:2|0:0,0:0:0:0:
342,150,73674,6,0,P|399:149|471:82,1,154.799995275879,4|0,1:2|0:0,0:0:0:0:
474,73,73993,1,0,1:0:0:0:
437,235,74153,1,0,1:0:0:0:
360,25,74312,5,0,1:0:0:0:
505,166,74472,1,0,1:0:0:0:
317,147,74631,5,4,1:2:0:0:
486,55,74791,1,0,1:0:0:0:
325,266,74950,5,4,1:2:0:0:
246,6,75110,1,0,1:0:0:0:
417,138,75270,5,4,1:2:0:0:
228,347,75429,1,0,1:0:0:0:
145,54,75589,6,0,P|191:35|305:131,1,210.699993569946,8|0,1:0|0:0,0:0:0:0:
317,147,76227,6,0,P|313:87|323:51,1,86,4|0,1:0|0:0,0:0:0:0:
191,174,76546,2,0,P|229:211|237:301,1,129,0|0,1:0|0:0,0:0:0:0:
241,283,76865,2,0,P|290:268|338:265,1,86,0|8,0:0|0:0,0:0:0:0:
148,360,77185,2,0,P|105:355|64:342,1,86,0|0,1:0|0:0,0:0:0:0:
54,329,77424,1,0,0:0:0:0:
44,318,77504,6,0,L|54:180,2,129,8|8|4,2:0|0:0|0:3,0:0:0:0:
118,126,78142,2,0,P|79:101|33:101,1,86,0|4,0:0|0:3,0:0:0:0:
143,231,78461,2,0,P|185:228|220:204,1,86,0|8,1:0|0:2,0:0:0:0:
238,11,78780,6,0,P|205:67|252:117,1,129,0|8,2:0|0:0,0:0:0:0:
238,112,79099,2,0,P|285:108|328:98,1,86,2|8,0:0|0:0,0:0:0:0:
330,230,79419,2,0,P|361:197|389:160,1,86,0|8,0:0|0:0,0:0:0:0:
467,283,79738,2,0,P|470:242|467:192,1,86,0|12,1:0|0:3,0:0:0:0:
330,230,80057,6,0,P|344:297|353:372,2,129,8|8|8,2:0|0:0|2:2,0:0:0:0:
181,285,80695,2,0,P|230:293|273:308,1,86,2|8,2:0|0:0,0:0:0:0:
179,168,81014,2,0,P|138:180|95:187,1,86,0|0,1:0|0:0,0:0:0:0:
0,331,81333,6,0,P|61:334|104:391,1,129,4|0,1:0|0:0,0:0:0:0:
102,383,81653,2,0,P|92:330|99:292,1,86,8|0,0:0|1:0,0:0:0:0:
192,162,81972,2,0,P|201:214|194:252,1,86,0|0,0:0|0:0,0:0:0:0:
23,225,82291,2,0,P|13:172|20:134,1,86,0|0,1:0|1:0,0:0:0:0:
103,54,82610,6,0,B|189:31|189:31|249:67,1,129,0|0,1:0|0:0,0:0:0:0:
223,51,82929,2,0,P|267:51|305:22,1,86,4|8,1:0|2:3,0:0:0:0:
365,165,83248,2,0,P|329:141|287:141,1,86,0|4,0:0|3:0,0:0:0:0:
417,72,83567,2,0,P|455:53|476:16,1,86,8|0,0:3|0:0,0:0:0:0:
473,164,83887,6,0,P|454:218|488:299,1,129,8|0,0:0|0:0,0:0:0:0:
474,284,84206,2,0,L|377:268,1,86,8|0,0:0|1:0,0:0:0:0:
238,352,84525,2,0,L|322:337,1,86,0|8,0:0|0:0,0:0:0:0:
249,212,84844,2,0,P|192:195|168:158,1,86,4|0,1:2|2:0,0:0:0:0:
126,337,85163,5,0,0:0:0:0:
84,133,85323,1,0,1:0:0:0:
0,260,85482,2,0,P|47:244|89:241,1,86,4|0,1:2|0:0,0:0:0:0:
142,344,85802,5,0,1:0:0:0:
166,152,85961,2,0,P|119:136|77:133,1,86,4|0,1:2|0:0,0:0:0:0:
250,236,86280,5,12,1:0:0:0:
256,192,86360,12,0,88993,0:0:0:0:
