osu file format v14

[General]
AudioFilename: audio.mp3
AudioLeadIn: 0
PreviewTime: 34419
Countdown: 0
SampleSet: Soft
StackLeniency: 0.7
Mode: 0
LetterboxInBreaks: 0
WidescreenStoryboard: 0

[Editor]
DistanceSpacing: 0.8
BeatDivisor: 4
GridSize: 32
TimelineZoom: 2.4

[Metadata]
Title:ego-izm (TV Size)
TitleUnicode:ego-izm (TV Size)
Artist:la la larks
ArtistUnicode:la la larks
Creator:- Frontier -
Version:Catastrophe
Source:M3~ソノ黒キ鋼~
Tags:lalalarks sfp school food punishment yumi uchimura egoizm egoism tetsu dark metal M3: Sono Kuroki Hagane ending ed japanese anime [_lost_] c_o_n_n_e_r shockolatte xhappy- p_kung
BeatmapID:1894354
BeatmapSetID:907759

[Difficulty]
HPDrainRate:7
CircleSize:4.3
OverallDifficulty:8
ApproachRate:9.2
SliderMultiplier:2
SliderTickRate:1

[Events]
//Background and Video events
0,0,"BG.jpg",0,0
Video,1865,"video.avi"
//Break Periods
//Storyboard Layer 0 (Background)
//Storyboard Layer 1 (Fail)
//Storyboard Layer 2 (Pass)
//Storyboard Layer 3 (Foreground)
//Storyboard Sound Samples

[TimingPoints]
2185,319.148936170213,4,2,1,40,1,0
2185,-133.333333333333,4,2,1,40,0,0
4419,-133.333333333333,4,2,1,20,0,0
4578,-133.333333333333,4,2,1,40,0,0
6972,-133.333333333333,4,2,1,30,0,0
7131,-133.333333333333,4,2,1,25,0,0
7450,-133.333333333333,4,2,1,40,0,0
7929,-133.333333333333,4,2,1,25,0,0
8089,-133.333333333333,4,2,1,40,0,0
12397,-114.285714285714,4,2,1,50,0,0
13514,-114.285714285714,4,2,1,30,0,0
13674,-114.285714285714,4,2,1,50,0,0
22610,-100,4,2,2,60,0,0
22929,-100,4,2,2,60,0,0
25482,-100,4,2,2,60,0,0
28036,-100,4,2,2,60,0,0
30270,-100,4,2,2,70,0,0
30589,-100,4,2,2,60,0,0
30748,-100,4,2,2,70,0,0
31067,-100,4,2,2,60,0,0
31227,-100,4,2,2,70,0,0
31466,-100,4,2,2,5,0,0
31546,-100,4,2,2,40,0,0
31865,-100,4,2,2,50,0,0
32185,-100,4,2,2,60,0,0
32504,-100,4,2,2,70,0,0
32823,-80,4,2,2,70,0,0
32982,-83.3333333333333,4,2,2,5,0,0
33062,-83.3333333333333,4,2,2,70,0,0
33222,-83.3333333333333,4,2,2,5,0,0
33302,-83.3333333333333,4,2,2,70,0,0
33461,-83.3333333333333,4,2,2,5,0,0
33621,-57.1428571428571,4,2,2,60,0,0
33780,-57.1428571428571,4,2,2,5,0,0
33860,-57.1428571428571,4,2,2,60,0,0
34020,-57.1428571428571,4,2,2,5,0,0
34099,-50,4,2,2,60,0,0
34179,-50,4,2,2,5,0,0
34419,-100,4,2,1,20,0,0
34738,-100,4,2,1,40,0,0
35057,-100,4,2,1,60,0,0
35376,-100,4,2,1,60,0,1
35695,-100,4,2,1,60,0,1
36972,-100,4,2,1,60,0,1
38169,-100,4,2,1,5,0,1
38248,-100,4,2,1,60,0,1
39445,-100,4,2,1,5,0,1
39525,-100,4,2,1,60,0,1
40802,-100,4,2,1,60,0,1
41998,-100,4,2,1,5,0,1
42078,-100,4,2,1,60,0,1
43275,-100,4,2,1,5,0,1
43355,-100,4,2,1,60,0,1
44312,-100,4,2,1,70,0,1
45589,-100,4,2,1,70,0,0
45669,-100,4,2,1,60,0,1
45908,-100,4,2,1,60,0,1
47105,-100,4,2,1,5,0,1
47185,-100,4,2,1,60,0,1
48381,-100,4,2,1,5,0,1
48461,-100,4,2,1,60,0,1
49658,-100,4,2,1,5,0,1
49738,-100,4,2,1,70,0,1
50775,-100,4,2,1,60,0,1
51014,-100,4,2,1,60,0,1
52211,-100,4,2,1,5,0,1
52291,-100,4,2,1,60,0,1
53169,-100,4,2,1,5,0,1
53248,-100,4,2,1,30,0,1
53567,-100,4,2,1,35,0,1
53887,-100,4,2,1,40,0,1
54206,-100,4,2,1,45,0,1
54525,-100,4,2,1,50,0,1
54844,-100,4,2,1,55,0,1
55163,-100,4,2,1,60,0,1
55482,-100,4,2,1,65,0,1
55802,-100,4,2,1,70,0,0
55881,-100,4,2,1,60,0,1
56041,-100,4,2,1,5,0,1
56121,-100,4,2,1,60,0,1
57397,-100,4,2,1,60,0,1
58594,-100,4,2,1,5,0,1
58674,-100,4,2,1,60,0,1
59950,-100,4,2,1,60,0,1
61227,-100,4,2,1,60,0,1
62504,-100,4,2,1,60,0,1
63780,-100,4,2,1,60,0,1
64738,-100,4,2,1,70,0,1
66014,-100,4,2,1,70,0,0
66094,-100,4,2,1,60,0,1
66333,-100,4,2,1,60,0,1
66892,-100,4,2,1,5,0,1
66972,-100,4,2,1,60,0,1
67610,-100,4,2,1,60,0,1
68807,-100,4,2,1,5,0,1
68887,-100,4,2,1,60,0,1
70163,-100,4,2,1,60,0,1
71041,-100,4,2,1,5,0,1
71121,-100,4,2,1,60,0,1
71440,-100,4,2,1,60,0,1
72317,-100,4,2,1,5,0,1
72397,-100,4,2,1,60,0,1
72716,-100,4,2,1,60,0,1
73355,-100,4,2,1,70,0,1
73594,-100,4,2,1,5,0,1
73674,-100,4,2,1,60,0,1
73993,-100,4,2,1,30,0,1
74153,-100,4,2,1,35,0,1
74312,-100,4,2,1,40,0,1
74472,-100,4,2,1,45,0,1
74631,-100,4,2,1,50,0,1
74791,-100,4,2,1,55,0,1
74950,-100,4,2,1,60,0,1
75110,-100,4,2,1,65,0,1
75270,-100,4,2,1,70,0,1
75589,-200,4,2,1,40,0,0
76147,-100,4,2,1,5,0,0
76227,-100,4,2,1,50,0,1
76307,-100,4,2,1,50,0,0
76865,-100,4,2,1,50,0,0
77504,-100,4,2,1,50,0,0
81972,-100,4,2,1,50,0,0
84206,-100,4,2,1,50,0,0
85323,-100,4,2,1,70,0,0
85642,-100,4,2,1,50,0,0
85802,-100,4,2,1,70,0,0
86121,-100,4,2,1,50,0,0
86280,-50,4,2,1,70,0,0
86360,-100,4,2,1,20,0,0
88993,-100,4,2,1,5,0,0

[Colours]
Combo1 : 44,100,233
Combo2 : 128,64,64
Combo3 : 198,226,255
Combo4 : 255,88,100

[HitObjects]
68,98,2185,6,0,P|49:65|49:28,2,75.0000028610231,0|2|0,0:0|0:0|0:0,0:0:0:0:
141,149,2663,1,0,0:0:0:0:
211,93,2823,2,0,P|256:98|289:102,1,75.0000028610231,2|0,0:0|0:0,0:0:0:0:
343,8,3142,2,0,P|306:4|269:0,1,75.0000028610231,0|2,3:0|0:0,0:0:0:0:
349,153,3461,6,0,P|367:120|367:83,2,75.0000028610231,8|0|0,0:0|0:0|0:0,0:0:0:0:
271,199,3940,1,8,0:0:0:0:
349,243,4099,2,0,P|353:280|357:317,1,75.0000028610231,0|0,0:0|0:0,0:0:0:0:
256,367,4419,2,0,P|260:330|266:293,1,75.0000028610231,6|0,0:0|0:0,0:0:0:0:
162,354,4738,5,0,0:0:0:0:
81,325,4897,1,2,0:0:0:0:
148,270,5057,1,0,0:0:0:0:
159,366,5216,5,0,0:0:0:0:
70,316,5375,1,2,0:0:0:0:
160,265,5535,1,0,0:0:0:0:
151,375,5695,5,0,0:0:0:0:
67,305,5854,1,2,0:0:0:0:
67,305,6174,5,0,0:0:0:0:
229,222,6333,2,0,P|268:231|316:242,1,75.0000028610231,2|0,0:0|0:0,0:0:0:0:
104,206,6653,5,0,0:0:0:0:
162,354,6812,2,0,P|201:345|249:334,1,75.0000028610231,2|0,0:0|3:0,0:0:0:0:
24,230,7131,5,0,1:0:0:0:
163,271,7291,1,0,0:0:0:0:
122,119,7450,5,0,0:0:0:0:
122,119,7610,2,0,P|113:82|105:45,1,75.0000028610231,2|8,0:0|0:0,0:0:0:0:
280,68,7929,2,0,P|245:90|207:92,2,75.0000028610231,4|0|0,0:3|0:0|3:0,0:0:0:0:
347,7,8408,1,2,0:0:0:0:
429,77,8567,6,0,P|421:129|417:166,1,75.0000028610231,0|0,0:0|0:0,0:0:0:0:
337,229,8887,2,0,P|332:191|326:154,1,75.0000028610231,2|0,0:0|0:0,0:0:0:0:
483,263,9206,2,0,P|446:266|416:288,2,75.0000028610231,0|10|0,0:0|0:0|0:0,0:0:0:0:
476,347,9685,1,0,3:0:0:0:
339,318,9844,5,8,0:0:0:0:
258,289,10003,1,2,0:0:0:0:
325,234,10163,1,0,0:0:0:0:
336,330,10322,5,8,0:0:0:0:
247,280,10481,1,2,0:0:0:0:
337,229,10641,1,0,0:0:0:0:
328,339,10801,5,0,0:0:0:0:
244,269,10960,1,2,0:0:0:0:
346,231,11121,6,0,P|359:267|354:305,1,75.0000028610231,0|0,0:0|0:0,0:0:0:0:
169,230,11440,2,0,P|193:200|229:186,1,75.0000028610231,2|0,0:0|0:0,0:0:0:0:
257,384,11759,2,0,P|219:377|188:353,1,75.0000028610231,0|2,0:0|0:0,0:0:0:0:
354,302,12078,1,0,0:0:0:0:
384,384,12238,1,2,0:0:0:0:
255,301,12397,6,0,P|232:236|266:132,1,175.00000166893,4|0,0:3|0:0,0:0:0:0:
354,89,12876,2,0,P|289:112|185:78,1,175.00000166893,10|0,0:0|0:0,0:0:0:0:
93,122,13355,2,0,P|100:78|105:35,1,87.500000834465,8|8,3:2|0:0,0:0:0:0:
0,160,13674,6,0,P|15:255|27:352,1,175.00000166893,0|2,0:0|0:0,0:0:0:0:
104,379,14153,2,0,B|208:399|164:322|299:343,1,175.00000166893,0|0,0:0|0:0,0:0:0:0:
363,384,14631,1,2,3:2:0:0:
461,348,14791,1,0,0:0:0:0:
504,253,14950,6,0,P|529:177|491:85,1,175.00000166893,4|0,0:3|0:0,0:0:0:0:
409,32,15429,2,0,P|320:53|218:77,1,175.00000166893,8|0,2:0|0:0,0:0:0:0:
135,95,15908,2,0,P|145:34|151:-6,1,87.500000834465,8|4,2:2|2:3,0:0:0:0:
165,233,16387,5,0,3:0:0:0:
63,167,16546,2,0,P|73:228|79:268,1,87.500000834465,2|0,0:0|0:0,0:0:0:0:
67,358,16865,6,0,P|98:328|140:321,1,87.500000834465,0|2,0:0|3:2,0:0:0:0:
206,358,17105,1,0,0:0:0:0:
216,365,17185,2,0,P|259:358|302:351,1,87.500000834465,0|0,0:0|0:0,0:0:0:0:
456,380,17504,6,0,B|505:307|505:307|476:186,1,175.00000166893,4|8,0:3|0:0,0:0:0:0:
508,120,17982,2,0,P|450:189|353:164,1,175.00000166893,4|0,2:3|0:0,0:0:0:0:
314,92,18461,2,0,P|326:50|321:7,1,87.500000834465,8|4,0:0|3:0,0:0:0:0:
216,6,18780,6,0,P|189:88|198:175,1,175.00000166893,0|0,0:0|0:0,0:0:0:0:
289,227,19259,2,0,P|206:200|119:209,1,175.00000166893,2|8,0:0|0:3,0:0:0:0:
41,280,19738,1,10,0:0:0:0:
18,176,19897,1,0,0:0:0:0:
119,209,20057,6,0,P|144:253|99:373,1,175.00000166893,4|0,0:3|0:0,0:0:0:0:
41,280,20536,2,0,L|246:313,1,175.00000166893,4|0,3:0|0:0,0:0:0:0:
303,361,21014,2,0,P|361:357|389:333,1,87.500000834465,8|4,0:0|2:3,0:0:0:0:
424,189,21493,5,0,3:2:0:0:
352,128,21653,2,0,P|364:80|373:36,1,87.500000834465,4|0,0:0|0:0,0:0:0:0:
345,248,21972,5,8,0:0:0:0:
461,0,22131,1,4,3:2:0:0:
461,0,22610,6,0,P|427:68|296:47,1,200,8|8,0:0|0:0,0:0:0:0:
225,148,23089,1,0,1:2:0:0:
170,32,23248,2,0,P|122:18|74:28,1,100,8|0,0:0|0:0,0:0:0:0:
2,204,23567,2,0,P|50:214|97:200,1,100,2|0,1:2|0:0,0:0:0:0:
122,101,23887,6,0,P|113:208|106:308,2,200,8|10|10,0:0|0:0|0:0,0:0:0:0:
32,345,24764,1,2,0:0:0:0:
32,345,24844,1,10,0:0:0:0:
151,358,25004,1,2,0:0:0:0:
270,371,25163,6,0,P|326:303|321:167,1,200,0|0,1:0|0:0,0:0:0:0:
319,74,25642,2,0,P|349:156|470:220,1,200,0|0,1:0|0:0,0:0:0:0:
506,316,26121,2,0,P|451:315|399:350,1,100,6|0,1:2|0:0,0:0:0:0:
301,382,26440,6,0,B|176:359|271:291|115:272,2,200,8|8|10,0:0|0:0|0:0,0:0:0:0:
64,352,27317,1,2,0:0:0:0:
64,352,27397,1,10,0:0:0:0:
41,233,27557,1,2,0:0:0:0:
18,114,27716,6,0,P|100:127|238:145,1,200,0|8,1:0|0:0,0:0:0:0:
306,221,28195,2,0,P|401:232|462:112,1,200,2|0,1:2|0:0,0:0:0:0:
374,35,28674,2,0,P|353:79|363:128,1,100,6|0,1:2|0:0,0:0:0:0:
489,349,28993,6,0,B|514:229|420:278|473:121,2,200,2|10|8,0:0|0:0|0:0,0:0:0:0:
480,133,29791,1,0,1:0:0:0:
399,312,29950,2,0,P|345:290|288:279,1,100,4|0,0:0|0:0,0:0:0:0:
116,358,30270,5,0,1:0:0:0:
51,144,30429,1,0,1:0:0:0:
51,144,30589,1,0,0:0:0:0:
213,324,30748,5,0,1:0:0:0:
223,31,30908,1,0,1:0:0:0:
223,31,31067,1,0,0:0:0:0:
304,280,31227,6,0,P|366:291|425:198,1,150,0|0,1:0|0:0,0:0:0:0:
497,176,31546,5,0,1:0:0:0:
459,170,31625,1,0,1:0:0:0:
424,158,31705,1,0,1:0:0:0:
396,134,31785,1,0,1:0:0:0:
376,102,31865,1,0,1:0:0:0:
358,69,31944,1,0,1:0:0:0:
331,43,32024,1,0,1:0:0:0:
298,27,32104,1,0,1:0:0:0:
261,19,32185,6,0,P|253:51|242:94,1,50,0|0,1:0|1:0,0:0:0:0:
172,137,32344,2,0,P|164:105|153:62,1,50,0|0,1:0|1:0,0:0:0:0:
305,194,32504,6,0,P|297:226|286:269,1,50,0|0,1:0|1:0,0:0:0:0:
128,320,32663,2,0,P|120:288|109:245,1,50,0|0,1:0|1:0,0:0:0:0:
412,373,32823,6,0,P|329:362|224:352,2,187.5,4|4|4,1:2|1:2|1:2,0:0:0:0:
24,215,33621,6,0,P|108:227|166:166,1,175.00000166893,0|0,1:2|0:0,0:0:0:0:
142,89,33860,2,0,P|58:77|0:138,1,175.00000166893,0|0,1:2|0:0,0:0:0:0:
24,215,34099,2,0,P|16:274|4:343,1,100,0|0,1:2|0:0,0:0:0:0:
404,30,34419,5,4,0:0:0:0:
404,30,34738,1,4,0:0:0:0:
404,30,35057,1,4,0:0:0:0:
404,30,35376,6,0,B|288:16|335:115|193:97,1,200,4|8,1:1|0:0,0:0:0:0:
475,182,35855,2,0,P|438:148|390:134,1,100,8|0,1:0|0:0,0:0:0:0:
384,354,36174,1,8,0:0:0:0:
393,342,36254,1,0,0:0:0:0:
402,330,36333,2,0,P|396:280|390:231,1,100,8|0,1:0|0:0,0:0:0:0:
226,100,36653,6,0,P|145:110|58:16,1,200,8|8,2:0|2:0,0:0:0:0:
0,158,37131,1,8,1:0:0:0:
53,267,37291,2,0,P|103:257|152:254,1,100,8|0,0:0|0:0,0:0:0:0:
226,275,37530,1,0,0:0:0:0:
238,283,37610,1,8,1:0:0:0:
98,176,37770,1,0,0:0:0:0:
275,36,37929,6,0,P|261:122|249:188,1,150,4|0,1:1|0:0,0:0:0:0:
249,183,38248,2,0,P|295:167|348:174,1,100,8|8,2:0|1:0,0:0:0:0:
491,298,38567,2,0,P|445:314|392:307,1,100,8|0,0:0|0:0,0:0:0:0:
326,267,38807,1,0,0:0:0:0:
316,285,38887,2,0,P|323:340|330:387,1,100,8|0,1:0|0:0,0:0:0:0:
127,233,39206,6,0,P|203:235|253:158,1,150,8|0,0:0|0:0,0:0:0:0:
253,158,39525,1,0,1:0:0:0:
49,96,39685,1,8,1:0:0:0:
167,158,39844,2,0,B|189:110|189:110|170:41,1,100,8|8,1:0|2:0,0:0:0:0:
131,5,40083,1,0,0:0:0:0:
114,5,40163,2,0,L|7:21,1,100,0|0,1:0|0:0,0:0:0:0:
284,224,40482,5,4,1:0:0:0:
167,158,40642,2,0,B|145:206|145:206|157:251,1,100,0|8,0:0|0:0,0:0:0:0:
384,128,40961,2,0,B|396:82|396:82|374:34,1,100,8|0,1:0|0:0,0:0:0:0:
282,103,41280,1,8,2:0:0:0:
277,114,41360,1,0,0:0:0:0:
271,125,41440,2,0,L|286:239,1,100,8|0,1:0|0:0,0:0:0:0:
449,322,41759,6,0,B|366:304|398:372|310:358,1,150,8|0,2:0|0:0,0:0:0:0:
289,367,42078,2,0,P|252:328|201:322,1,100,8|0,1:0|1:0,0:0:0:0:
35,352,42397,1,8,0:0:0:0:
120,178,42557,1,8,0:0:0:0:
125,189,42637,1,0,0:0:0:0:
131,200,42717,2,0,L|116:314,1,100,8|8,1:0|0:0,0:0:0:0:
31,89,43036,6,0,P|112:95|163:22,1,150,12|0,1:0|0:0,0:0:0:0:
166,26,43355,1,8,2:0:0:0:
299,167,43514,2,0,P|256:141|206:138,1,100,8|0,1:0|0:0,0:0:0:0:
393,86,43833,2,0,P|442:82|484:56,1,100,8|8,2:0|1:0,0:0:0:0:
301,0,44153,1,12,1:0:0:0:
436,193,44312,6,0,P|425:253|408:358,2,150,4|4|4,1:2|0:2|1:2,0:0:0:0:
295,107,44950,2,0,P|252:138|187:129,1,100,12|0,2:0|0:0,0:0:0:0:
146,87,45190,2,0,L|156:33,1,50,0|8,0:0|1:0,0:0:0:0:
31,193,45429,1,0,0:0:0:0:
117,299,45589,6,0,B|222:277|188:353|312:333,1,200,4|8,1:0|2:0,0:0:0:0:
421,247,46067,1,8,1:0:0:0:
301,157,46227,2,0,P|288:111|305:57,1,100,8|0,2:0|0:0,0:0:0:0:
374,8,46466,1,0,0:0:0:0:
359,16,46546,2,0,L|251:2,1,100,8|0,1:0|0:0,0:0:0:0:
64,64,46865,6,0,B|111:99|111:99|85:217,1,150,8|0,1:0|0:0,0:0:0:0:
103,205,47185,2,0,L|-5:219,1,100,8|8,0:0|1:0,0:0:0:0:
184,299,47504,1,8,2:0:0:0:
262,168,47663,1,0,0:0:0:0:
262,168,47743,1,0,0:0:0:0:
262,168,47823,2,0,P|276:120|266:68,1,100,8|0,1:0|0:0,0:0:0:0:
185,0,48142,6,0,P|258:21|339:6,1,150,8|0,0:1|0:0,0:0:0:0:
353,25,48461,2,0,P|403:10|462:8,1,100,8|8,2:0|1:0,0:0:0:0:
512,204,48780,2,0,P|462:200|414:186,1,100,0|8,0:0|2:0,0:0:0:0:
349,154,49020,1,0,0:0:0:0:
337,168,49099,2,0,L|350:282,1,100,8|0,1:0|0:0,0:0:0:0:
188,384,49419,6,0,L|171:234,1,150,8|0,1:1|0:0,0:0:0:0:
207,171,49738,2,0,P|156:174|113:149,1,100,8|8,1:2|1:1,0:0:0:0:
256,27,50057,6,0,P|308:37|358:47,1,100,8|0,1:0|1:0,0:0:0:0:
431,63,50296,1,0,1:0:0:0:
443,67,50376,1,8,1:0:0:0:
287,153,50536,1,0,1:0:0:0:
480,256,50695,6,0,P|427:250|375:292,1,100,4|0,1:0|0:0,0:0:0:0:
195,136,51014,2,0,P|238:159|286:152,1,100,8|8,2:0|1:0,0:0:0:0:
256,384,51333,2,0,P|247:326|239:282,1,100,0|8,0:0|2:0,0:0:0:0:
184,232,51573,1,0,0:0:0:0:
171,241,51653,2,0,P|121:249|72:257,1,100,8|0,1:0|0:0,0:0:0:0:
0,21,51972,6,0,B|82:31|38:87|139:94,1,150,8|0,1:0|0:0,0:0:0:0:
195,136,52291,2,0,P|208:88|229:40,1,100,8|8,0:0|1:0,0:0:0:0:
39,163,52610,2,0,P|58:208|71:257,1,100,8|0,2:0|0:0,0:0:0:0:
331,175,52929,2,0,B|246:167|273:232|189:223,1,150,8|0,1:0|0:0,0:0:0:0:
71,257,53248,5,4,1:0:0:0:
97,230,53327,1,0,1:0:0:0:
132,217,53407,1,0,1:0:0:0:
169,221,53487,1,0,1:0:0:0:
200,241,53567,1,0,1:0:0:0:
220,272,53646,1,0,1:0:0:0:
223,310,53726,1,0,1:0:0:0:
210,344,53806,1,0,1:0:0:0:
182,369,53887,6,0,L|131:358,3,50,0|0|0|0,1:0|1:0|1:0|1:0,0:0:0:0:
323,252,54206,2,0,L|374:241,3,50,0|0|0|0,1:0|1:0|1:0|1:0,0:0:0:0:
156,47,54525,6,0,P|164:70|170:94,1,50,6|0,1:2|1:0,0:0:0:0:
303,173,54685,6,0,P|309:148|317:125,1,50,2|0,1:2|1:0,0:0:0:0:
280,0,54844,6,0,P|271:23|265:47,1,50,2|0,1:2|1:0,0:0:0:0:
148,191,55004,6,0,P|156:214|163:239,1,50,2|0,1:2|1:0,0:0:0:0:
256,288,55163,5,0,1:2:0:0:
256,300,55242,1,0,1:0:0:0:
256,313,55322,1,0,1:2:0:0:
256,325,55402,1,0,1:2:0:0:
256,338,55482,5,4,1:2:0:0:
303,325,55561,1,2,1:2:0:0:
338,290,55641,1,0,1:2:0:0:
351,242,55721,1,0,0:0:0:0:
338,194,55802,6,0,P|265:188|166:178,1,150,4|0,1:0|0:0,0:0:0:0:
169,191,56121,1,8,0:0:0:0:
370,104,56280,1,8,0:0:0:0:
190,0,56440,2,0,P|183:48|207:91,1,100,8|0,1:0|0:0,0:0:0:0:
274,63,56679,1,8,1:0:0:0:
280,51,56759,1,0,1:0:0:0:
338,194,56919,1,8,1:0:0:0:
209,277,57078,6,0,P|205:227|188:179,1,100,0|0,1:0|0:0,0:0:0:0:
365,103,57397,2,0,P|347:149|344:199,1,100,8|8,0:0|1:0,0:0:0:0:
203,63,57716,1,0,1:0:0:0:
362,23,57876,1,0,0:0:0:0:
362,23,57956,1,0,2:0:0:0:
362,23,58036,2,0,P|417:33|443:68,1,100,12|8,1:0|1:0,0:0:0:0:
344,199,58355,6,0,B|242:216|297:148|189:172,1,150,4|0,1:2|0:0,0:0:0:0:
141,126,58674,2,0,L|161:260,1,100,8|8,0:0|1:0,0:0:0:0:
294,384,58993,2,0,L|314:250,1,100,0|0,1:0|0:0,0:0:0:0:
345,215,59232,2,0,P|376:225|408:249,1,50,8|8,1:0|1:0,0:0:0:0:
258,125,59472,1,8,1:0:0:0:
471,53,59631,6,0,P|427:80|372:77,1,100,8|0,2:2|0:0,0:0:0:0:
168,113,59950,2,0,P|217:113|259:139,1,100,8|8,0:0|1:0,0:0:0:0:
119,10,60270,2,0,P|69:16|19:23,1,100,8|0,2:0|2:0,0:0:0:0:
42,192,60589,2,0,P|116:202|190:211,1,150,12|8,1:0|2:0,0:0:0:0:
264,233,60908,6,0,P|285:178|306:138,1,100,4|0,1:0|0:0,0:0:0:0:
244,328,61227,1,8,0:0:0:0:
124,39,61387,2,0,P|145:84|164:130,1,100,8|8,1:0|0:0,0:0:0:0:
140,340,61706,1,8,0:0:0:0:
145,327,61786,1,0,0:0:0:0:
150,314,61865,1,12,1:0:0:0:
69,168,62025,1,8,2:0:0:0:
219,66,62185,6,0,P|243:118|234:174,1,100,4|0,1:0|0:0,0:0:0:0:
65,361,62504,2,0,P|56:296|51:255,1,100,8|8,2:0|1:0,0:0:0:0:
276,230,62823,2,0,P|269:279|262:329,1,100,8|0,0:0|0:0,0:0:0:0:
25,169,63142,2,0,B|114:174|74:119|168:130,1,150,12|0,1:0|0:0,0:0:0:0:
182,141,63461,5,12,0:2:0:0:
36,76,63621,1,0,0:0:0:0:
188,252,63780,1,8,0:0:0:0:
264,32,63940,2,0,P|213:36|166:76,1,100,12|8,1:0|0:0,0:0:0:0:
347,205,64259,1,8,0:0:0:0:
480,107,64419,2,0,P|491:49|498:0,1,100,8|8,1:0|0:0,0:0:0:0:
329,106,64738,6,0,P|337:155|346:204,1,100,4|0,1:2|1:0,0:0:0:0:
422,239,64977,1,12,0:0:0:0:
410,250,65057,2,0,P|360:258|311:267,1,100,8|4,0:0|1:2,0:0:0:0:
242,328,65296,1,0,1:0:0:0:
226,333,65376,2,0,B|137:315|186:263|91:247,2,150,4|8|8,1:3|1:0|1:0,0:0:0:0:
45,308,66014,6,0,P|23:263|28:214,1,100,12|0,2:0|0:0,0:0:0:0:
223,144,66333,2,0,P|244:188|239:237,1,100,8|8,0:0|1:0,0:0:0:0:
35,80,66653,2,0,P|102:89|167:28,1,150,8|0,2:0|0:0,0:0:0:0:
181,50,66972,2,0,P|236:40|298:31,1,100,8|0,1:0|1:0,0:0:0:0:
408,224,67291,6,0,P|358:216|309:207,1,100,8|0,2:0|0:0,0:0:0:0:
414,102,67610,2,0,P|463:94|512:85,1,100,8|8,0:0|1:0,0:0:0:0:
408,224,67929,1,8,0:0:0:0:
291,127,68089,1,0,0:0:0:0:
291,127,68169,1,0,0:0:0:0:
291,127,68248,2,0,P|271:79|283:26,1,100,8|8,1:0|0:0,0:0:0:0:
416,208,68567,6,0,P|435:257|404:368,1,150,8|0,1:2|0:0,0:0:0:0:
351,383,68887,2,0,P|302:373|251:368,1,100,8|8,0:0|1:0,0:0:0:0:
160,256,69206,2,0,P|209:251|258:241,1,100,8|0,0:0|0:0,0:0:0:0:
327,198,69445,1,0,0:0:0:0:
327,198,69525,1,8,1:0:0:0:
141,142,69685,1,8,2:0:0:0:
260,21,69844,6,0,B|282:65|282:65|261:132,1,100,4|0,1:0|0:0,0:0:0:0:
160,256,70163,1,8,1:0:0:0:
193,74,70323,1,8,1:0:0:0:
327,198,70482,2,0,P|383:207|437:216,1,100,8|0,1:0|2:0,0:0:0:0:
213,361,70802,6,0,P|170:309|70:326,1,150,8|0,0:0|0:0,0:0:0:0:
25,349,71121,1,12,2:1:0:0:
195,133,71280,2,0,P|186:189|177:243,1,100,0|8,0:0|0:0,0:0:0:0:
44,130,71599,2,0,P|35:80|27:31,1,100,8|0,1:0|0:0,0:0:0:0:
107,188,71919,1,8,0:0:0:0:
196,53,72078,6,0,B|292:60|238:118|357:125,1,150,8|0,1:0|0:0,0:0:0:0:
391,161,72397,2,0,P|444:151|471:115,1,100,8|0,0:0|0:0,0:0:0:0:
338,306,72716,2,0,P|306:268|258:261,1,100,8|0,2:3|2:0,0:0:0:0:
32,320,73036,5,4,0:3:0:0:
78,335,73115,1,4,0:3:0:0:
126,322,73195,1,4,0:3:0:0:
158,285,73275,1,0,0:0:0:0:
165,236,73355,2,0,P|176:317|186:389,1,150,12|0,2:2|2:0,0:0:0:0:
176,218,73674,5,4,1:2:0:0:
67,178,73833,1,0,0:0:0:0:
247,133,73993,5,0,1:0:0:0:
126,322,74153,1,0,1:0:0:0:
136,80,74312,5,0,1:0:0:0:
320,224,74472,1,0,1:0:0:0:
49,198,74631,5,4,1:2:0:0:
335,42,74791,1,0,1:0:0:0:
185,384,74950,5,4,1:2:0:0:
50,48,75110,1,0,1:0:0:0:
352,235,75270,5,4,1:2:0:0:
5,323,75429,1,0,1:0:0:0:
195,49,75589,6,0,B|289:60|239:124|360:137,1,175,8|0,1:0|0:0,0:0:0:0:
411,103,76227,1,4,1:0:0:0:
220,230,76387,5,0,0:0:0:0:
220,230,76466,1,0,0:0:0:0:
220,230,76546,2,0,P|207:174|184:115,1,100,0|0,1:0|0:0,0:0:0:0:
352,235,76865,1,0,0:0:0:0:
281,346,77025,2,0,P|229:349|180:380,1,100,8|0,0:0|1:0,0:0:0:0:
11,244,77344,5,0,0:0:0:0:
92,323,77504,2,0,P|121:251|109:178,2,150,8|8|4,2:0|0:0|0:3,0:0:0:0:
50,124,78142,2,0,P|103:97|145:108,1,100,0|4,0:0|0:3,0:0:0:0:
289,26,78461,2,0,P|240:32|198:7,1,100,0|8,1:0|0:2,0:0:0:0:
292,225,78780,6,0,P|306:168|316:122,1,100,0|0,2:0|0:0,0:0:0:0:
370,73,79020,1,8,0:0:0:0:
365,59,79099,1,2,0:0:0:0:
481,182,79259,2,0,P|426:181|385:213,1,100,8|0,0:0|0:0,0:0:0:0:
300,310,79578,1,8,0:0:0:0:
224,103,79738,2,0,P|265:129|314:126,1,100,0|12,1:0|0:3,0:0:0:0:
204,242,80057,6,0,P|155:252|106:264,1,100,8|0,2:0|0:0,0:0:0:0:
40,303,80296,1,8,0:0:0:0:
26,312,80376,1,0,0:0:0:0:
103,90,80536,2,0,P|129:136|119:197,1,100,8|2,2:2|2:0,0:0:0:0:
0,17,80855,1,8,0:0:0:0:
0,17,81014,2,0,P|115:55|227:35,1,200,0|4,1:0|1:0,0:0:0:0:
484,3,81493,5,0,0:0:0:0:
484,3,81573,1,0,0:0:0:0:
484,3,81653,1,8,0:0:0:0:
402,145,81812,2,0,B|379:99|379:99|389:47,1,100,0|0,1:0|0:0,0:0:0:0:
511,163,82131,1,0,0:0:0:0:
387,244,82291,2,0,B|338:227|338:227|308:183,1,100,0|0,1:0|1:0,0:0:0:0:
129,325,82610,6,0,P|194:319|235:317,1,100,0|0,1:0|0:0,0:0:0:0:
310,310,82849,1,0,0:0:0:0:
328,307,82929,1,4,1:0:0:0:
148,191,83089,1,8,2:3:0:0:
300,94,83248,2,0,P|320:140|310:188,1,100,0|4,0:0|3:0,0:0:0:0:
163,93,83567,2,0,P|143:47|152:0,1,100,8|0,0:3|0:0,0:0:0:0:
237,152,83887,6,0,P|228:206|219:260,1,100,8|0,0:0|0:0,0:0:0:0:
248,322,84126,1,0,0:0:0:0:
253,339,84206,1,8,0:0:0:0:
54,217,84365,2,0,P|102:222|146:198,1,100,0|0,1:0|0:0,0:0:0:0:
20,121,84685,1,8,0:0:0:0:
162,208,84844,1,4,1:2:0:0:
15,287,85004,1,0,2:0:0:0:
15,287,85323,5,0,1:0:0:0:
223,40,85482,1,4,1:2:0:0:
252,337,85642,1,0,0:0:0:0:
20,121,85802,5,0,1:0:0:0:
336,70,85961,1,4,1:2:0:0:
144,302,86121,1,0,0:0:0:0:
95,16,86280,6,0,P|102:53|120:156,1,100,12|0,1:0|0:0,0:0:0:0:
256,192,86440,12,0,88993,0:0:0:0:
