osu file format v14

[General]
AudioFilename: audio.mp3
AudioLeadIn: 0
PreviewTime: 98534
Countdown: 0
SampleSet: Soft
StackLeniency: 0.4
Mode: 0
LetterboxInBreaks: 0
WidescreenStoryboard: 0

[Editor]
DistanceSpacing: 0.25
BeatDivisor: 4
GridSize: 32
TimelineZoom: 3

[Metadata]
Title:ego-izm
TitleUnicode:ego-izm
Artist:la la larks
ArtistUnicode:la la larks
Creator:Bellicose
Version:lasse's expert
Source:M3~ソノ黒キ鋼~
Tags:school food punishment yumi uchimura egoizm egoism tetsu dark metal M3: Sono Kuroki Hagane ending ed japanese rock anime full version lasse captin1 kalibe collab dored garden
BeatmapID:2524708
BeatmapSetID:1207305

[Difficulty]
HPDrainRate:5
CircleSize:4
OverallDifficulty:8.4
ApproachRate:9.2
SliderMultiplier:1.76
SliderTickRate:1

[Events]
//Background and Video events
0,0,"bg.jpg",0,0
//Break Periods
2,121073,129559
//Storyboard Layer 0 (Background)
//Storyboard Layer 1 (Fail)
//Storyboard Layer 2 (Pass)
//Storyboard Layer 3 (Foreground)
//Storyboard Layer 4 (Overlay)
//Storyboard Sound Samples

[TimingPoints]
556,319.148936170213,4,2,34,35,1,0
556,-166.666666666667,4,2,34,35,0,0
10449,-250.000000000001,4,2,34,35,0,0
10768,-142.857142857143,4,2,34,45,0,0
15396,-200,4,2,34,45,0,0
15875,-142.857142857143,4,2,34,45,0,0
19864,-142.857142857143,4,2,0,50,0,0
20343,-142.857142857143,4,2,0,55,0,0
20981,-125,4,2,34,55,0,0
28162,-125,4,2,34,60,0,0
28321,-83.3333333333333,4,2,34,60,0,0
28641,-83.3333333333333,4,2,34,70,0,0
29917,-83.3333333333333,4,2,34,70,0,0
31194,-133.333333333333,4,2,34,70,0,0
31992,-66.6666666666667,4,2,34,90,0,0
32790,-100,4,2,34,50,0,0
33747,-90.9090909090909,4,2,34,75,0,1
42683,-83.3333333333333,4,2,34,80,0,1
44279,-90.9090909090909,4,2,34,75,0,1
51779,-90.9090909090909,4,2,34,75,0,1
52896,-125,4,2,34,80,0,1
53056,-83.3333333333333,4,2,34,80,0,1
53215,-71.4285714285714,4,2,34,80,0,1
53375,-62.5,4,2,34,80,0,1
53534,-62.5,4,2,34,80,0,1
53694,-76.9230769230769,4,2,34,80,0,1
54173,-83.3333333333333,4,2,34,80,0,1
54492,-90.9090909090909,4,2,34,75,0,1
56407,-83.3333333333333,4,2,34,75,0,1
56726,-90.9090909090909,4,2,34,75,0,1
58960,-83.3333333333333,4,2,34,75,0,1
59279,-76.9230769230769,4,2,34,75,0,1
59758,-90.9090909090909,4,2,34,75,0,1
63109,-90.9090909090909,4,2,34,80,0,1
63268,-90.9090909090909,4,2,34,80,0,1
64226,-90.9090909090909,4,2,34,80,0,1
64385,-90.9090909090909,4,2,34,80,0,1
64704,-90.9090909090909,4,2,34,75,0,1
71087,-125,4,2,34,75,0,1
71726,-83.3333333333333,4,2,34,75,0,1
72045,-76.9230769230769,4,2,34,75,0,1
72364,-76.9230769230769,4,2,34,80,0,1
73321,-76.9230769230769,4,2,34,85,0,1
73960,-125,4,2,34,75,0,1
74173,-125,4,2,34,60,0,1
74598,-125,4,2,34,60,0,0
78428,-142.857142857143,4,2,34,50,0,0
78827,-142.857142857143,4,2,34,50,0,0
79226,-142.857142857143,4,2,34,50,0,0
79385,-200,4,2,34,50,0,0
79704,-125,4,2,34,60,0,0
84651,-90.9090909090909,4,2,34,60,0,0
84811,-166.666666666667,4,2,34,60,0,0
85768,-111.111111111111,4,2,34,60,0,0
86087,-100,4,2,34,60,0,0
86407,-125,4,2,34,60,0,0
88800,-90.9090909090909,4,2,34,65,0,0
89518,-90.9090909090909,4,2,34,65,0,0
89598,-90.9090909090909,4,2,34,65,0,0
89917,319.148936170213,3,2,34,65,1,0
89917,-125,3,2,34,65,0,0
91831,-125,3,2,34,65,0,0
92151,-125,3,2,34,65,0,0
93268,-125,3,2,34,65,0,0
93427,-125,3,2,34,65,0,0
93587,-125,3,2,34,65,0,0
93746,-100,3,2,34,65,0,0
94065,-111.111111111111,3,2,34,65,0,0
94225,-100,3,2,34,65,0,0
94385,-111.111111111111,3,2,34,65,0,0
94544,-111.111111111111,3,2,34,65,0,0
94863,-111.111111111111,3,2,34,65,0,0
95661,-83.3333333333333,3,2,34,70,0,0
96938,-83.3333333333333,3,2,34,70,0,0
97576,-76.9230769230769,3,2,34,75,0,0
98534,-66.6666666666667,3,2,34,70,0,0
99172,-83.3333333333333,3,2,34,75,0,0
99491,319.148936170213,4,2,34,75,1,0
99491,-86.9565217391304,4,2,34,75,0,1
99650,-86.9565217391304,4,2,34,75,0,1
104597,-86.9565217391304,4,2,34,75,0,1
104756,-86.9565217391304,4,2,34,75,0,1
108427,-74.0740740740741,4,2,34,80,0,1
108905,-86.9565217391304,4,2,34,80,0,1
109703,-86.9565217391304,4,2,34,80,0,1
110182,-83.3333333333333,4,2,34,75,0,1
110661,-80,4,2,34,75,0,1
110980,-90.9090909090909,4,2,34,75,0,1
111299,-86.9565217391304,4,2,34,75,0,1
114810,-86.9565217391304,4,2,34,75,0,1
114969,-86.9565217391304,4,2,34,75,0,1
117363,-86.9565217391304,4,2,34,80,0,1
117522,-86.9565217391304,4,2,34,80,0,1
119916,-166.666666666667,4,2,34,50,0,0
120395,-142.857142857143,4,2,34,45,0,0
120873,-250,4,2,34,45,0,0
130129,-200,4,2,34,50,0,0
130288,-200,4,2,34,40,0,0
131405,-200,4,2,34,50,0,0
131565,-200,4,2,34,40,0,0
132682,-200,4,2,34,50,0,0
132842,-200,4,2,34,40,0,0
133639,-200,4,2,34,50,0,0
133799,-200,4,2,34,40,0,0
134597,-200,4,2,34,50,0,0
134756,-200,4,2,34,40,0,0
134916,-200,4,2,34,30,0,0
135235,-200,4,2,34,50,0,0
135315,-200,4,2,34,40,0,0
136193,-200,4,2,34,50,0,0
136352,-200,4,2,34,40,0,0
136831,-200,4,2,34,50,0,0
136991,-200,4,2,34,40,0,0
137469,-200,4,2,34,50,0,0
137629,-200,4,2,34,40,0,0
137788,-200,4,2,34,50,0,0
137948,-200,4,2,34,40,0,0
139065,-166.666666666667,4,2,34,50,0,0
139145,-200,4,2,34,40,0,0
140022,-200,4,2,34,30,0,0
140342,-166.666666666667,4,2,34,50,0,0
144969,-166.666666666667,4,2,34,50,0,0
145129,-166.666666666667,4,2,34,50,0,0
150076,-166.666666666667,4,2,34,50,0,0
150235,-166.666666666667,4,2,34,50,0,0
150554,-125,4,2,34,55,0,0
153108,-125,4,2,34,60,0,0
155182,-125,4,2,34,60,0,0
155342,-166.666666666667,4,2,34,60,0,0
155661,-90.9090909090909,4,2,34,65,0,0
155980,-83.3333333333333,4,2,34,65,0,0
156618,-90.9090909090909,4,2,34,65,0,0
156937,-100,4,2,34,65,0,0
157735,-90.9090909090909,4,2,34,65,0,0
158214,-90.9090909090909,4,2,34,70,0,0
159171,-125,4,2,34,70,0,0
159491,-90.9090909090909,4,2,34,70,0,0
160129,-90.9090909090909,4,2,34,70,0,0
160448,-76.9230769230769,4,2,34,75,0,0
160767,-90.9090909090909,4,2,34,85,0,0
161405,-90.9090909090909,4,2,34,85,0,0
161565,-50,4,2,34,90,0,0
162642,-200,4,2,34,50,0,0
162682,-200,4,2,34,30,0,0
163320,-100,4,2,34,60,0,0
163639,-100,4,2,34,40,0,0
164916,-100,4,2,34,60,0,0
165235,-100,4,2,34,40,0,0
165873,-100,4,2,34,60,0,0
166193,-100,4,2,34,40,0,0
167150,-133.333333333333,4,2,34,60,0,0
167469,-125,4,2,34,60,0,0
168108,-100,4,2,34,60,0,0
168427,-100,4,2,34,60,0,0
168746,-100,4,2,34,40,0,0
169703,-133.333333333333,4,2,34,60,0,0
170501,-125,4,2,34,60,0,0
171139,-111.111111111111,4,2,34,60,0,0
172256,-111.111111111111,4,2,34,70,0,0
172735,-100,4,2,34,70,0,0
173533,-111.111111111111,4,2,34,65,0,0
174012,-55.5555555555556,4,2,34,65,0,0
174491,-111.111111111111,4,2,34,65,0,0
174969,-55.5555555555556,4,2,34,65,0,0
175448,-111.111111111111,4,2,34,65,0,0
176086,-99.9999999999999,4,2,34,65,0,0
178639,-90.9090909090909,4,2,34,65,0,0
180873,-83.3333333333333,4,2,34,65,0,0
181193,-76.9230769230769,4,2,34,75,0,0
181352,-76.9230769230769,4,2,34,75,0,0
182150,-71.4285714285714,4,2,34,80,0,0
182895,-83.3333333333333,4,2,34,70,0,0
183108,-142.857142857143,4,2,34,70,0,0
183347,-166.666666666667,4,2,34,50,0,0
183666,-166.666666666667,4,2,34,50,0,0
183746,-66.6666666666667,4,2,34,80,0,1
184065,-86.9565217391304,4,2,34,80,0,1
185182,-133.333333333333,4,2,34,80,0,1
185501,-86.9565217391304,4,2,34,80,0,1
188693,-86.9565217391304,4,2,34,80,0,1
188852,-86.9565217391304,4,2,34,80,0,1
191246,-86.9565217391304,4,2,34,80,0,1
191405,-86.9565217391304,4,2,34,80,0,1
192682,-80,4,2,34,85,0,1
192842,-80,4,2,34,85,0,1
193959,-80,4,2,34,85,0,1
194278,-83.3333333333333,4,2,34,80,0,1
195076,-83.3333333333333,4,2,34,80,0,1
195235,-83.3333333333333,4,2,34,80,0,1
196352,-83.3333333333333,4,2,34,80,0,1
196512,-83.3333333333333,4,2,34,80,0,1
197709,-83.3333333333333,4,2,34,80,0,1
197788,-83.3333333333333,4,2,34,80,0,1
198746,-76.9230769230769,4,2,34,80,0,1
199065,-83.3333333333333,4,2,34,80,0,1
201299,-76.9230769230769,4,2,34,80,0,1
201937,-74.0740740740741,4,2,34,85,0,1
202895,-74.0740740740741,4,2,34,90,0,1
203533,-200,4,2,34,80,0,1
203852,-200,4,2,34,50,0,1
204171,-125,4,2,34,60,0,0
204411,-125,4,2,34,60,0,0
208959,-100,4,2,34,60,0,0
209278,-125,4,2,34,60,0,0
209517,-125,4,2,34,60,0,0
214065,-100,4,2,34,60,0,0
214384,-111.111111111111,4,2,34,65,0,0
214623,-111.111111111111,4,2,34,65,0,0
219171,-100,4,2,34,65,0,0
219491,-111.111111111111,4,2,34,65,0,0
219810,-111.111111111111,4,2,34,65,0,0
222044,-111.111111111111,4,2,34,65,0,0
223001,-83.3333333333333,4,2,34,65,0,0
223320,-83.3333333333333,4,2,34,65,0,0
223480,-83.3333333333333,4,2,34,70,0,0
224437,-133.333333333333,4,2,34,70,0,0
224597,-133.333333333333,4,2,34,5,0,0
225076,-133.333333333333,4,2,34,15,0,0

[Colours]
Combo1 : 252,181,150
Combo2 : 189,231,249
Combo3 : 251,230,174
Combo4 : 209,214,250

[HitObjects]
171,52,556,5,2,0:0:0:0:
198,43,715,1,0,0:0:0:0:
226,24,875,1,0,0:0:0:0:
274,86,1034,5,2,0:0:0:0:
274,96,1194,1,0,0:0:0:0:
278,105,1353,1,0,0:0:0:0:
344,160,1513,5,2,1:2:0:0:
370,129,1673,1,0,0:0:0:0:
468,143,1832,5,10,0:1:0:0:
418,170,1992,1,0,0:0:0:0:
384,142,2151,1,0,0:0:0:0:
455,181,2311,5,2,0:0:0:0:
417,188,2470,1,0,0:0:0:0:
393,163,2630,1,0,0:0:0:0:
395,206,2790,5,2,0:3:0:0:
387,172,2949,1,0,0:0:0:0:
480,288,3109,5,2,0:0:0:0:
487,311,3268,1,0,0:0:0:0:
473,332,3428,1,0,0:0:0:0:
390,371,3587,5,2,0:0:0:0:
387,360,3747,1,0,0:0:0:0:
380,351,3907,1,0,0:0:0:0:
321,281,4066,5,2,0:0:0:0:
298,319,4226,1,2,0:0:0:0:
226,246,4545,5,2,0:0:0:0:
247,383,4704,1,2,0:0:0:0:
210,218,5024,5,2,0:0:0:0:
136,373,5183,2,0,L|155:306,1,52.7999983886719,2|0,0:0|1:0,0:0:0:0:
0,264,5502,6,0,L|54:255,1,52.7999983886719,2|8,0:0|0:1,0:0:0:0:
153,10,5821,5,2,0:0:0:0:
77,90,5981,2,0,L|75:26,1,52.7999983886719,2|8,0:0|0:1,0:0:0:0:
173,132,6300,5,2,0:0:0:0:
145,123,6460,1,0,0:0:0:0:
94,130,6619,1,0,1:0:0:0:
75,172,6779,1,0,0:0:0:0:
0,256,6938,5,2,0:0:0:0:
32,245,7098,1,0,0:0:0:0:
62,261,7258,1,0,0:0:0:0:
158,227,7417,5,2,0:0:0:0:
163,236,7577,1,0,0:0:0:0:
172,239,7736,1,8,2:1:0:0:
255,175,7896,5,2,0:0:0:0:
232,134,8056,1,0,1:0:0:0:
343,116,8215,5,10,0:1:0:0:
311,161,8375,1,0,0:0:0:0:
264,152,8534,1,0,0:0:0:0:
369,135,8694,5,10,0:1:0:0:
318,143,8853,1,0,0:0:0:0:
281,108,9013,1,0,0:0:0:0:
399,155,9173,5,2,0:0:0:0:
323,189,9332,5,2,0:0:0:0:
414,249,9492,6,0,L|442:263,11,26.399999194336,2|0|0|0|0|0|0|0|0|0|0|0,0:0|0:0|0:0|0:0|0:0|0:0|0:0|0:0|0:0|0:0|0:0|0:0,0:0:0:0:
495,308,10449,6,0,P|506:294|510:263,1,35.2,2|0,0:0|0:0,0:0:0:0:
492,121,10768,6,0,P|495:153|520:185,2,61.5999981201172,10|0|0,0:1|0:0|0:0,0:0:0:0:
395,20,11247,2,0,P|392:52|367:84,2,61.5999981201172,10|0|0,0:1|0:0|0:0,0:0:0:0:
269,127,11726,2,0,P|272:159|297:191,1,61.5999981201172,2|0,1:2|0:0,0:0:0:0:
207,62,12045,5,2,0:0:0:0:
188,86,12204,1,0,0:0:0:0:
160,103,12364,1,0,0:0:0:0:
125,107,12524,1,0,0:0:0:0:
81,82,12683,1,0,0:0:0:0:
171,129,12843,5,2,0:0:0:0:
97,183,13002,1,2,1:0:0:0:
111,266,13162,1,2,0:0:0:0:
229,228,13321,6,0,L|153:210,2,61.5999981201172,10|0|0,0:1|0:0|0:0,0:0:0:0:
71,363,13800,2,0,L|147:345,2,61.5999981201172,10|0|0,0:1|0:0|0:0,0:0:0:0:
233,257,14279,5,2,0:0:0:0:
341,309,14438,1,2,0:0:0:0:
246,223,14758,5,2,1:0:0:0:
327,342,14917,1,2,0:0:0:0:
280,196,15236,5,2,0:0:0:0:
293,369,15396,2,0,L|299:279,1,88,2|0,1:0|2:0,2:0:0:0:
452,345,15875,6,0,P|484:352|519:344,1,61.5999981201172,10|0,0:1|0:0,0:0:0:0:
441,259,16194,1,2,0:0:0:0:
496,181,16353,2,0,P|512:155|506:108,1,61.5999981201172,10|0,0:1|1:0,0:0:0:0:
407,166,16673,1,2,0:0:0:0:
448,79,16832,2,0,P|436:53|401:30,1,61.5999981201172,10|0,0:1|1:0,0:0:0:0:
318,9,17151,5,10,0:1:0:0:
336,49,17311,1,0,0:0:0:0:
331,91,17470,1,0,0:0:0:0:
267,149,17630,5,10,0:1:0:0:
306,85,17790,1,0,0:0:0:0:
281,168,17949,5,2,0:0:0:0:
284,82,18109,1,2,0:0:0:0:
282,0,18268,1,2,0:0:0:0:
153,34,18428,6,0,L|222:45,1,61.5999981201172,10|0,0:1|0:0,0:0:0:0:
62,55,18747,2,0,P|130:66|161:188,1,184.799994360352,2|0,0:0|0:0,0:0:0:0:
133,242,19385,5,2,0:0:0:0:
33,210,19545,1,2,0:0:0:0:
512,352,19864,5,2,0:1:0:0:
367,384,20024,1,2,0:1:0:0:
512,108,20343,5,2,0:1:0:0:
300,45,20502,1,2,0:1:0:0:
316,33,20981,6,0,B|359:56|359:56|327:156,1,140.8,14|8,0:1|0:1,0:0:0:0:
429,237,21460,2,0,B|433:263|433:263|374:290|328:236,1,140.8,2|0,0:0|0:0,0:0:0:0:
215,357,21938,2,0,B|250:326|235:272|235:272|212:305,1,105.6,2|0,1:2|0:0,0:0:0:0:
223,371,22258,2,0,P|269:343|362:357,1,140.8,8|0,0:1|1:0,0:0:0:0:
467,384,22816,5,0,1:0:0:0:
472,377,22896,1,8,2:1:0:0:
455,232,23135,5,0,1:0:0:0:
460,224,23215,2,8,B|468:192|468:192|467:182|467:182|474:146,1,70.4,8|0,0:1|1:1,0:1:0:0:
423,81,23534,6,0,B|341:75|389:28|301:26,1,140.8,10|0,0:1|1:0,0:0:0:0:
179,163,24013,2,0,B|266:161|218:114|301:107,1,140.8,2|0,0:0|0:0,0:0:0:0:
374,212,24492,2,0,B|354:184|308:183|308:183|325:193|336:207,1,105.6,2|0,1:0|0:0,0:0:0:0:
385,219,24811,2,0,P|323:245|307:311,2,140.8,8|0|0,0:1|1:0|1:0,0:0:0:0:
493,107,25688,5,0,1:0:0:0:
498,115,25768,2,0,P|462:128|438:91,1,70.4,10|0,0:1|1:0,0:1:0:0:
348,4,26087,6,0,B|280:4|253:72|253:72|283:62,1,140.8,10|0,0:1|1:0,0:1:0:0:
376,220,26566,2,0,L|359:136,1,70.4,2|0,0:0|1:0,0:0:0:0:
362,150,26885,1,2,0:0:0:0:
239,191,27045,2,0,B|223:206|224:229|224:229|257:230|270:191,1,105.6,2|0,1:0|0:0,0:0:0:0:
233,180,27364,2,0,B|193:224|223:271|252:258|256:316,1,140.8,0|0,1:0|1:0,0:0:0:0:
91,375,27923,5,0,1:0:0:0:
85,383,28002,2,0,L|75:302,1,70.4,8|8,0:1|0:1,0:0:0:0:
0,149,28321,6,0,B|32:149|72:178|72:178|91:143|128:123,1,158.399995166016,12|0,0:2|0:0,0:0:0:0:
149,40,28641,5,14,0:0:0:0:
216,189,28800,1,8,0:1:0:0:
292,162,28960,1,8,0:1:0:0:
456,126,29119,5,14,0:0:0:0:
389,275,29279,1,8,0:1:0:0:
313,248,29438,1,8,0:1:0:0:
150,291,29598,6,0,P|132:355|48:311,1,158.399995166016,14|0,0:2|0:0,0:0:0:0:
5,279,29917,5,0,1:0:0:0:
39,254,29997,1,0,1:0:0:0:
59,216,30077,1,0,1:0:0:0:
62,173,30157,1,0,1:0:0:0:
51,137,30236,5,0,1:0:0:0:
43,130,30316,1,0,1:0:0:0:
51,122,30396,1,0,1:0:0:0:
58,130,30476,1,0,1:0:0:0:
45,135,30556,1,0,1:0:0:0:
45,125,30635,1,0,1:0:0:0:
56,125,30715,1,0,1:0:0:0:
56,135,30795,1,0,1:0:0:0:
51,131,30875,5,0,1:0:0:0:
81,172,30954,5,0,1:0:0:0:
135,171,31034,5,0,1:0:0:0:
179,137,31114,5,0,1:0:0:0:
194,66,31194,6,0,B|205:37|184:6|184:6|160:23|170:59,2,99.0000037765504,10|8|8,0:1|0:1|0:1,0:0:0:0:
290,307,31992,6,2,B|354:313|361:271|416:274,1,132.000005035401,10|0,0:1|0:0,0:1:0:0:
506,365,32231,6,2,B|479:305|439:321|415:274,1,132.000005035401,10|0,0:1|0:0,0:1:0:0:
450,149,32470,6,2,B|411:201|445:228|415:274,1,132.000005035401,10|0,0:1|0:0,0:1:0:0:
445,304,33109,5,0,3:0:0:0:
445,304,33188,1,0,3:0:0:0:
445,304,33268,1,0,3:0:0:0:
445,304,33348,1,0,3:0:0:0:
445,304,33428,1,0,3:0:0:0:
445,304,33508,1,0,3:0:0:0:
445,304,33587,1,0,3:0:0:0:
445,304,33667,1,0,3:0:0:0:
445,304,33747,1,14,3:1:0:0:
512,173,33907,6,0,L|400:186,1,96.8000029541017,2|8,0:0|0:1,0:0:0:0:
226,340,34226,2,0,L|270:236,1,96.8000029541017,10|8,0:0|0:1,0:0:0:0:
223,7,34545,1,2,0:0:0:0:
281,85,34704,2,0,L|224:8,1,96.8000029541017,10|0,0:0|0:0,0:0:0:0:
120,116,35024,5,10,0:1:0:0:
81,183,35183,1,8,0:1:0:0:
14,144,35343,1,8,0:1:0:0:
53,77,35502,1,8,0:0:0:0:
173,195,35662,6,0,P|179:261|161:304,1,96.8000029541017,10|0,0:1|0:0,0:0:0:0:
108,337,35901,1,2,0:0:0:0:
104,344,35981,2,0,P|24:327|4:326,1,96.8000029541017,8|0,0:0|0:0,0:0:0:0:
277,224,36300,6,0,B|382:225|332:303|433:320,1,193.600005908203,10|8,0:1|0:1,0:0:0:0:
477,384,36779,1,8,0:0:0:0:
512,230,36938,5,2,0:0:0:0:
509,240,37018,1,2,0:0:0:0:
344,151,37178,1,2,0:0:0:0:
347,160,37258,1,10,0:0:0:0:
512,66,37417,1,2,0:0:0:0:
354,17,37577,6,0,B|326:61|274:58|274:58|244:5|194:9,1,193.600005908203,10|8,0:1|0:1,0:0:0:0:
297,100,38056,1,8,0:0:0:0:
195,8,38215,2,0,P|138:18|93:55,1,96.8000029541017,10|0,0:1|0:0,0:0:0:0:
280,192,38534,2,0,P|299:137|290:80,1,96.8000029541017,10|0,0:0|0:0,0:0:0:0:
6,197,38853,5,10,0:1:0:0:
198,285,39013,2,0,B|124:259|124:259|83:271|74:307,1,145.200004431152,2|0,0:0|0:0,0:0:0:0:
90,318,39332,2,0,P|134:281|125:128,1,193.600005908203,10|0,0:0|0:0,0:0:0:0:
40,6,39811,5,10,0:0:0:0:
0,81,39970,1,2,0:0:0:0:
0,81,40050,1,2,0:0:0:0:
0,81,40130,1,10,0:1:0:0:
40,378,40449,5,10,0:1:0:0:
0,303,40609,1,8,0:0:0:0:
128,192,40768,2,0,P|111:246|127:288,1,96.8000029541017,10|0,0:1|0:0,0:0:0:0:
334,375,41087,2,0,P|354:321|317:234,1,145.200004431152,10|0,0:0|0:0,0:0:0:0:
304,229,41407,6,0,L|201:244,1,96.8000029541017,10|0,0:1|0:0,0:0:0:0:
312,111,41726,1,10,0:1:0:0:
455,329,41885,1,10,0:0:0:0:
500,196,42045,5,2,0:0:0:0:
502,188,42125,1,2,0:0:0:0:
504,180,42204,1,2,0:0:0:0:
506,172,42284,1,2,0:0:0:0:
508,164,42364,2,0,B|484:137|449:125|449:125|438:84|472:45,1,145.200004431152,10|0,0:0|0:0,0:0:0:0:
220,152,42683,6,2,B|262:140|262:140|271:122|271:122|354:98,1,105.599996777344,10|0,0:1|0:0,0:1:0:0:
332,126,42923,2,2,P|319:153|300:130,1,52.7999983886719,2|8,0:0|0:1,0:1:0:0:
168,10,43162,5,10,0:0:0:0:
68,238,43321,2,0,P|44:193|85:133,1,105.599996777344,10|0,0:1|0:0,0:0:0:0:
126,99,43561,5,2,0:0:0:0:
126,99,43641,1,12,0:0:0:0:
178,303,43800,1,2,0:0:0:0:
303,146,43960,6,0,P|382:162|387:38,1,211.199993554688,14|8,0:1|0:1,0:0:0:0:
262,77,44438,1,10,0:0:0:0:
262,77,44598,2,0,B|255:43|285:1|341:16|341:16|325:20|318:27,1,145.200004431152,8|0,0:1|0:0,0:0:0:0:
312,33,44917,2,0,P|251:31|215:-7,1,96.8000029541017,10|0,0:0|0:0,0:0:0:0:
328,147,45236,5,10,0:1:0:0:
173,66,45396,2,0,P|112:68|76:106,1,96.8000029541017,2|8,0:0|0:1,0:0:0:0:
14,37,45715,5,8,0:0:0:0:
109,166,45875,2,0,B|154:175|154:175|197:145,1,96.8000029541017,10|0,0:1|0:0,0:0:0:0:
195,146,46114,1,2,0:0:0:0:
195,146,46194,1,8,0:0:0:0:
376,273,46353,5,2,0:0:0:0:
323,188,46513,2,0,B|243:211|246:306|246:306|260:313|278:331,1,193.600005908203,10|8,0:1|0:1,0:0:0:0:
334,384,46992,1,8,0:0:0:0:
507,252,47151,5,10,0:1:0:0:
512,265,47231,1,2,0:0:0:0:
323,188,47391,1,2,0:0:0:0:
310,198,47470,1,10,0:0:0:0:
512,115,47630,1,2,0:0:0:0:
363,13,47790,6,0,B|333:62|333:62|247:79|195:-2,2,193.600005908203,10|8|8,0:1|0:1|0:0,0:0:0:0:
189,116,48667,5,8,0:0:0:0:
178,109,48747,1,2,0:0:0:0:
256,239,48907,1,8,0:0:0:0:
155,340,49066,1,10,0:1:0:0:
298,88,49306,5,10,0:0:0:0:
306,82,49385,1,8,0:1:0:0:
440,201,49545,2,0,L|329:178,1,96.8000029541017,10|8,0:0|0:1,0:0:0:0:
277,221,49864,1,2,0:0:0:0:
396,335,50024,2,0,B|441:318|441:318|457:281|457:281|531:260,1,145.200004431152,10|0,0:0|0:0,0:0:0:0:
512,277,50343,6,0,P|475:216|504:98,1,193.600005908203,10|8,0:1|0:1,0:1:0:0:
462,29,50821,1,8,0:0:0:0:
364,90,50981,2,0,B|314:105|314:105|379:28,1,145.200004431152,10|0,0:1|0:0,0:0:0:0:
373,33,51300,2,0,P|375:103|304:95,1,145.200004431152,10|0,0:0|0:0,0:0:0:0:
249,40,51619,5,14,0:1:0:0:
172,148,51779,5,0,1:0:0:0:
182,168,51859,1,0,1:0:0:0:
190,191,51938,1,0,1:0:0:0:
195,215,52018,1,0,1:0:0:0:
197,239,52098,1,0,1:0:0:0:
196,263,52178,1,0,1:0:0:0:
193,287,52258,1,0,1:0:0:0:
186,310,52337,1,0,1:0:0:0:
177,333,52417,5,0,1:0:0:0:
166,311,52497,1,0,1:0:0:0:
146,298,52577,1,0,1:0:0:0:
122,297,52657,1,0,1:0:0:0:
101,309,52736,1,0,1:0:0:0:
89,329,52816,1,0,1:0:0:0:
90,353,52896,6,2,P|73:354|65:338,1,35.2,2|0,1:2|1:0,0:1:0:0:
17,261,53056,6,2,P|19:210|43:183,1,52.7999983886719,2|0,1:2|1:0,0:1:0:0:
35,110,53215,6,2,P|49:82|74:64,1,61.5999981201172,2|0,1:2|1:0,0:1:0:0:
191,22,53375,6,2,P|260:35|282:49,1,70.4,2|0,1:2|1:0,0:1:0:0:
363,127,53534,6,0,P|449:128|477:81,1,140.8,10|8,1:1|1:0,0:0:0:0:
412,9,53774,5,2,1:1:0:0:
412,9,53853,2,2,L|401:71,1,57.1999973815919,8|0,1:1|1:0,0:1:0:0:
472,210,54013,2,2,L|461:272,1,57.1999973815919,2|0,1:0|1:0,0:1:0:0:
356,319,54173,6,0,B|321:306|312:275|312:275|252:272|215:322|239:387,1,211.199993554688,14|8,0:1|0:1,0:0:0:0:
148,199,54651,1,10,0:0:0:0:
247,384,54811,2,0,P|270:290|256:264,1,96.8000029541017,8|0,0:1|0:0,0:0:0:0:
258,279,55050,1,8,0:0:0:0:
242,267,55130,2,8,L|120:303,1,96.8000029541017,10|8,0:1|0:2,0:1:0:0:
375,213,55449,5,10,0:1:0:0:
227,251,55609,2,0,L|106:226,1,96.8000029541017,2|8,0:0|0:1,0:0:0:0:
169,32,55928,5,10,0:0:0:0:
293,136,56087,2,0,P|315:93|286:28,1,96.8000029541017,10|0,0:1|0:0,0:0:0:0:
251,0,56327,5,2,0:0:0:0:
251,0,56407,1,8,0:0:0:0:
132,231,56566,1,2,0:0:0:0:
82,127,56726,6,0,B|56:97|17:108|17:108|-27:184|33:242,1,193.600005908203,14|8,0:1|0:1,0:0:0:0:
129,364,57204,1,10,0:0:0:0:
264,169,57364,1,8,0:2:0:0:
493,374,57603,5,8,0:0:0:0:
501,380,57683,2,0,L|483:281,1,96.8000029541017,10|8,0:1|0:0,0:0:0:0:
510,100,58002,6,0,B|514:197|381:177|420:82,1,193.600005908203,10|8,0:1|0:1,0:0:0:0:
357,231,58481,1,8,0:0:0:0:
429,76,58641,2,0,B|474:119|437:179|437:179|377:142,1,145.200004431152,8|0,0:1|0:0,0:0:0:0:
394,161,58960,2,0,B|297:154|370:81|218:93,1,158.399995166016,10|0,0:0|0:0,0:0:0:0:
188,118,59279,5,14,0:1:0:0:
55,34,59438,2,0,L|173:10,1,114.399994763184,2|8,0:0|0:1,0:0:0:0:
0,211,59758,2,0,L|109:226,1,96.8000029541017,10|8,0:0|0:1,0:0:0:0:
0,376,60077,1,2,0:0:0:0:
84,347,60236,1,10,0:0:0:0:
507,375,60556,6,0,B|424:351|486:305|401:288,1,145.200004431152,10|0,0:1|0:0,0:0:0:0:
394,304,60875,1,10,0:1:0:0:
437,158,61034,1,8,0:0:0:0:
320,117,61194,2,0,P|331:197|354:210,1,96.8000029541017,10|0,0:1|0:0,0:0:0:0:
512,75,61513,2,0,B|463:55|463:55|420:65|420:65|334:35,1,145.200004431152,10|0,0:0|0:0,0:0:0:0:
304,6,61832,5,10,0:1:0:0:
320,117,61992,1,2,0:0:0:0:
208,124,62151,1,8,0:1:0:0:
215,218,62311,5,10,0:0:0:0:
215,218,62391,1,8,0:0:0:0:
215,218,62470,1,8,0:1:0:0:
133,70,62630,5,2,0:0:0:0:
46,238,62790,2,0,B|22:218|-2:203|-2:203|16:173|53:83,1,145.200004431152,10|0,0:0|0:0,0:0:0:0:
27,44,63109,6,0,P|74:52|119:36,1,96.8000029541017,14|8,0:1|2:0,0:0:0:0:
188,84,63348,2,8,L|206:26,1,48.4000014770508,8|12,2:0|0:1,0:0:0:0:
443,95,63587,5,10,2:0:0:0:
436,71,63667,1,8,2:0:0:0:
430,47,63747,1,8,2:1:0:0:
255,219,63986,5,10,2:2:0:0:
423,384,64226,5,10,2:2:0:0:
492,232,64385,6,0,B|521:250|518:282|518:282|447:319|398:261,1,193.600005908203,14|8,0:1|0:1,0:0:0:0:
512,117,64864,1,10,0:0:0:0:
512,117,65024,2,0,B|435:91|484:39|394:24,1,145.200004431152,8|0,0:1|0:0,0:0:0:0:
388,26,65343,2,0,P|371:80|401:109,1,96.8000029541017,10|0,0:0|0:0,0:0:0:0:
360,173,65582,1,8,0:0:0:0:
352,186,65662,6,0,B|284:234|219:171|219:171|240:155|253:125,1,193.600005908203,10|8,0:1|0:1,0:0:0:0:
186,23,66141,1,8,0:0:0:0:
30,127,66300,6,0,P|24:184|43:226,1,96.8000029541017,10|0,0:1|0:0,0:0:0:0:
82,286,66540,1,2,0:0:0:0:
82,286,66619,1,8,0:0:0:0:
247,135,66779,1,2,0:0:0:0:
389,295,66938,5,10,0:1:0:0:
462,247,67098,1,8,0:1:0:0:
400,184,67258,1,8,0:1:0:0:
327,232,67417,1,8,0:0:0:0:
247,135,67577,6,0,P|236:86|251:33,1,96.8000029541017,10|0,0:1|0:0,0:0:0:0:
312,1,67816,1,2,0:0:0:0:
312,1,67896,1,8,0:0:0:0:
400,184,68056,1,2,0:0:0:0:
210,266,68215,6,0,B|151:218|63:249|63:249|83:263|120:296,1,193.600005908203,10|8,0:1|0:1,0:0:0:0:
128,373,68694,1,8,0:0:0:0:
229,255,68853,2,0,P|259:312|356:295,1,145.200004431152,10|0,0:1|0:0,0:1:0:0:
384,372,69173,2,0,L|404:236,1,96.8000029541017,10|0,0:0|0:0,0:0:0:0:
375,63,69492,5,14,0:1:0:0:
423,154,69651,2,0,B|468:172|468:172|516:151,1,96.8000029541017,2|8,0:1|0:1,0:0:0:0:
359,53,69970,2,0,B|319:46|319:46|293:53|293:53|242:42,1,96.8000029541017,10|8,0:0|0:1,0:0:0:0:
179,7,70290,1,2,0:0:0:0:
270,136,70449,2,0,P|300:193|259:287,1,145.200004431152,10|0,0:0|0:0,0:0:0:0:
284,364,70768,6,0,B|223:361|196:315|196:315|157:326,1,145.200004431152,10|0,0:1|0:0,0:0:0:0:
87,365,71087,2,0,B|73:368|51:368|51:368|62:349|80:337,1,70.4,10|0,0:0|0:0,0:0:0:0:
280,267,71407,5,0,1:0:0:0:
296,235,71486,1,0,1:0:0:0:
300,199,71566,1,0,1:0:0:0:
291,165,71646,1,0,1:0:0:0:
270,136,71726,2,0,B|203:151|203:151|190:158|190:158|104:177,1,158.399995166016,12|0,0:0|0:0,0:0:0:0:
66,251,72045,6,0,P|27:198|80:92,1,171.599992144776,14|0,0:1|0:0,0:0:0:0:
116,54,72364,5,2,1:0:0:0:
196,208,72524,1,0,1:0:0:0:
242,294,72683,5,2,1:0:0:0:
290,123,72843,1,0,1:0:0:0:
319,30,73002,5,2,1:0:0:0:
372,221,73162,1,0,1:0:0:0:
407,310,73321,5,2,1:0:0:0:
458,122,73481,1,0,1:0:0:0:
482,35,73641,5,2,1:0:0:0:
512,242,73800,1,0,1:0:0:0:
294,133,73960,6,0,B|335:126|335:126|345:115|345:115|392:107,1,93.8666666666667,2|0,1:0|1:0,0:0:0:0:
381,108,74598,5,14,0:1:0:0:
217,309,74917,2,0,L|209:240,1,70.4,10|8,0:1|0:0,0:0:0:0:
430,379,75396,2,0,L|438:310,1,70.4,10|8,0:1|0:0,0:0:0:0:
317,379,75715,5,2,0:0:0:0:
317,379,75875,2,0,L|303:207,1,140.8,10|8,0:1|0:1,0:0:0:0:
227,244,76353,1,8,0:0:0:0:
207,88,76513,5,2,0:0:0:0:
124,173,76673,1,10,0:1:0:0:
197,72,76832,1,10,0:0:0:0:
114,157,76992,1,2,0:0:0:0:
0,61,77151,6,0,B|87:53,1,70.4,10|0,0:1|0:0,0:0:0:0:
70,54,77391,1,10,0:1:0:0:
70,54,77470,1,2,0:0:0:0:
0,163,77630,2,0,P|66:172|85:236,1,140.8,10|8,0:1|0:1,0:0:0:0:
80,336,78109,2,0,B|82:359|82:359|60:316,1,70.4,10|0,0:0|0:0,0:0:0:0:
85,236,78428,6,0,B|149:245|149:245|176:204|176:204|254:176,1,184.799994360352,10|8,0:1|0:1,0:0:0:0:
242,179,79066,1,8,0:1:0:0:
157,103,79226,2,0,L|152:65,2,30.7999990600586,10|0|0,0:0|0:0|0:0,0:0:0:0:
152,72,79704,6,0,B|235:72|186:6|306:9,1,140.8,14|8,0:1|0:1,0:0:0:0:
405,151,80183,2,0,B|322:151|371:85|251:88,1,140.8,10|8,0:0|0:1,0:0:0:0:
404,4,80662,2,0,P|401:38|412:76,1,70.4,10|0,0:0|0:0,0:0:0:0:
495,161,80981,5,10,0:1:0:0:
511,193,81141,1,0,0:0:0:0:
499,229,81300,1,8,0:1:0:0:
435,277,81460,5,10,0:0:0:0:
462,251,81619,1,0,0:0:0:0:
445,320,81779,5,10,0:1:0:0:
378,358,81938,1,8,0:0:0:0:
325,301,82098,1,0,0:0:0:0:
237,333,82258,6,0,P|247:299|244:264,1,70.4,10|0,0:1|0:0,0:0:0:0:
234,249,82497,1,10,0:1:0:0:
234,249,82577,2,0,L|136:228,1,70.4,2|8,0:0|0:1,0:0:0:0:
69,195,82896,5,2,0:0:0:0:
95,171,83056,1,8,0:1:0:0:
172,150,83215,5,10,0:0:0:0:
127,156,83375,1,0,0:0:0:0:
87,86,83534,5,10,0:1:0:0:
154,239,83694,1,2,0:0:0:0:
154,239,83774,1,10,0:1:0:0:
154,239,83853,2,0,L|184:309,1,70.4,0|8,0:0|0:1,0:0:0:0:
115,384,84173,5,2,0:0:0:0:
0,331,84332,2,0,L|89:303,1,70.4,10|8,0:1|0:0,0:0:0:0:
322,202,84651,6,0,B|304:209|304:209|224:182,1,96.8000029541017,2|14,0:0|0:1,0:0:0:0:
99,101,85768,6,0,B|137:67|112:18|112:18|101:43|79:54,1,118.799996374512,10|0,0:0|0:0,0:0:0:0:
97,56,86087,6,0,P|155:66|177:94,1,88,14|0,0:1|0:0,0:0:0:0:
223,185,86407,1,10,0:1:0:0:
361,108,86566,2,0,P|326:102|294:114,1,70.4,10|0,0:0|0:0,0:0:0:0:
222,208,86885,5,10,0:1:0:0:
271,261,87045,1,8,0:0:0:0:
268,338,87204,1,0,0:0:0:0:
240,220,87364,5,10,0:0:0:0:
317,262,87524,1,8,0:1:0:0:
402,208,87683,1,8,0:1:0:0:
243,197,87843,5,10,0:0:0:0:
244,302,88002,1,8,0:1:0:0:
157,349,88162,1,8,0:1:0:0:
251,177,88321,5,10,0:0:0:0:
329,228,88481,1,8,0:1:0:0:
403,182,88641,1,8,1:3:0:0:
243,59,88853,6,0,P|217:50|194:17,1,64.5333353027344,2|0,0:0|0:0,0:0:0:0:
263,54,89066,2,0,P|283:35|323:32,1,64.5333353027344,2|0,0:0|0:0,0:0:0:0:
257,73,89279,2,0,P|262:100|245:136,1,64.5333353027344,2|0,0:0|0:0,0:0:0:0:
179,175,89438,5,10,0:0:0:0:
179,175,89518,1,10,0:0:0:0:
179,175,89598,2,0,B|128:159|128:159|59:187|74:268,1,145.200004431152,2|0,0:0|0:0,0:0:0:0:
47,305,89917,6,0,B|110:288|162:349|162:349|129:370,1,140.8,14|8,0:1|0:1,0:0:0:0:
153,354,90395,1,10,0:2:0:0:
253,302,90555,2,0,B|272:273|272:273|256:235|256:235|281:188,1,105.6,8|0,0:1|0:0,0:0:0:0:
283,196,90874,6,0,P|319:238|387:181,1,140.8,10|8,0:0|0:1,0:0:0:0:
463,256,91353,1,8,0:0:0:0:
394,189,91512,2,0,P|372:143|380:91,1,105.6,10|0,0:1|0:0,0:0:0:0:
448,21,91831,6,0,B|462:74|516:62|516:62|490:49|482:25,1,140.8,14|8,0:1|0:1,0:0:0:0:
208,95,92310,2,0,B|218:43|276:54|276:54|250:67|242:90,1,140.8,10|0,0:0|0:0,0:0:0:0:
32,198,92789,2,0,B|42:250|100:239|100:239|74:226|66:202,1,140.8,10|8,0:1|0:0,0:0:0:0:
243,89,93268,5,0,3:0:0:0:
237,74,93347,1,0,3:0:0:0:
232,58,93427,1,0,3:0:0:0:
396,160,93587,5,0,3:0:0:0:
402,145,93667,1,0,3:0:0:0:
407,129,93746,2,0,B|442:111|466:96|466:96|484:155|506:203,1,176,14|8,0:1|0:1,0:0:0:0:
412,301,94225,2,0,B|377:283|353:268|353:268|335:327|313:375,1,176,10|8,0:0|0:0,0:0:0:0:
263,230,94704,5,10,0:1:0:0:
186,298,94863,1,8,0:0:0:0:
88,264,95023,1,8,0:0:0:0:
266,198,95182,5,10,0:1:0:0:
357,286,95342,1,8,0:0:0:0:
468,225,95502,1,8,0:0:0:0:
255,167,95661,5,14,0:1:0:0:
232,52,95821,1,8,0:0:0:0:
300,1,95980,1,8,0:1:0:0:
221,146,96140,5,10,0:0:0:0:
97,84,96299,1,8,0:0:0:0:
9,224,96459,1,10,0:1:0:0:
80,330,96619,6,0,P|136:277|213:283,1,158.399995166016,14|0,0:1|0:0,0:0:0:0:
296,279,96938,5,0,3:0:0:0:
311,314,97018,1,0,3:0:0:0:
342,339,97097,1,0,3:0:0:0:
380,346,97177,1,0,3:0:0:0:
418,335,97257,5,0,1:0:0:0:
393,289,97337,1,0,1:0:0:0:
392,236,97417,1,0,1:0:0:0:
416,190,97496,1,0,1:0:0:0:
459,160,97576,2,0,B|480:142|480:142|468:100,1,57.1999973815919,0|0,1:0|1:0,0:0:0:0:
414,45,97736,5,8,0:3:0:0:
309,194,97975,5,8,0:3:0:0:
153,0,98214,5,8,0:3:0:0:
9,269,98534,6,2,B|94:239|175:270|221:343|221:343|206:356|206:356|207:355,2,264.000010070801,10|10|12,0:1|0:0|0:0,0:1:0:0:
386,164,99491,6,0,P|413:120|404:71,1,101.200001930237,14|0,0:1|0:0,0:0:0:0:
405,73,99730,1,2,0:0:0:0:
405,73,99810,1,8,0:0:0:0:
270,258,99969,2,0,P|293:303|341:320,1,101.200001930237,2|8,0:0|0:1,0:0:0:0:
260,128,100288,5,2,0:0:0:0:
179,192,100448,1,8,0:0:0:0:
101,128,100608,1,0,0:0:0:0:
336,77,100767,5,10,0:1:0:0:
417,13,100927,1,0,0:0:0:0:
512,60,101086,1,8,0:0:0:0:
442,190,101246,6,0,L|427:66,1,101.200001930237,2|8,0:0|0:1,0:0:0:0:
283,317,101565,2,0,L|383:304,1,101.200001930237,2|8,0:0|0:0,0:0:0:0:
383,304,101804,1,2,0:0:0:0:
383,304,101884,1,2,0:0:0:0:
196,226,102044,6,0,B|84:217|156:122|42:122,1,202.400003860474,10|8,0:1|0:0,0:0:0:0:
0,61,102522,1,2,0:0:0:0:
191,0,102682,6,0,P|190:49|215:93,1,101.200001930237,10|0,0:1|0:0,0:0:0:0:
285,126,102921,1,2,0:0:0:0:
292,133,103001,2,0,P|336:109|388:112,1,101.200001930237,8|0,0:0|0:0,0:0:0:0:
512,217,103320,5,10,0:1:0:0:
423,192,103480,1,8,0:1:0:0:
269,281,103639,1,10,0:0:0:0:
356,253,103799,1,8,0:1:0:0:
452,375,103959,2,8,P|463:327|441:283,1,101.200001930237,10|8,0:1|2:1,1:0:0:0:
200,338,104278,2,0,P|178:286|223:202,1,151.800002895355,10|0,0:0|0:0,0:0:0:0:
275,155,104597,5,14,0:1:0:0:
356,253,104756,2,0,L|366:318,2,50.6000009651184,10|8|8,0:1|0:1|0:0,0:0:0:0:
408,84,105076,6,0,B|423:150|509:142|509:142|529:94|488:56,1,202.400003860474,10|0,0:1|0:0,0:0:0:0:
330,0,105554,2,0,P|322:63|234:57,1,151.800002895355,10|0,0:0|0:0,0:0:0:0:
232,81,105873,2,0,P|180:52|125:55,1,101.200001930237,10|0,0:1|0:0,0:0:0:0:
0,154,106193,5,10,0:0:0:0:
37,32,106352,1,0,0:0:0:0:
132,150,106512,1,10,0:1:0:0:
95,272,106671,1,0,0:0:0:0:
198,383,106831,1,10,0:0:0:0:
235,261,106991,1,0,0:0:0:0:
379,212,107150,6,0,P|457:231|464:122,1,202.400003860474,10|8,0:1|0:0,0:0:0:0:
398,21,107629,1,2,0:0:0:0:
401,33,107709,1,2,0:0:0:0:
404,46,107788,1,10,0:1:0:0:
307,43,107948,5,10,0:1:0:0:
493,7,108108,1,10,0:0:0:0:
337,154,108267,5,2,0:0:0:0:
337,154,108347,1,2,0:0:0:0:
337,154,108427,2,2,P|285:120|215:130,1,118.800000453186,10|8,0:1|0:0,0:1:0:0:
171,172,108666,2,2,L|182:233,1,59.400000226593,10|8,0:2|0:0,0:1:0:0:
373,367,108905,5,2,1:0:0:0:
382,338,108985,1,0,1:0:0:0:
389,308,109065,1,0,1:0:0:0:
396,278,109145,2,0,L|386:218,1,50.6000009651184,2|0,1:0|1:0,0:0:0:0:
337,154,109304,1,2,1:0:0:0:
355,144,109384,2,0,L|365:84,1,50.6000009651184,0|0,1:0|1:0,0:0:0:0:
274,11,109544,5,0,1:0:0:0:
274,11,109623,1,0,1:0:0:0:
274,11,109703,2,0,B|246:37|241:71|241:71|87:20,1,202.400003860474,14|8,0:1|0:0,0:0:0:0:
130,186,110182,2,0,P|19:218|28:315,1,211.199993554688,10|0,0:1|0:0,0:0:0:0:
144,384,110661,5,10,0:0:0:0:
148,307,110820,1,8,0:1:0:0:
211,257,110980,1,8,0:1:0:0:
290,256,111139,2,0,P|318:311|312:389,1,96.8000029541017,10|8,0:1|0:0,0:0:0:0:
385,180,111459,5,2,0:0:0:0:
385,180,111538,1,2,0:0:0:0:
385,180,111618,2,0,P|440:204|498:188,1,101.200001930237,10|0,0:1|0:0,0:0:0:0:
496,179,111858,1,2,0:0:0:0:
508,157,111937,2,0,P|506:92|481:52,1,101.200001930237,8|0,0:0|0:0,0:0:0:0:
342,0,112256,5,10,0:1:0:0:
360,89,112416,1,8,0:1:0:0:
271,107,112576,1,8,0:0:0:0:
253,18,112735,1,8,0:1:0:0:
114,195,112895,6,0,P|102:131|126:93,1,101.200001930237,10|0,0:1|0:0,0:0:0:0:
173,52,113134,1,2,0:0:0:0:
173,52,113214,1,8,0:0:0:0:
258,208,113373,1,2,0:0:0:0:
412,162,113533,5,10,0:1:0:0:
394,251,113693,1,8,0:1:0:0:
483,269,113852,1,8,0:0:0:0:
501,180,114012,1,8,0:1:0:0:
326,321,114171,5,10,0:1:0:0:
166,5,114491,2,0,L|150:118,1,101.200001930237,10|0,0:0|0:0,0:0:0:0:
137,180,114730,5,10,0:0:0:0:
137,180,114810,1,12,0:1:0:0:
12,301,114969,2,0,P|-2:253|7:204,1,101.200001930237,10|8,0:1|0:0,0:0:0:0:
244,247,115288,2,0,P|241:297|214:339,1,101.200001930237,2|8,0:0|0:1,0:0:0:0:
137,180,115608,1,2,0:0:0:0:
227,105,115767,2,0,P|298:79|427:103,1,202.400003860474,10|8,0:0|0:1,0:0:0:0:
420,99,116405,6,0,P|437:34|414:-14,1,101.200001930237,10|0,0:0|0:0,0:0:0:0:
227,105,116725,5,10,0:1:0:0:
302,204,116884,1,0,0:0:0:0:
188,288,117044,5,10,0:0:0:0:
218,128,117203,1,0,0:0:0:0:
125,8,117363,5,14,0:1:0:0:
15,76,117522,5,0,1:0:0:0:
29,87,117602,1,0,1:0:0:0:
41,103,117682,1,0,1:0:0:0:
54,119,117762,1,0,1:0:0:0:
64,138,117842,1,0,1:0:0:0:
74,155,117921,1,0,1:0:0:0:
82,175,118001,1,0,1:0:0:0:
88,193,118081,1,0,1:0:0:0:
93,214,118161,1,0,1:0:0:0:
96,234,118241,1,0,1:0:0:0:
96,255,118320,1,0,1:0:0:0:
94,276,118400,1,0,1:0:0:0:
93,295,118480,1,0,1:0:0:0:
89,316,118560,1,0,1:0:0:0:
82,336,118639,6,0,P|65:311|72:282,3,50.6000009651184,2|0|0|0,1:2|1:0|1:0|1:0,0:0:0:0:
140,216,118959,6,0,L|202:207,3,50.6000009651184,2|0|0|0,1:2|1:0|1:0|1:0,0:0:0:0:
279,164,119278,5,0,1:0:0:0:
300,210,119358,1,0,1:0:0:0:
338,233,119437,1,0,1:0:0:0:
382,233,119517,1,0,1:0:0:0:
411,218,119597,1,0,1:0:0:0:
421,199,119677,1,0,1:0:0:0:
424,182,119756,1,0,1:0:0:0:
419,173,119836,1,0,1:0:0:0:
413,168,119916,2,0,P|381:125|412:34,2,158.399995166016,14|8|0,0:1|0:1|1:0,0:0:0:0:
363,52,130129,6,0,B|403:22|446:86|413:130,2,132,2|0|0,0:2|0:0|0:0,0:0:0:0:
266,172,131405,6,0,B|232:215|275:280|316:250,2,132,2|0|0,0:0|0:0|0:0,0:0:0:0:
253,46,132682,6,0,B|209:97|162:91|150:16|60:53|48:107,1,220,10|0,0:1|0:0,0:0:0:0:
56,87,133639,2,0,B|18:75|80:25|114:71|81:108|62:154|130:216,1,220,2|0,0:0|0:0,0:0:0:0:
130,216,134597,2,0,L|177:201,2,44,2|0|2,0:0|3:0|0:3,0:0:0:0:
6,329,135235,6,0,B|23:278|105:284|105:331|110:371|213:347,1,220,10|0,0:1|0:0,0:0:0:0:
195,350,136193,2,0,B|189:382|136:364|171:323|209:319|202:249,1,132,2|0,3:2|0:0,0:0:0:0:
202,269,136831,2,0,P|175:251|180:201,1,88,2|0,0:0|0:0,0:0:0:0:
367,104,137469,6,0,L|351:155,1,44,2|0,0:0|3:0,0:0:0:0:
353,145,137788,2,0,B|256:139|314:31|435:116|315:184|351:257|431:269|435:203|387:199,1,264,10|0,0:1|0:0,0:0:0:0:
261,267,139065,6,0,B|214:319|235:369|304:462|473:322|348:216|245:258|271:336|318:325,1,316.799990332032,2|2,0:0|0:3,0:0:0:0:
305,325,140342,6,0,P|321:290|299:224,1,105.599996777344,10|8,0:1|0:1,0:0:0:0:
305,325,140820,2,0,P|286:274|303:227,1,105.599996777344,10|8,0:0|0:1,0:0:0:0:
377,116,141299,5,10,0:0:0:0:
377,116,141618,2,0,P|331:116|285:75,1,105.599996777344,10|8,0:1|0:1,0:0:0:0:
377,116,142097,2,0,P|338:81|286:79,1,105.599996777344,10|8,0:0|0:1,0:0:0:0:
153,116,142576,5,10,0:0:0:0:
153,116,142895,2,0,P|166:185|148:224,1,105.599996777344,10|8,0:1|0:1,0:0:0:0:
90,261,143373,1,8,0:0:0:0:
90,261,143693,1,10,0:1:0:0:
153,116,143852,1,8,0:0:0:0:
153,116,144171,6,0,P|193:122|250:80,1,105.599996777344,10|8,0:1|0:1,0:0:0:0:
292,27,144650,1,8,0:0:0:0:
292,27,144969,1,10,0:1:0:0:
388,171,145129,5,10,0:0:0:0:
388,171,145448,2,0,P|399:121|380:73,1,105.599996777344,10|8,0:1|0:1,0:0:0:0:
388,171,145927,2,0,P|369:123|379:72,1,105.599996777344,10|8,0:0|0:1,0:0:0:0:
431,18,146405,1,10,0:0:0:0:
379,71,146565,1,2,0:0:0:0:
311,40,146725,1,8,0:1:0:0:
311,40,147044,5,10,0:1:0:0:
264,97,147203,2,0,P|281:142|255:203,1,105.599996777344,10|8,0:1|0:1,0:1:0:0:
164,258,147682,1,10,0:0:0:0:
164,258,148001,6,0,P|119:240|54:251,1,105.599996777344,10|8,0:1|0:1,0:1:0:0:
1,292,148480,1,8,0:0:0:0:
1,292,148799,1,8,0:1:0:0:
164,258,148959,2,0,L|191:311,1,52.7999983886719,10|0,0:0|0:0,0:0:0:0:
247,360,149278,6,0,P|304:367|349:336,1,105.599996777344,10|8,0:1|0:1,0:0:0:0:
247,360,149756,2,0,P|292:334|343:342,1,105.599996777344,10|8,0:0|0:1,0:0:0:0:
417,358,150235,2,0,B|453:373|453:373|492:364,1,79.1999975830079,10|0,0:0|0:0,0:0:0:0:
502,375,150554,6,0,B|512:321|512:321|502:292|502:292|513:229,1,140.8,14|8,0:1|0:1,0:0:0:0:
504,129,151033,2,8,B|497:157|470:156|470:156|414:178|386:113,1,140.8,10|8,0:0|0:1,0:0:0:0:
328,14,151512,2,0,B|327:40|350:52|350:52|337:28|286:24|264:53,1,140.8,10|8,0:0|0:1,0:0:0:0:
218,143,151991,5,2,0:0:0:0:
287,177,152150,1,8,0:1:0:0:
276,253,152310,1,8,0:0:0:0:
200,265,152469,1,2,0:0:0:0:
164,197,152629,1,8,0:1:0:0:
287,177,152788,2,0,B|320:158|320:158|331:138|331:138|395:103,1,105.6,10|0,0:0|0:0,0:0:0:0:
381,132,153108,6,0,P|413:60|373:18,1,140.8,10|8,0:1|0:1,0:0:0:0:
268,0,153586,2,0,B|268:79,1,70.4,8|0,0:0|0:0,0:0:0:0:
97,55,153905,6,0,P|129:42|164:43,1,70.4,10|8,0:1|0:0,0:0:0:0:
115,159,154225,2,0,P|82:171|47:170,1,70.4,2|8,0:0|0:1,0:0:0:0:
167,303,154703,2,0,P|154:335|155:370,1,70.4,10|8,0:1|0:0,0:0:0:0:
341,308,155182,1,8,0:1:0:0:
341,308,155342,2,0,P|371:321|431:313,1,79.1999975830079,10|0,0:0|0:0,0:0:0:0:
438,328,155661,6,0,B|472:288|472:288|414:230|430:143,1,193.600005908203,14|8,0:1|0:1,0:0:0:0:
390,17,156139,5,10,0:0:0:0:
437,81,156299,1,2,0:0:0:0:
512,83,156459,1,8,0:1:0:0:
348,147,156618,2,0,B|233:97|280:222|124:157,1,193.600005908203,10|8,0:0|0:1,0:0:0:0:
167,171,157256,6,0,P|172:108|137:69,1,88,10|8,0:1|0:0,0:0:0:0:
26,182,157576,2,0,P|21:245|56:284,1,88,2|8,0:0|0:1,0:0:0:0:
131,347,157895,2,0,B|205:309|199:391|302:371,1,145.200004431152,14|0,0:0|0:0,0:0:0:0:
347,348,158214,5,14,0:2:0:0:
277,247,158373,1,8,0:1:0:0:
325,132,158533,1,8,0:1:0:0:
239,19,158693,5,10,0:0:0:0:
309,120,158852,1,8,0:1:0:0:
261,235,159012,1,8,0:1:0:0:
142,312,159171,6,0,L|131:198,1,105.6,14|0,0:0|0:0,0:0:0:0:
145,123,159491,5,2,1:0:0:0:
188,157,159570,1,0,1:0:0:0:
232,154,159650,1,0,1:0:0:0:
263,135,159730,1,0,1:0:0:0:
273,113,159810,1,0,1:0:0:0:
269,94,159889,1,0,1:0:0:0:
256,84,159969,1,0,1:0:0:0:
245,83,160049,1,0,1:0:0:0:
240,90,160129,1,8,1:1:0:0:
512,24,160448,6,0,L|381:13,1,114.399994763184,14|0,0:0|0:0,0:0:0:0:
240,90,160767,5,2,1:0:0:0:
233,85,160847,1,0,1:0:0:0:
227,72,160927,1,0,1:0:0:0:
234,51,161007,1,0,1:0:0:0:
258,31,161086,1,0,1:0:0:0:
300,33,161166,1,0,1:0:0:0:
331,64,161246,1,0,1:0:0:0:
331,116,161326,1,0,1:0:0:0:
307,167,161405,2,0,L|280:221,1,48.4000014770508,8|0,1:1|1:0,0:0:0:0:
232,297,161565,6,2,B|275:239|92:264|247:390|256:352|291:270|230:251,1,176,8|0,0:3|0:0,0:1:0:0:
109,204,161804,6,2,B|180:193|33:81|53:281|86:260|169:227|139:170,1,176,8|0,0:3|0:0,0:1:0:0:
87,51,162044,6,2,B|144:94|119:-88|-6:66|31:75|113:110|132:49,1,176,8|0,0:3|0:0,0:1:0:0:
432,59,162642,6,0,L|436:44,15,11,2|0|0|0|0|0|0|0|0|0|0|0|0|0|0|0,0:2|0:0|0:0|0:0|0:0|0:0|0:0|0:0|0:0|0:0|0:0|0:0|0:0|0:0|0:0|0:0,0:0:0:0:
483,130,163320,5,10,0:0:0:0:
483,130,163480,2,0,B|566:79|477:-4|385:79|478:170|487:214|556:201|508:337|361:330|380:187|519:210,1,440,10|2,0:1|0:0,0:0:0:0:
337,290,164916,6,0,B|300:234|251:262|254:335|368:352|370:284|365:194|569:330|461:446|394:381|393:339,1,352,10|2,0:0|0:0,0:0:0:0:
259,154,165873,5,10,0:0:0:0:
259,154,166033,2,0,B|330:195|381:126|297:49|208:82|203:159|288:372|14:273|123:98|235:227,1,440,8|2,0:1|0:0,0:0:0:0:
157,10,167150,6,0,B|186:61|132:99|89:75,1,132.000005035401,2|0,0:0|0:0,0:0:0:0:
21,155,167629,6,0,B|-9:208|43:257|107:215,1,140.8,2|8,0:0|0:1,0:0:0:0:
224,169,168108,6,0,B|264:154|248:103|208:124|200:181|239:243,1,132,14|0,0:0|0:0,0:0:0:0:
269,272,168427,5,10,0:0:0:0:
269,272,168586,2,0,B|343:201|417:302|320:343|203:343|266:212|309:56|33:107|134:264|235:200,1,440,10|2,0:1|0:0,0:0:0:0:
222,206,169703,6,0,B|273:162|203:93|230:131|271:76,1,132.000005035401,2|0,0:0|0:0,0:0:0:0:
409,39,170342,5,10,0:1:0:0:
409,39,170501,2,0,B|452:73|455:13|368:-3|365:96,1,140.8,12|0,0:0|0:0,0:0:0:0:
383,214,170980,5,14,0:0:0:0:
383,214,171139,2,0,B|413:245|459:239|459:239|488:179,1,118.799996374512,10|0,0:1|0:1,0:1:0:0:
489,208,171459,2,0,L|484:107,1,79.1999975830079,10|0,0:1|0:0,0:0:0:0:
282,210,171778,2,0,L|287:109,1,79.1999975830079,10|8,0:1|0:0,0:0:0:0:
197,22,172097,5,8,0:1:0:0:
115,98,172256,2,0,P|68:114|32:71,1,79.1999975830079,2|8,0:0|0:1,0:0:0:0:
120,118,172496,2,0,P|82:126|63:159,1,79.1999975830079,2|0,0:0|0:0,0:0:0:0:
84,251,172735,5,10,0:0:0:0:
238,219,172895,2,0,L|281:210,2,44,8|8|8,0:3|0:3|0:3,0:0:0:0:
333,344,173214,2,0,L|442:363,1,88,14|0,0:0|0:0,0:0:0:0:
377,167,173533,6,0,P|390:134|389:88,1,79.1999975830079,14|8,0:1|0:1,0:0:0:0:
425,13,174012,2,0,B|465:46|454:95|454:95|420:108|391:91,1,158.399995166016,10|8,0:1|0:2,0:1:0:0:
205,161,174491,6,0,P|192:128|192:82,1,79.1999975830079,10|8,0:1|0:1,0:0:0:0:
158,7,174969,2,0,B|117:40|128:89|128:89|163:102|191:85,1,158.399995166016,10|8,0:1|0:0,0:0:0:0:
285,227,175448,6,0,P|302:180|278:122,1,79.1999975830079,10|8,0:1|0:1,0:0:0:0:
297,152,175687,1,2,0:0:0:0:
297,152,175767,1,8,0:0:0:0:
192,85,175927,1,2,0:0:0:0:
74,177,176086,5,14,0:1:0:0:
74,177,176246,2,8,P|47:233|87:362,1,176,0|8,0:0|0:1,0:1:0:0:
191,372,176725,6,0,L|203:271,1,88,10|0,0:0|0:0,0:0:0:0:
201,284,176964,1,2,0:0:0:0:
201,284,177044,1,8,0:1:0:0:
319,340,177203,1,10,0:1:0:0:
480,257,177522,5,8,0:1:0:0:
480,257,177682,2,0,B|516:218|516:218|485:82,1,176,8|8,0:0|0:1,0:0:0:0:
390,10,178161,5,8,0:1:0:0:
390,10,178241,1,8,0:1:0:0:
390,10,178320,2,0,L|371:131,1,88,10|0,0:0|0:0,0:0:0:0:
276,174,178639,5,14,0:1:0:0:
276,174,178799,2,0,B|316:183|316:183|286:107|286:107|296:33,1,193.600005908203,10|8,0:1|0:1,0:0:0:0:
179,0,179278,2,0,L|160:121,1,96.8000029541017,8|0,0:0|0:0,0:0:0:0:
135,217,179597,5,10,0:1:0:0:
135,217,179756,2,0,B|79:242|79:242|79:177|79:177|41:95,1,193.600005908203,10|8,0:1|0:1,0:0:0:0:
211,262,180235,5,14,0:0:0:0:
218,271,180315,2,0,P|279:281|311:247,1,96.8000029541017,8|0,0:1|0:0,0:0:0:0:
317,256,180554,2,0,L|334:142,1,96.8000029541017,10|8,0:1|0:1,0:1:0:0:
488,18,180873,6,0,B|522:30|522:30|504:116|442:97,1,158.399995166016,10|0,0:0|0:0,0:0:0:0:
370,32,181193,5,14,1:1:0:0:
331,160,181352,5,0,1:0:0:0:
351,180,181431,1,0,1:0:0:0:
365,204,181511,1,0,1:0:0:0:
374,231,181591,1,0,1:0:0:0:
376,260,181671,1,0,1:0:0:0:
371,288,181750,1,0,1:0:0:0:
359,314,181830,1,0,1:0:0:0:
341,336,181910,1,0,1:0:0:0:
319,354,181990,1,0,1:0:0:0:
293,365,182070,1,0,1:0:0:0:
264,370,182149,1,14,1:1:0:0:
83,59,182469,5,10,0:0:0:0:
358,171,182682,5,10,0:0:0:0:
123,353,182895,5,10,0:0:0:0:
0,266,183108,6,0,B|12:307|62:313|102:279|82:229|82:229|51:201|63:151,1,215.59999342041,10|0,0:0|0:0,0:2:0:0:
94,103,183746,6,0,B|127:101|160:78|160:78|192:127|249:119|249:119|240:167|264:205,1,264.000010070801,14|8,0:1|0:1,0:0:0:0:
428,339,184225,2,0,B|391:328|391:328|369:334|369:334|319:320,1,101.200001930237,10|8,0:0|0:1,0:0:0:0:
512,195,184544,5,2,0:0:0:0:
512,195,184623,1,2,0:0:0:0:
512,195,184703,1,10,0:1:0:0:
386,231,184863,1,8,0:0:0:0:
350,105,185022,1,8,0:1:0:0:
476,69,185182,2,0,L|522:56,2,33.0000012588501,2|0|0,3:1|3:1|3:1,0:0:0:0:
289,9,185501,5,10,0:0:0:0:
282,233,185661,1,10,0:1:0:0:
278,245,185741,1,2,0:0:0:0:
156,49,185900,1,2,0:0:0:0:
143,45,185980,1,10,0:0:0:0:
167,281,186139,1,2,0:0:0:0:
36,135,186299,6,0,B|-12:202|47:254|47:254|86:236|89:205,1,202.400003860474,10|8,0:1|0:1,0:0:0:0:
175,297,186778,1,10,0:0:0:0:
91,193,186937,2,0,P|77:134|117:34,1,151.800002895355,8|0,0:1|0:0,0:0:0:0:
171,6,187256,2,0,B|222:48|222:48|246:39|235:22,1,101.200001930237,10|8,0:1|0:0,0:0:0:0:
473,149,187576,6,0,P|396:103|276:120,1,202.400003860474,10|8,0:1|0:1,0:0:0:0:
431,257,188054,1,8,0:0:0:0:
345,384,188214,2,8,L|337:281,1,101.200001930237,0|0,0:0|0:0,0:1:0:0:
134,216,188533,2,0,L|241:210,1,101.200001930237,10|0,0:0|0:0,0:0:0:0:
476,51,188852,5,14,0:1:0:0:
414,110,189012,2,0,P|347:105|316:63,1,101.200001930237,2|8,0:0|0:1,0:0:0:0:
126,35,189331,2,0,P|176:37|220:14,1,101.200001930237,10|8,0:0|0:1,0:1:0:0:
220,14,189650,1,2,0:0:0:0:
62,127,189810,2,0,P|39:171|41:221,1,101.200001930237,10|0,0:0|0:0,0:0:0:0:
135,355,190129,6,0,B|183:354|210:375|210:375|228:337|269:328,1,151.800002895355,10|0,0:1|0:0,0:0:0:0:
338,319,190448,1,10,0:1:0:0:
152,267,190608,1,8,0:0:0:0:
327,224,190767,2,0,P|360:141|322:76,1,151.800002895355,10|0,0:1|0:0,0:0:0:0:
267,20,191086,2,0,L|253:137,1,101.200001930237,10|0,0:0|0:0,0:0:0:0:
198,174,191326,5,10,0:0:0:0:
198,174,191405,1,10,0:1:0:0:
54,110,191565,2,0,L|41:9,1,101.200001930237,2|8,0:0|0:1,0:0:0:0:
281,130,191884,2,0,L|293:29,1,101.200001930237,10|8,0:0|0:1,0:0:0:0:
512,143,192203,1,2,0:0:0:0:
512,143,192363,2,0,L|499:42,1,101.200001930237,10|0,0:0|0:0,0:0:0:0:
300,227,192682,6,2,P|352:206|415:214,1,110,14|8,0:1|0:0,0:1:0:0:
472,242,192921,2,2,L|486:302,1,55,10|8,0:0|0:0,0:1:0:0:
240,377,193161,5,8,0:0:0:0:
240,377,193241,1,8,0:0:0:0:
240,377,193320,1,10,0:0:0:0:
185,94,193560,5,10,0:0:0:0:
84,349,193799,5,10,0:0:0:0:
0,283,193959,6,0,B|73:259|73:259|95:199|95:199|181:173,1,220,14|8,0:1|0:1,0:0:0:0:
33,97,194437,1,10,0:0:0:0:
253,214,194597,2,0,P|262:156|212:92,1,105.599996777344,8|0,0:1|0:0,0:0:0:0:
93,298,194916,5,10,0:0:0:0:
200,365,195076,1,8,0:0:0:0:
305,295,195235,1,8,0:1:0:0:
420,347,195395,1,8,0:1:0:0:
313,281,195554,1,8,0:0:0:0:
411,360,195714,1,8,0:0:0:0:
494,227,195873,6,0,P|506:181|484:119,1,105.599996777344,10|0,0:1|0:0,0:0:0:0:
448,65,196113,1,2,0:0:0:0:
448,65,196193,1,8,0:0:0:0:
377,199,196352,1,10,0:0:0:0:
275,60,196512,5,14,0:1:0:0:
224,152,196671,1,8,0:1:0:0:
131,101,196831,1,8,0:1:0:0:
182,9,196991,1,8,0:0:0:0:
321,151,197150,6,0,P|330:201|294:265,1,105.599996777344,10|0,0:1|0:0,0:0:0:0:
251,323,197389,1,2,0:0:0:0:
251,323,197469,1,8,0:0:0:0:
155,218,197629,1,10,0:0:0:0:
53,336,197788,6,0,B|16:355|16:355|-41:316|-29:246|18:210,1,211.199993554688,10|8,0:1|0:1,0:1:0:0:
99,79,198267,1,8,0:0:0:0:
267,192,198427,2,0,B|228:176|228:176|214:156|214:156|178:139,1,105.599996777344,8|0,0:1|0:0,0:0:0:0:
402,17,198746,6,0,B|371:100|467:138|467:138|480:106,1,171.599992144776,14|0,0:0|0:0,0:0:0:0:
479,113,199065,1,14,0:1:0:0:
389,260,199225,2,0,L|515:240,1,105.599996777344,2|8,0:0|0:1,0:0:0:0:
297,33,199544,2,0,L|423:13,1,105.599996777344,10|8,0:0|0:1,0:0:0:0:
242,159,199863,1,2,0:0:0:0:
182,98,200022,2,0,B|193:63|159:32|159:32|84:46,1,105.599996777344,10|0,0:0|0:0,0:0:0:0:
13,171,200342,6,0,L|34:365,1,158.399995166016,10|0,0:1|0:0,0:0:0:0:
91,379,200661,1,10,0:0:0:0:
407,180,200980,5,0,1:0:0:0:
418,230,201059,1,0,1:0:0:0:
392,274,201139,1,0,1:0:0:0:
343,287,201219,1,0,1:0:0:0:
297,263,201299,2,0,P|252:222|135:235,1,171.599992144776,14|0,0:2|0:0,0:0:0:0:
40,307,201618,6,0,B|11:272|11:272|56:141,1,171.599992144776,14|0,0:1|0:0,0:0:0:0:
94,67,201937,5,2,1:0:0:0:
147,254,202097,1,0,1:0:0:0:
179,350,202256,5,2,1:0:0:0:
236,137,202416,1,0,1:0:0:0:
268,40,202575,5,2,1:0:0:0:
316,238,202735,1,0,1:0:0:0:
351,344,202894,5,2,1:0:0:0:
404,114,203054,1,0,1:0:0:0:
426,14,203214,5,2,1:0:0:0:
495,283,203373,1,0,1:0:0:0:
325,127,203533,6,0,B|368:139|368:139|403:114,1,88,2|0,1:0|0:0,0:0:0:0:
403,113,204171,6,0,P|413:82|406:35,1,70.4,14|2,0:1|0:0,0:0:0:0:
401,31,204411,1,10,0:1:0:0:
390,21,204491,2,0,L|300:7,1,70.4,2|8,0:0|0:1,0:0:0:0:
136,133,204969,6,0,L|147:212,1,70.4,10|8,0:1|0:0,0:0:0:0:
312,154,205288,2,0,L|301:233,1,70.4,2|8,0:0|0:1,0:0:0:0:
290,299,205687,5,8,0:1:0:0:
231,251,205927,5,8,0:1:0:0:
398,198,206086,5,2,0:0:0:0:
508,252,206246,1,2,0:0:0:0:
395,217,206405,1,10,0:0:0:0:
505,271,206565,1,2,0:0:0:0:
429,384,206725,6,0,L|417:290,1,70.4,10|2,0:1|0:0,0:0:0:0:
420,314,206964,1,10,0:1:0:0:
420,314,207044,1,2,0:0:0:0:
505,271,207203,2,0,L|493:177,1,70.4,10|0,0:1|0:0,0:0:0:0:
321,318,207522,2,0,L|309:224,1,70.4,10|8,0:1|0:0,0:0:0:0:
206,158,207842,6,0,P|239:166|269:149,1,70.4,2|8,0:0|0:1,0:0:0:0:
251,62,208161,1,2,0:0:0:0:
251,62,208241,1,10,0:1:0:0:
251,62,208320,2,0,P|217:53|187:70,1,70.4,2|8,0:0|0:1,0:0:0:0:
100,236,208799,5,2,0:0:0:0:
100,236,208959,2,0,L|117:333,1,88,12|0,0:0|0:0,0:0:0:0:
235,363,209278,5,14,3:1:0:0:
235,363,209358,1,0,3:0:0:0:
235,363,209437,1,0,3:0:0:0:
235,363,209517,1,8,3:1:0:0:
235,363,209597,2,0,L|252:274,1,70.4,2|8,2:2|0:1,0:0:0:0:
388,381,209916,5,2,3:2:0:0:
388,381,209996,1,0,3:0:0:0:
388,381,210075,1,8,3:1:0:0:
388,381,210155,1,0,3:0:0:0:
388,381,210235,2,0,L|371:292,1,70.4,10|0,0:0|0:0,0:0:0:0:
422,200,210554,6,0,P|466:211|514:201,1,70.4,10|2,0:1|0:0,0:0:0:0:
502,200,210794,1,10,0:1:0:0:
510,188,210873,2,0,P|515:148|492:100,1,70.4,10|8,0:1|0:1,0:0:0:0:
397,24,211193,5,2,0:0:0:0:
359,139,211352,1,2,0:2:0:0:
381,14,211512,1,10,0:0:0:0:
343,129,211671,1,2,0:0:0:0:
213,55,211831,5,10,3:1:0:0:
213,55,211911,1,0,3:0:0:0:
213,55,211991,1,0,3:0:0:0:
213,55,212070,1,0,3:0:0:0:
213,55,212150,2,0,B|234:51|234:51|242:56|242:56|284:51,1,70.4,2|8,0:0|0:1,0:0:0:0:
487,26,212469,5,2,3:2:0:0:
487,26,212549,1,0,3:0:0:0:
487,26,212629,1,0,3:0:0:0:
487,26,212708,1,0,3:0:0:0:
487,26,212788,2,0,B|466:22|466:22|458:27|458:27|416:22,1,70.4,10|0,0:0|0:0,0:0:0:0:
321,133,213108,6,0,P|319:167|343:219,1,70.4,10|2,0:1|0:0,0:0:0:0:
339,212,213347,1,10,0:1:0:0:
347,223,213427,2,0,P|358:256|356:291,1,70.4,2|8,0:0|0:1,0:0:0:0:
263,352,213746,5,2,3:2:0:0:
246,345,213825,1,0,3:0:0:0:
229,341,213905,1,0,3:0:0:0:
211,339,213985,1,0,3:0:0:0:
190,338,214065,2,0,P|156:352|105:335,1,88,10|0,0:0|0:0,0:0:0:0:
21,235,214384,6,0,B|34:201|34:201|28:163|28:163|46:100,1,118.799996374512,14|8,0:1|0:1,0:0:0:0:
114,71,214703,6,0,P|146:86|192:77,1,79.1999975830079,2|8,0:0|0:0,0:0:0:0:
357,20,215182,5,10,0:1:0:0:
357,20,215262,1,8,0:1:0:0:
357,20,215342,1,8,0:0:0:0:
453,134,215501,2,0,L|450:40,1,79.1999975830079,2|8,0:0|0:1,0:0:0:0:
357,20,215900,5,8,0:1:0:0:
281,85,216139,5,8,0:0:0:0:
172,22,216299,5,2,0:0:0:0:
113,136,216458,1,2,0:2:0:0:
113,136,216538,1,10,0:1:0:0:
113,136,216618,1,10,0:0:0:0:
34,36,216777,1,2,0:0:0:0:
203,113,216937,6,0,P|206:162|180:203,1,79.1999975830079,10|2,0:1|0:0,0:0:0:0:
193,188,217177,1,10,0:1:0:0:
193,188,217256,1,2,0:0:0:0:
95,317,217416,2,0,L|77:225,1,79.1999975830079,10|0,0:0|0:0,0:0:0:0:
244,367,217735,1,10,0:1:0:0:
244,367,217815,1,8,0:1:0:0:
244,367,217895,2,0,L|262:275,1,79.1999975830079,8|0,0:0|0:0,0:0:0:0:
376,228,218214,5,8,3:1:0:0:
390,241,218293,1,0,3:0:0:0:
408,249,218373,1,0,3:0:0:0:
428,252,218453,1,0,3:0:0:0:
447,249,218533,2,0,L|461:155,1,79.1999975830079,2|8,0:2|0:1,0:0:0:0:
420,29,218852,5,2,0:0:0:0:
304,165,219012,1,8,0:1:0:0:
304,165,219092,1,8,0:1:0:0:
304,165,219171,1,12,0:0:0:0:
216,43,219331,6,0,L|207:-9,2,44,10|8|14,0:2|0:2|0:1,0:0:0:0:
152,160,219650,1,2,0:0:0:0:
73,108,219810,2,0,P|64:75|94:13,1,79.1999975830079,10|8,0:1|0:0,0:0:0:0:
173,174,220129,1,2,0:0:0:0:
89,247,220288,1,8,0:1:0:0:
89,247,220368,1,8,0:1:0:0:
89,247,220448,2,0,L|-4:232,1,79.1999975830079,10|0,0:0|0:0,0:0:0:0:
134,336,220767,6,0,B|230:311|195:382|284:364,1,158.399995166016,10|8,0:1|0:1,0:0:0:0:
415,286,221246,2,0,L|314:270,1,79.1999975830079,8|0,0:0|0:0,0:0:0:0:
233,184,221565,1,8,0:1:0:0:
233,184,221645,1,8,0:1:0:0:
233,184,221725,2,8,L|326:166,1,79.1999975830079,14|0,0:0|0:0,0:0:0:0:
469,102,222044,6,0,B|497:120|497:120|524:47|453:0,1,158.399995166016,10|8,0:1|0:1,0:0:0:0:
372,100,222522,2,0,P|335:74|270:68,1,79.1999975830079,8|0,0:0|0:0,0:0:0:0:
139,15,222842,5,8,0:1:0:0:
139,15,222921,1,8,0:1:0:0:
139,15,223001,2,0,B|221:36|192:135|150:222,1,211.199993554688,14|8,0:0|0:1,0:0:0:0:
99,339,223480,5,14,0:0:0:0:
393,318,223639,2,6,L|269:326,1,105.599996777344,14|8,0:0|0:1,0:1:0:0:
28,155,223959,5,14,0:0:0:0:
416,198,224118,2,0,L|292:190,1,105.599996777344,14|8,0:0|0:1,0:0:0:0:
189,8,224437,6,0,B|160:34|171:113|175:101|264:101|235:209|191:240|132:158|160:135|179:120,1,264.000010070801,14|4,0:0|0:3,0:0:0:0:
