osu file format v14

[General]
AudioFilename: audio.mp3
AudioLeadIn: 0
PreviewTime: 98534
Countdown: 0
SampleSet: Soft
StackLeniency: 0.4
Mode: 0
LetterboxInBreaks: 0
WidescreenStoryboard: 1

[Editor]
DistanceSpacing: 1.4
BeatDivisor: 4
GridSize: 16
TimelineZoom: 2

[Metadata]
Title:ego-izm
TitleUnicode:ego-izm
Artist:la la larks
ArtistUnicode:la la larks
Creator:Bellicose
Version:dored's hard
Source:M3~ソノ黒キ鋼~
Tags:school food punishment yumi uchimura egoizm egoism tetsu dark metal M3: Sono Kuroki Hagane ending ed japanese rock anime full version lasse captin1 kalibe collab dored garden
BeatmapID:2552003
BeatmapSetID:1207305

[Difficulty]
HPDrainRate:5
CircleSize:3.8
OverallDifficulty:6.5
ApproachRate:8
SliderMultiplier:1.3
SliderTickRate:1

[Events]
//Background and Video events
0,0,"bg.jpg",0,0
//Break Periods
2,121193,137038
//Storyboard Layer 0 (Background)
//Storyboard Layer 1 (Fail)
//Storyboard Layer 2 (Pass)
//Storyboard Layer 3 (Foreground)
//Storyboard Layer 4 (Overlay)
//Storyboard Sound Samples

[TimingPoints]
556,319.148936170213,4,2,1,35,1,0
556,-111.111111111111,4,2,1,35,0,0
10768,-111.111111111111,4,2,1,45,0,0
19864,-111.111111111111,4,2,1,50,0,0
20343,-111.111111111111,4,2,1,55,0,0
20981,-111.111111111111,4,2,1,55,0,0
28162,-111.111111111111,4,2,1,60,0,0
28321,-111.111111111111,4,2,2,60,0,0
28641,-99.9999999999999,4,2,2,70,0,0
29917,-100,4,2,3,70,0,0
31194,-100,4,2,2,70,0,0
31992,-100,4,2,99,90,0,0
32790,-100,4,2,2,50,0,0
33109,-200,4,2,1,50,0,0
33747,-100,4,2,2,75,0,0
42683,-100,4,2,2,80,0,0
44279,-100,4,2,2,75,0,0
51779,-100,4,2,3,75,0,0
52896,-100,4,2,3,80,0,0
54173,-100,4,2,2,80,0,0
54492,-100,4,2,2,75,0,0
56407,-100,4,2,2,75,0,0
56726,-100,4,2,2,75,0,0
58960,-100,4,2,2,75,0,0
59279,-100,4,2,2,75,0,0
63109,-100,4,2,2,80,0,0
63268,-100,4,2,3,80,0,0
64226,-100,4,2,2,80,0,0
64385,-100,4,2,2,80,0,0
64704,-100,4,2,2,75,0,0
71726,-100,4,2,2,75,0,0
72045,-100,4,2,2,75,0,0
72364,-100,4,2,2,80,0,0
73321,-100,4,2,2,85,0,0
73960,-100,4,2,2,75,0,0
74173,-100,4,2,3,60,0,0
74385,-100,4,2,3,45,0,0
74598,-111.111111111111,4,2,2,60,0,0
78428,-111.111111111111,4,2,2,50,0,0
79226,-111.111111111111,4,2,98,50,0,0
79385,-111.111111111111,4,2,2,50,0,0
79704,-111.111111111111,4,2,2,60,0,0
84811,-111.111111111111,4,2,2,60,0,0
85768,-111.111111111111,4,2,2,60,0,0
86087,-111.111111111111,4,2,2,60,0,0
86407,-111.111111111111,4,2,2,60,0,0
88800,-111.111111111111,4,2,2,65,0,0
89518,-111.111111111111,4,2,3,65,0,0
89598,-111.111111111111,4,2,1,65,0,0
89917,319.148936170213,3,2,2,65,1,0
89917,-111.111111111111,3,2,2,65,0,0
91832,-111.111111111111,3,2,2,65,0,0
92151,-111.111111111111,3,2,2,65,0,0
93268,-111.111111111111,3,2,3,65,0,0
93427,-111.111111111111,3,2,98,65,0,0
93587,-111.111111111111,3,2,2,65,0,0
93746,-111.111111111111,3,2,2,65,0,0
94065,-111.111111111111,3,2,2,65,0,0
94225,-111.111111111111,3,2,98,65,0,0
94385,-111.111111111111,3,2,2,65,0,0
94544,-111.111111111111,3,2,98,65,0,0
94863,-111.111111111111,3,2,2,65,0,0
95661,-111.111111111111,3,2,2,70,0,0
96619,-100,3,2,2,70,0,0
96938,-100,3,2,3,70,0,0
97576,-100,3,2,2,75,0,0
98534,-100,3,2,2,70,0,0
99172,-100,3,2,2,75,0,0
99491,319.148936170213,4,2,2,75,1,0
99491,-100,4,2,1,75,0,0
99650,-100,4,2,4,75,0,0
104597,-100,4,2,2,75,0,0
104756,-100,4,2,4,75,0,0
108427,-100,4,2,2,80,0,0
108905,-100,4,2,3,80,0,0
109703,-100,4,2,2,80,0,0
110182,-100,4,2,4,75,0,0
110661,-100,4,2,4,75,0,0
110980,-100,4,2,1,75,0,0
111139,-100,4,2,4,75,0,0
111299,-100,4,2,4,75,0,0
114810,-100,4,2,2,75,0,0
114969,-100,4,2,4,75,0,0
117363,-100,4,2,2,80,0,0
117443,-100,4,2,3,80,0,0
119916,-100,4,2,1,50,0,0
120395,-100,4,2,1,45,0,0
120873,-100,4,2,1,45,0,0
130129,-100,4,2,1,50,0,0
139065,-100,4,2,1,50,0,0
140342,-111.111111111111,4,2,2,50,0,0
144969,-100,4,2,1,50,0,0
145129,-111.111111111111,4,2,2,50,0,0
150076,-111.111111111111,4,2,1,50,0,0
150235,-111.111111111111,4,2,2,50,0,0
150554,-100,4,2,2,55,0,0
153108,-100,4,2,2,60,0,0
155182,-100,4,2,1,60,0,0
155342,-100,4,2,2,60,0,0
155661,-100,4,2,2,65,0,0
155980,-100,4,2,2,65,0,0
156618,-100,4,2,2,65,0,0
156937,-100,4,2,2,65,0,0
157735,-100,4,2,2,65,0,0
158214,-100,4,2,2,70,0,0
159171,-100,4,2,2,70,0,0
159491,-100,4,2,3,70,0,0
160129,-100,4,2,2,70,0,0
160448,-100,4,2,2,75,0,0
160767,-100,4,2,3,85,0,0
161405,-100,4,2,2,85,0,0
161565,-100,4,2,99,90,0,0
162642,-200,4,2,2,50,0,0
163320,-111.111111111111,4,2,2,60,0,0
167469,-111.111111111111,4,2,2,60,0,0
168108,-111.111111111111,4,2,2,60,0,0
170501,-111.111111111111,4,2,2,60,0,0
171139,-111.111111111111,4,2,2,60,0,0
172256,-111.111111111111,4,2,2,70,0,0
172735,-111.111111111111,4,2,2,70,0,0
173533,-99.9999999999999,4,2,2,65,0,0
178639,-100,4,2,2,65,0,0
180873,-100,4,2,2,65,0,0
181193,-100,4,2,2,75,0,0
181272,-100,4,2,3,75,0,0
182150,-100,4,2,2,80,0,0
182895,-100,4,2,2,70,0,0
183108,-100,4,2,2,70,0,0
183347,-100,4,2,2,65,0,0
183586,-100,4,2,2,50,0,0
183746,-100,4,2,97,80,0,0
184065,-100,4,2,2,80,0,0
188693,-100,4,2,3,80,0,0
188852,-100,4,2,2,80,0,0
191246,-100,4,2,3,80,0,0
191405,-100,4,2,2,80,0,0
192682,-100,4,2,2,85,0,0
192842,-100,4,2,3,85,0,0
193959,-100,4,2,2,85,0,0
194278,-100,4,2,2,80,0,0
195076,-100,4,2,3,80,0,0
195235,-100,4,2,2,80,0,0
196352,-100,4,2,3,80,0,0
196512,-100,4,2,2,80,0,0
197709,-100,4,2,3,80,0,0
197788,-100,4,2,2,80,0,0
198746,-100,4,2,2,80,0,0
199065,-100,4,2,2,80,0,0
201299,-100,4,2,2,80,0,0
201937,-100,4,2,2,85,0,0
202895,-100,4,2,2,90,0,0
203533,-100,4,2,2,80,0,0
204171,-111.111111111111,4,2,2,60,0,0
204411,-111.111111111111,4,2,4,60,0,0
208959,-111.111111111111,4,2,4,60,0,0
209278,-111.111111111111,4,2,1,60,0,0
209517,-111.111111111111,4,2,4,60,0,0
214065,-111.111111111111,4,2,4,60,0,0
214384,-111.111111111111,4,2,1,65,0,0
214623,-111.111111111111,4,2,4,65,0,0
219171,-111.111111111111,4,2,4,65,0,0
219491,-111.111111111111,4,2,1,65,0,0
219810,-111.111111111111,4,2,4,65,0,0
221725,-111.111111111111,4,2,2,65,0,0
222044,-111.111111111111,4,2,4,65,0,0
223001,-111.111111111111,4,2,2,65,0,0
223320,-111.111111111111,4,2,4,65,0,0
223480,-111.111111111111,4,2,2,70,0,0
224437,-111.111111111111,4,2,2,70,0,0

[Colours]
Combo1 : 211,198,251
Combo2 : 167,199,252
Combo3 : 191,228,249

[HitObjects]
416,336,556,6,0,L|473:325,2,58.4999982147217,2|2|2,0:0|0:0|0:0,0:0:0:0:
340,366,1034,1,0,0:0:0:0:
340,366,1194,2,0,L|282:355,1,58.4999982147217,2|0,0:0|0:0,0:0:0:0:
294,274,1513,2,0,L|352:285,1,58.4999982147217,10|2,0:0|0:0,0:0:0:0:
403,221,1832,6,0,L|392:163,2,58.4999982147217,2|0|0,1:2|0:0|0:0,0:0:0:0:
483,206,2311,1,2,0:0:0:0:
483,206,2470,2,0,L|472:148,1,58.4999982147217,2|0,0:0|0:0,0:0:0:0:
418,85,2790,2,0,P|389:80|360:74,1,58.4999982147217,10|2,0:1|0:0,0:0:0:0:
256,152,3109,6,0,L|314:142,2,58.4999982147217,2|2|2,0:0|0:0|0:0,0:0:0:0:
184,112,3587,1,2,0:0:0:0:
184,112,3747,2,0,P|189:83|194:54,1,58.4999982147217,2|0,0:0|0:0,0:0:0:0:
131,2,4066,1,2,0:0:0:0:
64,49,4226,1,2,0:0:0:0:
104,207,4545,5,2,0:0:0:0:
29,174,4704,1,2,0:0:0:0:
108,317,5024,5,2,0:0:0:0:
183,284,5183,2,0,P|212:279|241:273,1,58.4999982147217,2|8,0:0|0:0,0:0:0:0:
304,324,5502,2,0,P|298:352|293:381,1,58.4999982147217,2|0,0:0|1:0,0:0:0:0:
366,270,5821,6,0,L|356:212,2,58.4999982147217,2|2|2,0:0|0:0|1:2,0:0:0:0:
421,330,6300,2,0,P|449:335|478:340,1,58.4999982147217,2|0,0:0|0:0,0:0:0:0:
350,370,6619,2,0,P|321:375|292:381,1,58.4999982147217,10|2,0:0|0:0,0:0:0:0:
222,337,6938,6,0,P|215:308|210:279,2,58.4999982147217,2|2|2,0:0|0:0|0:0,0:0:0:0:
142,352,7417,1,2,0:0:0:0:
142,352,7577,2,0,L|132:294,2,58.4999982147217,2|0|2,0:0|1:0|0:0,0:0:0:0:
50,309,8056,1,10,0:0:0:0:
50,309,8215,6,0,P|56:337|61:366,2,58.4999982147217,2|2|2,1:2|0:0|0:0,0:0:0:0:
4,240,8694,1,2,1:2:0:0:
4,240,8853,2,0,P|10:212|15:183,1,58.4999982147217,2|0,0:0|0:0,0:0:0:0:
72,122,9173,2,0,P|100:128|129:133,1,58.4999982147217,2|2,0:0|0:0,0:0:0:0:
199,176,9492,6,0,P|170:126|180:70,1,116.999996429443,2|2,0:0|0:0,0:0:0:0:
248,25,9970,2,0,P|305:35|363:45,1,116.999996429443,2|0,0:0|0:0,0:0:0:0:
447,26,10449,1,2,0:0:0:0:
512,80,10609,1,2,0:0:0:0:
447,26,10768,6,0,P|436:83|426:141,1,116.999996429443,2|0,1:2|0:0,0:0:0:0:
467,213,11247,2,0,P|417:184|361:194,1,116.999996429443,2|0,1:2|0:0,0:0:0:0:
315,262,11726,2,0,P|305:204|293:146,1,116.999996429443,10|0,0:0|0:0,0:0:0:0:
394,289,12204,5,2,0:0:0:0:
331,343,12364,2,0,P|273:331|215:321,1,116.999996429443,2|2,0:0|0:0,0:0:0:0:
140,354,12843,2,0,P|111:358|82:365,2,58.4999982147217,2|10|0,0:0|0:0|0:0,0:0:0:0:
107,279,13321,6,0,P|66:319|9:324,1,116.999996429443,2|2,1:2|0:0,0:0:0:0:
33,245,13800,2,0,P|44:187|54:130,1,116.999996429443,2|0,0:0|0:0,0:0:0:0:
40,49,14279,1,2,0:0:0:0:
116,77,14438,1,2,0:0:0:0:
274,32,14758,5,10,0:0:0:0:
254,112,14917,2,0,L|243:169,1,58.4999982147217,2|0,0:0|0:0,0:0:0:0:
173,211,15236,2,0,L|86:195,2,87.7499973220826,2|2|2,0:0|0:0|0:0,0:0:0:0:
215,280,15875,6,0,P|264:251|320:260,1,116.999996429443,2|2,1:2|0:0,0:0:0:0:
378,318,16353,2,0,P|434:327|483:298,1,116.999996429443,2|0,0:0|0:0,0:0:0:0:
486,216,16832,2,0,P|428:206|371:194,1,116.999996429443,2|0,0:0|1:0,0:0:0:0:
320,260,17311,5,2,0:0:0:0:
371,194,17470,2,0,P|374:136|340:90,1,116.999996429443,2|0,0:0|0:0,0:0:0:0:
265,54,17949,1,2,0:0:0:0:
265,54,18109,2,0,P|258:82|253:111,1,58.4999982147217,2|2,0:0|0:0,0:0:0:0:
190,19,18428,6,0,P|140:48|84:38,1,116.999996429443,0|2,1:0|0:0,0:0:0:0:
9,72,18907,2,0,P|21:129|30:186,1,116.999996429443,0|0,0:0|0:0,0:0:0:0:
97,234,19385,1,2,0:0:0:0:
145,167,19545,1,2,0:0:0:0:
49,301,19864,5,2,0:0:0:0:
97,234,20024,2,0,P|125:239|154:244,1,58.4999982147217,2|0,0:0|0:0,0:0:0:0:
169,364,20343,5,2,0:0:0:0:
217,297,20502,2,0,P|245:291|274:286,1,58.4999982147217,2|0,0:0|0:0,0:0:0:0:
436,366,20981,6,0,P|386:337|330:346,1,116.999996429443,2|0,1:2|1:0,0:0:0:0:
274,285,21460,2,0,P|286:228|295:171,1,116.999996429443,2|0,0:0|0:0,0:0:0:0:
254,98,21938,6,0,P|282:93|311:86,1,58.4999982147217,10|0,1:2|0:0,0:0:0:0:
304,4,22258,2,0,P|332:10|361:15,1,58.4999982147217,0|0,1:0|0:0,0:0:0:0:
392,94,22577,2,0,P|420:89|449:82,1,58.4999982147217,8|0,1:2|0:0,0:0:0:0:
442,0,22896,2,0,P|470:6|499:11,1,58.4999982147217,8|0,1:2|0:0,0:0:0:0:
449,82,23215,1,10,1:2:0:0:
504,144,23375,1,8,0:0:0:0:
443,199,23534,6,0,P|414:249|423:305,1,116.999996429443,2|8,1:2|1:2,0:0:0:0:
356,355,24013,2,0,P|327:304|274:284,1,116.999996429443,2|0,0:0|0:0,0:0:0:0:
200,321,24492,6,0,P|193:292|187:263,1,58.4999982147217,10|0,1:2|0:0,0:0:0:0:
112,230,24811,2,0,P|118:201|124:172,1,58.4999982147217,0|0,1:0|0:0,0:0:0:0:
200,139,25130,2,0,P|193:110|187:81,1,58.4999982147217,8|0,1:2|0:0,0:0:0:0:
128,25,25449,1,8,1:2:0:0:
128,25,25609,2,0,P|99:31|70:37,2,58.4999982147217,2|2|10,0:0|1:2|0:0,0:0:0:0:
187,81,26087,6,0,P|243:90|293:61,1,116.999996429443,2|8,1:2|1:2,0:0:0:0:
355,114,26566,2,0,P|344:171|334:229,1,116.999996429443,2|0,0:0|0:0,0:0:0:0:
274,284,27045,6,0,P|245:277|216:271,1,58.4999982147217,10|0,1:2|0:0,0:0:0:0:
160,212,27364,2,0,P|139:233|120:255,1,58.4999982147217,8|0,1:2|0:0,0:0:0:0:
40,274,27683,2,0,P|48:302|58:329,1,58.4999982147217,8|0,1:2|0:0,0:0:0:0:
140,335,28002,1,8,1:2:0:0:
213,379,28162,1,2,1:2:0:0:
213,379,28321,2,0,P|242:372|271:366,1,58.4999982147217,14|0,0:0|0:0,0:0:0:0:
344,328,28641,5,10,0:0:0:0:
425,359,28800,2,0,P|430:326|436:294,1,65,8|0,0:0|1:0,0:0:0:0:
450,209,29119,1,10,0:0:0:0:
369,240,29278,2,0,P|363:207|357:175,1,65,8|0,0:0|1:0,0:0:0:0:
428,125,29598,6,0,P|460:70|448:7,1,130,14|8,0:1|1:2,0:0:0:0:
362,8,30077,1,8,0:0:0:0:
362,8,30157,1,8,0:0:0:0:
362,8,30237,2,0,L|331:16,3,32.5,10|8|8|8,1:2|0:0|0:0|0:0,0:0:0:0:
304,51,30556,2,0,L|273:42,3,32.5,8|8|8|8,1:2|0:0|0:0|0:0,0:0:0:0:
238,16,30875,2,0,L|207:24,3,32.5,8|8|8|8,1:2|0:0|0:0|0:0,0:0:0:0:
176,55,31194,6,0,P|184:102|193:150,2,97.5,10|2|2,1:2|1:2|1:2,0:0:0:0:
280,195,31992,5,2,1:0:0:0:
157,240,32231,1,2,1:0:0:0:
34,285,32470,1,2,1:0:0:0:
100,123,32790,5,2,0:0:0:0:
34,285,33109,2,0,P|89:290|128:330,1,113.75,2|0,0:0|0:0,0:0:0:0:
140,372,33747,5,6,1:2:0:0:
204,313,33907,2,0,P|235:306|268:301,1,65,2|0,0:0|1:0,0:0:0:0:
308,224,34226,2,0,P|363:256|426:244,1,130,10|2,0:0|0:0,0:0:0:0:
472,171,34704,2,0,P|477:138|483:106,1,65,10|0,1:2|0:0,0:0:0:0:
405,65,35024,6,0,P|400:32|394:0,2,65,0|0|0,1:0|0:0|1:0,0:0:0:0:
319,46,35502,1,8,0:0:0:0:
319,46,35662,2,0,P|297:89|302:137,2,97.5,2|2|2,1:2|0:0|0:0,0:0:0:0:
241,4,36300,6,0,P|177:15|112:26,1,130,2|0,1:2|1:0,0:0:0:0:
124,113,36779,1,8,0:0:0:0:
124,113,36938,2,0,P|171:108|214:130,2,97.5,2|2|2,1:2|0:2|0:0,0:0:0:0:
41,78,37577,6,0,P|30:142|18:206,1,130,2|0,1:2|1:0,0:0:0:0:
99,237,38056,1,8,0:0:0:0:
63,316,38215,2,0,P|32:309|-1:304,1,65,0|0,1:0|0:0,0:0:0:0:
129,370,38534,2,0,P|171:347|219:352,1,97.5,10|0,0:0|0:0,0:0:0:0:
256,374,38853,5,6,1:0:0:0:
285,291,39013,2,0,P|278:260|273:227,1,65,2|0,0:0|1:0,0:0:0:0:
199,180,39332,2,0,P|263:169|327:158,1,130,10|0,0:0|0:0,0:0:0:0:
335,71,39811,2,0,P|366:76|399:82,1,65,10|0,0:0|0:0,0:0:0:0:
482,106,40130,5,2,1:3:0:0:
482,106,40449,2,0,P|476:137|470:170,1,65,2|8,1:2|0:0,0:0:0:0:
394,214,40768,2,0,P|400:245|406:278,1,65,2|0,1:2|0:0,0:0:0:0:
485,313,41087,2,0,P|479:344|473:377,1,65,2|0,1:2|0:0,0:0:0:0:
405,277,41407,6,0,P|350:309|287:297,1,130,2|2,1:2|1:2,0:0:0:0:
227,361,41885,2,0,P|195:366|163:372,1,65,10|0,0:0|1:0,0:0:0:0:
120,296,42204,2,0,P|87:290|56:284,1,65,2|8,0:0|1:2,0:0:0:0:
14,208,42524,1,2,0:0:0:0:
96,181,42683,6,0,P|118:138|113:90,2,97.5,2|2|10,1:2|0:0|0:0,0:0:0:0:
33,123,43321,2,0,P|25:74|16:26,2,97.5,2|2|2,1:2|0:0|0:0,0:0:0:0:
113,90,43960,6,0,P|177:79|241:68,1,130,6|0,1:2|1:0,0:0:0:0:
304,127,44438,2,0,P|326:67|304:7,1,130,10|0,0:0|0:0,0:0:0:0:
430,78,44917,2,0,P|398:72|365:66,1,65,10|0,1:2|0:0,0:0:0:0:
304,127,45236,5,2,1:3:0:0:
304,127,45396,2,0,P|298:158|292:191,1,65,2|0,0:0|1:0,0:0:0:0:
233,255,45715,1,8,0:0:0:0:
233,255,45875,2,0,P|276:277|324:272,2,97.5,2|2|2,1:2|0:0|0:0,0:0:0:0:
292,190,46513,6,0,P|355:193|402:236,1,130,2|0,1:2|1:0,0:0:0:0:
472,288,46992,1,8,0:0:0:0:
472,288,47151,2,0,P|463:335|455:384,2,97.5,2|2|2,1:2|0:0|0:0,0:0:0:0:
482,200,47790,6,0,P|470:136|459:72,2,130,2|0|8,1:2|1:0|1:2,0:0:0:0:
402,236,48587,1,2,0:0:0:0:
402,236,48667,1,8,0:0:0:0:
402,236,48747,2,0,P|396:204|390:171,1,65,2|10,1:2|0:0,0:0:0:0:
325,113,49066,5,6,1:0:0:0:
394,61,49226,2,0,P|425:66|458:72,1,65,2|0,0:0|1:0,0:0:0:0:
325,113,49545,2,0,P|270:81|207:93,1,130,10|0,0:0|0:0,0:0:0:0:
125,63,50024,2,0,P|130:31|136:-1,1,65,10|0,0:0|0:0,0:0:0:0:
58,119,50343,5,2,1:3:0:0:
58,119,50662,2,0,P|63:150|69:183,1,65,2|8,1:2|0:0,0:0:0:0:
117,255,50981,2,0,P|85:261|53:265,1,65,2|0,1:2|0:0,0:0:0:0:
7,340,51300,2,0,P|38:345|71:351,1,65,10|0,0:0|0:0,0:0:0:0:
154,377,51619,6,0,P|197:355|245:360,1,97.5,6|0,1:0|0:0,0:0:0:0:
281,384,51938,2,0,P|345:372|409:361,1,130,10|8,1:2|1:2,0:0:0:0:
495,372,52417,1,10,0:0:0:0:
482,286,52577,2,0,P|451:281|418:275,1,65,10|8,1:2|0:0,0:0:0:0:
346,222,52896,5,10,1:2:0:0:
346,222,53056,1,10,0:0:0:0:
295,293,53215,1,10,1:2:0:0:
212,271,53375,1,10,0:0:0:0:
212,271,53534,2,0,P|163:263|116:254,2,97.5,10|10|8,1:2|0:0|0:0,0:0:0:0:
263,200,54173,6,0,P|231:144|170:123,1,130,6|0,1:2|1:0,0:0:0:0:
94,82,54651,2,0,P|157:82|206:40,1,130,10|0,0:0|0:0,0:0:0:0:
249,46,55050,1,8,0:0:0:0:
249,46,55130,2,0,P|254:77|260:110,1,65,2|8,1:2|0:0,0:0:0:0:
338,68,55449,5,0,1:0:0:0:
338,68,55609,2,0,P|369:73|402:79,1,65,2|0,0:0|1:0,0:0:0:0:
462,148,55928,1,10,0:0:0:0:
462,148,56087,2,0,P|484:190|479:238,2,97.5,2|2|2,1:2|0:0|0:0,0:0:0:0:
380,180,56726,6,0,P|324:211|261:199,1,130,6|0,1:2|1:0,0:0:0:0:
212,271,57204,2,0,P|147:282|84:293,1,130,10|0,0:0|0:0,0:0:0:0:
48,267,57603,1,8,0:0:0:0:
48,267,57683,2,0,P|53:235|59:202,1,65,2|8,1:2|0:0,0:0:0:0:
11,129,58002,6,0,P|73:117|128:149,1,130,0|0,1:0|1:0,0:0:0:0:
213,127,58481,1,8,0:0:0:0:
261,199,58641,2,0,P|268:230|273:263,1,65,0|0,1:0|0:0,0:0:0:0:
213,127,58960,2,0,P|222:79|229:31,1,97.5,14|0,0:1|0:0,0:0:0:0:
264,4,59279,5,6,1:2:0:0:
338,48,59438,2,0,P|370:43|401:36,1,65,2|0,0:0|1:0,0:0:0:0:
323,136,59758,2,0,P|386:124|451:113,1,130,10|0,0:0|0:0,0:0:0:0:
503,181,60236,2,0,P|496:212|490:244,1,65,10|0,1:2|0:0,0:0:0:0:
415,290,60556,5,2,1:3:0:0:
415,290,60875,2,0,P|383:295|350:300,1,65,2|8,1:2|0:0,0:0:0:0:
288,361,61194,2,0,P|256:356|223:351,1,65,2|0,1:2|0:0,0:0:0:0:
161,290,61513,2,0,P|129:295|96:300,1,65,10|0,1:2|0:0,0:0:0:0:
32,359,61832,5,2,1:2:0:0:
96,299,61992,2,0,P|90:267|82:235,1,65,2|0,0:0|1:0,0:0:0:0:
31,163,62311,2,0,P|85:195|148:183,1,130,10|2,0:0|0:0,0:0:0:0:
213,127,62790,2,0,P|244:134|276:140,1,65,10|0,1:2|0:0,0:0:0:0:
340,199,63109,6,0,P|361:156|357:108,2,97.5,6|10|10,1:0|0:0|0:0,0:0:0:0:
404,258,63747,2,0,P|382:300|386:348,2,97.5,8|10|10,1:2|0:0|0:0,0:0:0:0:
472,204,64385,6,0,P|460:140|449:76,1,130,6|0,1:2|1:0,0:0:0:0:
379,23,64864,2,0,P|315:34|251:45,1,130,10|0,0:0|0:0,0:0:0:0:
188,106,65343,2,0,P|156:98|124:92,1,65,10|0,1:2|0:0,0:0:0:0:
89,75,65582,1,8,0:0:0:0:
89,75,65662,6,0,P|97:43|103:11,2,65,0|0|0,1:0|0:0|1:0,0:0:0:0:
16,123,66141,1,8,0:0:0:0:
16,123,66300,2,0,P|25:170|33:219,2,97.5,2|2|2,1:2|0:0|0:0,0:0:0:0:
117,168,66938,6,0,P|171:200|234:187,1,130,2|0,1:2|1:0,0:0:0:0:
232,277,67417,1,8,0:0:0:0:
232,277,67577,2,0,P|183:284|136:293,2,97.5,2|2|2,1:2|0:0|0:0,0:0:0:0:
309,234,68215,6,0,P|321:171|289:116,2,130,2|0|0,1:2|1:0|1:0,0:0:0:0:
232,277,69013,1,2,0:0:0:0:
275,354,69173,2,0,P|323:360|371:370,1,97.5,10|0,0:0|0:0,0:0:0:0:
414,378,69492,5,6,1:2:0:0:
395,293,69651,2,0,P|426:286|458:279,1,65,2|0,0:0|1:0,0:0:0:0:
504,204,69970,2,0,P|467:151|474:88,1,130,10|0,0:0|0:0,0:0:0:0:
393,52,70449,2,0,P|385:83|379:115,1,65,10|0,1:2|0:0,0:0:0:0:
289,116,70768,5,2,1:3:0:0:
289,116,71087,2,0,P|258:108|226:102,1,65,10|0,1:2|0:0,0:0:0:0:
176,28,71407,2,0,P|207:22|239:13,1,65,10|4,1:2|0:3,0:0:0:0:
138,107,71726,2,0,P|107:99|75:93,1,65,14|0,0:1|0:0,0:0:0:0:
187,180,72045,6,0,P|218:188|250:194,1,65,6|0,1:2|0:0,0:0:0:0:
114,229,72364,1,10,1:2:0:0:
114,229,72524,1,8,0:0:0:0:
163,302,72683,1,10,1:2:0:0:
163,302,72843,1,8,0:0:0:0:
90,351,73002,2,0,P|58:356|26:365,1,65,10|8,1:2|0:0,0:0:0:0:
163,302,73321,6,0,P|194:310|226:316,1,65,10|8,1:2|0:0,0:0:0:0:
290,375,73641,2,0,P|321:366|353:360,1,65,10|8,1:2|0:0,0:0:0:0:
428,315,73960,2,0,P|466:336|509:335,2,86.6666666666667,10|8|8,0:0|0:0|0:0,0:0:0:0:
390,215,74598,5,6,1:2:0:0:
469,237,74758,1,2,0:3:0:0:
390,215,74917,2,0,P|395:186|399:157,1,58.4999982147217,2|8,1:2|0:0,0:0:0:0:
456,96,75236,1,2,0:3:0:0:
456,96,75396,2,0,P|450:67|446:38,1,58.4999982147217,2|8,1:2|0:0,0:0:0:0:
368,64,75715,1,2,0:0:0:0:
307,10,75875,5,0,1:0:0:0:
307,10,76194,1,0,1:0:0:0:
229,36,76353,1,8,0:0:0:0:
290,90,76513,2,0,P|285:119|281:148,1,58.4999982147217,2|2,0:0|1:2,0:0:0:0:
216,198,76832,2,0,P|221:227|225:256,1,58.4999982147217,10|2,0:0|0:0,0:0:0:0:
184,327,77151,5,0,1:0:0:0:
184,327,77311,2,0,P|233:298|289:307,2,116.999996429443,2|2|2,0:3|1:2|1:2,0:0:0:0:
113,368,78109,2,0,P|84:363|55:359,1,58.4999982147217,8|0,0:0|0:0,0:0:0:0:
57,276,78428,6,0,P|28:281|-1:285,2,58.4999982147217,2|0|2,1:2|0:0|0:3,0:0:0:0:
76,196,78907,2,0,P|104:200|133:204,1,58.4999982147217,4|0,0:3|1:0,0:0:0:0:
94,116,79226,1,10,0:1:0:0:
17,140,79385,1,2,0:1:0:0:
249,65,79704,6,0,P|191:55|133:43,1,116.999996429443,6|0,1:2|1:0,0:0:0:0:
208,138,80183,2,0,P|264:147|313:118,1,116.999996429443,10|0,0:0|1:0,0:0:0:0:
360,185,80662,2,0,P|416:175|465:204,1,116.999996429443,10|0,0:0|1:0,0:0:0:0:
488,284,81141,5,2,0:0:0:0:
410,313,81300,2,0,P|406:284|401:255,1,58.4999982147217,0|8,1:0|0:0,0:0:0:0:
360,185,81619,1,2,3:2:0:0:
360,185,81779,2,0,P|331:189|302:193,2,58.4999982147217,2|10|2,1:2|0:0|0:0,0:0:0:0:
405,116,82258,6,0,P|434:120|463:124,2,58.4999982147217,0|0|0,1:0|0:0|3:0,0:0:0:0:
358,48,82736,1,0,1:0:0:0:
358,48,82896,2,0,P|329:44|300:39,1,58.4999982147217,2|0,3:2|1:0,0:0:0:0:
245,102,83215,1,8,0:0:0:0:
245,102,83375,2,0,P|216:106|187:110,1,58.4999982147217,2|0,0:0|1:0,0:0:0:0:
112,75,83694,5,0,1:0:0:0:
112,75,83774,1,0,1:0:0:0:
112,75,83853,2,0,P|116:46|120:17,1,58.4999982147217,0|0,3:0|1:0,0:0:0:0:
45,122,84173,2,0,L|61:209,2,87.7499973220826,2|2|2,0:0|0:0|0:0,0:0:0:0:
0,56,84811,5,2,1:2:0:0:
38,306,85768,2,0,P|74:283|118:282,1,87.7499973220826,8|0,0:0|0:0,0:0:0:0:
157,296,86087,6,0,P|185:291|214:285,1,58.4999982147217,4|0,1:2|0:0,0:0:0:0:
146,378,86407,1,0,1:0:0:0:
146,378,86566,2,0,P|203:366|260:356,1,116.999996429443,8|2,0:0|1:2,0:0:0:0:
296,282,87045,2,0,P|291:253|285:224,1,58.4999982147217,10|2,0:0|0:0,0:0:0:0:
370,318,87364,6,0,P|398:322|427:328,2,58.4999982147217,8|0|2,1:2|1:0|1:2,0:0:0:0:
469,234,87843,2,0,P|440:239|411:244,2,58.4999982147217,8|0|0,0:0|1:0|1:0,0:0:0:0:
370,150,88321,1,8,0:0:0:0:
370,150,88481,2,0,P|398:155|427:160,1,58.4999982147217,2|4,0:0|1:3,0:0:0:0:
450,78,88853,6,0,L|368:64,2,77.999997619629,2|2|6,0:0|0:0|0:3,0:0:0:0:
370,150,89438,2,0,P|316:130|288:80,1,116.999996429443,8|0,0:0|0:0,0:0:0:0:
216,23,89917,6,0,P|204:80|194:138,1,116.999996429443,6|0,1:2|1:0,0:0:0:0:
120,170,90395,2,0,P|110:112|100:54,1,116.999996429443,10|0,0:0|0:0,0:0:0:0:
24,23,90874,2,0,P|14:80|3:138,1,116.999996429443,10|0,0:0|1:0,0:0:0:0:
45,209,91353,1,8,0:0:0:0:
120,170,91512,2,0,L|136:257,1,87.7499973220826,2|0,1:2|0:0,0:0:0:0:
162,288,91831,6,0,P|211:259|267:268,1,116.999996429443,6|2,1:2|1:2,0:0:0:0:
349,268,92310,2,0,P|329:214|280:186,1,116.999996429443,10|0,0:0|1:0,0:0:0:0:
427,237,92789,2,0,P|427:293|391:337,1,116.999996429443,10|8,0:0|0:0,0:0:0:0:
308,338,93268,2,0,P|279:342|250:348,2,58.4999982147217,10|10|10,0:0|1:1|0:0,0:0:0:0:
349,268,93746,6,0,P|360:210|370:153,1,116.999996429443,6|0,1:2|1:0,0:0:0:0:
406,79,94225,2,0,P|462:88|511:59,1,116.999996429443,10|10,0:1|0:1,0:0:0:0:
360,11,94704,1,10,1:1:0:0:
360,11,94863,2,0,P|331:16|302:21,1,58.4999982147217,8|8,0:0|0:0,0:0:0:0:
248,83,95182,2,0,P|219:77|190:72,2,58.4999982147217,2|14|2,1:2|0:1|0:0,0:0:0:0:
288,154,95661,5,10,0:0:0:0:
217,194,95821,2,0,P|223:222|228:251,1,58.4999982147217,8|0,0:0|1:0,0:0:0:0:
151,145,96140,1,10,0:0:0:0:
80,185,96299,2,0,P|75:156|68:127,1,58.4999982147217,8|2,0:0|1:0,0:0:0:0:
146,233,96619,6,0,P|121:274|122:322,1,97.5,14|0,0:0|0:0,0:0:0:0:
153,356,96938,2,0,L|184:348,3,32.5,8|8|8|8,1:2|0:0|0:0|0:0,0:0:0:0:
224,328,97257,2,0,L|255:336,3,32.5,10|8|8|8,1:2|0:0|0:0|0:0,0:0:0:0:
297,354,97576,5,8,1:2:0:0:
324,268,97736,2,0,P|277:260|229:251,2,97.5,6|6|6,0:3|0:3|0:3,0:0:0:0:
146,233,98534,5,2,1:2:0:0:
146,233,98853,1,10,0:0:0:0:
146,233,99172,1,14,0:1:0:0:
258,99,99491,5,6,1:2:0:0:
202,166,99650,2,0,P|170:157|139:149,1,65,2|8,0:1|0:0,0:0:0:0:
258,99,99969,2,0,P|313:131|376:119,1,130,2|2,0:1|0:1,0:0:0:0:
463,124,100448,2,0,P|457:92|452:59,1,65,10|2,0:0|0:1,0:0:0:0:
375,119,100767,6,0,P|380:150|385:183,2,65,0|2|8,1:0|0:1|0:0,0:0:0:0:
467,211,101246,2,0,P|461:242|456:275,1,65,2|0,0:1|1:0,0:0:0:0:
408,349,101565,2,0,P|375:353|343:360,1,65,2|8,0:1|0:0,0:0:0:0:
289,290,101884,1,2,0:1:0:0:
237,360,102044,6,0,P|205:305|217:242,1,130,2|8,1:2|0:0,0:0:0:0:
157,178,102522,1,2,0:1:0:0:
157,178,102682,2,0,P|206:170|254:161,2,97.5,2|2|2,1:2|0:1|0:1,0:0:0:0:
80,222,103320,6,0,P|68:157|57:94,1,130,2|8,1:2|0:0,0:0:0:0:
6,22,103799,1,2,0:1:0:0:
57,94,103959,2,0,P|90:88|121:82,1,65,4|2,1:1|0:1,0:0:0:0:
192,30,104278,2,0,P|239:25|281:48,1,97.5,10|0,0:0|0:0,0:0:0:0:
300,88,104597,5,6,1:2:0:0:
253,161,104756,2,0,P|247:194|241:225,1,65,2|8,0:1|0:0,0:0:0:0:
171,282,105076,2,0,P|226:314|288:302,1,130,2|2,0:1|0:1,0:0:0:0:
328,224,105554,2,0,P|359:229|392:235,1,65,10|2,0:0|0:1,0:0:0:0:
477,255,105873,5,0,1:0:0:0:
477,255,106193,2,0,P|471:222|465:190,1,65,10|2,0:0|0:1,0:0:0:0:
503,112,106512,2,0,P|471:100|440:89,1,65,2|2,1:2|0:1,0:0:0:0:
392,18,106831,2,0,P|365:39|340:61,1,65,10|2,0:0|0:1,0:0:0:0:
260,91,107150,6,0,P|205:59|142:71,1,130,2|10,1:2|0:0,0:0:0:0:
57,93,107629,2,0,P|63:62|67:29,1,65,2|0,0:1|1:0,0:0:0:0:
121,156,107948,2,0,P|127:187|132:220,1,65,2|8,0:1|0:0,0:0:0:0:
49,249,108267,1,2,0:1:0:0:
115,306,108427,6,0,P|162:297|211:289,2,97.5,6|2|10,1:1|0:0|0:0,0:0:0:0:
274,349,109065,2,0,P|295:306|291:258,2,97.5,8|8|10,1:2|0:0|0:0,0:0:0:0:
233,203,109703,6,0,P|296:215|361:226,1,130,6|8,1:2|1:2,0:0:0:0:
171,144,110182,2,0,P|159:81|191:26,1,130,2|2,0:0|0:1,0:0:0:0:
271,63,110661,2,0,P|275:30|282:0,1,65,10|2,0:0|0:1,0:0:0:0:
358,45,110980,5,2,1:3:0:0:
358,45,111139,2,0,P|390:40|421:32,1,65,2|8,0:1|1:2,0:0:0:0:
353,132,111459,1,2,0:1:0:0:
353,132,111538,1,2,0:1:0:0:
353,132,111618,2,0,P|400:122|448:113,2,97.5,2|2|2,1:2|0:1|0:1,0:0:0:0:
310,209,112256,6,0,P|255:241|192:229,1,130,2|8,1:2|0:0,0:0:0:0:
171,144,112735,1,2,0:1:0:0:
171,144,112815,1,2,0:1:0:0:
171,144,112895,2,0,P|123:135|75:124,2,97.5,2|2|2,1:2|0:1|0:1,0:0:0:0:
192,229,113533,6,0,P|186:261|180:293,1,65,2|2,1:2|0:1,0:0:0:0:
268,292,113852,2,0,P|262:323|256:356,1,65,8|2,0:0|0:1,0:0:0:0:
344,355,114171,1,4,1:1:0:0:
495,266,114491,2,0,P|447:270|405:247,1,97.5,10|0,0:0|0:0,0:0:0:0:
372,218,114810,5,6,1:2:0:0:
353,132,114969,2,0,P|347:99|341:67,1,65,2|8,0:1|0:0,0:0:0:0:
397,0,115288,2,0,P|334:12|269:23,1,130,2|2,0:1|0:1,0:0:0:0:
201,79,115767,2,0,P|169:73|136:67,1,65,8|2,0:0|0:1,0:0:0:0:
49,47,116086,5,0,1:0:0:0:
49,47,116405,2,0,P|54:78|60:111,1,65,10|2,0:0|0:1,0:0:0:0:
125,219,116724,2,0,P|130:186|136:154,1,65,2|2,1:2|0:1,0:0:0:0:
33,194,117044,2,0,P|38:225|44:258,1,65,10|2,0:0|0:1,0:0:0:0:
117,306,117363,6,0,L|147:297,3,32.5,6|8|8|8,1:2|0:0|0:0|0:0,0:0:0:0:
185,320,117682,2,0,P|216:325|248:331,1,65,10|8,1:2|0:0,0:0:0:0:
304,263,118001,2,0,L|334:271,3,32.5,10|8|8|8,1:2|0:0|0:0|0:0,0:0:0:0:
372,293,118320,2,0,P|403:287|435:281,1,65,10|8,1:2|0:0,0:0:0:0:
463,197,118639,6,0,L|455:167,3,32.5,10|8|8|8,1:2|0:0|0:0|0:0,0:0:0:0:
444,122,118959,2,0,P|412:116|380:109,1,65,10|8,1:2|0:0,0:0:0:0:
295,86,119278,2,0,L|303:54,3,32.5,10|8|8|8,1:2|0:0|0:0|0:0,0:0:0:0:
272,22,119597,2,0,P|230:46|182:46,1,97.5,8|0,1:2|0:0,0:0:0:0:
141,29,119916,5,6,1:2:0:0:
256,192,137788,12,2,140022,0:1:0:0:
64,320,140342,6,0,P|69:291|74:262,1,58.4999982147217,2|0,1:2|0:0,0:0:0:0:
139,358,140661,1,2,1:2:0:0:
139,358,140820,2,0,P|148:300|159:242,1,116.999996429443,10|0,0:0|1:0,0:0:0:0:
110,176,141299,1,10,0:0:0:0:
110,176,141618,6,0,P|81:181|52:186,1,58.4999982147217,2|0,1:2|0:0,0:0:0:0:
162,113,141937,1,2,1:2:0:0:
162,113,142097,2,0,P|212:142|268:132,1,116.999996429443,10|0,0:0|1:0,0:0:0:0:
339,92,142576,1,10,0:0:0:0:
339,92,142895,6,0,P|344:121|349:150,1,58.4999982147217,2|0,1:2|0:0,0:0:0:0:
293,210,143214,1,0,1:0:0:0:
354,265,143373,1,8,0:0:0:0:
476,375,143692,1,0,1:0:0:0:
415,320,143852,1,8,0:0:0:0:
430,157,144171,6,0,P|425:186|420:215,1,58.4999982147217,2|0,1:2|0:0,0:0:0:0:
354,265,144491,1,0,1:0:0:0:
354,265,144650,2,0,P|297:255|248:284,1,116.999996429443,8|2,0:0|1:1,0:0:0:0:
202,352,145129,1,8,0:0:0:0:
202,352,145448,6,0,P|173:347|144:342,1,58.4999982147217,2|0,1:2|0:0,0:0:0:0:
73,383,145767,1,2,1:2:0:0:
73,383,145927,2,0,P|62:326|91:277,1,116.999996429443,10|0,0:0|1:0,0:0:0:0:
170,259,146405,2,0,P|165:230|160:201,1,58.4999982147217,10|2,0:0|0:0,0:0:0:0:
201,129,146725,5,0,1:0:0:0:
55,204,147044,1,2,1:2:0:0:
95,131,147203,2,0,P|105:73|114:15,1,116.999996429443,10|0,0:0|1:0,0:0:0:0:
191,71,147682,2,0,P|196:100|201:129,1,58.4999982147217,10|0,0:0|0:0,0:0:0:0:
269,31,148001,6,0,P|274:60|279:89,2,58.4999982147217,2|0|0,1:2|0:0|1:0,0:0:0:0:
352,39,148480,2,0,P|401:10|457:21,1,116.999996429443,8|0,0:0|1:0,0:0:0:0:
473,102,148959,2,0,P|444:97|415:92,1,58.4999982147217,10|0,0:0|0:0,0:0:0:0:
346,137,149278,5,0,1:0:0:0:
488,215,149596,1,0,1:0:0:0:
417,176,149756,1,8,0:0:0:0:
419,257,149916,2,0,P|414:286|409:315,1,58.4999982147217,2|2,0:0|1:1,0:0:0:0:
347,369,150235,2,0,P|303:360|260:353,1,87.7499973220826,10|0,0:0|0:0,0:0:0:0:
216,354,150554,6,0,P|204:291|236:236,1,130,6|0,1:2|1:0,0:0:0:0:
299,176,151033,2,0,P|310:113|278:58,1,130,8|0,0:0|1:0,0:0:0:0:
192,47,151512,2,0,P|159:42|127:37,1,65,10|0,0:0|0:0,0:0:0:0:
226,128,151831,5,0,1:0:0:0:
139,140,151991,2,0,P|144:172|148:204,2,65,2|0|8,0:0|1:0|0:0,0:0:0:0:
53,164,152469,2,0,P|58:131|62:99,1,65,2|0,0:0|1:0,0:0:0:0:
148,204,152788,2,0,P|107:229|87:273,1,97.5,10|0,0:0|0:0,0:0:0:0:
63,310,153108,6,0,P|30:315|-2:319,1,65,2|0,1:2|0:0,0:0:0:0:
135,360,153427,1,0,1:0:0:0:
135,360,153586,2,0,P|198:371|262:382,1,130,8|2,0:0|1:2,0:0:0:0:
295,301,154065,2,0,P|262:296|230:292,1,65,8|2,0:0|0:0,0:0:0:0:
350,372,154384,6,0,P|381:316|370:254,1,130,0|0,1:0|1:0,0:0:0:0:
292,214,154863,1,8,0:0:0:0:
370,254,155022,2,0,P|402:249|434:245,1,65,0|2,3:0|1:1,0:0:0:0:
488,175,155342,2,0,P|479:127|471:78,1,97.5,10|0,0:0|0:0,0:0:0:0:
447,42,155661,6,0,P|391:74|329:62,1,130,6|0,1:2|1:0,0:0:0:0:
248,28,156139,2,0,P|236:92|225:156,1,130,10|0,0:0|1:0,0:0:0:0:
140,132,156618,2,0,P|135:99|131:67,1,65,10|0,0:0|0:0,0:0:0:0:
46,43,156937,5,0,1:0:0:0:
46,43,157256,2,0,P|50:75|54:107,1,65,2|10,1:2|0:0,0:0:0:0:
140,132,157576,2,0,P|135:164|131:196,1,65,2|0,0:0|1:0,0:0:0:0:
71,261,157895,2,0,P|113:283|161:278,1,97.5,12|0,0:0|0:0,0:0:0:0:
202,262,158214,6,0,P|207:294|211:326,2,65,14|0|0,0:1|1:0|1:0,0:0:0:0:
289,267,158693,2,0,P|293:234|298:202,2,65,8|0|0,0:0|1:0|1:0,0:0:0:0:
312,351,159171,2,0,P|360:342|409:334,1,97.5,10|0,0:0|0:0,0:0:0:0:
448,315,159491,6,0,L|439:284,3,32.5,6|8|8|8,1:1|0:0|0:0|0:0,0:0:0:0:
411,249,159810,2,0,L|419:217,3,32.5,8|8|8|8,1:2|0:0|0:0|0:0,0:0:0:0:
430,175,160129,2,0,P|462:170|494:165,1,65,12|0,1:0|1:0,0:0:0:0:
381,102,160448,2,0,P|338:79|290:85,1,97.5,14|0,0:0|0:0,0:0:0:0:
256,112,160767,6,0,L|225:103,3,32.5,10|8|8|8,1:2|0:0|0:0|0:0,0:0:0:0:
192,73,161086,2,0,L|161:82,3,32.5,8|8|8|8,1:2|0:0|0:0|0:0,0:0:0:0:
118,95,161405,1,12,1:2:0:0:
36,61,161565,2,0,P|45:109|53:158,2,97.5,2|2|2,1:0|1:0|1:0,0:0:0:0:
25,239,162642,6,0,P|69:200|127:209,1,121.875,2|0,0:3|0:0,0:0:0:0:
161,235,163320,5,10,0:0:0:0:
240,206,163480,2,0,P|249:148|260:90,1,116.999996429443,2|2,1:2|0:0,0:0:0:0:
240,206,164916,2,0,P|211:255|220:312,1,116.999996429443,8|0,1:2|0:0,0:0:0:0:
402,344,165873,5,8,1:2:0:0:
349,281,166033,2,0,P|320:276|291:271,1,58.4999982147217,0|0,1:0|0:0,0:0:0:0:
402,344,167469,1,2,0:0:0:0:
476,309,167629,2,0,P|504:259|495:202,1,116.999996429443,2|0,0:0|1:0,0:0:0:0:
424,244,168108,2,0,L|408:157,1,87.7499973220826,10|0,0:0|0:0,0:0:0:0:
383,124,168427,5,10,1:2:0:0:
411,45,168586,2,0,P|468:35|514:69,1,116.999996429443,2|2,1:2|0:0,0:0:0:0:
383,124,170022,2,0,P|354:119|325:114,1,58.4999982147217,2|0,0:0|0:0,0:0:0:0:
247,141,170342,1,0,1:0:0:0:
262,60,170501,2,0,P|204:71|147:81,1,116.999996429443,12|0,1:2|0:0,0:0:0:0:
120,158,170980,6,0,P|70:130|13:139,1,116.999996429443,14|0,0:1|0:0,0:0:0:0:
55,211,171459,2,0,P|60:240|65:269,1,58.4999982147217,2|0,1:2|0:0,0:0:0:0:
131,317,171778,1,2,1:2:0:0:
71,372,171937,2,0,P|42:377|13:382,1,58.4999982147217,8|4,0:0|1:1,0:0:0:0:
131,317,172256,6,0,L|218:333,2,87.7499973220826,2|2|2,0:0|0:0|1:2,0:0:0:0:
281,384,172895,2,0,P|298:344|292:301,1,87.7499973220826,6|0,0:3|0:0,0:0:0:0:
266,270,173214,2,0,P|261:241|256:212,1,58.4999982147217,10|2,0:0|0:0,0:0:0:0:
256,124,173533,5,6,1:1:0:0:
180,168,173693,2,0,P|147:173|115:179,1,65,0|0,1:0|0:0,0:0:0:0:
256,212,174011,5,2,1:2:0:0:
332,168,174171,2,0,P|363:161|396:156,1,65,8|0,0:0|0:0,0:0:0:0:
256,124,174491,5,2,1:2:0:0:
180,80,174650,2,0,P|148:85|115:90,1,65,0|0,1:0|0:0,0:0:0:0:
256,36,174969,5,0,1:0:0:0:
332,80,175129,2,0,P|364:75|395:68,1,65,8|0,0:0|0:0,0:0:0:0:
460,8,175448,6,0,P|482:50|477:98,1,97.5,2|2,1:2|0:0,0:0:0:0:
467,141,175767,2,0,P|472:173|478:205,1,65,8|2,0:0|0:0,0:0:0:0:
449,288,176086,6,0,P|480:282|512:276,2,65,6|0|0,1:1|1:0|0:0,0:0:0:0:
392,355,176565,1,0,1:0:0:0:
392,355,176725,2,0,P|344:346|295:338,2,97.5,10|2|2,0:0|0:0|1:2,0:0:0:0:
363,270,177363,5,2,3:2:0:0:
334,185,177522,2,0,P|365:178|397:172,2,65,0|8|0,1:0|0:0|0:0,0:0:0:0:
276,251,178001,2,0,P|244:245|211:239,1,65,0|0,1:0|1:0,0:0:0:0:
136,194,178320,1,10,0:0:0:0:
136,194,178480,1,2,0:0:0:0:
61,240,178639,5,6,1:2:0:0:
61,240,178799,2,0,P|50:176|38:112,1,130,2|2,1:2|1:2,0:0:0:0:
19,26,179278,2,0,P|51:32|84:38,1,65,8|0,0:0|0:0,0:0:0:0:
158,82,179596,1,2,1:2:0:0:
203,6,179756,1,0,1:0:0:0:
279,51,179916,5,0,3:0:0:0:
279,51,180235,2,0,P|310:45|342:39,1,65,10|0,0:0|0:0,0:0:0:0:
234,127,180554,2,0,P|255:151|276:176,1,65,2|0,1:2|1:0,0:0:0:0:
158,82,180873,2,0,P|147:112|136:143,1,65,10|0,0:0|0:0,0:0:0:0:
195,210,181193,6,0,L|203:240,3,32.5,6|8|8|8,1:2|0:0|0:0|0:0,0:0:0:0:
238,268,181512,2,0,L|229:298,3,32.5,10|8|8|8,1:2|0:0|0:0|0:0,0:0:0:0:
251,337,181831,2,0,L|281:328,3,32.5,10|8|10|8,1:2|0:0|0:0|0:0,0:0:0:0:
318,304,182150,2,0,P|349:309|381:316,1,65,14|0,1:2|0:0,0:0:0:0:
459,272,182469,6,0,P|466:315|473:358,2,86.6666666666667,10|10|10,1:2|0:0|1:2,0:0:0:0:
377,189,183108,1,10,1:2:0:0:
377,189,183746,6,0,P|409:134|397:71,1,130,6|0,1:2|1:0,0:0:0:0:
324,120,184225,2,0,P|261:131|206:99,1,130,10|0,0:0|1:0,0:0:0:0:
160,25,184703,1,0,1:0:0:0:
86,71,184863,1,8,0:0:0:0:
132,145,185022,5,0,1:0:0:0:
132,145,185182,2,0,P|125:176|119:208,1,65,2|0,0:0|1:0,0:0:0:0:
30,208,185501,1,10,0:0:0:0:
30,208,185661,2,0,P|39:255|47:304,2,97.5,2|2|2,1:2|0:2|0:0,0:0:0:0:
133,294,186299,6,0,P|197:283|262:272,1,130,2|0,1:2|1:0,0:0:0:0:
335,224,186778,2,0,P|303:279|315:342,1,130,10|0,0:0|0:0,0:0:0:0:
388,294,187256,1,2,1:2:0:0:
465,334,187416,1,8,0:0:0:0:
465,334,187576,6,0,P|475:269|486:205,1,130,0|0,1:0|1:0,0:0:0:0:
507,121,188054,1,8,0:0:0:0:
419,126,188214,2,0,P|388:133|356:139,1,65,4|0,1:0|0:0,0:0:0:0:
418,37,188533,2,0,P|371:47|322:57,1,97.5,10|0,1:2|0:0,0:0:0:0:
281,42,188852,5,6,1:2:0:0:
220,105,189012,2,0,P|226:136|231:169,1,65,2|0,0:0|1:0,0:0:0:0:
192,247,189331,2,0,P|136:214|74:226,1,130,10|2,0:0|0:0,0:0:0:0:
8,282,189810,2,0,P|14:315|20:347,1,65,10|0,1:2|1:0,0:0:0:0:
74,225,190129,5,2,1:3:0:0:
74,225,190448,2,0,P|68:193|62:161,1,65,2|8,1:2|0:0,0:0:0:0:
105,84,190767,2,0,P|74:73|43:62,1,65,2|0,1:2|0:0,0:0:0:0:
156,158,191086,2,0,P|186:147|217:136,1,65,10|0,1:2|0:0,0:0:0:0:
259,118,191326,1,8,0:0:0:0:
259,118,191405,5,2,1:2:0:0:
346,96,191565,2,0,P|351:64|357:32,1,65,2|0,0:0|1:0,0:0:0:0:
446,18,191884,2,0,P|434:81|423:146,1,130,10|2,0:0|0:0,0:0:0:0:
360,208,192363,2,0,P|327:213|295:219,1,65,10|0,1:2|0:0,0:0:0:0:
447,232,192682,6,0,P|470:274|467:322,2,97.5,6|8|10,1:0|0:0|0:0,0:0:0:0:
360,208,193320,2,0,P|336:166|338:118,2,97.5,2|10|10,1:2|0:0|0:0,0:0:0:0:
343,295,193959,6,0,P|280:306|225:273,1,130,6|0,1:2|1:0,0:0:0:0:
184,350,194437,2,0,P|119:360|56:372,1,130,10|0,0:0|0:0,0:0:0:0:
8,298,194916,2,0,P|14:267|20:234,1,65,10|0,1:2|0:0,0:0:0:0:
42,196,195155,1,8,0:0:0:0:
42,196,195235,6,0,P|73:202|105:207,2,65,2|0|0,1:3|0:0|1:0,0:0:0:0:
134,124,195714,1,8,0:0:0:0:
134,124,195873,2,0,P|86:117|39:108,2,97.5,2|2|2,1:2|0:0|0:0,0:0:0:0:
168,153,196432,1,8,0:0:0:0:
168,153,196512,6,0,P|222:120|285:131,1,130,6|0,1:2|1:0,0:0:0:0:
238,205,196991,1,8,0:0:0:0:
238,205,197150,2,0,P|215:247|218:295,2,97.5,2|2|2,1:2|0:0|0:0,0:0:0:0:
301,265,197788,6,0,P|365:255|429:242,1,130,2|0,1:2|1:0,0:0:0:0:
494,301,198267,1,8,0:0:0:0:
429,242,198427,2,0,P|423:211|417:178,1,65,0|0,1:0|0:0,0:0:0:0:
445,95,198746,2,0,P|397:99|354:77,1,97.5,14|0,1:1|0:0,0:0:0:0:
336,37,199065,5,6,1:2:0:0:
254,69,199225,2,0,P|222:62|190:57,1,65,2|0,0:0|1:0,0:0:0:0:
112,16,199544,2,0,P|79:70|90:133,1,130,10|0,0:0|0:0,0:0:0:0:
176,143,200022,2,0,P|182:174|187:206,1,65,10|0,1:2|0:0,0:0:0:0:
121,267,200342,5,2,1:3:0:0:
121,267,200661,2,0,P|90:261|58:256,1,65,10|0,1:2|0:0,0:0:0:0:
209,268,200980,2,0,P|198:238|187:207,1,65,10|4,1:2|0:3,0:0:0:0:
252,344,201299,2,0,P|272:320|293:294,1,65,14|0,0:2|0:0,0:0:0:0:
352,228,201618,6,0,P|320:220|289:211,1,65,14|8,1:1|0:0,0:0:0:0:
417,287,201937,1,10,1:2:0:0:
417,287,202097,1,8,0:0:0:0:
476,222,202256,1,10,1:2:0:0:
476,222,202416,1,8,0:0:0:0:
411,163,202576,2,0,P|416:130|422:98,1,65,10|8,1:2|0:0,0:0:0:0:
392,16,202895,6,0,P|360:21|327:26,1,65,10|8,1:2|0:0,0:0:0:0:
264,88,203214,2,0,P|232:82|199:77,1,65,10|8,1:2|0:0,0:0:0:0:
128,25,203533,1,10,1:2:0:0:
128,25,204171,5,4,1:2:0:0:
199,77,204331,1,0,3:0:0:0:
128,25,204491,2,0,P|100:31|71:36,1,58.4999982147217,2|0,3:2|1:0,0:0:0:0:
16,97,204810,1,2,0:1:0:0:
16,97,204969,2,0,P|22:125|27:154,1,58.4999982147217,2|8,1:2|0:0,0:0:0:0:
89,208,205288,1,2,0:0:0:0:
89,208,205448,6,0,P|132:208|169:230,2,87.7499973220826,0|0|0,1:0|1:0|1:0,0:0:0:0:
110,288,206086,2,0,P|81:292|52:296,1,58.4999982147217,2|2,0:0|0:0,0:0:0:0:
167,347,206405,2,0,P|197:350|225:355,1,58.4999982147217,10|2,0:0|0:0,0:0:0:0:
288,302,206725,5,0,1:0:0:0:
288,302,206884,2,0,P|259:253|268:197,2,116.999996429443,2|2|0,0:0|1:2|1:0,0:0:0:0:
360,340,207682,2,0,P|389:336|418:332,1,58.4999982147217,8|0,0:0|0:0,0:0:0:0:
406,250,208001,6,0,P|449:258|492:265,2,87.7499973220826,0|0|0,1:0|1:0|1:0,0:0:0:0:
348,190,208639,1,2,0:1:0:0:
268,196,208799,1,0,1:0:0:0:
268,196,208959,2,0,P|230:173|187:173,1,87.7499973220826,10|0,0:3|0:0,0:0:0:0:
152,194,209278,6,0,P|148:223|144:252,1,58.4999982147217,4|0,1:2|0:0,0:0:0:0:
160,289,209517,1,0,1:0:0:0:
160,289,209597,1,2,0:1:0:0:
100,344,209756,1,0,1:0:0:0:
178,369,209916,2,0,P|207:365|236:361,1,58.4999982147217,2|0,0:1|1:0,0:0:0:0:
100,344,210235,2,0,P|71:340|42:336,1,58.4999982147217,8|2,0:0|0:0,0:0:0:0:
22,256,210554,6,0,P|18:227|14:198,1,58.4999982147217,0|0,1:0|0:0,0:0:0:0:
2,158,210794,1,0,1:0:0:0:
2,158,210873,1,2,0:1:0:0:
67,108,211033,1,0,1:0:0:0:
144,136,211192,1,2,0:0:0:0:
209,86,211352,2,0,P|205:57|201:28,2,58.4999982147217,2|10|2,0:3|0:0|0:0,0:0:0:0:
286,114,211831,6,0,P|315:110|344:106,1,58.4999982147217,0|0,1:0|0:0,0:0:0:0:
383,118,212070,1,0,1:0:0:0:
383,118,212150,1,2,0:1:0:0:
441,59,212310,1,0,1:0:0:0:
441,59,212469,2,0,P|437:30|433:1,1,58.4999982147217,2|0,0:1|1:0,0:0:0:0:
500,117,212788,1,8,0:0:0:0:
500,117,212948,1,2,0:0:0:0:
442,176,213108,6,0,P|412:208|405:250,2,87.7499973220826,0|0|0,1:0|1:0|1:0,0:0:0:0:
486,245,213746,2,0,P|490:274|494:303,1,58.4999982147217,2|2,0:1|0:0,0:0:0:0:
417,337,214065,2,0,P|411:293|404:250,1,87.7499973220826,10|0,0:3|0:0,0:0:0:0:
366,233,214384,5,4,1:2:0:0:
300,282,214544,2,0,L|305:310,2,29.2499991073609,0|0|2,1:0|1:0|0:0,0:0:0:0:
251,216,214863,2,0,P|222:220|193:224,1,58.4999982147217,8|2,0:0|0:1,0:0:0:0:
171,144,215182,1,0,1:0:0:0:
171,144,215262,1,0,1:0:0:0:
171,144,215342,2,0,P|142:148|113:152,1,58.4999982147217,10|2,0:0|0:0,0:0:0:0:
40,112,215661,6,0,P|47:68|52:25,2,87.7499973220826,0|0|8,1:0|1:0|0:0,0:0:0:0:
9,188,216299,2,0,P|13:217|17:246,1,58.4999982147217,2|2,0:1|1:3,0:0:0:0:
47,275,216538,1,0,1:0:0:0:
47,275,216618,2,0,P|51:304|55:333,1,58.4999982147217,10|0,0:0|0:0,0:0:0:0:
124,244,216937,5,0,1:0:0:0:
198,278,217097,2,0,P|169:327|178:383,2,116.999996429443,2|8|0,0:0|0:0|1:0,0:0:0:0:
231,253,217815,1,0,1:0:0:0:
231,253,217895,2,0,P|260:257|289:261,1,58.4999982147217,8|0,0:0|0:0,0:0:0:0:
338,331,218214,6,0,P|294:336|251:342,2,87.7499973220826,0|0|0,1:0|1:0|1:0,0:0:0:0:
408,373,218852,1,2,0:1:0:0:
480,333,219012,1,0,1:0:0:0:
480,333,219092,1,0,1:0:0:0:
480,333,219171,2,0,P|499:293|495:250,1,87.7499973220826,10|8,0:3|0:0,0:0:0:0:
462,224,219491,6,0,P|433:228|404:232,2,58.4999982147217,4|0|0,1:2|0:0|1:0,0:0:0:0:
504,154,219969,2,0,P|500:125|496:96,1,58.4999982147217,8|0,0:0|0:0,0:0:0:0:
426,54,220288,1,0,1:0:0:0:
426,54,220368,1,0,1:0:0:0:
426,54,220448,2,0,P|397:58|368:62,1,58.4999982147217,8|2,0:0|0:0,0:0:0:0:
326,131,220767,6,0,P|330:160|334:189,2,58.4999982147217,0|0|0,1:0|0:0|1:0,0:0:0:0:
255,88,221246,1,8,0:0:0:0:
184,128,221405,2,0,P|155:124|126:120,1,58.4999982147217,2|0,0:1|1:0,0:0:0:0:
99,88,221645,1,0,1:0:0:0:
99,88,221725,2,0,P|70:92|41:96,1,58.4999982147217,12|0,0:1|0:0,0:0:0:0:
8,171,222044,6,0,P|4:200|0:229,2,58.4999982147217,0|0|0,1:0|0:0|1:0,0:0:0:0:
88,192,222522,2,0,P|84:221|80:250,1,58.4999982147217,8|2,0:0|0:1,0:0:0:0:
27,314,222842,2,0,L|-1:308,2,29.2499991073609,0|0|12,1:0|1:0|0:2,0:0:0:0:
92,363,223161,2,0,P|120:357|149:352,1,58.4999982147217,0|0,0:0|1:0,0:0:0:0:
228,376,223480,5,14,1:1:0:0:
208,296,223639,2,0,P|212:267|218:238,1,58.4999982147217,10|0,0:0|0:0,0:0:0:0:
356,234,223959,5,14,1:1:0:0:
286,191,224118,2,0,P|281:162|275:133,1,58.4999982147217,10|0,0:0|1:0,0:0:0:0:
256,53,224437,5,14,1:2:0:0:
