osu file format v14

[General]
AudioFilename: audio.mp3
AudioLeadIn: 0
PreviewTime: 98534
Countdown: 0
SampleSet: Soft
StackLeniency: 0.6
Mode: 0
LetterboxInBreaks: 0
WidescreenStoryboard: 0

[Editor]
DistanceSpacing: 0.6
BeatDivisor: 4
GridSize: 32
TimelineZoom: 3.199999

[Metadata]
Title:ego-izm
TitleUnicode:ego-izm
Artist:la la larks
ArtistUnicode:la la larks
Creator:Bellicose
Version:collab insane
Source:M3~ソノ黒キ鋼~
Tags:school food punishment yumi uchimura egoizm egoism tetsu dark metal M3: Sono Kuroki Hagane ending ed japanese rock anime full version lasse captin1 kalibe collab dored garden
BeatmapID:2575442
BeatmapSetID:1207305

[Difficulty]
HPDrainRate:5
CircleSize:4
OverallDifficulty:8
ApproachRate:9
SliderMultiplier:1.8
SliderTickRate:1

[Events]
//Background and Video events
0,0,"bg.jpg",0,0
//Break Periods
2,74798,78785
2,121073,129529
2,206925,213784
//Storyboard Layer 0 (Background)
//Storyboard Layer 1 (Fail)
//Storyboard Layer 2 (Pass)
//Storyboard Layer 3 (Foreground)
//Storyboard Layer 4 (Overlay)
//Storyboard Sound Samples

[TimingPoints]
556,319.148936170213,4,2,1,35,1,0
556,-166.666666666667,4,2,1,35,0,0
10768,-142.857142857143,4,2,1,45,0,0
19864,-142.857142857143,4,2,20,50,0,0
20343,-142.857142857143,4,2,20,55,0,0
20981,-125,4,2,1,55,0,0
28162,-125,4,2,1,60,0,0
28321,-83.3333333333333,4,2,2,60,0,0
28641,-83.3333333333333,4,2,2,70,0,0
29917,-83.3333333333333,4,2,3,70,0,0
31194,-76.9230769230769,4,2,2,70,0,0
31992,-66.6666666666667,4,2,99,90,0,0
32790,-100,4,2,2,50,0,0
33747,-90.9090909090909,4,2,2,75,0,1
42683,-83.3333333333333,4,2,2,80,0,1
44279,-90.9090909090909,4,2,2,75,0,1
51699,-90.9090909090909,4,2,3,75,0,1
52896,-83.3333333333333,4,2,3,80,0,1
54173,-83.3333333333333,4,2,2,80,0,1
54492,-90.9090909090909,4,2,2,75,0,1
56407,-83.3333333333333,4,2,2,75,0,1
56726,-90.9090909090909,4,2,2,75,0,1
58960,-83.3333333333333,4,2,2,75,0,1
59279,-90.9090909090909,4,2,2,75,0,1
63109,-90.9090909090909,4,2,2,80,0,1
63268,-90.9090909090909,4,2,3,80,0,1
64226,-90.9090909090909,4,2,2,80,0,1
64385,-90.9090909090909,4,2,2,80,0,1
64704,-90.9090909090909,4,2,2,75,0,1
71726,-83.3333333333333,4,2,2,75,0,1
72045,-76.9230769230769,4,2,2,75,0,1
72364,-76.9230769230769,4,2,2,80,0,1
73321,-76.9230769230769,4,2,2,85,0,1
73960,-125,4,2,2,75,0,1
74173,-125,4,2,3,60,0,1
74598,-125,4,2,2,60,0,0
78428,-142.857142857143,4,2,2,50,0,0
79226,-142.857142857143,4,2,98,50,0,0
79385,-200,4,2,2,50,0,0
79704,-125,4,2,2,60,0,0
84811,-166.666666666667,4,2,2,60,0,0
85768,-111.111111111111,4,2,2,60,0,0
86087,-100,4,2,2,60,0,0
86407,-125,4,2,2,60,0,0
88800,-90.9090909090909,4,2,2,65,0,0
89518,-90.9090909090909,4,2,3,65,0,0
89598,-90.9090909090909,4,2,1,65,0,0
89917,319.148936170213,3,2,2,65,1,0
89917,-125,3,2,2,65,0,0
91831,-100,3,2,2,65,0,0
92151,-125,3,2,2,65,0,0
93188,-125,3,2,3,65,0,0
93427,-125,3,2,98,65,0,0
93587,-125,3,2,2,65,0,0
93746,-100,3,2,2,65,0,0
94065,-111.111111111111,3,2,2,65,0,0
94225,-111.111111111111,3,2,98,65,0,0
94385,-111.111111111111,3,2,2,65,0,0
94544,-111.111111111111,3,2,98,65,0,0
94863,-111.111111111111,3,2,2,65,0,0
95342,-83.3333333333333,3,2,2,65,0,0
95661,-83.3333333333333,3,2,2,70,0,0
96938,-83.3333333333333,3,2,3,70,0,0
97576,-76.9230769230769,3,2,2,75,0,0
98534,-83.3333333333333,3,2,2,70,0,0
99172,-83.3333333333333,3,2,2,75,0,0
99491,319.148936170213,4,2,2,75,1,0
99491,-86.9565217391304,4,2,2,75,0,1
99650,-86.9565217391304,4,2,4,75,0,1
104597,-86.9565217391304,4,2,2,75,0,1
104756,-86.9565217391304,4,2,4,75,0,1
108427,-86.9565217391304,4,2,2,80,0,1
108905,-86.9565217391304,4,2,3,80,0,1
109703,-86.9565217391304,4,2,2,80,0,1
110182,-83.3333333333333,4,2,4,75,0,1
110661,-80,4,2,4,75,0,1
110980,-76.9230769230769,4,2,1,75,0,1
111299,-86.9565217391304,4,2,4,75,0,1
114810,-86.9565217391304,4,2,2,75,0,1
114969,-86.9565217391304,4,2,4,75,0,1
117363,-86.9565217391304,4,2,2,80,0,1
117443,-86.9565217391304,4,2,3,80,0,1
119916,-142.857142857143,4,2,1,50,0,0
120395,-142.857142857143,4,2,1,45,0,0
120873,-250,4,2,1,45,0,0
130129,-200,4,2,1,50,0,0
139065,-166.666666666667,4,2,1,50,0,0
140342,-166.666666666667,4,2,2,50,0,0
144969,-166.666666666667,4,2,1,50,0,0
145129,-166.666666666667,4,2,2,50,0,0
150076,-166.666666666667,4,2,1,50,0,0
150235,-125,4,2,2,50,0,0
150554,-125,4,2,2,55,0,0
153108,-125,4,2,2,60,0,0
155182,-125,4,2,1,60,0,0
155342,-125,4,2,2,60,0,0
155661,-100,4,2,2,65,0,0
155980,-100,4,2,2,65,0,0
156618,-100,4,2,2,65,0,0
156937,-90.9090909090909,4,2,2,65,0,0
157735,-90.9090909090909,4,2,2,65,0,0
158214,-90.9090909090909,4,2,2,70,0,0
159171,-333.333333333333,4,2,2,70,0,0
159491,-90.9090909090909,4,2,3,70,0,0
160129,-90.9090909090909,4,2,2,70,0,0
160448,-76.9230769230769,4,2,2,75,0,0
160767,-90.9090909090909,4,2,3,85,0,0
161405,-90.9090909090909,4,2,2,85,0,0
161565,-333.333333333333,4,2,99,90,0,0
162522,-333.333333333333,4,2,99,5,0,0
162642,-66.6666666666667,4,2,2,50,0,0
162682,-66.6666666666667,4,2,2,30,0,0
163320,-100,4,2,2,60,0,0
167469,-125,4,2,2,60,0,0
168108,-100,4,2,2,60,0,0
170022,-200,4,2,2,60,0,0
170501,-125,4,2,2,60,0,0
171139,-111.111111111111,4,2,2,60,0,0
172256,-111.111111111111,4,2,2,70,0,0
172735,-100,4,2,2,70,0,0
173533,-111.111111111111,4,2,2,65,0,0
178639,-100,4,2,2,65,0,0
180873,-90.9090909090909,4,2,2,65,0,0
181193,-83.3333333333333,4,2,2,75,0,0
181352,-83.3333333333333,4,2,3,75,0,0
182150,-133.333333333333,4,2,2,80,0,0
182469,-55.5555555555556,4,2,2,80,0,0
182895,-83.3333333333333,4,2,2,70,0,0
183108,-166.666666666667,4,2,2,70,0,0
183347,-166.666666666667,4,2,2,65,0,0
183586,-166.666666666667,4,2,2,50,0,0
183746,-76.9230769230769,4,2,97,80,0,1
184065,-86.9565217391304,4,2,2,80,0,1
188693,-86.9565217391304,4,2,3,80,0,1
188852,-86.9565217391304,4,2,2,80,0,1
189810,-76.9230769230769,4,2,2,80,0,1
190129,-86.9565217391304,4,2,2,80,0,1
191246,-86.9565217391304,4,2,3,80,0,1
191405,-86.9565217391304,4,2,2,80,0,1
192363,-76.9230769230769,4,2,2,80,0,1
192682,-66.6666666666667,4,2,2,85,0,1
192842,-66.6666666666667,4,2,3,85,0,1
193959,-76.9230769230769,4,2,2,85,0,1
194278,-83.3333333333333,4,2,2,80,0,1
195076,-83.3333333333333,4,2,3,80,0,1
195235,-83.3333333333333,4,2,2,80,0,1
196352,-83.3333333333333,4,2,3,80,0,1
196512,-83.3333333333333,4,2,2,80,0,1
197709,-83.3333333333333,4,2,3,80,0,1
197788,-83.3333333333333,4,2,2,80,0,1
198746,-76.9230769230769,4,2,2,80,0,1
199065,-83.3333333333333,4,2,2,80,0,1
201299,-76.9230769230769,4,2,2,80,0,1
201937,-74.0740740740741,4,2,2,85,0,1
202895,-74.0740740740741,4,2,2,90,0,1
203533,-500.000000000003,4,2,2,80,0,1
204171,-125,4,2,2,60,0,0
204411,-125,4,2,4,60,0,0
208959,-100,4,2,4,60,0,0
209278,-125,4,2,1,60,0,0
209517,-125,4,2,4,60,0,0
214065,-100,4,2,4,60,0,0
214384,-111.111111111111,4,2,1,65,0,0
214623,-111.111111111111,4,2,4,65,0,0
219171,-100,4,2,4,65,0,0
219491,-111.111111111111,4,2,1,65,0,0
219810,-111.111111111111,4,2,4,65,0,0
221725,-100,4,2,2,65,0,0
222044,-111.111111111111,4,2,4,65,0,0
223001,-83.3333333333333,4,2,2,65,0,0
223320,-83.3333333333333,4,2,4,65,0,0
223480,-83.3333333333333,4,2,2,70,0,0
224437,-76.9230769230769,4,2,2,70,0,0

[Colours]
Combo1 : 252,181,150
Combo2 : 189,231,249
Combo3 : 251,230,174
Combo4 : 209,214,250

[HitObjects]
71,94,556,6,0,B|117:91|110:125|190:138,1,107.999996704102,2|2,0:0|0:0,0:0:0:0:
254,208,1034,2,0,P|266:155|288:106,1,107.999996704102,2|0,0:0|0:0,0:0:0:0:
162,217,1513,1,10,0:0:0:0:
140,229,1673,1,2,0:0:0:0:
232,314,1832,6,0,P|265:350|322:345,1,107.999996704102,2|0,1:2|0:0,0:0:0:0:
434,364,2311,2,0,P|410:315|400:252,1,107.999996704102,2|0,0:0|0:0,0:0:0:0:
499,153,2790,1,10,0:1:0:0:
505,127,2949,1,2,0:0:0:0:
441,29,3109,6,0,P|403:16|359:81,1,107.999996704102,2|2,0:0|0:0,0:0:0:0:
281,153,3587,2,0,P|220:175|163:180,1,107.999996704102,2|0,0:0|0:0,0:0:0:0:
66,82,4066,1,2,0:0:0:0:
76,53,4226,1,2,0:0:0:0:
177,180,4545,5,2,0:0:0:0:
167,151,4705,1,2,0:0:0:0:
44,286,5024,5,2,0:0:0:0:
54,257,5184,1,2,0:0:0:0:
156,320,5502,6,0,B|220:340|180:363|264:377,1,107.999996704102,2|2,0:0|0:0,0:0:0:0:
156,320,5981,1,2,0:0:0:0:
260,279,6141,2,0,P|265:225|283:170,1,107.999996704102,2|0,1:2|0:0,0:0:0:0:
395,118,6619,1,10,0:0:0:0:
386,89,6779,1,2,0:0:0:0:
315,0,6938,6,0,P|300:42|232:38,1,107.999996704102,2|2,0:0|0:0,0:0:0:0:
136,19,7417,2,0,P|155:86|163:138,1,107.999996704102,2|0,0:0|1:0,0:0:0:0:
224,284,7896,1,2,0:0:0:0:
251,266,8056,1,10,0:0:0:0:
115,239,8215,6,0,B|66:261|82:289|33:312,1,107.999996704102,2|2,1:2|0:0,0:0:0:0:
154,318,8694,2,0,P|179:354|253:357,1,107.999996704102,2|0,1:2|0:0,0:0:0:0:
382,330,9173,1,2,0:0:0:0:
371,299,9332,1,2,0:0:0:0:
281,189,9492,6,0,L|288:138,11,26.9999991760254,2|2|2|2|2|2|2|2|2|2|2|2,0:0|0:0|0:0|0:0|0:0|0:0|0:0|0:0|0:0|0:0|0:0|0:0,0:0:0:0:
315,122,10449,2,0,L|304:53,1,53.9999983520508,2|0,0:0|0:0,0:0:0:0:
408,19,10768,6,0,P|451:15|480:104,1,125.999996154785,2|0,1:2|0:0,0:0:0:0:
439,236,11247,2,0,P|428:182|400:106,1,125.999996154785,2|0,1:2|0:0,0:0:0:0:
512,303,11726,2,0,B|440:318|475:347|388:354,1,125.999996154785,10|0,0:0|0:0,0:0:0:0:
512,206,12204,2,0,L|448:186,1,62.9999980773926,2|0,0:0|0:0,0:0:0:0:
451,187,12524,1,2,0:0:0:0:
204,299,12843,6,0,L|189:364,2,62.9999980773926,2|10|0,0:0|0:0|0:0,0:0:0:0:
278,224,13321,6,0,P|278:176|261:158,1,62.9999980773926,2|0,1:2|0:0,0:0:0:0:
270,165,13641,1,2,0:0:0:0:
348,90,13800,2,0,L|333:28,1,62.9999980773926,2|2,0:0|0:0,0:0:0:0:
98,122,14279,5,2,0:0:0:0:
128,133,14438,1,2,0:0:0:0:
278,224,14758,5,10,0:0:0:0:
248,235,14917,1,2,0:0:0:0:
38,323,15236,2,0,B|74:334|74:334|93:349|93:349|147:368,2,94.499997116089,2|2|2,0:0|0:0|0:0,0:0:0:0:
38,323,15875,5,2,1:2:0:0:
154,120,16194,1,2,0:0:0:0:
154,120,16353,2,0,P|95:126|65:63,1,125.999996154785,2|0,0:0|0:0,0:0:0:0:
186,234,16832,2,0,P|234:218|330:207,1,125.999996154785,2|2,0:0|1:2,0:0:0:0:
379,104,17311,2,0,P|327:115|306:118,1,62.9999980773926,0|0,0:0|0:0,0:0:0:0:
317,116,17630,1,2,1:2:0:0:
463,337,17949,5,2,0:0:0:0:
463,337,18109,1,2,0:0:0:0:
463,337,18268,2,0,L|474:272,1,62.9999980773926,2|0,0:0|1:0,0:0:0:0:
464,56,18747,6,0,B|427:49|384:25|384:25|311:108|379:186,1,251.999992309571,2|2,0:0|0:0,0:0:0:0:
442,149,19545,1,2,0:0:0:0:
285,216,19864,5,2,0:1:0:0:
368,256,20024,1,2,0:1:0:0:
53,207,20343,5,2,0:1:0:0:
216,143,20502,1,2,0:1:0:0:
120,351,20981,6,0,B|132:356|149:363|149:363|189:313|134:256,1,144,2|0,1:2|1:0,0:0:0:0:
137,93,21460,2,0,P|91:148|-6:153,1,144,2|0,0:0|0:0,0:0:0:0:
225,193,21938,2,0,B|308:214|273:254|375:266,1,144,10|0,1:2|1:0,0:0:0:0:
420,296,22577,1,8,1:2:0:0:
489,260,22896,1,8,1:2:0:0:
444,101,23135,5,8,0:0:0:0:
450,81,23215,1,10,1:2:0:0:
390,15,23375,1,8,0:0:0:0:
254,30,23534,6,0,B|214:54|213:109|241:132|241:132|275:112,1,144,2|8,1:2|1:2,0:0:0:0:
469,240,24013,2,0,P|450:189|447:77,1,144,2|0,0:0|0:0,0:0:0:0:
307,221,24492,2,0,B|253:239|253:239|233:267|233:267|176:287,1,144,10|0,1:2|1:0,0:0:0:0:
113,254,25130,1,8,1:2:0:0:
55,304,25449,1,8,1:2:0:0:
9,217,25609,5,2,0:0:0:0:
9,217,25768,2,0,P|23:271|29:312,1,72,2|10,1:2|0:0,0:0:0:0:
111,121,26087,6,0,P|55:114|27:26,1,144,2|8,1:2|1:2,0:0:0:0:
185,221,26566,2,0,P|264:221|295:155,1,144,2|0,0:0|0:0,0:0:0:0:
377,39,27045,2,0,P|303:66|217:79,1,144,10|8,1:2|1:2,0:0:0:0:
165,51,27683,1,8,1:2:0:0:
222,0,28002,1,8,1:2:0:0:
314,126,28162,5,2,1:2:0:0:
232,363,28321,2,0,B|238:267|314:333|299:200,1,161.999995056153,14|0,0:0|0:0,0:0:0:0:
300,206,28641,5,10,0:0:0:0:
132,274,28800,2,0,P|58:300|9:307,1,107.999996704102,8|0,0:0|1:0,0:0:0:0:
227,125,29119,5,10,0:0:0:0:
405,217,29279,2,0,P|479:243|528:250,1,107.999996704102,8|0,0:0|1:0,0:0:0:0:
360,14,29598,6,0,P|435:20|398:109,1,161.999995056153,14|0,0:1|0:0,0:0:0:0:
406,127,29917,6,0,L|336:112,3,53.9999983520508,8|8|8|8,1:2|0:0|0:0|0:0,0:0:0:0:
283,206,30236,2,0,L|298:276,3,53.9999983520508,10|8|8|8,1:2|0:0|0:0|0:0,0:0:0:0:
216,330,30556,5,8,1:2:0:0:
192,342,30635,1,8,0:0:0:0:
164,343,30715,1,8,0:0:0:0:
140,330,30795,1,8,0:0:0:0:
126,306,30875,6,0,L|140:234,1,53.9999983520508,8|8,1:2|0:0,0:0:0:0:
193,124,31034,2,0,L|179:52,1,53.9999983520508,8|8,0:0|0:0,0:0:0:0:
99,161,31194,6,0,P|19:149|29:48,2,175.499991966248,10|2|2,1:2|1:2|1:2,0:0:0:0:
436,116,31992,6,0,P|386:162|423:256,1,135.000005149842,2|0,1:0|0:0,0:0:0:0:
512,377,32231,2,0,P|497:310|397:295,1,135.000005149842,2|0,1:0|0:0,0:0:0:0:
250,310,32470,2,0,P|314:330|377:251,1,135.000005149842,2|0,1:0|0:0,0:0:0:0:
436,116,32790,5,2,0:0:0:0:
383,50,33109,1,2,0:0:0:0:
454,0,33428,1,2,0:0:0:0:
214,128,33747,5,6,1:2:0:0:
346,255,33907,2,0,B|409:229|369:214|419:191,1,99.0000030212403,2|0,0:0|1:0,0:0:0:0:
162,281,34226,2,0,P|64:312|37:318,1,99.0000030212403,10|0,0:0|1:0,0:0:0:0:
249,379,34545,1,2,0:0:0:0:
269,304,34704,2,0,P|260:231|243:169,1,99.0000030212403,10|0,1:2|0:0,0:0:0:0:
121,16,35024,6,0,P|199:31|173:134,1,198.000006042481,0|0,1:0|1:0,0:0:0:0:
21,231,35502,1,8,0:0:0:0:
77,170,35662,5,2,1:2:0:0:
233,247,35901,5,2,0:0:0:0:
398,195,36141,5,2,0:0:0:0:
480,229,36300,6,0,B|525:261|526:344|473:360|473:360|464:344|431:328,1,198.000006042481,2|0,1:2|1:0,0:0:0:0:
254,370,36779,1,8,0:0:0:0:
309,311,36938,5,2,1:2:0:0:
205,176,37178,5,2,0:0:0:0:
316,30,37417,5,2,0:0:0:0:
223,19,37577,6,0,B|225:140|302:65|315:215,1,198.000006042481,2|0,1:2|1:0,0:0:0:0:
169,299,38056,1,8,0:0:0:0:
226,351,38215,2,0,P|275:335|351:338,1,99.0000030212403,0|0,1:0|0:0,0:0:0:0:
99,168,38534,2,0,B|41:196|41:196|23:241|67:290,1,148.50000453186,10|0,0:0|0:0,0:0:0:0:
68,289,38853,5,6,1:0:0:0:
222,197,39013,2,0,P|231:148|246:101,1,99.0000030212403,2|0,0:0|1:0,0:0:0:0:
349,254,39332,2,0,B|480:285|394:334|541:362,1,198.000006042481,10|0,0:0|0:0,0:0:0:0:
349,254,39811,1,10,0:0:0:0:
481,169,39970,1,2,0:3:0:0:
481,169,40050,1,2,0:3:0:0:
481,169,40130,5,2,1:3:0:0:
205,10,40449,6,0,P|235:102|235:135,1,99.0000030212403,2|8,1:2|0:0,0:0:0:0:
388,122,40768,2,0,P|345:173|305:159,1,99.0000030212403,2|0,1:2|0:0,0:0:0:0:
194,267,41087,2,0,P|126:278|77:357,1,148.50000453186,2|0,1:2|0:0,0:0:0:0:
86,359,41407,6,0,P|130:335|93:306,1,99.0000030212403,2|0,1:2|0:0,0:0:0:0:
48,174,41726,1,2,1:2:0:0:
48,174,41885,2,0,P|24:102|23:68,1,99.0000030212403,10|0,0:0|1:0,0:0:0:0:
178,0,42204,2,0,P|202:72|203:106,1,99.0000030212403,2|8,0:0|1:2,0:0:0:0:
203,94,42524,1,0,0:0:0:0:
336,177,42683,6,0,B|279:197|279:197|263:241|263:241|182:270,2,161.999995056153,2|2|10,1:2|0:0|0:0,0:0:0:0:
470,24,43321,2,0,B|444:70|444:70|483:134,1,107.999996704102,2|0,1:2|0:0,0:0:0:0:
495,193,43561,1,2,0:0:0:0:
483,207,43641,2,0,P|461:268|452:312,1,107.999996704102,14|2,0:1|0:0,0:0:0:0:
336,177,43960,6,0,B|285:160|249:138|249:138|212:221|157:222,1,215.999993408203,6|0,1:2|1:0,0:0:0:0:
9,323,44438,1,10,0:0:0:0:
69,370,44598,2,0,P|86:317|56:262,1,99.0000030212403,0|0,1:0|0:0,0:0:0:0:
0,97,44917,2,0,P|76:124|167:142,1,148.50000453186,10|0,1:2|0:0,0:0:0:0:
165,143,45236,6,0,P|120:92|205:34,1,198.000006042481,2|0,1:3|1:0,0:0:0:0:
371,123,45715,1,8,0:0:0:0:
439,84,45875,5,2,1:2:0:0:
299,203,46114,5,2,0:0:0:0:
470,316,46353,5,2,0:0:0:0:
400,275,46513,6,0,B|345:263|310:296|310:296|300:363|202:356,1,198.000006042481,2|0,1:2|1:0,0:0:0:0:
26,278,46992,1,8,0:0:0:0:
88,330,47151,5,2,1:2:0:0:
209,214,47391,5,2,0:0:0:0:
54,83,47630,5,2,0:0:0:0:
114,32,47790,6,0,B|152:22|179:8|179:8|246:68|185:138,2,198.000006042481,2|0|8,1:2|1:0|1:2,0:0:0:0:
18,262,48667,5,8,0:0:0:0:
18,262,48747,1,2,1:2:0:0:
108,317,48907,1,10,0:0:0:0:
276,233,49066,5,6,1:0:0:0:
314,167,49226,2,0,P|373:185|450:192,1,99.0000030212403,2|0,0:0|1:0,0:0:0:0:
293,359,49545,1,10,0:0:0:0:
293,359,49704,2,0,P|422:330|471:325,1,148.50000453186,0|0,1:0|0:0,0:0:0:0:
465,331,50024,1,10,0:0:0:0:
398,30,50343,6,0,B|417:145|491:62|506:199,1,198.000006042481,2|2,1:3|1:2,0:0:0:0:
289,137,50821,1,8,0:0:0:0:
353,181,50981,2,0,P|294:192|168:228,1,148.50000453186,2|0,1:2|0:0,0:0:0:0:
189,229,51300,1,10,0:0:0:0:
38,25,51619,6,0,L|47:77,3,49.5000015106202,6|8|8|8,1:0|0:0|0:0|0:0,0:0:0:0:
136,112,51938,2,0,L|128:161,3,49.5000015106202,10|8|8|8,1:2|0:0|0:0|0:0,0:0:0:0:
20,203,52258,2,0,L|29:255,3,49.5000015106202,8|8|10|8,1:2|0:0|0:0|0:0,0:0:0:0:
128,296,52577,2,0,L|120:345,3,49.5000015106202,10|8|8|8,1:2|0:0|0:0|0:0,0:0:0:0:
243,367,52896,5,10,1:2:0:0:
268,357,52976,1,8,0:0:0:0:
286,337,53056,1,10,0:0:0:0:
295,312,53135,1,8,0:0:0:0:
292,285,53215,2,0,L|227:272,1,53.9999983520508,10|8,1:2|0:0,0:0:0:0:
128,160,53375,2,0,L|193:147,1,53.9999983520508,10|8,0:0|0:0,0:0:0:0:
352,40,53534,5,10,1:2:0:0:
374,25,53614,1,8,0:0:0:0:
400,19,53694,1,8,0:0:0:0:
426,25,53774,1,10,0:0:0:0:
449,38,53853,2,0,L|465:117,1,53.9999983520508,8|10,1:2|0:0,0:0:0:0:
400,258,54013,2,0,L|411:311,1,53.9999983520508,8|8,0:0|0:0,0:0:0:0:
496,192,54173,6,0,B|372:191|425:127|300:116,1,215.999993408203,6|0,1:2|1:0,0:0:0:0:
144,8,54651,2,0,P|165:76|164:142,1,99.0000030212403,10|8,0:0|0:0,0:0:0:0:
36,365,55050,1,8,0:0:0:0:
36,365,55130,2,0,B|44:330|44:330|70:308|70:308|84:256,1,99.0000030212403,2|8,1:2|0:0,0:0:0:0:
5,156,55449,6,0,P|100:187|213:207,1,198.000006042481,0|0,1:0|1:0,0:0:0:0:
385,329,55928,1,10,0:0:0:0:
385,329,56087,2,0,P|309:349|270:364,1,99.0000030212403,2|0,1:2|0:0,0:0:0:0:
218,378,56327,1,2,0:0:0:0:
205,376,56407,2,0,P|173:353|207:291,1,107.999996704102,14|2,0:1|0:0,0:0:0:0:
313,204,56726,6,0,B|317:93|397:150|391:29,1,198.000006042481,6|0,1:2|1:0,0:0:0:0:
416,197,57204,2,0,P|481:212|534:226,1,99.0000030212403,10|8,0:0|1:2,0:0:0:0:
293,47,57603,1,8,0:0:0:0:
293,47,57683,2,0,P|228:32|175:18,1,99.0000030212403,2|8,1:2|0:0,0:0:0:0:
158,162,58002,6,0,P|135:226|9:217,1,198.000006042481,0|0,1:0|1:0,0:0:0:0:
220,299,58481,1,8,0:0:0:0:
220,299,58641,2,0,B|249:363|306:357|306:357|327:328|359:322,1,148.50000453186,0|0,1:0|0:0,0:0:0:0:
368,336,58960,1,14,0:1:0:0:
488,50,59279,5,6,1:2:0:0:
488,50,59438,2,0,P|476:139|474:187,1,99.0000030212403,2|0,0:0|1:0,0:0:0:0:
336,214,59758,1,10,0:0:0:0:
402,258,59917,2,0,B|436:274|436:274|449:294|449:294|512:321,1,99.0000030212403,0|0,1:0|0:0,0:0:0:0:
340,120,60236,2,0,P|323:162|216:159,1,148.50000453186,10|0,1:2|0:0,0:0:0:0:
208,156,60556,5,2,1:3:0:0:
208,156,60715,1,0,3:0:0:0:
132,347,60875,2,0,P|219:326|332:312,2,198.000006042481,2|2|10,1:2|1:2|1:2,0:0:0:0:
50,58,61832,5,2,1:2:0:0:
208,156,61992,2,0,P|178:203|166:251,1,99.0000030212403,2|0,0:0|1:0,0:0:0:0:
12,364,62311,2,0,P|42:317|54:269,1,99.0000030212403,10|0,0:0|1:0,0:0:0:0:
52,245,62550,1,2,0:0:0:0:
52,245,62630,1,2,0:0:0:0:
179,160,62790,2,0,B|277:181|214:224|316:240,1,148.50000453186,10|0,1:2|0:0,0:0:0:0:
346,300,63109,6,0,P|436:275|488:268,1,99.0000030212403,6|8,1:0|0:0,0:0:0:0:
482,282,63348,1,10,0:0:0:0:
482,282,63428,1,4,1:0:0:0:
503,122,63587,6,0,L|517:48,1,49.5000015106202,10|8,0:0|0:0,0:0:0:0:
468,6,63747,2,0,P|405:10|396:57,1,99.0000030212403,8|0,1:2|0:0,0:0:0:0:
366,111,63986,1,10,0:0:0:0:
373,124,64066,2,0,P|283:149|231:156,1,99.0000030212403,0|10,1:0|0:0,0:0:0:0:
42,260,64385,6,0,B|78:340|155:319|155:319|168:284|205:262,1,198.000006042481,6|0,1:2|1:0,0:0:0:0:
124,19,64864,2,0,P|149:89|160:150,1,99.0000030212403,10|0,0:0|1:0,0:0:0:0:
154,112,65263,1,0,3:0:0:0:
154,112,65343,2,0,P|129:182|118:243,1,99.0000030212403,10|0,1:2|0:0,0:0:0:0:
59,253,65582,1,8,0:0:0:0:
42,260,65662,6,0,B|163:286|87:333|234:352,1,198.000006042481,0|0,1:0|1:0,0:0:0:0:
396,298,66141,1,8,0:0:0:0:
486,265,66300,5,2,1:2:0:0:
346,156,66540,5,2,0:0:0:0:
198,255,66779,5,2,0:0:0:0:
235,349,66938,6,0,B|250:364|278:365|278:365|334:303|271:217,1,198.000006042481,2|0,1:2|1:0,0:0:0:0:
177,58,67417,1,8,0:0:0:0:
238,8,67577,5,2,1:2:0:0:
361,126,67816,5,2,0:0:0:0:
168,200,68056,5,2,0:0:0:0:
106,141,68215,6,0,B|51:108|-20:164|6:224|6:224|47:239,1,198.000006042481,2|0,1:2|1:0,0:0:0:0:
220,333,68694,1,8,0:0:0:0:
153,373,68853,2,0,P|169:292|171:219,1,148.50000453186,0|0,1:0|0:0,0:0:0:0:
168,200,69173,1,10,0:0:0:0:
359,11,69492,5,6,1:2:0:0:
359,11,69651,2,0,P|343:92|341:165,1,148.50000453186,2|0,0:0|0:0,0:0:0:0:
344,186,69970,2,0,P|409:170|456:164,1,99.0000030212403,10|0,0:0|1:0,0:0:0:0:
479,332,70290,1,2,0:0:0:0:
479,332,70449,2,0,P|414:316|293:300,1,148.50000453186,10|0,1:2|0:0,0:0:0:0:
300,302,70768,6,0,P|283:353|191:329,1,148.50000453186,2|0,1:3|0:0,0:0:0:0:
187,332,71087,1,10,1:2:0:0:
10,166,71407,1,10,1:2:0:0:
23,186,71486,1,8,0:3:0:0:
44,198,71566,1,4,0:3:0:0:
68,199,71646,1,4,0:3:0:0:
93,190,71726,2,0,P|106:102|133:5,1,161.999995056153,14|0,0:1|0:0,0:0:0:0:
135,0,72045,5,6,1:2:0:0:
324,171,72364,5,10,1:2:0:0:
324,171,72524,1,8,0:0:0:0:
475,209,72683,5,10,1:2:0:0:
475,209,72843,1,8,0:0:0:0:
512,65,73002,5,10,1:2:0:0:
512,65,73162,1,8,0:0:0:0:
364,29,73321,6,0,P|290:43|239:49,1,116.999994644165,10|8,1:2|0:0,0:0:0:0:
143,253,73641,2,0,P|217:239|268:233,1,116.999994644165,10|8,1:2|0:0,0:0:0:0:
457,384,73960,2,0,B|483:342|483:342|456:290,1,96,10|8,0:0|0:0,0:0:0:0:
154,364,74598,5,6,1:2:0:0:
98,44,79385,6,0,L|109:91,1,45,2|2,0:1|0:0,0:0:0:0:
72,197,79704,6,0,P|90:155|202:142,1,144,6|0,1:2|1:0,0:0:0:0:
299,47,80183,2,0,P|281:123|268:202,1,144,10|0,0:0|1:0,0:0:0:0:
323,354,80662,2,0,B|242:336|296:308|199:284,1,144,10|0,0:0|1:0,0:0:0:0:
340,268,81141,2,0,L|411:261,1,72,2|0,0:0|1:0,0:0:0:0:
411,261,81460,1,8,0:0:0:0:
477,36,81779,6,0,L|489:112,2,72,2|10|2,1:2|0:0|0:0,0:0:0:0:
394,119,82258,5,0,1:0:0:0:
222,17,82497,1,0,1:0:0:0:
222,17,82577,2,0,P|178:40|143:24,1,72,0|0,3:0|1:0,0:0:0:0:
158,35,82896,2,0,P|200:32|216:120,1,144,2|8,3:2|0:0,0:0:0:0:
21,287,83534,6,0,L|42:198,1,72,0|0,1:0|0:0,0:0:0:0:
50,193,83774,1,0,1:0:0:0:
50,193,83853,2,0,P|93:207|148:208,1,72,0|0,3:0|1:0,0:0:0:0:
282,319,84173,2,0,P|239:305|166:300,2,108,2|2|2,0:0|0:0|0:0,0:0:0:0:
360,343,84811,5,2,1:2:0:0:
449,121,85768,6,0,B|412:156|412:156|443:247,1,121.499996292114,8|0,0:0|0:0,0:0:0:0:
510,252,86087,6,0,B|392:275|473:312|340:329,1,180,4|0,1:2|1:0,0:0:0:0:
510,252,86566,1,8,0:0:0:0:
340,125,86885,6,0,P|357:52|358:24,1,72,2|10,1:2|0:0,0:0:0:0:
356,55,87204,1,2,0:0:0:0:
487,140,87364,5,8,1:2:0:0:
395,205,87524,1,0,1:0:0:0:
395,205,87683,1,2,1:2:0:0:
289,273,87843,5,8,0:0:0:0:
197,208,88003,1,0,1:0:0:0:
197,208,88162,1,0,1:0:0:0:
73,155,88321,6,0,P|11:171|-25:171,1,72,8|2,0:0|0:0,0:0:0:0:
58,341,88641,5,4,1:3:0:0:
64,361,88853,6,0,B|73:312|73:312|99:290|99:290|108:232,2,132.00000402832,2|2|6,0:0|0:0|0:3,0:0:0:0:
190,257,89438,2,0,L|199:188,1,49.5000015106202,8|10,0:0|0:0,0:0:0:0:
175,35,89598,2,0,P|123:10|73:85,1,148.50000453186,2|0,0:1|0:0,0:0:0:0:
1,105,89917,6,0,P|88:123|156:141,1,144,6|0,1:2|1:0,0:0:0:0:
357,56,90395,1,10,0:0:0:0:
296,14,90555,2,0,P|312:86|320:153,1,108,0|0,1:0|0:0,0:0:0:0:
337,147,90874,6,0,B|327:235|271:183|262:282,1,144,10|0,0:0|1:0,0:0:0:0:
403,362,91353,1,8,0:0:0:0:
327,384,91512,2,0,P|276:366|222:357,1,108,2|0,1:2|0:0,0:0:0:0:
183,378,91831,6,0,P|179:304|85:278,1,180,6|2,1:2|1:2,0:0:0:0:
13,137,92310,1,10,0:0:0:0:
13,137,92470,2,0,P|57:149|115:151,1,72,0|0,1:0|1:0,0:0:0:0:
267,65,92789,6,0,B|248:64|224:53|224:53|172:86|203:152,1,144,10|8,0:0|0:0,0:0:0:0:
231,208,93188,1,8,0:0:0:0:
240,223,93268,2,0,L|187:236,2,36,10|10|10,0:0|0:0|1:1,0:0:0:0:
433,181,93587,1,10,0:0:0:0:
433,181,93667,1,10,0:0:0:0:
433,181,93746,6,0,P|402:240|403:368,1,180,6|0,1:2|1:0,0:0:0:0:
398,351,94225,2,0,P|430:312|403:291,1,80.9999975280763,10|0,0:1|1:0,0:0:0:0:
315,177,94544,1,10,0:1:0:0:
375,110,94704,6,0,B|403:64|365:19|325:15|325:15|278:60,1,161.999995056153,10|8,1:1|0:0,0:0:0:0:
301,38,95182,1,2,1:2:0:0:
76,181,95342,2,0,B|185:157|134:125|248:110,1,161.999995056153,14|0,0:1|0:0,0:0:0:0:
247,121,95661,5,10,0:0:0:0:
412,225,95821,2,0,P|416:168|432:119,1,107.999996704102,8|0,0:0|1:0,0:0:0:0:
258,252,96140,5,10,0:0:0:0:
112,381,96299,2,0,P|107:324|91:275,1,107.999996704102,8|2,0:0|1:0,0:0:0:0:
0,92,96619,6,0,P|75:72|86:162,1,161.999995056153,14|0,0:0|0:0,0:0:0:0:
76,177,96938,2,0,L|147:192,3,53.9999983520508,8|8|8|8,1:2|0:0|0:0|0:0,0:0:0:0:
184,253,97257,1,10,1:2:0:0:
208,264,97337,1,8,0:0:0:0:
235,265,97417,1,8,0:0:0:0:
258,252,97496,1,8,0:0:0:0:
274,229,97576,5,8,1:2:0:0:
327,367,97736,6,0,P|425:343|511:334,2,175.499991966248,6|6|6,0:3|0:3|0:3,0:0:0:0:
412,10,98534,6,2,B|415:139|505:44|512:235,2,215.999993408203,2|10|14,1:2|0:0|0:1,0:1:0:0:
412,10,99491,5,6,1:2:0:0:
274,135,99650,2,0,P|193:122|151:118,1,103.500001974106,2|8,0:1|0:0,0:0:0:0:
344,330,99969,2,0,P|352:253|381:181,1,155.250002961159,2|0,0:1|0:0,0:0:0:0:
398,160,100288,1,2,0:1:0:0:
261,273,100448,2,0,P|209:279|158:288,1,103.500001974106,10|2,0:0|0:1,0:0:0:0:
17,107,100767,6,0,P|116:118|123:5,1,207.000003948212,0|8,1:0|0:0,0:0:0:0:
63,238,101246,2,0,P|56:319|43:378,1,103.500001974106,2|0,0:1|1:0,0:0:0:0:
17,107,101565,2,0,B|112:114|51:158|193:165,1,155.250002961159,2|0,0:1|0:0,0:0:0:0:
195,148,101884,1,2,0:1:0:0:
438,19,102044,6,0,B|463:42|463:42|462:99|388:135|313:86,1,207.000003948212,2|8,1:2|0:0,0:0:0:0:
328,94,102522,1,2,0:1:0:0:
257,235,102682,2,0,P|278:297|282:350,1,103.500001974106,0|2,1:0|0:1,0:0:0:0:
218,377,102921,1,2,0:1:0:0:
204,384,103001,2,0,P|164:361|184:311,1,103.500001974106,8|2,0:0|0:1,0:0:0:0:
427,373,103320,6,0,P|434:321|452:273,1,103.500001974106,2|2,1:2|0:1,0:0:0:0:
393,38,103639,2,0,P|385:89|367:137,1,103.500001974106,8|2,0:0|0:1,0:0:0:0:
507,188,103959,1,4,1:1:0:0:
196,237,104278,6,0,P|105:244|98:316,1,155.250002961159,10|0,0:0|0:0,0:0:0:0:
94,317,104597,5,6,1:2:0:0:
13,134,104756,2,0,B|-12:143|-12:143|9:171|59:162,1,103.500001974106,2|8,0:1|0:0,0:0:0:0:
285,20,105076,2,0,P|236:89|151:46,1,155.250002961159,2|0,0:1|0:0,0:0:0:0:
154,59,105395,1,2,0:1:0:0:
298,198,105554,2,0,P|305:269|318:321,1,103.500001974106,10|2,0:0|0:1,0:0:0:0:
125,384,105873,6,0,P|135:333|138:281,1,103.500001974106,0|2,1:0|0:1,0:0:0:0:
314,384,106193,2,0,B|418:366|333:320|482:293,1,155.250002961159,10|0,0:0|0:0,0:0:0:0:
473,308,106512,2,0,P|426:290|435:233,1,103.500001974106,2|2,1:2|0:1,0:0:0:0:
510,107,106831,2,0,P|401:74|358:5,1,155.250002961159,10|0,0:0|0:0,0:0:0:0:
375,17,107150,5,2,1:2:0:0:
375,17,107310,1,2,0:1:0:0:
510,107,107469,1,10,0:0:0:0:
324,169,107629,2,0,B|223:189|300:229|164:244,1,155.250002961159,2|0,0:1|0:0,0:0:0:0:
162,231,107948,1,2,0:1:0:0:
334,267,108108,2,0,P|349:353|366:400,1,103.500001974106,8|2,0:0|0:1,0:0:0:0:
189,142,108427,6,0,P|174:56|157:9,1,103.500001974106,6|8,1:1|0:0,0:0:0:0:
159,10,108666,1,8,0:0:0:0:
159,10,108746,1,8,1:2:0:0:
62,157,108905,6,0,P|78:198|83:236,1,51.7500009870529,10|8,0:0|0:0,0:0:0:0:
93,285,109065,1,8,1:2:0:0:
78,306,109145,1,8,0:0:0:0:
54,316,109225,1,8,0:0:0:0:
28,315,109304,1,8,0:0:0:0:
5,302,109384,1,8,1:2:0:0:
183,349,109544,5,10,0:0:0:0:
183,349,109623,1,8,0:0:0:0:
183,349,109703,2,0,B|208:266|300:285|300:285|313:323|354:336,1,207.000003948212,6|8,1:2|1:2,0:0:0:0:
482,136,110182,2,0,P|475:245|357:231,1,215.999993408203,2|2,0:0|0:1,0:0:0:0:
171,125,110661,2,0,P|282:111|357:83,1,168.75,10|0,0:0|0:0,0:0:0:0:
401,50,110980,6,0,B|357:23|357:23|283:35|260:137|373:196,1,233.999989288331,2|8,1:3|1:2,0:0:0:0:
327,163,111459,1,2,0:1:0:0:
167,278,111618,2,0,P|218:281|282:301,1,103.500001974106,2|2,1:2|0:1,0:0:0:0:
324,347,111858,1,2,0:1:0:0:
332,361,111937,2,0,P|372:338|364:280,1,103.500001974106,8|2,0:0|0:1,0:0:0:0:
342,61,112256,6,0,P|329:155|317:187,1,103.500001974106,2|2,1:2|0:1,0:0:0:0:
494,114,112575,2,0,P|507:20|519:-12,1,103.500001974106,8|2,0:0|0:1,0:0:0:0:
419,194,112894,1,2,1:2:0:0:
142,81,113134,5,2,0:1:0:0:
142,81,113214,2,0,P|200:81|211:133,1,103.500001974106,8|2,0:0|0:1,0:0:0:0:
201,323,113533,6,0,P|188:272|185:221,1,103.500001974106,2|2,1:2|0:1,0:0:0:0:
18,270,113852,2,0,P|30:320|33:371,1,103.500001974106,8|2,0:0|0:1,0:0:0:0:
93,190,114172,1,4,1:1:0:0:
411,271,114491,6,0,B|324:296|379:339|279:361,1,155.250002961159,10|0,0:0|0:0,0:0:0:0:
261,359,114810,5,6,1:2:0:0:
390,182,114969,2,0,P|465:201|507:205,1,103.500001974106,2|8,0:1|0:0,0:0:0:0:
273,258,115288,2,0,P|292:183|296:141,1,103.500001974106,2|0,0:1|1:0,0:0:0:0:
294,157,115608,1,2,0:1:0:0:
371,1,115767,2,0,P|424:60|500:48,1,155.250002961159,8|0,0:0|0:0,0:0:0:0:
508,33,116086,6,0,P|456:43|460:97,1,103.500001974106,0|2,1:0|0:1,0:0:0:0:
468,304,116405,2,0,P|475:252|490:203,1,103.500001974106,10|2,0:0|0:1,0:0:0:0:
346,352,116725,5,2,1:2:0:0:
346,352,116884,1,2,0:1:0:0:
255,254,117044,5,10,0:0:0:0:
255,254,117203,1,2,0:1:0:0:
153,321,117363,6,0,L|87:333,3,51.7500009870529,6|8|8|8,1:2|0:0|0:0|0:0,0:0:0:0:
1,237,117682,2,0,L|52:247,3,51.7500009870529,10|8|8|8,1:2|0:0|0:0|0:0,0:0:0:0:
182,172,118001,2,0,L|131:181,3,51.7500009870529,10|8|8|8,1:2|0:0|0:0|0:0,0:0:0:0:
30,88,118320,2,0,L|81:98,3,51.7500009870529,10|8|8|8,1:2|0:0|0:0|0:0,0:0:0:0:
173,29,118639,5,10,1:2:0:0:
173,29,118719,1,8,0:0:0:0:
173,29,118799,2,0,L|183:80,1,51.7500009870529,8|8,0:0|0:0,0:0:0:0:
345,139,118959,5,10,1:2:0:0:
345,139,119039,1,8,0:0:0:0:
345,139,119119,2,0,L|335:190,1,51.7500009870529,8|8,0:0|0:0,0:0:0:0:
179,273,119278,5,10,1:2:0:0:
204,267,119358,1,8,0:0:0:0:
229,271,119437,1,8,0:0:0:0:
250,285,119517,1,8,0:0:0:0:
262,307,119597,1,8,1:2:0:0:
269,331,119677,1,8,0:0:0:0:
287,348,119756,1,8,0:0:0:0:
311,356,119836,1,8,0:0:0:0:
338,358,119916,6,0,P|429:300|407:237,2,188.999994232178,6|0|8,1:2|1:0|0:0,0:0:0:0:
300,173,130129,6,0,P|309:106|322:39,2,135,4|0|10,0:3|0:0|0:0,0:0:0:0:
376,225,131405,2,0,P|439:237|487:193,2,135,2|2|2,0:0|0:0|0:0,0:0:0:0:
258,252,132682,2,0,P|388:264|460:373,2,270,2|2|2,1:2|0:0|0:0,0:0:0:0:
258,252,135235,6,0,B|266:216|251:194|224:183|224:183|212:145|225:113|278:100,1,180,2|0,1:2|0:0,0:0:0:0:
360,85,136193,2,0,P|273:85|220:15,2,180,10|2|0,0:0|0:0|0:0,0:0:0:0:
256,192,137788,5,2,1:2:0:0:
256,192,137868,12,2,139065,0:0:0:0:
256,192,139145,12,2,140342,1:2:0:0:
126,165,140661,5,2,1:2:0:0:
126,165,140820,2,0,P|81:207|105:259,1,107.999996704102,10|0,0:0|1:0,0:0:0:0:
174,291,141299,1,10,0:0:0:0:
174,291,141618,6,0,P|236:277|301:274,1,107.999996704102,2|2,1:2|1:2,0:0:0:0:
403,384,142097,2,0,B|433:363|433:363|442:322|407:286,1,107.999996704102,10|0,0:0|1:0,0:0:0:0:
361,223,142576,1,10,0:0:0:0:
361,223,142895,6,0,P|396:184|385:131,1,107.999996704102,2|0,1:2|1:0,0:0:0:0:
476,125,143373,2,0,P|479:98|485:71,1,53.9999983520508,8|0,0:0|3:0,0:0:0:0:
427,5,143693,1,0,1:0:0:0:
353,55,143852,2,0,P|297:61|228:73,1,107.999996704102,8|2,0:0|1:2,0:0:0:0:
246,69,144491,5,0,1:0:0:0:
167,0,144650,2,0,P|156:56|143:116,1,107.999996704102,8|2,0:0|1:1,0:0:0:0:
123,191,145129,1,8,0:0:0:0:
123,191,145448,6,0,P|56:193|31:163,1,107.999996704102,2|2,1:2|1:2,0:0:0:0:
215,170,145927,2,0,B|248:195|248:195|244:231|221:270,1,107.999996704102,10|0,0:0|1:0,0:0:0:0:
177,333,146405,2,0,P|150:335|124:340,1,53.9999983520508,10|2,0:0|0:0,0:0:0:0:
259,379,146725,5,0,1:0:0:0:
259,379,147044,1,2,1:2:0:0:
336,334,147203,2,0,P|346:289|368:215,1,107.999996704102,10|0,0:0|1:0,0:0:0:0:
451,198,147682,1,10,0:0:0:0:
451,198,148001,6,0,P|462:147|427:109,1,107.999996704102,2|0,1:2|1:0,0:0:0:0:
459,12,148480,2,0,P|408:27|341:41,1,107.999996704102,8|0,0:0|1:0,0:0:0:0:
338,130,148959,2,0,P|311:123|285:119,1,53.9999983520508,10|0,0:0|0:0,0:0:0:0:
194,134,149278,5,0,1:0:0:0:
194,134,149597,1,0,1:0:0:0:
285,119,149756,2,0,P|277:154|272:194,1,53.9999983520508,8|0,0:0|0:0,0:0:0:0:
431,254,150076,5,2,1:1:0:0:
333,296,150235,2,0,B|342:266|342:266|337:257|337:257|344:227,1,72,10|0,0:0|0:0,0:0:0:0:
236,314,150554,6,0,P|177:355|106:338,1,144,6|0,1:2|1:0,0:0:0:0:
4,246,151033,2,0,B|48:325|-18:303|30:401,1,144,8|0,0:0|1:0,0:0:0:0:
116,246,151512,2,0,P|90:179|96:108,1,144,10|0,0:0|1:0,0:0:0:0:
98,18,151991,6,0,P|62:28|17:35,1,72,2|0,0:0|1:0,0:0:0:0:
194,135,152310,1,8,0:0:0:0:
194,135,152469,2,0,B|242:107|280:128|280:128|286:166|334:175,1,144,2|10,0:0|0:0,0:0:0:0:
311,168,153108,6,0,P|367:131|335:40,1,144,2|0,1:2|1:0,0:0:0:0:
453,0,153586,2,0,P|465:48|473:80,1,72,8|0,0:0|3:0,0:0:0:0:
271,83,153905,1,2,1:2:0:0:
271,83,154065,2,0,B|182:90|221:27|112:48,1,144,8|0,0:0|1:0,0:0:0:0:
22,218,154544,5,0,3:0:0:0:
102,153,154703,1,0,1:0:0:0:
16,103,154863,2,0,P|20:67|33:33,1,72,8|0,0:0|3:0,0:0:0:0:
203,0,155182,1,2,1:1:0:0:
289,50,155342,2,0,P|284:85|271:119,1,72,10|0,0:0|0:0,0:0:0:0:
206,203,155661,6,0,P|275:150|362:161,1,180,6|0,1:2|1:0,0:0:0:0:
486,330,156139,2,0,B|447:318|423:281|427:253|427:253|467:223|463:168,1,180,10|0,0:0|1:0,0:0:0:0:
306,269,156618,6,0,B|192:252|256:206|123:209,2,180,10|0|2,0:0|1:0|1:2,0:0:0:0:
419,248,157416,1,10,0:0:0:0:
419,248,157576,2,0,P|403:295|396:344,1,99.0000030212403,2|0,0:0|1:0,0:0:0:0:
292,172,157895,2,0,P|281:106|264:21,1,148.50000453186,12|0,0:0|0:0,0:0:0:0:
248,3,158214,5,14,0:1:0:0:
184,94,158373,1,0,1:0:0:0:
78,60,158533,1,0,1:0:0:0:
18,230,158693,5,8,0:0:0:0:
101,162,158852,1,0,1:0:0:0:
202,196,159012,1,0,1:0:0:0:
219,188,159171,6,0,L|211:249,1,53.9999983520508,10|6,0:0|1:1,0:0:0:0:
327,169,159650,5,8,0:0:0:0:
348,148,159730,1,8,0:0:0:0:
351,118,159810,1,8,1:2:0:0:
338,91,159889,1,8,0:0:0:0:
313,74,159969,1,8,0:0:0:0:
283,71,160049,1,8,0:0:0:0:
260,90,160129,2,0,P|238:84|208:82,2,49.5000015106202,12|0|0,1:0|1:0|1:0,0:0:0:0:
433,173,160448,6,0,P|439:115|449:58,1,116.999994644165,14|0,0:0|0:0,0:0:0:0:
477,274,160767,5,10,1:2:0:0:
446,281,160847,1,8,0:0:0:0:
415,281,160927,1,8,0:0:0:0:
387,269,161006,1,8,0:0:0:0:
362,250,161086,1,8,1:2:0:0:
336,233,161166,1,8,0:0:0:0:
307,225,161246,1,8,0:0:0:0:
277,229,161326,1,8,0:0:0:0:
248,239,161405,2,0,P|241:267|240:300,1,49.5000015106202,12|0,1:2|0:0,0:0:0:0:
308,349,161565,5,2,1:0:0:0:
433,173,161804,5,2,1:0:0:0:
248,93,162044,6,0,B|252:59|252:59|244:44|244:44|248:14,1,80.9999975280763,2|0,1:0|0:0,0:0:0:0:
264,108,162642,6,0,L|258:143,15,33.7500012874604,2|2|2|2|2|2|2|2|2|2|2|2|2|2|2|2,0:3|0:3|0:3|0:3|0:3|0:3|0:3|0:3|0:3|0:3|0:3|0:3|0:3|0:3|0:3|0:3,0:0:0:0:
344,67,163320,5,10,0:0:0:0:
176,171,163480,1,2,1:2:0:0:
462,243,164916,5,8,1:2:0:0:
294,347,165873,5,8,1:2:0:0:
462,243,166033,1,0,1:0:0:0:
462,243,167469,6,0,L|465:207,1,36,2|0,0:0|0:0,0:0:0:0:
465,207,167629,2,0,P|413:159|344:167,1,144,2|0,0:0|1:0,0:0:0:0:
264,222,168108,1,10,0:0:0:0:
264,222,168427,5,10,1:2:0:0:
160,78,168586,1,2,1:2:0:0:
264,222,170022,2,0,B|271:261|271:261|282:272|282:272|288:306,1,90,2|0,0:0|1:0,0:0:0:0:
278,201,170501,6,0,P|240:151|157:157,1,144,12|0,1:2|0:0,0:0:0:0:
107,241,170980,1,14,0:1:0:0:
107,241,171139,2,0,P|154:247|207:257,1,80.9999975280763,0|0,1:0|0:0,0:0:0:0:
278,201,171459,2,0,B|260:171|258:148|258:148|282:117|282:117|279:64|253:36,2,161.999995056153,2|2|4,1:2|1:2|1:1,0:0:0:0:
455,275,172256,6,0,P|487:247|476:188,1,80.9999975280763,2|0,0:0|1:0,0:0:0:0:
489,210,172496,2,0,P|430:221|361:247,1,121.499996292114,2|2,0:0|1:2,0:0:0:0:
183,323,172895,1,6,0:3:0:0:
272,384,173054,1,0,1:0:0:0:
272,384,173134,1,0,1:0:0:0:
272,384,173214,2,0,P|279:337|297:273,1,90,10|2,0:0|0:0,0:0:0:0:
87,278,173533,6,0,B|40:200|91:202|46:123,1,161.999995056153,6|0,1:1|0:0,0:0:0:0:
102,38,174012,5,2,1:2:0:0:
102,38,174171,2,0,P|59:32|4:19,1,80.9999975280763,8|0,0:0|0:0,0:0:0:0:
224,120,174491,5,2,1:2:0:0:
224,120,174650,2,0,B|184:119|184:119|140:152,1,80.9999975280763,0|0,1:0|0:0,0:0:0:0:
353,47,174969,5,0,1:0:0:0:
353,47,175129,2,0,P|309:49|275:10,1,80.9999975280763,8|0,0:0|0:0,0:0:0:0:
406,143,175448,6,0,P|447:185|451:244,1,121.499996292114,2|0,1:2|0:0,0:0:0:0:
433,271,175767,2,0,P|482:277|541:300,1,80.9999975280763,8|2,0:0|0:0,0:0:0:0:
325,311,176086,5,6,1:1:0:0:
325,311,176246,2,0,L|339:223,1,80.9999975280763,0|0,1:0|0:0,0:0:0:0:
184,384,176565,5,0,1:0:0:0:
184,384,176725,2,0,B|187:351|187:351|181:338|181:338|186:295,1,80.9999975280763,10|0,0:0|0:0,0:0:0:0:
237,163,177044,5,0,1:0:0:0:
237,163,177204,2,0,L|251:75,1,80.9999975280763,2|2,1:2|3:2,0:0:0:0:
96,236,177523,5,0,1:0:0:0:
96,236,177683,2,0,B|99:203|99:203|93:190|93:190|98:147,1,80.9999975280763,8|0,0:0|0:0,0:0:0:0:
21,30,178001,6,0,B|93:66|93:66|132:56,1,121.499996292114,0|0,1:0|0:0,0:0:0:0:
155,76,178320,2,0,P|189:55|230:58,1,80.9999975280763,10|2,0:0|0:0,0:0:0:0:
409,0,178639,5,6,1:2:0:0:
332,64,178799,2,0,P|320:112|312:172,1,90,2|0,1:2|0:0,0:0:0:0:
335,258,179118,1,2,1:2:0:0:
484,226,179278,2,0,B|454:197|411:201|411:201|389:257|322:259,1,180,8|2,0:0|1:2,0:0:0:0:
162,283,179756,6,0,B|286:293|198:349|348:368,1,180,0|0,1:0|1:0,0:0:0:0:
335,258,180235,2,0,P|326:212|325:159,1,90,10|0,0:0|0:0,0:0:0:0:
206,23,180554,2,0,B|248:49|248:49|258:92|225:129,1,135,2|0,1:2|0:0,0:0:0:0:
199,141,180873,2,0,P|155:135|91:123,1,99.0000030212403,10|0,0:0|0:0,0:0:0:0:
236,233,181193,5,6,1:2:0:0:
100,297,181352,1,8,0:0:0:0:
122,292,181432,1,8,0:0:0:0:
137,274,181512,2,0,L|125:213,3,53.9999983520508,10|8|8|8,1:2|0:0|0:0|0:0,0:0:0:0:
199,141,181831,5,10,1:2:0:0:
242,139,181911,1,8,0:0:0:0:
270,106,181991,1,10,0:0:0:0:
277,63,182070,1,8,0:0:0:0:
252,25,182150,2,0,P|314:45|363:45,1,101.250003862381,14|0,1:2|0:0,0:0:0:0:
373,38,182469,6,2,P|429:59|411:136,1,107.999996704102,10|0,1:2|0:0,0:1:0:0:
476,206,182682,2,2,P|425:187|371:184,1,107.999996704102,10|0,0:0|0:0,0:1:0:0:
390,333,182895,2,2,P|414:307|408:273,1,71.9999978027344,10|0,1:2|0:0,0:1:0:0:
285,151,183108,6,0,B|260:184|260:184|255:225|306:252,1,107.999996704102,10|2,1:2|0:0,0:0:0:0:
287,240,183746,6,0,B|133:259|229:319|35:332,1,233.999989288331,6|0,1:2|1:0,0:0:0:0:
180,164,184225,2,0,P|260:103|232:14,1,207.000003948212,10|0,0:0|1:0,0:0:0:0:
46,135,184704,2,0,B|60:176|60:176|76:187|76:187|88:225,1,103.500001974106,0|8,1:0|0:0,0:0:0:0:
377,334,185023,6,0,P|280:297|178:284,1,207.000003948212,0|0,1:0|1:0,0:0:0:0:
381,227,185502,1,10,0:0:0:0:
289,181,185661,2,0,P|272:139|273:73,1,103.500001974106,2|0,1:2|0:0,0:0:0:0:
290,57,185901,1,2,3:2:0:0:
290,57,185981,1,8,1:2:0:0:
512,81,186139,1,2,0:0:0:0:
432,139,186300,6,0,B|437:256|368:208|378:367,1,207.000003948212,2|0,1:2|1:0,0:0:0:0:
120,284,186778,2,0,P|224:293|272:208,1,207.000003948212,10|0,0:0|0:0,0:0:0:0:
432,139,187256,2,0,P|367:124|312:107,1,103.500001974106,2|8,1:2|0:0,0:0:0:0:
166,193,187576,6,0,B|221:141|188:75|188:75|140:66|134:18,1,207.000003948212,0|0,1:0|1:0,0:0:0:0:
166,193,188055,1,8,0:0:0:0:
0,233,188214,2,0,B|73:247|73:247|109:284|109:284|153:289|188:301,1,207.000003948212,4|10,1:0|1:2,0:0:0:0:
305,358,188693,2,0,L|298:324,3,34.5000006580353,8|8|8|6,0:0|0:0|0:0|1:2,0:0:0:0:
432,186,189012,6,0,P|444:135|458:85,1,103.500001974106,2|0,0:0|1:0,0:0:0:0:
475,321,189332,2,0,B|435:306|435:306|424:292|424:292|383:277,1,103.500001974106,10|0,0:0|1:0,0:0:0:0:
306,123,189650,1,2,0:0:0:0:
171,197,189810,2,0,B|201:195|233:219|233:219|282:212|308:186|311:131,1,175.499991966248,10|0,1:2|0:0,0:0:0:0:
306,123,190130,5,2,1:3:0:0:
171,6,190289,1,0,3:0:0:0:
171,6,190448,2,0,P|193:56|205:125,1,103.500001974106,2|8,1:2|0:0,0:0:0:0:
414,303,190767,2,0,P|386:259|402:211,1,103.500001974106,2|0,1:2|0:0,0:0:0:0:
398,86,191086,2,0,B|359:95|359:95|346:112|346:112|305:122,1,103.500001974106,10|0,1:2|0:0,0:0:0:0:
60,236,191405,5,2,1:2:0:0:
60,236,191565,2,0,B|98:245|98:245|111:262|111:262|152:272,1,103.500001974106,2|0,0:0|1:0,0:0:0:0:
284,384,191885,2,0,P|334:328|304:263,1,155.250002961159,10|0,0:0|0:0,0:0:0:0:
274,243,192204,1,2,0:0:0:0:
133,102,192363,2,0,B|177:193|110:170|153:274,1,175.499991966248,10|0,1:2|0:0,0:0:0:0:
232,315,192683,6,0,B|320:295|289:344|376:319,1,135.000005149842,6|8,1:0|0:0,0:0:0:0:
368,350,192921,2,0,P|409:338|455:335,1,67.5000025749208,8|4,0:0|1:0,0:0:0:0:
325,167,193161,6,0,P|335:199|341:232,1,67.5000025749208,10|8,0:0|0:0,0:0:0:0:
501,175,193321,2,0,P|462:121|397:117,1,135.000005149842,2|0,1:2|0:0,0:0:0:0:
375,26,193560,1,10,0:0:0:0:
359,42,193640,2,0,P|307:49|266:62,1,67.5000025749208,0|0,1:0|0:0,0:0:0:0:
144,156,193799,2,0,P|182:148|216:146,1,67.5000025749208,10|0,0:0|0:0,0:0:0:0:
210,0,193959,6,0,B|162:141|278:88|219:245,1,233.999989288331,6|0,1:2|1:0,0:0:0:0:
35,376,194437,2,0,P|111:305|214:322,1,215.999993408203,10|0,0:0|0:0,0:0:0:0:
468,329,194916,2,0,P|416:333|347:349,1,107.999996704102,10|0,1:2|0:0,0:0:0:0:
342,368,195155,1,8,0:0:0:0:
342,368,195235,6,0,P|312:335|317:269,1,107.999996704102,2|0,1:3|0:0,0:0:0:0:
485,139,195554,1,0,1:0:0:0:
431,49,195714,1,8,0:0:0:0:
254,187,195873,2,0,P|323:168|371:147,1,107.999996704102,2|0,1:2|0:0,0:0:0:0:
382,141,196113,2,0,P|368:188|363:221,1,53.9999983520508,2|8,0:0|1:2,0:0:0:0:
103,73,196352,6,0,P|109:47|116:14,1,53.9999983520508,10|0,0:0|0:0,0:0:0:0:
273,88,196512,2,0,B|153:87|218:171|77:170,1,215.999993408203,6|0,1:2|1:0,0:0:0:0:
210,271,196991,1,8,0:0:0:0:
86,384,197150,2,0,P|97:331|112:279,1,107.999996704102,2|0,1:2|0:0,0:0:0:0:
87,261,197389,2,0,P|60:265|33:270,1,53.9999983520508,2|8,0:0|1:2,0:0:0:0:
277,347,197629,6,0,P|303:342|330:338,1,53.9999983520508,2|8,0:0|0:0,0:0:0:0:
410,287,197788,2,0,B|439:240|439:240|411:186,1,107.999996704102,2|0,1:2|0:0,0:0:0:0:
493,93,198108,1,0,1:0:0:0:
312,152,198267,2,0,B|359:128|403:145|403:145|445:206|510:192,1,215.999993408203,8|0,0:0|0:0,0:0:0:0:
253,15,198746,2,0,B|239:60|239:60|221:74|221:74|207:119,1,116.999994644165,14|0,1:1|0:0,0:0:0:0:
192,278,199065,5,6,1:2:0:0:
63,380,199225,2,0,P|68:327|97:282,1,107.999996704102,2|0,0:0|1:0,0:0:0:0:
101,94,199544,2,0,B|96:228|185:173|192:278,1,215.999993408203,10|0,0:0|0:0,0:0:0:0:
308,146,200022,2,0,P|260:144|204:116,1,107.999996704102,10|0,1:2|0:0,0:0:0:0:
30,30,200342,6,0,B|76:48|102:70|102:70|173:51|234:2,2,215.999993408203,2|10|10,1:3|1:2|1:2,0:0:0:0:
110,188,201139,1,4,0:3:0:0:
110,188,201219,1,4,0:3:0:0:
110,188,201299,2,0,P|86:258|77:308,1,116.999994644165,14|0,0:2|0:0,0:0:0:0:
223,149,201618,1,14,1:1:0:0:
223,149,201937,5,10,1:2:0:0:
343,241,202097,1,8,0:0:0:0:
427,113,202256,1,10,1:2:0:0:
304,14,202416,1,8,0:0:0:0:
324,126,202576,5,10,1:2:0:0:
343,241,202735,1,8,0:0:0:0:
466,348,202895,5,10,1:2:0:0:
450,265,203054,1,8,0:0:0:0:
254,301,203214,1,10,1:2:0:0:
270,384,203373,1,8,0:0:0:0:
373,384,203533,6,0,L|359:311,1,72,10|4,1:2|1:2,0:0:0:0:
256,192,204251,12,0,206725,1:0:0:0:
462,41,214384,6,0,P|416:77|372:74,1,80.9999975280763,4|0,1:2|0:0,0:0:0:0:
325,57,214623,1,0,1:0:0:0:
325,57,214703,2,0,P|346:123|349:166,1,80.9999975280763,2|8,0:0|0:0,0:0:0:0:
338,210,215022,1,2,0:1:0:0:
492,182,215182,1,0,1:0:0:0:
492,182,215262,1,0,1:0:0:0:
492,182,215342,2,0,P|471:248|468:291,1,80.9999975280763,10|2,0:0|0:0,0:0:0:0:
270,340,215661,6,0,B|302:329|314:316|314:316|352:321|392:368,2,121.499996292114,0|0|8,1:0|1:0|0:0,0:0:0:0:
202,376,216299,1,2,0:1:0:0:
158,130,216459,1,2,1:3:0:0:
158,130,216538,1,0,1:0:0:0:
158,130,216618,2,0,B|116:148|116:148|90:187|145:236,1,121.499996292114,10|0,0:0|0:0,0:0:0:0:
147,234,216937,6,0,P|68:254|-5:257,1,121.499996292114,0|0,1:0|1:0,0:0:0:0:
3,257,217256,1,2,0:1:0:0:
202,376,217416,2,0,B|281:356|319:355|319:355|338:331|343:300,1,161.999995056153,8|0,0:0|1:0,0:0:0:0:
293,259,217815,1,0,1:0:0:0:
293,259,217895,2,0,P|276:182|295:114,1,121.499996292114,8|0,0:0|0:0,0:0:0:0:
300,105,218214,5,0,1:0:0:0:
74,10,218453,1,0,1:0:0:0:
74,10,218533,2,0,P|70:83|61:110,1,80.9999975280763,2|0,0:1|1:0,0:0:0:0:
46,163,218852,1,2,0:1:0:0:
240,34,219012,1,0,1:0:0:0:
240,34,219092,1,0,1:0:0:0:
240,34,219171,6,0,B|273:0|300:7|300:7|323:41|377:30,1,135,10|8,0:3|0:0,0:0:0:0:
432,11,219491,6,0,P|385:25|426:128,1,161.999995056153,4|0,1:2|1:0,0:0:0:0:
497,286,219969,2,0,P|381:249|304:243,1,161.999995056153,8|0,0:0|1:0,0:0:0:0:
369,325,220368,1,0,1:0:0:0:
369,325,220448,2,0,P|408:296|408:260,1,80.9999975280763,8|2,0:0|0:0,0:0:0:0:
162,229,220767,6,0,B|162:333|220:270|218:387,1,161.999995056153,0|0,1:0|1:0,0:0:0:0:
252,233,221246,2,0,P|269:163|286:126,1,80.9999975280763,8|2,0:0|0:1,0:0:0:0:
55,13,221565,1,0,1:0:0:0:
55,13,221645,1,0,1:0:0:0:
55,13,221725,2,0,B|101:39|101:39|117:81|47:132,1,135,12|0,0:1|0:0,0:0:0:0:
10,172,222044,6,0,P|119:145|196:137,1,161.999995056153,0|0,1:0|1:0,0:0:0:0:
303,4,222522,2,0,P|251:42|216:15,1,80.9999975280763,8|2,0:0|0:1,0:0:0:0:
394,238,222842,1,0,1:0:0:0:
394,238,222921,1,0,1:0:0:0:
394,238,223001,2,0,B|433:234|453:219|453:219|490:121|367:72,1,215.999993408203,12|0,0:2|1:0,0:0:0:0:
204,264,223480,5,14,1:1:0:0:
339,361,223639,2,0,P|415:346|486:339,1,107.999996704102,10|0,0:0|0:0,0:0:0:0:
329,114,223959,5,14,1:1:0:0:
140,202,224118,2,0,P|86:209|33:220,1,107.999996704102,10|0,0:0|1:0,0:0:0:0:
208,360,224437,6,0,B|229:324|222:289|222:289|250:264|284:264|284:264|312:208|271:161,1,233.999989288331,14|0,1:2|0:0,0:0:0:0:
