osu file format v14

[General]
AudioFilename: audio.mp3
AudioLeadIn: 0
PreviewTime: 38067
Countdown: 0
SampleSet: None
StackLeniency: 0.7
Mode: 0
LetterboxInBreaks: 0
WidescreenStoryboard: 0

[Editor]
DistanceSpacing: 1
BeatDivisor: 2
GridSize: 4
TimelineZoom: 1.1

[Metadata]
Title:Sayonara Waltz
TitleUnicode:さよならワルツ
Artist:la la larks
ArtistUnicode:la la larks
Creator:Mirash
Version:Normal
Source:
Tags:Delis captin1 Niva Nivalis Culture Vulture
BeatmapID:1842547
BeatmapSetID:813903

[Difficulty]
HPDrainRate:4
CircleSize:2.5
OverallDifficulty:4
ApproachRate:4
SliderMultiplier:0.6
SliderTickRate:1

[Events]
//Background and Video events
0,0,"pachipachi.jpg",0,0
//Break Periods
2,62673,73357
2,123690,129798
//Storyboard Layer 0 (Background)
//Storyboard Layer 1 (Fail)
//Storyboard Layer 2 (Pass)
//Storyboard Layer 3 (Foreground)
//Storyboard Sound Samples

[TimingPoints]
1457,254.237288135593,6,3,1,60,1,0
13660,-100,6,2,1,40,0,0
25863,-100,6,3,1,50,0,0
36541,-100,6,3,1,60,0,0
37304,-100,6,3,1,90,0,0
37368,-100,6,3,1,30,0,0
37558,-100,6,3,1,90,0,0
37622,-100,6,3,1,30,0,0
37812,-100,6,3,1,40,0,0
38067,-83.3333333333333,6,3,1,70,0,0
74677,-100,6,3,1,50,0,0
85355,-83.3333333333333,6,3,1,70,0,0
86880,-100,6,3,1,60,0,0
97558,-100,6,3,1,70,0,0
98321,-100,6,3,1,80,0,0
99084,-83.3333333333333,6,3,1,70,0,0
158575,-83.3333333333333,6,3,1,80,0,0
161626,-83.3333333333333,6,3,1,70,0,0

[Colours]
Combo1 : 255,210,77
Combo2 : 217,122,45
Combo3 : 65,183,207
Combo4 : 187,79,154

[HitObjects]
115,76,1457,6,0,P|164:77|259:177,1,180,6|10,0:1|0:1,0:0:0:0:
235,218,2473,1,2,0:1:0:0:
326,296,2982,2,0,P|407:285|442:285,2,90,4|8|8,0:0|0:1|0:1,0:0:0:0:
282,337,3999,1,2,0:0:0:0:
163,342,4507,6,0,P|164:291|141:154,1,180,6|10,0:1|0:1,0:0:0:0:
92,132,5524,1,0,0:1:0:0:
147,25,6033,2,0,L|275:41,1,120,4|0,0:0|0:0,0:0:0:0:
324,28,6795,1,8,0:1:0:0:
441,164,7558,6,0,B|338:160|381:229|265:217,1,180,6|10,0:1|0:1,0:0:0:0:
219,197,8575,1,4,0:0:0:0:
110,248,9084,2,0,P|120:313|126:371,1,120,4|0,0:0|0:0,0:0:0:0:
185,374,9846,2,0,L|252:365,1,60,8|0,0:1|0:0,0:0:0:0:
364,368,10609,6,0,P|358:325|319:264,2,90,6|0|10,0:1|0:0|0:1,0:0:0:0:
423,374,11626,1,0,0:0:0:0:
481,269,12134,2,0,P|468:212|452:138,1,120,4|0,0:0|0:0,0:0:0:0:
452,91,12897,2,0,P|481:90|511:96,2,60,10|8|0,0:1|0:0|0:1,0:0:0:0:
392,86,13660,6,0,B|331:79|336:118|264:108,1,120,4|8,0:1|0:3,0:0:0:0:
222,83,14423,1,4,0:3:0:0:
78,191,15185,1,4,0:3:0:0:
187,241,15694,2,0,L|234:240,2,30,4|2|4,0:3|0:3|0:3,0:0:0:0:
329,351,16711,6,0,P|358:346|457:341,1,120,4|0,0:2|0:0,0:0:0:0:
489,297,17473,1,4,0:3:0:0:
343,191,18236,1,4,0:3:0:0:
222,187,18745,2,0,L|181:184,2,30,4|2|4,0:3|0:0|0:3,0:0:0:0:
258,10,19762,6,0,P|261:37|264:71,2,60,4|0|8,0:3|0:0|0:3,0:0:0:0:
198,5,20524,1,4,0:3:0:0:
38,88,21287,2,0,P|26:151|26:214,1,120,4|4,0:3|0:3,0:0:0:0:
63,253,22050,1,4,0:3:0:0:
216,347,22812,6,0,L|299:342,2,60,4|0|8,0:3|0:0|0:3,0:0:0:0:
169,309,23575,1,4,0:3:0:0:
251,148,24338,2,0,P|321:150|376:161,1,120,4|0,0:3|0:0,0:0:0:0:
420,191,25101,1,8,0:1:0:0:
479,187,25355,1,4,0:2:0:0:
440,300,25863,6,0,P|347:283|267:317,1,180,4|8,0:1|0:1,0:0:0:0:
212,332,26880,1,2,0:2:0:0:
91,327,27389,2,0,P|98:255|94:204,1,120,4|0,0:0|0:0,0:0:0:0:
42,178,28151,2,0,P|58:130|66:93,2,60,8|2|4,0:1|0:0|0:2,0:0:0:0:
94,207,28914,6,0,P|151:202|286:198,1,180,4|8,0:0|0:1,0:0:0:0:
321,161,29931,1,2,0:2:0:0:
437,131,30440,2,0,P|430:86|418:51,2,60,4|0|0,0:0|0:0|0:0,0:0:0:0:
479,173,31202,1,8,0:1:0:0:
399,263,31711,5,2,0:0:0:0:
399,263,31965,2,0,L|319:257,1,60,4|2,0:0|0:2,0:0:0:0:
289,292,32473,1,2,0:2:0:0:
289,292,32727,2,0,L|209:286,1,60,8|2,0:1|0:0,0:0:0:0:
174,313,33236,1,4,0:2:0:0:
114,311,33490,2,0,P|108:236|103:123,1,180,4|8,0:0|0:1,0:0:0:0:
189,47,34762,5,4,0:2:0:0:
189,47,35016,2,0,L|268:55,1,60,4|0,0:0|0:0,0:0:0:0:
270,109,35524,1,8,0:0:0:0:
270,109,35778,2,0,L|349:101,1,60,8|2,0:1|0:2,0:0:0:0:
351,46,36287,2,0,L|410:52,1,60,4|4,0:2|0:0,0:0:0:0:
470,44,36795,6,0,L|466:10,2,30,10|2|8,0:1|0:0|0:1,0:0:0:0:
440,96,37304,1,6,0:0:0:0:
460,152,37558,1,6,0:0:0:0:
414,263,38067,6,0,P|347:253|259:372,1,215.999993408203,4|8,0:1|0:1,0:0:0:0:
191,382,39084,1,4,0:0:0:0:
136,335,39338,1,4,0:0:0:0:
153,265,39592,2,0,P|145:217|89:170,2,107.999996704102,4|8|8,0:2|0:1|0:1,0:0:0:0:
224,272,40609,1,4,0:2:0:0:
317,162,41118,6,0,L|471:176,1,143.999995605469,4|0,0:1|0:0,0:0:0:0:
498,113,41880,2,0,P|482:78|473:42,1,71.9999978027344,8|0,0:1|0:0,0:0:0:0:
405,22,42389,1,8,0:0:0:0:
336,42,42643,2,0,P|277:36|220:23,2,107.999996704102,4|8|8,0:0|0:1|0:1,0:0:0:0:
405,22,43660,1,4,0:0:0:0:
409,93,43914,1,4,0:0:0:0:
413,164,44168,6,0,L|422:289,1,107.999996704102,4|8,0:1|0:1,0:0:0:0:
344,348,44931,2,0,L|231:293,1,107.999996704102,8|8,0:1|0:1,0:0:0:0:
219,196,45694,2,0,L|322:125,2,107.999996704102,8|8|8,0:1|0:1|0:1,0:0:0:0:
146,192,46711,1,2,0:2:0:0:
74,189,46965,1,8,0:0:0:0:
2,180,47219,6,0,P|13:126|4:49,2,107.999996704102,4|8|8,0:1|0:1|0:1,0:0:0:0:
43,317,48490,1,8,0:0:0:0:
43,317,48745,2,0,L|169:310,1,107.999996704102,4|8,0:0|0:1,0:0:0:0:
245,259,49507,2,0,L|371:266,1,107.999996704102,10|2,0:1|0:1,0:0:0:0:
431,339,50270,6,0,P|485:291|484:208,1,143.999995605469,6|0,0:1|0:0,0:0:0:0:
435,176,51033,2,0,P|440:136|442:100,2,71.9999978027344,8|4|4,0:1|0:0|0:0,0:0:0:0:
364,190,51795,2,0,L|231:174,1,107.999996704102,4|8,0:0|0:1,0:0:0:0:
172,109,52558,2,0,L|99:114,2,71.9999978027344,10|8|10,0:1|0:1|0:1,0:0:0:0:
207,46,53321,6,0,P|263:50|317:127,1,143.999995605469,6|0,0:1|0:0,0:0:0:0:
317,186,54084,2,0,L|395:180,2,71.9999978027344,8|8|2,0:1|0:0|0:0,0:0:0:0:
259,229,54846,2,0,P|187:236|150:276,1,107.999996704102,4|8,0:0|0:1,0:0:0:0:
153,365,55609,2,0,P|198:366|241:344,2,71.9999978027344,8|8|2,0:1|0:0|0:0,0:0:0:0:
81,374,56372,6,0,B|59:325|59:325|80:273,1,107.999996704102,4|8,0:1|0:0,0:0:0:0:
181,241,57134,2,0,B|203:192|203:192|182:140,1,107.999996704102,8|2,0:1|0:2,0:0:0:0:
118,54,57897,2,0,L|249:48,1,107.999996704102,4|8,0:0|0:1,0:0:0:0:
328,15,58660,1,4,0:0:0:0:
398,28,58914,1,8,0:0:0:0:
468,42,59168,1,8,0:1:0:0:
494,109,59423,6,0,P|470:167|460:234,2,107.999996704102,4|8|8,0:1|0:0|0:1,0:0:0:0:
430,75,60440,2,0,L|343:63,1,71.9999978027344,8|2,0:0|0:0,0:0:0:0:
294,98,60948,2,0,P|249:114|212:175,2,107.999996704102,4|8|8,0:1|0:0|0:1,0:0:0:0:
318,30,61965,2,0,L|389:39,1,71.9999978027344,8|4,0:0|0:2,0:0:0:0:
458,17,62473,5,4,0:1:0:0:
327,321,74677,6,0,P|321:242|326:133,1,180,4|8,0:1|0:1,0:0:0:0:
208,110,75948,1,0,0:0:0:0:
208,110,76202,2,0,L|78:115,1,120,4|0,0:0|0:0,0:0:0:0:
28,104,76965,2,0,L|24:179,1,60,8|2,0:1|0:0,0:0:0:0:
24,284,77728,6,0,P|92:285|215:293,1,180,4|8,0:0|0:1,0:0:0:0:
306,230,78999,1,0,0:0:0:0:
306,230,79253,2,0,P|315:185|308:100,1,120,4|0,0:0|0:0,0:0:0:0:
289,55,80016,2,0,P|344:52|370:55,1,60,8|0,0:1|0:0,0:0:0:0:
453,111,80779,6,0,P|438:176|447:300,1,180,4|8,0:0|0:1,0:0:0:0:
338,346,82050,1,4,0:2:0:0:
338,346,82304,2,0,P|294:339|226:287,1,120,4|2,0:0|0:0,0:0:0:0:
180,266,83067,2,0,P|191:219|190:192,1,60,8|2,0:1|0:0,0:0:0:0:
103,125,83829,6,0,P|56:138|33:153,2,60,4|0|8,0:0|0:0|0:0,0:0:0:0:
163,125,84592,2,0,P|202:123|260:55,1,120,8|4,0:1|0:2,0:0:0:0:
301,28,85355,6,0,B|370:13|370:13|451:56,1,143.999995605469,4|4,0:2|0:0,0:0:0:0:
507,45,86118,2,0,L|490:131,1,71.9999978027344,6|4,0:1|0:2,0:0:0:0:
494,187,86626,1,2,0:2:0:0:
444,239,86880,6,0,P|387:232|341:228,2,90,4|8|8,0:1|0:1|0:1,0:0:0:0:
390,346,88151,1,6,0:0:0:0:
390,346,88406,2,0,P|337:343|266:232,1,180,4|8,0:0|0:1,0:0:0:0:
209,225,89423,1,0,0:0:0:0:
194,105,89931,6,0,P|138:104|87:131,2,90,4|2|8,0:0|0:0|0:1,0:0:0:0:
245,135,90948,2,0,L|313:124,1,60,2|2,0:0|0:0,0:0:0:0:
341,78,91456,2,0,P|399:84|457:207,1,180,4|8,0:0|0:1,0:0:0:0:
391,277,92728,1,4,0:0:0:0:
405,335,92982,6,0,L|464:341,2,60,4|0|2,0:1|0:0|0:2,0:0:0:0:
346,347,93745,2,0,L|286:353,2,60,8|2|6,0:1|0:0|0:0,0:0:0:0:
374,294,94507,2,0,P|358:243|363:104,1,180,4|8,0:0|0:1,0:0:0:0:
184,73,96033,6,0,P|117:73|98:75,1,60,4|0,0:0|0:0,0:0:0:0:
64,65,96541,1,2,0:2:0:0:
27,112,96795,2,0,P|32:148|34:187,2,60,8|0|4,0:1|0:0|0:2,0:0:0:0:
64,65,97558,6,0,B|124:65|124:65|173:102|173:102|248:102,1,180,4|4,0:0|0:0,0:0:0:0:
291,103,98575,1,4,0:0:0:0:
411,100,99084,6,0,P|406:174|403:319,1,215.999993408203,4|0,0:1|0:0,0:0:0:0:
342,355,100101,1,4,0:0:0:0:
270,357,100355,1,4,0:0:0:0:
201,336,100609,2,0,P|196:277|219:210,2,107.999996704102,4|8|8,0:2|0:1|0:1,0:0:0:0:
133,361,101626,1,4,0:2:0:0:
24,266,102134,6,0,P|28:210|46:103,1,143.999995605469,4|0,0:1|0:0,0:0:0:0:
34,51,102897,1,8,0:1:0:0:
100,22,103151,2,0,L|183:36,1,71.9999978027344,0|0,0:0|0:0,0:0:0:0:
224,82,103660,2,0,L|356:70,2,107.999996704102,4|8|8,0:0|0:1|0:1,0:0:0:0:
168,127,104677,1,4,0:0:0:0:
190,195,104931,1,4,0:0:0:0:
260,211,105185,6,0,P|306:201|362:162,1,107.999996704102,4|8,0:1|0:1,0:0:0:0:
461,142,105948,2,0,P|446:186|452:254,1,107.999996704102,8|8,0:1|0:1,0:0:0:0:
420,351,106711,2,0,P|388:316|326:287,1,107.999996704102,8|8,0:1|0:1,0:0:0:0:
227,300,107473,1,8,0:1:0:0:
155,308,107728,1,2,0:2:0:0:
83,316,107982,1,8,0:0:0:0:
23,275,108236,6,0,P|21:218|41:151,1,107.999996704102,4|8,0:1|0:1,0:0:0:0:
43,61,108999,1,8,0:1:0:0:
43,61,109253,2,0,L|131:66,1,71.9999978027344,0|8,0:0|0:0,0:0:0:0:
165,116,109762,2,0,L|287:106,1,107.999996704102,4|8,0:0|0:1,0:0:0:0:
357,40,110524,2,0,L|446:48,1,71.9999978027344,10|0,0:1|0:0,0:0:0:0:
472,103,111033,1,2,0:1:0:0:
431,162,111287,6,0,P|432:243|314:297,1,215.999993408203,6|8,0:1|0:1,0:0:0:0:
261,261,112304,1,4,0:0:0:0:
259,189,112558,1,4,0:0:0:0:
247,117,112812,2,0,P|261:77|313:25,2,107.999996704102,4|8|10,0:0|0:1|0:1,0:0:0:0:
180,144,113829,1,10,0:1:0:0:
112,118,114084,1,10,0:1:0:0:
43,141,114338,6,0,P|50:205|67:291,1,143.999995605469,6|0,0:1|0:0,0:0:0:0:
67,355,115101,2,0,P|18:337|-29:342,2,71.9999978027344,8|8|2,0:1|0:0|0:0,0:0:0:0:
127,315,115863,1,4,0:0:0:0:
206,195,116372,1,0,0:0:0:0:
206,195,116626,2,0,L|296:198,2,71.9999978027344,8|8|2,0:1|0:0|0:0,0:0:0:0:
135,212,117389,6,0,B|114:161|114:161|129:111,1,107.999996704102,4|8,0:1|0:0,0:0:0:0:
212,41,118151,2,0,B|266:48|266:48|302:86,1,107.999996704102,8|2,0:1|0:2,0:0:0:0:
321,193,118914,2,0,B|287:236|287:236|236:248,1,107.999996704102,4|8,0:0|0:1,0:0:0:0:
144,307,119677,1,4,0:0:0:0:
73,294,119931,1,8,0:0:0:0:
51,225,120185,1,8,0:1:0:0:
90,164,120440,6,0,P|39:138|24:38,1,143.999995605469,4|0,0:1|0:0,0:0:0:0:
78,21,121202,2,0,L|172:37,1,71.9999978027344,8|8,0:1|0:0,0:0:0:0:
183,96,121711,1,2,0:0:0:0:
183,96,121965,2,0,P|244:59|261:18,2,107.999996704102,4|8|10,0:1|0:0|0:1,0:0:0:0:
151,160,122982,2,0,L|167:248,1,71.9999978027344,8|4,0:0|0:2,0:0:0:0:
145,300,123490,1,4,0:1:0:0:
256,192,131118,12,0,134168,0:0:0:0:
189,276,135694,6,0,P|195:200|191:52,1,215.999993408203,6|4,0:1|1:2,0:0:0:0:
254,24,136711,1,2,0:1:0:0:
318,55,136965,1,0,0:0:0:0:
337,124,137219,2,0,P|402:133|461:88,2,143.999995605469,4|8|0,0:0|0:0|0:0,0:0:0:0:
322,267,138745,6,0,P|267:306|172:281,1,143.999995605469,4|8,0:1|0:0,0:0:0:0:
141,247,139507,2,0,P|76:252|46:263,2,71.9999978027344,10|2|2,0:1|0:1|0:1,0:0:0:0:
144,174,140270,2,0,P|107:120|82:99,2,71.9999978027344,4|2|8,0:0|0:1|0:0,0:0:0:0:
208,140,141033,2,0,P|236:81|241:49,2,71.9999978027344,10|8|4,0:1|0:0|0:0,0:0:0:0:
262,187,141795,6,0,P|339:191|407:141,1,143.999995605469,6|2,0:1|0:1,0:0:0:0:
431,95,142558,1,10,0:1:0:0:
504,219,143067,1,2,0:0:0:0:
504,219,143321,2,0,P|481:277|477:363,1,143.999995605469,4|8,0:0|0:0,0:0:0:0:
406,376,144084,2,0,L|323:363,1,71.9999978027344,10|8,0:1|0:0,0:0:0:0:
276,323,144592,1,4,0:0:0:0:
204,319,144846,6,0,P|153:331|119:353,2,71.9999978027344,6|2|8,0:1|0:1|0:0,0:0:0:0:
244,258,145609,2,0,P|248:198|248:88,1,143.999995605469,10|4,0:1|0:2,0:0:0:0:
268,44,146372,6,0,P|202:30|131:58,1,143.999995605469,4|4,0:1|0:0,0:0:0:0:
65,31,147134,2,0,P|19:81|8:156,1,143.999995605469,4|4,0:1|0:0,0:0:0:0:
50,213,147897,6,0,P|99:216|211:235,1,143.999995605469,4|8,0:0|0:0,0:0:0:0:
258,200,148660,1,8,0:1:0:0:
359,302,149168,1,8,0:0:0:0:
359,302,149423,2,0,P|366:256|364:129,1,143.999995605469,4|8,0:0|0:0,0:0:0:0:
310,115,150185,2,0,P|314:78|316:39,1,71.9999978027344,8|2,0:0|0:1,0:0:0:0:
174,15,150948,6,0,P|126:34|85:185,1,215.999993408203,4|8,0:0|0:1,0:0:0:0:
128,234,151965,1,2,0:1:0:0:
235,329,152473,2,0,L|331:323,1,71.9999978027344,4|2,0:0|0:1,0:0:0:0:
364,280,152982,2,0,L|460:274,2,71.9999978027344,8|10|4,0:0|0:1|0:2,0:0:0:0:
297,251,153745,1,4,0:0:0:0:
297,251,153999,6,0,P|306:175|296:29,1,215.999993408203,4|8,0:1|0:1,0:0:0:0:
227,17,155016,2,0,L|141:32,1,71.9999978027344,2|8,0:0|0:0,0:0:0:0:
102,77,155524,2,0,P|92:184|102:291,1,215.999993408203,4|8,0:0|0:1,0:0:0:0:
310,350,157050,6,0,P|373:339|404:339,2,71.9999978027344,4|0|8,0:1|0:0|0:0,0:0:0:0:
241,373,157812,2,0,P|227:316|240:210,1,143.999995605469,8|8,0:1|0:0,0:0:0:0:
205,164,158575,2,0,B|271:139|271:139|341:162|341:162|422:134,2,215.999993408203,6|10|6,0:1|0:1|0:1,0:0:0:0:
146,122,160355,6,0,P|72:128|55:141,1,71.9999978027344,4|4,0:0|0:0,0:0:0:0:
4,132,160863,2,0,L|24:217,2,71.9999978027344,8|4|4,0:1|0:0|1:2,0:0:0:0:
36,67,161626,6,0,P|90:53|204:70,1,143.999995605469,4|0,0:1|0:0,0:0:0:0:
232,106,162389,2,0,P|273:85|302:55,2,71.9999978027344,8|4|4,0:1|0:0|0:0,0:0:0:0:
169,140,163151,2,0,P|157:204|156:301,1,143.999995605469,4|0,0:2|0:0,0:0:0:0:
164,354,163914,2,0,P|228:360|261:352,1,71.9999978027344,8|4,0:1|0:2,0:0:0:0:
378,376,164677,6,0,P|386:327|387:212,1,143.999995605469,4|0,0:1|0:0,0:0:0:0:
372,162,165440,2,0,P|406:141|451:139,2,71.9999978027344,8|0|8,0:1|0:0|0:0,0:0:0:0:
309,198,166202,2,0,P|249:186|236:48,1,215.999993408203,4|8,0:0|0:1,0:0:0:0:
290,11,167219,2,0,L|368:33,1,71.9999978027344,4|4,0:0|0:0,0:0:0:0:
431,22,167728,6,0,L|475:126,1,107.999996704102,4|8,0:1|0:1,0:0:0:0:
365,119,168490,2,0,L|321:223,1,107.999996704102,8|8,0:1|0:1,0:0:0:0:
431,216,169253,2,0,L|475:320,1,107.999996704102,8|8,0:1|0:1,0:0:0:0:
365,309,170016,1,8,0:1:0:0:
293,313,170270,1,2,0:2:0:0:
221,317,170524,1,8,0:0:0:0:
160,356,170779,6,0,P|120:307|117:234,1,107.999996704102,4|8,0:1|0:1,0:0:0:0:
24,201,171541,1,8,0:1:0:0:
24,201,171795,2,0,L|34:122,1,71.9999978027344,0|8,0:0|0:0,0:0:0:0:
27,57,172304,2,0,P|83:49|145:62,1,107.999996704102,4|8,0:0|0:1,0:0:0:0:
212,131,173067,2,0,P|258:120|312:106,1,71.9999978027344,10|0,0:1|0:0,0:0:0:0:
324,55,173575,1,2,0:1:0:0:
395,57,173829,6,0,P|394:111|373:233,1,143.999995605469,6|0,0:1|0:0,0:0:0:0:
387,271,174592,2,0,P|445:275|467:271,2,71.9999978027344,8|4|4,0:1|0:0|0:0,0:0:0:0:
328,313,175355,2,0,P|280:313|233:216,1,143.999995605469,4|0,0:0|0:0,0:0:0:0:
181,185,176118,1,10,0:1:0:0:
223,126,176372,2,0,L|233:33,1,71.9999978027344,10|10,0:1|0:1,0:0:0:0:
163,28,176880,6,0,P|109:35|54:124,1,143.999995605469,6|4,0:1|0:2,0:0:0:0:
95,162,177643,2,0,P|105:210|105:251,1,71.9999978027344,8|8,0:1|0:0,0:0:0:0:
91,303,178151,1,2,0:0:0:0:
149,345,178406,2,0,L|286:329,2,107.999996704102,4|8|8,0:0|0:1|0:1,0:0:0:0:
87,382,179423,1,8,0:0:0:0:
12,258,179931,6,0,B|31:207|31:207|7:127,1,107.999996704102,4|8,0:1|0:0,0:0:0:0:
75,65,180694,2,0,B|109:106|109:106|190:126,1,107.999996704102,8|2,0:1|0:2,0:0:0:0:
212,214,181456,2,0,L|339:204,1,107.999996704102,4|8,0:0|0:1,0:0:0:0:
308,97,182219,1,4,0:0:0:0:
378,110,182473,1,8,0:0:0:0:
448,125,182728,1,8,0:1:0:0:
475,191,182982,6,0,L|443:303,1,107.999996704102,4|8,0:1|0:0,0:0:0:0:
349,345,183745,2,0,L|276:322,1,71.9999978027344,8|8,0:1|0:0,0:0:0:0:
214,295,184253,1,2,0:0:0:0:
143,311,184507,6,0,B|134:257|134:257|146:226|146:226|138:154,1,143.999995605469,4|0,0:1|0:0,0:0:0:0:
128,98,185270,1,8,0:1:0:0:
199,104,185524,1,8,0:0:0:0:
270,110,185779,1,4,0:2:0:0:
331,73,186033,5,4,0:1:0:0:
