osu file format v14

[General]
AudioFilename: audio.mp3
AudioLeadIn: 0
PreviewTime: 38067
Countdown: 0
SampleSet: None
StackLeniency: 0.7
Mode: 0
LetterboxInBreaks: 0
WidescreenStoryboard: 0

[Editor]
DistanceSpacing: 1
BeatDivisor: 4
GridSize: 4
TimelineZoom: 1.9

[Metadata]
Title:Sayonara Waltz
TitleUnicode:さよならワルツ
Artist:la la larks
ArtistUnicode:la la larks
Creator:Mirash
Version:Light Insane
Source:
Tags:Delis captin1 Niva Nivalis Culture Vulture
BeatmapID:1777047
BeatmapSetID:813903

[Difficulty]
HPDrainRate:6.5
CircleSize:4
OverallDifficulty:7
ApproachRate:8
SliderMultiplier:1.4
SliderTickRate:1

[Events]
//Background and Video events
0,0,"pachipachi.jpg",0,0
//Break Periods
2,62673,73927
2,123690,131893
//Storyboard Layer 0 (Background)
//Storyboard Layer 1 (Fail)
//Storyboard Layer 2 (Pass)
//Storyboard Layer 3 (Foreground)
//Storyboard Sound Samples

[TimingPoints]
1457,254.237288135593,6,3,1,60,1,0
13660,-133.333333333333,6,2,1,40,0,0
25863,-100,6,3,1,50,0,0
36541,-100,6,3,1,60,0,0
37304,-100,6,3,1,90,0,0
37368,-100,6,3,1,30,0,0
37558,-100,6,3,1,90,0,0
37622,-100,6,3,1,30,0,0
37812,-100,6,3,1,40,0,0
38067,-83.3333333333333,6,3,1,70,0,0
74677,-133.333333333333,6,3,1,50,0,0
85355,-100,6,3,1,70,0,0
86880,-100,6,3,1,60,0,0
97558,-100,6,3,1,70,0,0
98321,-100,6,3,1,80,0,0
99084,-83.3333333333333,6,3,1,70,0,0
134931,-100,6,3,1,70,0,0
158575,-100,6,3,1,80,0,0
160101,-83.3333333333333,6,3,1,80,0,0
161626,-83.3333333333333,6,3,1,70,0,0

[Colours]
Combo1 : 255,210,77
Combo2 : 217,122,45
Combo3 : 65,183,207
Combo4 : 187,79,154

[HitObjects]
7,191,694,5,2,0:0:0:0:
87,168,948,1,8,0:0:0:0:
169,183,1202,1,4,0:0:0:0:
265,303,1457,6,0,P|271:234|273:144,1,140,6|0,0:1|0:0,0:0:0:0:
348,176,1838,2,0,P|341:245|339:315,1,140,0|2,0:1|0:1,0:0:0:0:
403,359,2219,1,10,0:1:0:0:
490,232,2473,1,2,0:1:0:0:
490,154,2601,1,0,0:0:0:0:
462,82,2728,1,8,0:0:0:0:
388,60,2855,1,2,0:0:0:0:
317,89,2982,6,0,P|266:92|160:56,1,140,4|2,0:0|0:0,0:0:0:0:
116,27,3363,2,0,P|60:54|36:137,1,140,8|0,0:1|0:0,0:0:0:0:
83,183,3745,1,8,0:1:0:0:
179,302,3999,1,2,0:0:0:0:
294,200,4253,1,4,0:0:0:0:
294,200,4507,6,0,P|297:146|285:42,1,140,6|0,0:1|0:0,0:0:0:0:
214,83,4889,2,0,P|206:152|208:222,1,140,0|2,0:0|0:1,0:0:0:0:
132,233,5270,1,10,0:1:0:0:
224,355,5524,1,0,0:1:0:0:
300,353,5651,1,0,0:0:0:0:
375,335,5779,1,8,0:0:0:0:
435,287,5906,1,2,0:0:0:0:
454,212,6033,6,0,P|444:154|443:61,1,140,4|0,0:0|0:0,0:0:0:0:
366,88,6414,1,8,0:1:0:0:
304,42,6541,2,0,L|158:62,1,140,0|8,0:0|0:1,0:0:0:0:
165,61,7050,1,0,0:0:0:0:
165,61,7304,1,4,0:0:0:0:
25,126,7558,6,0,P|31:173|39:288,1,140,6|0,0:1|0:0,0:0:0:0:
63,338,7940,2,0,P|115:329|221:325,1,140,0|2,0:0|0:1,0:0:0:0:
255,269,8321,1,10,0:1:0:0:
404,306,8575,1,4,0:0:0:0:
480,294,8702,2,0,P|474:257|476:221,2,70,0|8|2,0:0|0:0|0:0,0:0:0:0:
400,224,9084,6,0,P|400:166|390:65,1,140,4|0,0:0|0:0,0:0:0:0:
372,10,9465,2,0,P|302:11|232:9,1,140,0|0,0:0|0:0,0:0:0:0:
197,78,9846,1,8,0:1:0:0:
219,230,10101,1,0,0:0:0:0:
371,210,10355,1,4,0:0:0:0:
219,230,10609,6,0,P|163:227|107:153,1,140,6|0,0:1|0:0,0:0:0:0:
145,99,10990,1,0,0:0:0:0:
218,124,11118,2,0,P|257:121|301:113,1,70,0|2,0:0|0:1,0:0:0:0:
363,104,11372,2,0,P|367:152|367:276,1,140,10|0,0:1|0:0,0:0:0:0:
325,307,11753,1,2,0:0:0:0:
252,331,11880,1,8,0:0:0:0:
176,316,12007,1,0,0:0:0:0:
106,282,12134,6,0,P|103:227|226:148,2,210,4|10|10,0:0|0:1|0:1,0:0:0:0:
106,282,13151,1,8,0:0:0:0:
106,282,13406,1,0,0:1:0:0:
6,194,13660,5,4,0:1:0:0:
6,194,14168,1,8,0:3:0:0:
119,172,14423,2,0,L|230:185,2,105.000004005432,4|0|0,0:3|0:0|0:0,0:0:0:0:
207,98,15185,5,4,0:3:0:0:
207,98,15567,2,0,L|267:106,3,52.5000020027161,0|4|2|4,0:0|0:3|0:3|0:3,0:0:0:0:
274,102,16584,5,2,0:3:0:0:
274,102,16711,2,0,P|269:143|268:217,1,105.000004005432,4|0,0:2|0:0,0:0:0:0:
195,216,17092,1,2,0:3:0:0:
195,216,17219,1,0,0:0:0:0:
121,334,17473,2,0,P|123:281|120:229,2,105.000004005432,4|2|0,0:3|0:3|0:0,0:0:0:0:
254,371,18236,6,0,P|299:368|343:266,1,157.500006008148,4|0,0:3|0:0,0:0:0:0:
395,221,18745,2,0,L|449:228,1,52.5000020027161,4|2,0:3|0:0,0:0:0:0:
497,174,18999,2,0,P|493:125|365:48,1,210.000008010865,4|0,0:3|0:0,0:0:0:0:
258,146,19762,6,0,P|260:203|255:263,2,105.000004005432,4|0|8,0:3|0:0|0:3,0:0:0:0:
154,131,20524,2,0,P|154:83|164:17,1,105.000004005432,4|0,0:3|0:0,0:0:0:0:
61,58,21033,1,2,0:3:0:0:
13,151,21287,6,0,P|10:191|13:319,1,157.500006008148,4|0,0:3|0:0,0:0:0:0:
71,350,21795,2,0,L|141:345,2,52.5000020027161,4|2|4,0:3|0:3|0:3,0:0:0:0:
253,261,22685,5,0,0:0:0:0:
253,261,22812,2,0,P|248:318|246:369,2,105.000004005432,4|0|8,0:3|0:0|0:3,0:0:0:0:
326,185,23575,2,0,P|323:122|317:75,1,105.000004005432,4|0,0:3|0:0,0:0:0:0:
405,22,24084,1,0,0:0:0:0:
443,119,24338,2,0,P|439:197|446:287,1,157.500006008148,4|2,0:3|0:3,0:0:0:0:
398,333,24846,1,0,0:0:0:0:
256,288,25101,5,8,0:1:0:0:
256,288,25355,1,4,0:2:0:0:
256,288,25609,1,2,0:2:0:0:
130,350,25863,6,0,P|87:338|48:252,1,140,4|0,0:1|0:0,0:0:0:0:
115,219,26245,2,0,P|116:157|124:73,1,140,2|2,0:2|0:2,0:0:0:0:
192,46,26626,2,0,P|261:42|337:57,2,140,8|2|0,0:1|0:2|0:0,0:0:0:0:
253,187,27389,6,0,P|311:187|403:57,1,210,4|0,0:0|0:0,0:0:0:0:
472,46,27897,1,0,0:0:0:0:
500,197,28151,1,8,0:1:0:0:
412,324,28406,1,2,0:0:0:0:
383,172,28660,1,4,0:2:0:0:
235,216,28914,6,0,P|238:285|233:355,1,140,4|0,0:0|0:0,0:0:0:0:
156,361,29295,2,0,P|109:343|95:250,1,140,2|2,0:2|0:2,0:0:0:0:
143,207,29677,2,0,P|142:143|146:60,2,140,8|2|0,0:1|0:2|0:0,0:0:0:0:
287,152,30440,6,0,P|343:143|379:7,1,210,4|2,0:0|0:2,0:0:0:0:
305,7,30948,2,0,L|229:15,1,70,0|2,0:0|0:2,0:0:0:0:
158,10,31202,2,0,P|165:76|169:174,1,140,8|0,0:1|0:0,0:0:0:0:
256,276,31711,1,2,0:0:0:0:
335,143,31965,6,0,P|406:137|498:138,2,140,4|2|2,0:0|0:2|0:2,0:0:0:0:
201,220,32728,2,0,P|130:226|38:225,2,140,8|2|4,0:1|0:0|0:2,0:0:0:0:
354,211,33490,6,0,P|391:216|460:365,1,210,4|2,0:0|0:2,0:0:0:0:
387,362,33999,2,0,P|331:353|296:351,1,70,2|0,0:0|0:0,0:0:0:0:
242,369,34253,2,0,P|199:364|166:219,1,210,8|0,0:1|0:0,0:0:0:0:
234,203,34762,1,4,0:2:0:0:
253,50,35016,6,0,P|288:101|311:198,2,140,4|0|8,0:0|0:0|0:0,0:0:0:0:
202,107,35651,1,2,0:2:0:0:
178,33,35779,2,0,P|135:26|20:42,2,140,8|2|4,0:1|0:2|0:2,0:0:0:0:
253,50,36414,1,2,0:1:0:0:
328,34,36541,6,0,P|408:50|439:122,1,140,4|10,0:0|0:1,0:0:0:0:
508,125,36923,1,2,0:0:0:0:
482,197,37050,2,0,P|472:258|470:282,1,70,8|4,0:1|0:0,0:0:0:0:
400,296,37304,5,6,0:0:0:0:
257,237,37558,1,6,0:0:0:0:
256,83,37812,5,0,0:0:0:0:
256,83,37940,1,0,0:0:0:0:
256,83,38067,2,0,P|198:85|148:189,1,167.999994873047,4|2,0:1|0:2,0:0:0:0:
76,233,38448,1,8,0:1:0:0:
133,304,38575,2,0,L|221:297,1,83.9999974365235,0|2,0:0|0:2,0:0:0:0:
293,245,38829,2,0,L|471:266,2,167.999994873047,8|4|4,0:1|0:0|0:0,0:0:0:0:
238,169,39465,1,0,0:0:0:0:
302,103,39592,6,0,P|291:51|178:12,1,167.999994873047,4|4,0:2|0:2,0:0:0:0:
101,8,39973,2,0,P|104:56|97:195,1,167.999994873047,8|4,0:1|0:2,0:0:0:0:
74,265,40355,2,0,P|173:296|186:356,1,167.999994873047,8|4,0:1|0:2,0:0:0:0:
274,377,40736,1,0,0:0:0:0:
339,311,40863,1,0,0:0:0:0:
419,356,40990,1,4,0:2:0:0:
485,291,41118,6,0,P|479:244|466:108,1,167.999994873047,4|2,0:1|0:2,0:0:0:0:
377,147,41499,1,0,0:0:0:0:
284,153,41626,2,0,P|291:89|296:55,1,83.9999974365235,0|2,0:0|0:2,0:0:0:0:
219,15,41880,2,0,P|157:23|113:132,1,167.999994873047,8|0,0:1|0:0,0:0:0:0:
162,184,42262,2,0,P|164:237|159:361,1,167.999994873047,2|2,0:2|0:0,0:0:0:0:
69,333,42643,6,0,P|58:284|59:242,1,83.9999974365235,4|0,0:0|0:0,0:0:0:0:
17,167,42897,1,0,0:0:0:0:
72,93,43024,2,0,P|103:18|182:0,1,167.999994873047,8|0,0:1|0:0,0:0:0:0:
242,70,43406,1,8,0:1:0:0:
416,129,43660,1,4,0:0:0:0:
466,206,43787,1,0,0:0:0:0:
401,271,43914,1,4,0:0:0:0:
320,226,44041,1,0,0:0:0:0:
324,133,44168,6,0,P|262:133|152:152,1,167.999994873047,4|2,0:1|0:0,0:0:0:0:
199,233,44550,2,0,P|146:257|56:335,1,167.999994873047,8|2,0:1|0:0,0:0:0:0:
9,251,44931,2,0,P|6:190|90:135,1,167.999994873047,8|4,0:1|0:2,0:0:0:0:
138,58,45312,2,0,L|231:68,1,83.9999974365235,8|0,0:1|0:0,0:0:0:0:
305,26,45567,1,4,0:2:0:0:
390,61,45694,6,0,P|383:121|382:249,1,167.999994873047,8|2,0:1|0:0,0:0:0:0:
301,276,46075,2,0,P|300:192|291:108,1,167.999994873047,8|2,0:1|0:0,0:0:0:0:
211,62,46456,1,8,0:1:0:0:
33,115,46711,1,2,0:2:0:0:
5,203,46838,1,0,0:0:0:0:
42,287,46965,1,8,0:0:0:0:
130,311,47092,1,8,0:1:0:0:
215,277,47219,6,0,P|267:267|399:283,1,167.999994873047,4|8,0:1|0:0,0:0:0:0:
471,255,47601,2,0,P|437:190|417:72,1,167.999994873047,8|0,0:1|0:0,0:0:0:0:
347,37,47982,2,0,P|300:81|198:156,1,167.999994873047,8|0,0:1|0:0,0:0:0:0:
150,207,48363,1,8,0:1:0:0:
85,140,48490,1,8,0:0:0:0:
124,55,48618,1,2,0:0:0:0:
36,25,48745,6,0,P|8:58|2:195,1,167.999994873047,4|0,0:0|0:0,0:0:0:0:
77,219,49126,2,0,P|78:271|65:387,1,167.999994873047,8|0,0:1|0:0,0:0:0:0:
153,357,49507,1,10,0:1:0:0:
337,371,49762,1,0,0:0:0:0:
424,341,49889,1,2,0:1:0:0:
443,250,50016,1,2,0:1:0:0:
364,201,50143,1,0,0:0:0:0:
284,248,50270,6,0,P|279:192|295:62,1,167.999994873047,6|2,0:1|0:2,0:0:0:0:
381,93,50651,2,0,L|473:118,1,83.9999974365235,8|0,0:1|0:0,0:0:0:0:
478,206,50906,1,2,0:2:0:0:
478,206,51033,2,0,P|474:267|360:302,1,167.999994873047,8|4,0:1|0:0,0:0:0:0:
298,284,51414,1,0,0:0:0:0:
215,325,51541,2,0,P|166:319|131:300,1,83.9999974365235,4|4,0:0|0:2,0:0:0:0:
45,323,51795,6,0,P|18:261|55:153,1,167.999994873047,4|4,0:0|0:2,0:0:0:0:
17,77,52177,2,0,P|79:52|185:82,1,167.999994873047,8|4,0:1|0:2,0:0:0:0:
249,20,52558,2,0,P|297:46|347:154,1,167.999994873047,10|8,0:1|0:1,0:0:0:0:
435,170,52940,1,4,0:2:0:0:
391,251,53067,1,10,0:1:0:0:
299,237,53194,1,10,0:1:0:0:
249,159,53321,6,0,P|178:189|151:303,1,167.999994873047,6|2,0:1|0:2,0:0:0:0:
179,354,53702,2,0,L|278:337,1,83.9999974365235,0|0,0:0|0:0,0:0:0:0:
351,359,53956,1,2,0:2:0:0:
351,359,54084,2,0,P|383:321|404:198,2,167.999994873047,8|8|2,0:1|0:0|0:0,0:0:0:0:
261,339,54719,1,0,0:0:0:0:
277,248,54846,6,0,P|276:172|273:133,1,83.9999974365235,4|0,0:0|0:0,0:0:0:0:
186,189,55101,1,0,0:0:0:0:
215,101,55228,2,0,P|216:25|219:-14,1,83.9999974365235,8|0,0:1|0:0,0:0:0:0:
124,9,55482,1,0,0:0:0:0:
33,25,55609,2,0,P|34:97|44:222,1,167.999994873047,8|8,0:1|0:0,0:0:0:0:
120,239,55990,1,0,0:0:0:0:
141,329,56118,1,2,0:0:0:0:
223,286,56245,1,0,0:0:0:0:
262,369,56372,6,0,B|318:352|318:352|439:377,1,167.999994873047,4|0,0:1|0:0,0:0:0:0:
500,321,56753,2,0,L|476:148,1,167.999994873047,8|0,0:0|0:0,0:0:0:0:
394,113,57134,2,0,L|324:283,1,167.999994873047,8|2,0:1|0:0,0:0:0:0:
408,281,57516,2,0,L|397:190,1,83.9999974365235,2|0,0:2|0:0,0:0:0:0:
314,157,57770,1,2,0:0:0:0:
234,203,57897,6,0,L|211:375,1,167.999994873047,4|2,0:0|0:0,0:0:0:0:
119,378,58279,2,0,P|46:358|28:251,1,167.999994873047,8|2,0:1|0:2,0:0:0:0:
105,246,58660,2,0,P|108:159|96:74,2,167.999994873047,4|8|8,0:0|0:0|0:1,0:0:0:0:
197,251,59295,1,8,0:1:0:0:
212,159,59423,6,0,P|220:102|325:54,1,167.999994873047,4|2,0:1|0:2,0:0:0:0:
340,138,59804,2,0,P|390:126|517:151,1,167.999994873047,8|0,0:0|0:0,0:0:0:0:
477,232,60185,2,0,P|397:245|298:212,1,167.999994873047,8|8,0:1|0:0,0:0:0:0:
222,209,60567,1,0,0:0:0:0:
153,270,60694,2,0,P|161:340|161:377,1,83.9999974365235,2|2,0:0|0:2,0:0:0:0:
75,318,60948,6,0,P|20:274|27:154,1,167.999994873047,4|2,0:1|0:2,0:0:0:0:
103,183,61329,2,0,P|97:107|70:15,1,167.999994873047,8|2,0:0|0:2,0:0:0:0:
163,36,61711,1,8,0:1:0:0:
227,101,61838,2,0,B|271:88|271:88|334:103,2,83.9999974365235,2|8|2,0:1|0:0|0:1,0:0:0:0:
183,182,62219,6,0,B|220:259|220:259|194:364,1,167.999994873047,4|4,0:2|0:1,0:0:0:0:
501,192,74677,5,4,0:1:0:0:
418,257,74931,1,0,0:0:0:0:
418,257,75058,2,0,P|340:256|251:268,1,157.500006008148,2|8,0:2|0:1,0:0:0:0:
180,333,75694,1,2,0:2:0:0:
100,264,75948,1,0,0:0:0:0:
181,197,76202,6,0,P|189:133|261:82,1,157.500006008148,4|0,0:0|0:0,0:0:0:0:
320,125,76711,2,0,P|367:120|387:116,1,52.5000020027161,0|0,0:0|0:0,0:0:0:0:
430,74,76965,2,0,P|456:115|455:185,1,105.000004005432,8|2,0:1|0:0,0:0:0:0:
483,272,77473,1,4,0:2:0:0:
395,331,77728,6,0,P|358:325|270:325,1,105.000004005432,4|0,0:0|0:0,0:0:0:0:
222,351,78109,2,0,P|169:350|117:343,1,105.000004005432,2|2,0:2|0:2,0:0:0:0:
74,283,78490,2,0,P|83:241|90:166,2,105.000004005432,8|2|0,0:1|0:2|0:0,0:0:0:0:
177,263,79253,6,0,P|227:251|260:149,1,157.500006008148,4|0,0:0|0:0,0:0:0:0:
205,113,79762,2,0,P|209:66|208:45,1,52.5000020027161,0|0,0:0|0:0,0:0:0:0:
273,25,80016,2,0,P|308:27|390:36,1,105.000004005432,8|0,0:1|0:0,0:0:0:0:
446,113,80524,1,2,0:0:0:0:
379,194,80779,6,0,P|363:261|361:312,2,105.000004005432,4|2|2,0:0|0:2|0:2,0:0:0:0:
283,151,81541,2,0,P|278:98|264:48,2,105.000004005432,8|2|4,0:1|0:0|0:2,0:0:0:0:
241,247,82304,6,0,P|191:254|131:159,1,157.500006008148,4|0,0:0|0:0,0:0:0:0:
181,126,82812,2,0,P|184:70|180:17,2,105.000004005432,2|8|2,0:0|0:1|0:0,0:0:0:0:
80,95,83575,1,4,0:2:0:0:
21,182,83829,6,0,P|30:234|33:307,1,105.000004005432,4|0,0:0|0:0,0:0:0:0:
128,241,84338,1,8,0:0:0:0:
232,236,84592,2,0,P|223:288|220:361,1,105.000004005432,8|2,0:1|0:2,0:0:0:0:
319,306,85101,1,4,0:2:0:0:
450,353,85355,6,0,B|426:282|426:282|451:191,1,140,4|14,0:2|0:1,0:0:0:0:
500,139,85736,1,0,0:0:0:0:
416,88,85863,2,0,B|380:80|380:80|333:100,1,70,4|4,0:0|0:0,0:0:0:0:
282,165,86118,2,0,L|121:159,2,140,6|4|2,0:1|0:2|0:2,0:0:0:0:
177,53,86880,6,0,P|129:53|73:118,1,140,4|0,0:1|0:0,0:0:0:0:
17,172,87262,2,0,P|25:221|20:319,1,140,8|0,0:1|0:0,0:0:0:0:
85,353,87643,1,8,0:1:0:0:
219,278,87897,1,2,0:0:0:0:
348,360,88151,1,6,0:0:0:0:
467,208,88406,6,0,P|455:271|447:369,2,140,4|0|2,0:0|0:0|0:2,0:0:0:0:
501,139,89041,1,0,0:0:0:0:
437,95,89168,2,0,P|394:101|291:99,2,140,8|0|4,0:1|0:0|0:0,0:0:0:0:
330,206,89931,6,0,P|262:223|240:302,1,140,4|0,0:0|0:0,0:0:0:0:
286,341,90312,2,0,P|351:323|433:323,1,140,2|0,0:0|0:0,0:0:0:0:
462,255,90694,2,0,P|456:203|455:100,2,140,8|2|2,0:1|0:0|0:0,0:0:0:0:
333,169,91456,6,0,P|283:161|184:159,1,140,4|0,0:0|0:0,0:0:0:0:
143,99,91838,1,2,0:0:0:0:
68,117,91965,2,0,P|75:182|73:207,1,70,2|0,0:2|0:0,0:0:0:0:
129,240,92219,2,0,P|134:290|129:388,2,140,8|0|4,0:1|0:0|0:0,0:0:0:0:
157,88,92982,6,0,P|178:39|279:24,1,140,4|0,0:1|0:0,0:0:0:0:
290,83,93363,1,2,0:0:0:0:
363,58,93490,2,0,P|408:54|436:54,1,70,2|0,0:2|0:0,0:0:0:0:
490,106,93745,2,0,P|479:163|476:261,1,140,8|2,0:1|0:0,0:0:0:0:
399,261,94126,1,0,0:0:0:0:
322,253,94253,2,0,P|273:240|246:222,1,70,6|0,0:0|0:0,0:0:0:0:
249,153,94507,6,0,P|201:159|125:293,1,210,4|2,0:0|0:0,0:0:0:0:
47,299,95016,2,0,P|28:258|33:150,2,140,2|8|2,0:2|0:1|0:0,0:0:0:0:
262,383,95906,1,0,0:0:0:0:
262,383,96033,2,0,L|255:310,1,70,4|0,0:0|0:0,0:0:0:0:
263,236,96287,2,0,L|270:163,1,70,0|2,0:0|0:0,0:0:0:0:
271,89,96541,2,0,L|264:16,1,70,2|0,0:2|0:0,0:0:0:0:
347,123,96795,6,0,L|488:111,2,140,8|0|4,0:1|0:0|0:2,0:0:0:0:
192,127,97558,1,4,0:0:0:0:
116,114,97685,1,8,0:1:0:0:
75,179,97812,1,4,0:0:0:0:
122,239,97940,1,8,0:1:0:0:
329,339,98321,5,4,0:0:0:0:
479,308,98575,1,4,0:0:0:0:
255,56,99084,6,0,P|211:60|146:171,1,167.999994873047,4|2,0:1|0:2,0:0:0:0:
104,228,99465,1,8,0:1:0:0:
167,283,99592,2,0,L|259:266,1,83.9999974365235,0|2,0:0|0:2,0:0:0:0:
315,215,99846,2,0,P|361:222|399:337,2,167.999994873047,8|4|4,0:1|0:0|0:0,0:0:0:0:
249,267,100482,1,0,0:0:0:0:
261,349,100609,6,0,P|219:357|141:272,1,167.999994873047,4|4,0:2|0:2,0:0:0:0:
57,277,100990,2,0,P|54:220|110:110,1,167.999994873047,8|4,0:1|0:2,0:0:0:0:
46,54,101372,2,0,P|113:29|228:40,1,167.999994873047,8|4,0:1|0:2,0:0:0:0:
231,114,101753,1,0,0:0:0:0:
314,124,101880,1,0,0:0:0:0:
388,84,102007,1,4,0:2:0:0:
410,3,102134,6,0,P|461:22|491:153,1,167.999994873047,4|2,0:1|0:2,0:0:0:0:
433,171,102516,1,0,0:0:0:0:
429,254,102643,2,0,P|433:318|521:377,2,167.999994873047,0|8|0,0:0|0:1|0:0,0:0:0:0:
351,219,103279,2,0,P|292:237|238:325,1,167.999994873047,2|2,0:2|0:0,0:0:0:0:
155,335,103660,6,0,P|109:323|102:193,1,167.999994873047,4|0,0:0|0:0,0:0:0:0:
160,192,104041,2,0,P|161:142|151:24,1,167.999994873047,8|0,0:1|0:0,0:0:0:0:
231,50,104423,1,8,0:1:0:0:
398,42,104677,1,4,0:0:0:0:
477,70,104804,1,0,0:0:0:0:
473,153,104931,1,4,0:0:0:0:
396,188,105058,1,0,0:0:0:0:
323,146,105185,6,0,P|296:197|299:318,1,167.999994873047,4|2,0:1|0:0,0:0:0:0:
230,360,105567,2,0,P|191:329|176:198,1,167.999994873047,8|2,0:1|0:0,0:0:0:0:
165,134,105948,2,0,P|114:157|38:255,1,167.999994873047,8|4,0:1|0:2,0:0:0:0:
2,167,106329,2,0,P|16:126|38:81,1,83.9999974365235,8|0,0:1|0:0,0:0:0:0:
116,73,106584,1,4,0:2:0:0:
182,22,106711,6,0,P|250:27|353:94,1,167.999994873047,8|2,0:1|0:0,0:0:0:0:
393,14,107092,2,0,P|458:63|492:176,1,167.999994873047,8|2,0:1|0:0,0:0:0:0:
465,220,107473,2,0,P|389:213|389:118,1,167.999994873047,8|2,0:1|0:2,0:0:0:0:
293,150,107855,1,0,0:0:0:0:
210,165,107982,2,0,P|228:236|232:275,1,83.9999974365235,8|8,0:0|0:1,0:0:0:0:
189,320,108236,6,0,P|251:321|448:349,1,251.999992309571,4|8,0:1|0:1,0:0:0:0:
499,288,108745,2,0,P|489:213|486:174,1,83.9999974365235,0|0,0:0|0:0,0:0:0:0:
407,182,108999,1,8,0:1:0:0:
256,108,109253,1,0,0:0:0:0:
172,118,109380,1,8,0:1:0:0:
118,182,109507,1,8,0:0:0:0:
121,265,109634,1,2,0:0:0:0:
196,303,109762,6,0,P|261:286|294:178,1,167.999994873047,4|0,0:0|0:0,0:0:0:0:
255,127,110143,2,0,P|257:81|360:22,1,167.999994873047,8|0,0:1|0:0,0:0:0:0:
435,22,110524,2,0,P|441:86|441:127,1,83.9999974365235,10|0,0:1|0:0,0:0:0:0:
507,158,110779,1,0,0:0:0:0:
475,235,110906,1,2,0:1:0:0:
401,193,111033,1,2,0:1:0:0:
365,269,111160,1,0,0:0:0:0:
282,255,111287,6,0,P|219:255|120:314,1,167.999994873047,6|2,0:1|0:2,0:0:0:0:
60,255,111668,1,8,0:1:0:0:
121,197,111795,2,0,P|135:142|133:108,1,83.9999974365235,0|2,0:0|0:2,0:0:0:0:
73,55,112050,2,0,P|120:34|261:50,1,167.999994873047,8|4,0:1|0:0,0:0:0:0:
276,110,112431,1,0,0:0:0:0:
359,104,112558,1,4,0:0:0:0:
375,21,112685,1,0,0:0:0:0:
458,12,112812,6,0,P|451:78|448:190,1,167.999994873047,4|4,0:0|0:2,0:0:0:0:
363,183,113194,2,0,P|370:249|373:361,1,167.999994873047,8|4,0:1|0:2,0:0:0:0:
289,361,113575,2,0,P|234:346|228:225,1,167.999994873047,10|10,0:1|0:1,0:0:0:0:
277,196,113956,1,4,0:2:0:0:
260,113,114084,1,10,0:1:0:0:
177,97,114211,1,10,0:1:0:0:
113,151,114338,6,0,P|104:197|111:318,1,167.999994873047,6|2,0:1|0:2,0:0:0:0:
194,326,114719,1,0,0:0:0:0:
270,292,114846,2,0,P|330:285|388:290,1,83.9999974365235,0|2,0:0|0:2,0:0:0:0:
431,317,115101,2,0,P|461:280|465:155,1,167.999994873047,8|8,0:1|0:0,0:0:0:0:
386,147,115482,1,0,0:0:0:0:
330,83,115609,1,2,0:0:0:0:
256,124,115736,1,0,0:0:0:0:
191,70,115863,6,0,P|125:80|78:181,1,167.999994873047,4|0,0:0|0:0,0:0:0:0:
8,212,116245,2,0,P|40:277|142:291,1,167.999994873047,8|0,0:1|0:0,0:0:0:0:
172,225,116626,2,0,P|252:214|349:221,1,167.999994873047,8|8,0:1|0:0,0:0:0:0:
416,250,117007,1,0,0:0:0:0:
463,180,117134,1,2,0:0:0:0:
409,114,117262,1,0,0:0:0:0:
326,128,117389,6,0,B|312:88|312:88|323:46,1,83.9999974365235,4|0,0:1|0:0,0:0:0:0:
242,23,117643,1,0,0:0:0:0:
170,67,117770,2,0,B|180:107|180:107|166:147,1,83.9999974365235,8|0,0:0|0:0,0:0:0:0:
255,203,118024,5,0,0:0:0:0:
331,168,118151,2,0,L|368:331,1,167.999994873047,8|2,0:1|0:0,0:0:0:0:
251,343,118533,1,2,0:2:0:0:
157,305,118660,2,0,L|175:223,1,83.9999974365235,0|2,0:0|0:0,0:0:0:0:
331,168,118914,6,0,L|294:5,1,167.999994873047,4|2,0:0|0:0,0:0:0:0:
215,65,119295,2,0,L|196:146,1,83.9999974365235,8|0,0:1|0:0,0:0:0:0:
259,209,119550,5,2,0:2:0:0:
260,292,119677,2,0,P|163:302|89:288,2,167.999994873047,4|8|8,0:0|0:0|0:1,0:0:0:0:
331,336,120312,1,8,0:1:0:0:
414,346,120440,6,0,P|409:272|413:147,1,167.999994873047,4|2,0:1|0:2,0:0:0:0:
485,140,120821,2,0,P|474:81|375:40,1,167.999994873047,8|0,0:0|0:0,0:0:0:0:
327,100,121202,2,0,P|271:100|143:85,1,167.999994873047,8|8,0:1|0:0,0:0:0:0:
83,50,121584,1,0,0:0:0:0:
86,133,121711,1,2,0:0:0:0:
5,157,121838,1,2,0:2:0:0:
20,239,121965,1,4,0:1:0:0:
148,347,122219,5,2,0:2:0:0:
227,321,122346,1,8,0:0:0:0:
308,339,122473,1,0,0:0:0:0:
391,323,122601,1,2,0:2:0:0:
474,332,122728,6,0,P|466:268|466:229,1,83.9999974365235,10|2,0:1|0:1,0:0:0:0:
408,186,122982,2,0,P|418:126|416:82,1,83.9999974365235,8|2,0:0|0:1,0:0:0:0:
370,33,123236,1,4,0:2:0:0:
291,3,123363,1,2,0:1:0:0:
218,45,123490,1,4,0:1:0:0:
256,192,132643,12,2,134168,0:0:0:0:
1,189,134931,5,2,0:2:0:0:
1,189,135185,2,0,P|5:232|1:261,3,70,4|8|4|0,0:0|0:1|0:0|0:0,0:0:0:0:
68,300,135694,6,0,P|111:295|211:94,1,280,6|8,0:1|0:0,0:0:0:0:
340,46,136456,2,0,P|338:110|336:206,1,140,4|2,1:2|0:1,0:0:0:0:
390,240,136838,1,0,0:0:0:0:
464,222,136965,2,0,P|459:256|455:291,1,70,0|0,0:0|0:0,0:0:0:0:
393,336,137219,6,0,P|337:346|298:270,1,140,4|0,0:0|0:1,0:0:0:0:
257,215,137601,1,10,0:1:0:0:
183,239,137728,2,0,P|186:288|185:336,1,70,8|2,0:0|0:1,0:0:0:0:
109,320,137982,1,2,0:0:0:0:
32,312,138109,2,0,P|36:264|64:152,1,140,2|0,0:1|0:0,0:0:0:0:
17,108,138490,2,0,P|43:71|69:51,1,70,0|0,0:0|0:0,0:0:0:0:
136,77,138745,6,0,P|181:80|289:67,1,140,4|2,0:1|0:1,0:0:0:0:
336,24,139126,1,0,0:0:0:0:
410,42,139253,2,0,P|464:61|480:77,1,70,8|0,0:0|0:0,0:0:0:0:
482,145,139507,2,0,P|440:147|406:138,1,70,10|0,0:1|0:0,0:0:0:0:
340,167,139762,6,0,P|356:213|364:248,1,70,2|0,0:1|0:0,0:0:0:0:
307,288,140016,2,0,P|283:259|265:225,1,70,2|0,0:1|0:0,0:0:0:0:
198,195,140270,6,0,P|174:234|146:257,1,70,4|2,0:0|0:1,0:0:0:0:
80,237,140524,2,0,P|95:201|111:174,1,70,2|0,0:1|0:0,0:0:0:0:
77,104,140779,6,0,P|126:76|215:64,2,140,8|10|8,0:0|0:1|0:0,0:0:0:0:
14,149,141414,1,2,0:1:0:0:
6,225,141541,2,0,P|19:259|27:297,1,70,4|2,0:0|0:1,0:0:0:0:
83,343,141795,6,0,P|140:342|185:263,1,140,6|0,0:1|0:0,0:0:0:0:
189,201,142177,1,2,0:0:0:0:
264,185,142304,2,0,P|306:190|338:194,1,70,2|2,0:1|0:1,0:0:0:0:
391,243,142558,1,10,0:1:0:0:
464,221,142685,1,0,0:0:0:0:
477,145,142812,2,0,P|471:110|468:71,1,70,8|2,0:0|0:1,0:0:0:0:
393,56,143067,2,0,P|390:90|384:125,1,70,2|2,0:0|0:1,0:0:0:0:
331,181,143321,6,0,P|328:229|333:349,1,140,4|2,0:0|0:1,0:0:0:0:
255,339,143702,1,0,0:0:0:0:
192,293,143829,2,0,P|191:240|195:198,1,70,8|2,0:0|0:1,0:0:0:0:
229,155,144084,2,0,P|237:95|220:7,2,140,10|8|4,0:1|0:0|0:0,0:0:0:0:
320,278,144846,6,0,P|380:261|411:191,1,140,6|2,0:1|0:1,0:0:0:0:
488,185,145228,1,0,0:0:0:0:
486,261,145355,2,0,P|478:307|476:333,1,70,8|2,0:0|0:1,0:0:0:0:
403,355,145609,2,0,P|326:353|241:359,1,140,10|0,0:1|0:0,0:0:0:0:
200,312,145990,1,2,0:0:0:0:
134,354,146118,2,0,P|109:320|95:261,1,70,4|0,0:2|0:0,0:0:0:0:
147,234,146372,6,0,P|164:167|167:70,1,140,4|8,0:1|0:0,0:0:0:0:
244,85,146753,1,4,0:2:0:0:
304,132,146880,2,0,P|317:92|319:58,1,70,4|4,0:0|0:2,0:0:0:0:
389,96,147134,2,0,P|434:117|446:214,1,140,4|8,0:1|0:0,0:0:0:0:
376,212,147516,1,8,0:1:0:0:
310,251,147643,2,0,P|315:303|316:325,1,70,4|4,0:0|0:2,0:0:0:0:
258,372,147897,1,4,0:0:0:0:
154,258,148151,6,0,P|108:257|75:167,1,140,2|8,0:1|0:0,0:0:0:0:
2,141,148533,1,2,0:1:0:0:
54,84,148660,2,0,P|100:86|133:93,1,70,8|0,0:1|0:0,0:0:0:0:
188,131,148914,2,0,P|244:122|275:115,1,70,2|2,0:1|0:2,0:0:0:0:
303,58,149168,1,8,0:0:0:0:
379,66,149295,1,2,0:1:0:0:
454,47,149423,1,4,0:0:0:0:
503,192,149677,6,0,P|452:196|417:297,1,140,2|8,0:1|0:0,0:0:0:0:
334,248,150058,1,2,0:1:0:0:
257,258,150185,2,0,P|260:313|262:343,1,70,8|0,0:0|0:0,0:0:0:0:
178,260,150440,2,0,P|180:225|181:190,1,70,2|2,0:1|0:2,0:0:0:0:
251,158,150694,1,8,0:0:0:0:
259,81,150821,1,2,0:1:0:0:
194,38,150948,1,4,0:0:0:0:
72,132,151202,6,0,P|80:187|57:280,1,140,2|8,0:1|0:0,0:0:0:0:
105,333,151584,1,2,0:1:0:0:
180,318,151711,2,0,L|275:324,1,70,8|2,0:1|0:1,0:0:0:0:
315,282,151965,1,2,0:1:0:0:
387,309,152092,1,2,0:2:0:0:
447,262,152219,1,8,0:0:0:0:
443,185,152346,1,2,0:1:0:0:
376,146,152473,1,4,0:0:0:0:
258,45,152728,6,0,L|345:55,1,70,2|2,0:1|0:1,0:0:0:0:
211,111,152982,2,0,L|124:121,1,70,8|2,0:0|0:1,0:0:0:0:
64,121,153236,2,0,P|74:195|76:262,1,140,10|4,0:1|0:2,0:0:0:0:
150,240,153618,1,0,0:0:0:0:
213,282,153745,1,4,0:0:0:0:
287,261,153872,1,0,0:0:0:0:
351,302,153999,6,0,P|382:261|391:174,1,140,4|2,0:1|0:2,0:0:0:0:
323,138,154380,1,2,0:2:0:0:
356,68,154507,2,0,L|434:80,1,70,8|0,0:0|0:0,0:0:0:0:
296,7,154762,2,0,P|244:22|223:123,1,140,8|2,0:1|0:0,0:0:0:0:
136,92,155143,1,0,0:0:0:0:
67,126,155270,2,0,P|74:181|70:218,1,70,8|0,0:0|0:0,0:0:0:0:
37,263,155524,6,0,P|89:290|193:279,2,140,4|2|8,0:0|0:0|0:0,0:0:0:0:
174,193,156287,2,0,P|236:195|290:271,1,140,8|0,0:1|0:0,0:0:0:0:
284,326,156668,1,0,0:0:0:0:
360,333,156795,1,2,0:0:0:0:
417,280,156923,1,4,0:2:0:0:
426,203,157050,6,0,P|412:139|422:36,2,140,4|0|8,0:1|0:0|0:0,0:0:0:0:
303,109,157812,2,0,P|244:96|146:95,1,140,8|0,0:1|0:0,0:0:0:0:
102,47,158194,1,0,0:0:0:0:
44,98,158321,2,0,P|39:158|35:192,1,70,8|0,0:0|0:0,0:0:0:0:
67,239,158575,6,0,B|151:239|125:282|221:283,1,140,6|0,0:1|0:0,0:0:0:0:
265,245,158956,1,2,0:1:0:0:
314,304,159084,2,0,P|339:274|348:237,1,70,0|2,0:0|0:1,0:0:0:0:
334,168,159338,2,0,P|359:127|443:98,1,140,10|2,0:1|0:0,0:0:0:0:
491,157,159719,1,2,0:1:0:0:
478,232,159846,2,0,P|466:275|461:310,1,70,8|0,0:0|0:0,0:0:0:0:
389,358,160101,6,0,B|332:349|332:349|291:371|291:371|225:361,1,167.999994873047,6|4,0:1|0:0,0:0:0:0:
158,300,160482,1,2,0:0:0:0:
68,320,160609,2,0,B|52:277|52:277|77:222,1,83.9999974365235,4|2,0:0|0:0,0:0:0:0:
148,197,160863,2,0,B|164:154|164:154|148:119,1,83.9999974365235,8|8,0:1|0:0,0:0:0:0:
184,33,161118,1,4,0:0:0:0:
275,46,161245,1,0,1:0:0:0:
366,59,161372,1,4,1:2:0:0:
493,192,161626,6,0,P|438:197|390:300,1,167.999994873047,4|2,0:1|0:2,0:0:0:0:
304,279,162007,1,8,0:1:0:0:
231,321,162134,2,0,P|191:285|192:224,1,83.9999974365235,0|2,0:0|0:2,0:0:0:0:
239,192,162389,2,0,P|248:144|235:16,2,167.999994873047,8|4|4,0:1|0:0|0:0,0:0:0:0:
322,182,163024,1,2,0:0:0:0:
371,114,163151,6,0,P|443:129|472:225,1,167.999994873047,4|4,0:2|0:2,0:0:0:0:
489,293,163533,2,0,P|415:288|317:285,1,167.999994873047,8|4,0:1|0:2,0:0:0:0:
254,335,163914,2,0,P|180:340|82:343,1,167.999994873047,8|4,0:1|0:2,0:0:0:0:
15,190,164423,1,0,0:0:0:0:
27,107,164550,1,4,0:2:0:0:
108,86,164677,6,0,P|157:88|208:192,1,167.999994873047,4|2,0:1|0:2,0:0:0:0:
286,218,165058,1,0,0:0:0:0:
364,187,165185,2,0,P|367:137|366:94,1,83.9999974365235,0|2,0:0|0:2,0:0:0:0:
328,27,165440,2,0,P|411:27|500:50,2,167.999994873047,8|0|8,0:1|0:0|0:0,0:0:0:0:
245,13,166075,1,2,0:0:0:0:
161,14,166202,6,0,P|109:31|95:144,1,167.999994873047,4|2,0:0|0:2,0:0:0:0:
165,163,166584,2,0,P|171:239|172:348,1,167.999994873047,8|2,0:1|0:2,0:0:0:0:
254,346,166965,2,0,P|331:333|437:326,2,167.999994873047,8|4|4,0:1|0:0|0:0,0:0:0:0:
256,177,167728,6,0,B|268:140|268:140|246:68,1,83.9999974365235,4|0,0:1|0:0,0:0:0:0:
312,35,167982,1,2,0:0:0:0:
389,66,168109,2,0,L|368:242,1,167.999994873047,8|2,0:1|0:0,0:0:0:0:
299,280,168490,2,0,B|256:267|256:267|211:278,1,83.9999974365235,8|0,0:1|0:0,0:0:0:0:
164,210,168745,1,4,0:2:0:0:
96,259,168872,2,0,L|69:92,1,167.999994873047,8|4,0:1|0:2,0:0:0:0:
152,104,169253,6,0,B|227:70|227:70|328:113,1,167.999994873047,8|2,0:1|0:0,0:0:0:0:
389,100,169634,2,0,L|362:265,1,167.999994873047,8|2,0:1|0:0,0:0:0:0:
422,325,170016,2,0,P|371:320|260:361,1,167.999994873047,8|2,0:1|0:2,0:0:0:0:
199,303,170397,1,0,0:0:0:0:
256,241,170524,2,0,P|260:188|262:152,1,83.9999974365235,8|8,0:0|0:1,0:0:0:0:
194,105,170779,6,0,P|138:111|91:213,1,167.999994873047,4|8,0:1|0:0,0:0:0:0:
7,223,171160,1,8,0:1:0:0:
18,139,171287,2,0,P|25:73|23:43,1,83.9999974365235,0|0,0:0|0:0,0:0:0:0:
94,8,171541,2,0,P|174:11|264:25,1,167.999994873047,8|0,0:1|0:0,0:0:0:0:
374,148,172050,2,0,P|431:147|473:145,1,83.9999974365235,8|2,0:0|0:0,0:0:0:0:
496,220,172304,6,0,P|490:263|365:288,1,167.999994873047,4|0,0:0|0:0,0:0:0:0:
314,257,172685,2,0,P|261:251|133:254,1,167.999994873047,8|0,0:1|0:0,0:0:0:0:
68,285,173067,1,10,0:1:0:0:
16,218,173194,1,0,0:0:0:0:
59,146,173321,1,0,0:0:0:0:
139,169,173448,1,2,0:1:0:0:
222,161,173575,2,0,L|308:141,1,83.9999974365235,2|0,0:1|0:0,0:0:0:0:
299,58,173829,6,0,L|474:89,1,167.999994873047,6|2,0:1|0:2,0:0:0:0:
497,164,174211,1,8,0:1:0:0:
427,210,174338,2,0,P|412:267|413:314,1,83.9999974365235,0|2,0:0|0:2,0:0:0:0:
338,334,174592,2,0,P|290:321|151:321,2,167.999994873047,8|4|4,0:1|0:0|0:0,0:0:0:0:
411,291,175228,1,4,0:2:0:0:
352,230,175355,6,0,P|348:182|325:58,1,167.999994873047,4|4,0:0|0:2,0:0:0:0:
256,18,175736,1,8,0:1:0:0:
195,75,175863,2,0,P|150:75|106:68,1,83.9999974365235,0|4,0:0|0:2,0:0:0:0:
27,58,176118,2,0,P|37:136|40:235,1,167.999994873047,10|10,0:1|0:1,0:0:0:0:
122,210,176499,1,0,0:0:0:0:
205,213,176626,2,0,P|194:276|196:313,1,83.9999974365235,10|10,0:1|0:1,0:0:0:0:
249,359,176880,6,0,P|298:348|331:232,1,167.999994873047,6|2,0:1|0:2,0:0:0:0:
421,252,177262,1,0,0:0:0:0:
502,230,177389,2,0,P|502:182|495:144,1,83.9999974365235,4|0,0:2|0:0,0:0:0:0:
423,103,177643,2,0,P|362:103|296:187,2,167.999994873047,8|8|2,0:1|0:0|0:0,0:0:0:0:
404,20,178279,1,4,0:2:0:0:
320,19,178406,6,0,P|250:30|132:29,1,167.999994873047,4|4,0:0|0:2,0:0:0:0:
95,105,178787,2,0,P|178:117|261:116,1,167.999994873047,8|4,0:1|0:2,0:0:0:0:
331,194,179168,2,0,P|261:205|143:204,1,167.999994873047,8|8,0:1|0:0,0:0:0:0:
84,176,179550,1,4,0:2:0:0:
43,249,179677,2,0,P|47:307|45:351,1,83.9999974365235,2|0,0:0|0:0,0:0:0:0:
121,370,179931,6,0,B|161:355|161:355|221:368,1,83.9999974365235,4|2,0:1|0:2,0:0:0:0:
266,310,180185,1,0,0:0:0:0:
337,353,180312,2,0,B|377:338|377:338|437:351,1,83.9999974365235,8|2,0:0|0:2,0:0:0:0:
486,298,180567,1,0,0:0:0:0:
446,224,180694,2,0,B|370:193|370:193|286:236,1,167.999994873047,8|2,0:1|0:0,0:0:0:0:
243,165,181075,2,0,B|166:125|166:125|90:156,1,167.999994873047,2|2,0:2|0:0,0:0:0:0:
0,76,181456,6,0,B|40:61|40:61|100:74,1,83.9999974365235,4|2,0:0|0:2,0:0:0:0:
148,19,181711,1,2,0:0:0:0:
218,65,181838,2,0,B|258:50|258:50|318:63,1,83.9999974365235,8|2,0:1|0:2,0:0:0:0:
376,27,182092,1,2,0:2:0:0:
454,57,182219,2,0,L|469:255,1,167.999994873047,4|8,0:0|0:0,0:0:0:0:
403,281,182601,1,2,0:0:0:0:
322,257,182728,1,8,0:1:0:0:
321,173,182855,1,8,0:1:0:0:
254,121,182982,6,0,P|167:133|140:220,1,167.999994873047,4|0,0:1|0:0,0:0:0:0:
55,218,183363,1,8,0:0:0:0:
68,300,183490,2,0,P|134:298|235:308,2,167.999994873047,0|8|8,0:0|0:1|0:0,0:0:0:0:
55,218,184126,1,0,0:0:0:0:
74,136,184253,2,0,P|89:88|99:36,1,83.9999974365235,2|4,0:0|0:2,0:0:0:0:
171,18,184507,6,0,P|246:29|280:138,1,167.999994873047,4|2,0:1|0:2,0:0:0:0:
348,162,184889,1,8,0:0:0:0:
431,157,185016,2,0,P|434:96|433:58,1,83.9999974365235,0|6,0:0|0:2,0:0:0:0:
491,222,185270,1,8,0:1:0:0:
444,291,185397,1,2,0:1:0:0:
360,287,185524,1,8,0:0:0:0:
292,237,185651,1,2,0:1:0:0:
207,244,185779,1,4,0:2:0:0:
39,233,186033,5,4,0:1:0:0:
