osu file format v14

[General]
AudioFilename: audio.mp3
AudioLeadIn: 0
PreviewTime: 38067
Countdown: 0
SampleSet: None
StackLeniency: 0.7
Mode: 0
LetterboxInBreaks: 0
WidescreenStoryboard: 0

[Editor]
DistanceSpacing: 1
BeatDivisor: 2
GridSize: 4
TimelineZoom: 1.1

[Metadata]
Title:Sayonara Waltz
TitleUnicode:さよならワルツ
Artist:la la larks
ArtistUnicode:la la larks
Creator:Mirash
Version:Intermediate
Source:
Tags:Delis captin1 Niva Nivalis Culture Vulture
BeatmapID:1842546
BeatmapSetID:813903

[Difficulty]
HPDrainRate:5
CircleSize:3
OverallDifficulty:6
ApproachRate:6
SliderMultiplier:0.8
SliderTickRate:1

[Events]
//Background and Video events
0,0,"pachipachi.jpg",0,0
//Break Periods
2,62673,73627
2,123690,130068
//Storyboard Layer 0 (Background)
//Storyboard Layer 1 (Fail)
//Storyboard Layer 2 (Pass)
//Storyboard Layer 3 (Foreground)
//Storyboard Sound Samples

[TimingPoints]
1457,254.237288135593,6,3,1,60,1,0
13660,-142.857142857143,6,2,1,40,0,0
24846,-100,6,2,1,40,0,0
25863,-100,6,3,1,50,0,0
36541,-100,6,3,1,60,0,0
37304,-100,6,3,1,90,0,0
37368,-100,6,3,1,30,0,0
37558,-100,6,3,1,90,0,0
37622,-100,6,3,1,30,0,0
37812,-100,6,3,1,40,0,0
38067,-90.9090909090909,6,3,1,70,0,0
74677,-100,6,3,1,50,0,0
85355,-83.3333333333333,6,3,1,70,0,0
86880,-100,6,3,1,60,0,0
97558,-100,6,3,1,70,0,0
98321,-100,6,3,1,80,0,0
99084,-90.9090909090909,6,3,1,70,0,0
135694,-83.3333333333333,6,3,1,70,0,0
158575,-83.3333333333333,6,3,1,80,0,0
161626,-90.9090909090909,6,3,1,70,0,0
179931,-83.3333333333333,6,3,1,70,0,0
182982,-90.9090909090909,6,3,1,70,0,0

[Colours]
Combo1 : 255,210,77
Combo2 : 217,122,45
Combo3 : 65,183,207
Combo4 : 187,79,154

[HitObjects]
42,143,694,5,2,0:0:0:0:
121,150,948,1,8,0:0:0:0:
200,157,1202,1,4,0:0:0:0:
264,204,1457,6,0,P|237:253|232:364,1,160,6|0,0:1|0:0,0:0:0:0:
308,369,2219,2,0,L|405:352,1,80,10|2,0:1|0:1,0:0:0:0:
437,292,2728,1,8,0:0:0:0:
509,324,2982,2,0,P|519:254|484:180,2,120,4|8|8,0:0|0:1|0:1,0:0:0:0:
437,292,3999,1,2,0:0:0:0:
359,311,4253,1,4,0:0:0:0:
279,303,4507,6,0,P|281:249|291:125,1,160,6|0,0:1|0:0,0:0:0:0:
229,89,5270,1,10,0:1:0:0:
152,113,5524,1,0,0:1:0:0:
80,77,5779,1,8,0:0:0:0:
10,115,6033,2,0,P|26:182|24:261,2,120,4|8|8,0:0|0:1|0:1,0:0:0:0:
80,77,7050,1,0,0:0:0:0:
152,113,7304,1,4,0:0:0:0:
229,89,7558,6,0,B|332:79|282:142|386:133,1,160,6|0,0:1|0:0,0:0:0:0:
452,111,8321,2,0,P|480:155|478:212,1,80,10|4,0:1|0:0,0:0:0:0:
423,234,8829,1,8,0:0:0:0:
391,308,9084,2,0,P|425:349|502:368,2,120,4|0|8,0:0|0:0|0:1,0:0:0:0:
341,244,10101,1,0,0:0:0:0:
266,273,10355,1,4,0:0:0:0:
202,223,10609,6,0,P|158:223|31:263,1,160,6|0,0:1|0:0,0:0:0:0:
3,186,11372,2,0,P|18:132|18:86,1,80,10|0,0:1|0:0,0:0:0:0:
85,64,11880,1,8,0:0:0:0:
154,103,12134,2,0,L|305:94,1,120,4|10,0:0|0:1,0:0:0:0:
381,42,12897,1,10,0:1:0:0:
388,121,13151,1,8,0:0:0:0:
395,200,13406,1,0,0:1:0:0:
364,273,13660,5,4,0:1:0:0:
252,275,14168,2,0,P|251:225|249:202,1,55.9999982910157,8|4,0:3|0:3,0:0:0:0:
132,99,15185,2,0,P|126:157|128:225,1,111.999996582031,4|4,0:3|0:3,0:0:0:0:
102,224,15821,2,0,L|72:222,1,27.9999991455078,2|4,0:3|0:3,0:0:0:0:
185,347,16711,5,4,0:2:0:0:
296,349,17219,2,0,P|297:299|299:276,1,55.9999982910157,0|4,0:0|0:3,0:0:0:0:
378,145,18236,2,0,P|384:203|382:271,1,111.999996582031,4|4,0:3|0:3,0:0:0:0:
408,270,18872,2,0,L|438:268,1,27.9999991455078,2|4,0:0|0:3,0:0:0:0:
429,100,19762,6,0,P|397:75|364:63,2,55.9999982910157,4|0|8,0:3|0:0|0:3,0:0:0:0:
462,144,20524,2,0,P|499:128|526:106,2,55.9999982910157,4|0|2,0:3|0:0|0:3,0:0:0:0:
407,158,21287,2,0,P|358:167|301:266,1,167.999994873047,4|4,0:3|0:3,0:0:0:0:
137,301,22812,5,4,0:3:0:0:
137,301,23067,2,0,P|137:256|135:233,2,55.9999982910157,0|8|4,0:0|0:3|0:3,0:0:0:0:
297,350,24338,2,0,P|348:348|410:343,1,111.999996582031,4|0,0:3|0:0,0:0:0:0:
457,279,25101,1,8,0:1:0:0:
435,201,25355,1,4,0:2:0:0:
447,122,25609,1,2,0:2:0:0:
422,45,25863,6,0,P|378:52|338:71,1,80,4|0,0:1|0:0,0:0:0:0:
308,50,26245,2,0,P|292:91|288:135,1,80,2|2,0:2|0:2,0:0:0:0:
261,156,26626,1,8,0:1:0:0:
181,152,26880,1,2,0:2:0:0:
101,148,27134,1,0,0:0:0:0:
32,189,27389,2,0,P|51:250|65:356,1,160,4|0,0:0|0:0,0:0:0:0:
140,369,28151,2,0,L|230:353,1,80,8|2,0:1|0:0,0:0:0:0:
298,349,28660,1,4,0:2:0:0:
305,269,28914,6,0,P|299:216|310:154,1,80,4|0,0:0|0:0,0:0:0:0:
270,163,29295,2,0,P|291:114|331:65,1,80,2|2,0:2|0:2,0:0:0:0:
319,54,29677,1,8,0:1:0:0:
396,71,29931,1,2,0:2:0:0:
426,144,30185,1,0,0:0:0:0:
402,220,30440,1,4,0:0:0:0:
433,293,30694,2,0,P|454:289|482:288,2,40,0|2|0,0:0|0:2|0:0,0:0:0:0:
354,308,31202,1,8,0:1:0:0:
290,356,31456,1,0,0:0:0:0:
210,347,31711,1,2,0:0:0:0:
132,366,31965,6,0,P|128:307|108:259,1,80,4|2,0:0|0:2,0:0:0:0:
57,240,32473,1,2,0:2:0:0:
118,188,32728,2,0,P|122:129|142:81,1,80,8|2,0:1|0:0,0:0:0:0:
202,138,33236,1,4,0:2:0:0:
281,137,33490,2,0,L|411:115,1,120,4|2,0:0|0:2,0:0:0:0:
434,97,33999,2,0,L|424:200,2,80,2|8|2,0:0|0:1|0:0,0:0:0:0:
376,39,34762,1,4,0:2:0:0:
301,67,35016,6,0,P|251:67|211:52,1,80,4|0,0:0|0:0,0:0:0:0:
150,24,35524,1,8,0:0:0:0:
84,70,35779,2,0,P|108:113|116:155,1,80,8|2,0:1|0:2,0:0:0:0:
123,222,36287,1,4,0:2:0:0:
76,286,36541,5,4,0:0:0:0:
137,337,36795,2,0,L|129:384,2,40,10|2|8,0:1|0:0|0:1,0:0:0:0:
217,332,37304,1,6,0:0:0:0:
296,327,37558,1,6,0:0:0:0:
360,280,37812,2,0,L|364:237,1,40,0|0,0:0|0:0,0:0:0:0:
397,205,38067,6,0,P|399:151|295:81,1,176.000005371094,4|0,0:1|0:0,0:0:0:0:
241,134,38829,2,0,P|173:123|152:120,1,88.000002685547,8|4,0:1|0:0,0:0:0:0:
77,164,39338,1,4,0:0:0:0:
103,247,39592,2,0,P|185:270|210:324,2,132.00000402832,4|8|8,0:2|0:1|0:1,0:0:0:0:
77,164,40609,1,4,0:2:0:0:
50,80,40863,1,0,0:0:0:0:
127,37,41118,6,0,P|185:37|240:141,1,176.000005371094,4|0,0:1|0:0,0:0:0:0:
255,215,41880,2,0,P|351:208|436:187,1,176.000005371094,8|8,0:1|0:0,0:0:0:0:
472,112,42643,2,0,P|418:106|380:110,1,88.000002685547,4|0,0:0|0:0,0:0:0:0:
346,87,43024,1,8,0:1:0:0:
229,150,43406,2,0,P|233:213|228:244,2,88.000002685547,8|4|4,0:1|0:0|0:0,0:0:0:0:
200,66,44168,5,4,0:1:0:0:
273,17,44423,2,0,L|320:31,1,44.0000013427735,2|8,0:0|0:1,0:0:0:0:
364,102,44804,2,0,L|316:117,1,44.0000013427735,2|8,0:0|0:1,0:0:0:0:
292,200,45185,5,4,0:2:0:0:
292,200,45312,2,0,P|339:225|368:271,1,88.000002685547,8|4,0:1|0:2,0:0:0:0:
366,295,45694,2,0,P|411:266|462:263,1,88.000002685547,8|2,0:1|0:0,0:0:0:0:
479,287,46075,2,0,P|477:233|500:186,1,88.000002685547,8|2,0:1|0:0,0:0:0:0:
472,161,46456,1,8,0:1:0:0:
482,73,46711,6,0,L|419:82,1,44.0000013427735,2|0,0:2|0:0,0:0:0:0:
398,61,46965,2,0,L|337:70,1,44.0000013427735,8|8,0:0|0:1,0:0:0:0:
318,42,47219,2,0,B|246:33|266:73|190:63,2,132.00000402832,4|8|8,0:1|0:1|0:1,0:0:0:0:
384,100,48236,2,0,P|371:153|375:177,2,44.0000013427735,0|8|8,0:0|0:1|0:0,0:0:0:0:
468,74,48745,2,0,P|489:149|489:227,1,132.00000402832,4|8,0:0|0:1,0:0:0:0:
414,310,49507,2,0,B|330:284|330:284|232:343,1,176.000005371094,10|2,0:1|0:1,0:0:0:0:
173,364,50270,6,0,P|134:330|129:200,1,176.000005371094,6|0,0:1|0:0,0:0:0:0:
198,168,51033,2,0,P|183:110|176:75,2,88.000002685547,8|4|4,0:1|0:0|0:0,0:0:0:0:
233,194,51668,1,4,0:2:0:0:
233,194,51795,2,0,L|392:178,2,132.00000402832,4|8|10,0:0|0:1|0:1,0:0:0:0:
147,173,52812,2,0,L|60:187,1,88.000002685547,8|10,0:1|0:1,0:0:0:0:
26,157,53194,5,10,0:1:0:0:
26,157,53321,2,0,P|27:96|149:64,1,176.000005371094,6|0,0:1|0:0,0:0:0:0:
185,110,54084,1,8,0:1:0:0:
272,103,54338,1,8,0:0:0:0:
359,97,54592,1,2,0:0:0:0:
432,48,54846,6,0,P|467:112|468:157,1,88.000002685547,4|0,0:0|0:0,0:0:0:0:
495,161,55228,2,0,P|457:223|418:246,1,88.000002685547,8|0,0:1|0:0,0:0:0:0:
441,275,55609,1,8,0:1:0:0:
353,271,55863,2,0,P|360:296|363:319,2,44.0000013427735,8|0|2,0:0|0:0|0:0,0:0:0:0:
265,259,56372,5,4,0:1:0:0:
192,309,56626,2,0,L|136:300,1,44.0000013427735,0|8,0:0|0:0,0:0:0:0:
103,226,57007,2,0,L|159:217,1,44.0000013427735,0|8,0:0|0:1,0:0:0:0:
232,199,57389,5,2,0:0:0:0:
232,199,57516,2,0,P|231:139|225:80,1,88.000002685547,2|2,0:2|0:0,0:0:0:0:
193,85,57897,2,0,P|244:54|292:19,1,88.000002685547,4|2,0:0|0:0,0:0:0:0:
295,4,58279,2,0,P|347:33|401:57,1,88.000002685547,8|2,0:1|0:2,0:0:0:0:
414,31,58660,1,4,0:0:0:0:
483,85,58914,6,0,L|472:140,1,44.0000013427735,8|2,0:0|0:0,0:0:0:0:
487,170,59168,2,0,L|476:225,1,44.0000013427735,8|8,0:1|0:1,0:0:0:0:
478,257,59423,2,0,P|421:235|349:292,1,132.00000402832,4|8,0:1|0:0,0:0:0:0:
337,302,59931,2,0,L|226:292,1,88.000002685547,0|8,0:0|0:1,0:0:0:0:
168,330,60440,6,0,P|150:300|145:275,1,44.0000013427735,8|0,0:0|0:0,0:0:0:0:
162,250,60694,2,0,P|176:201|176:181,1,44.0000013427735,2|2,0:0|0:2,0:0:0:0:
153,170,60948,2,0,P|149:116|244:70,2,132.00000402832,4|8|8,0:1|0:0|0:1,0:0:0:0:
240,159,61965,1,8,0:0:0:0:
326,173,62219,2,0,L|419:187,1,88.000002685547,4|4,0:2|0:1,0:0:0:0:
302,147,74677,6,0,P|301:215|310:323,1,160,4|0,0:1|0:0,0:0:0:0:
374,351,75440,2,0,L|457:342,1,80,8|2,0:1|0:2,0:0:0:0:
503,279,75948,1,0,0:0:0:0:
443,225,76202,2,0,P|441:177|344:100,1,160,4|0,0:0|0:0,0:0:0:0:
306,47,76965,2,0,L|213:53,1,80,8|2,0:1|0:0,0:0:0:0:
174,113,77473,1,4,0:2:0:0:
99,82,77728,6,0,P|77:141|74:182,1,80,4|0,0:0|0:0,0:0:0:0:
35,163,78109,2,0,P|41:219|89:293,1,120,2|8,0:2|0:1,0:0:0:0:
140,314,78745,1,2,0:2:0:0:
208,272,78999,1,0,0:0:0:0:
275,315,79253,2,0,P|331:313|397:222,1,160,4|0,0:0|0:0,0:0:0:0:
467,203,80016,2,0,P|460:159|457:119,2,80,8|0|2,0:1|0:0|0:0,0:0:0:0:
395,238,80779,6,0,P|411:292|408:334,1,80,4|2,0:0|0:2,0:0:0:0:
344,360,81287,1,2,0:2:0:0:
277,315,81541,2,0,P|279:275|293:238,1,80,8|2,0:1|0:0,0:0:0:0:
341,173,82050,1,4,0:2:0:0:
341,93,82304,2,0,B|248:79|280:133|181:117,1,160,4|2,0:0|0:0,0:0:0:0:
158,42,83067,2,0,P|114:63|85:83,1,80,8|2,0:1|0:0,0:0:0:0:
21,124,83575,1,4,0:2:0:0:
66,189,83829,6,0,P|66:260|72:294,2,80,4|0|8,0:0|0:0|0:0,0:0:0:0:
144,203,84592,2,0,L|241:193,1,80,8|2,0:1|0:2,0:0:0:0:
286,144,85101,1,4,0:2:0:0:
350,191,85355,6,0,B|368:237|368:237|352:293,2,95.9999970703126,4|14|4,0:2|0:1|0:0,0:0:0:0:
376,150,85990,1,4,0:0:0:0:
410,116,86118,2,0,L|516:132,2,95.9999970703126,6|4|2,0:1|0:2|0:2,0:0:0:0:
314,94,86880,6,0,P|260:81|181:114,1,120,4|8,0:1|0:1,0:0:0:0:
163,80,87389,1,0,0:0:0:0:
90,113,87643,2,0,L|76:34,2,80,8|2|6,0:1|0:0|0:0,0:0:0:0:
31,168,88406,2,0,P|48:227|52:329,1,160,4|2,0:0|0:2,0:0:0:0:
123,361,89168,2,0,L|223:349,1,80,8|0,0:1|0:0,0:0:0:0:
267,304,89677,1,4,0:0:0:0:
339,336,89931,6,0,P|381:298|393:201,1,120,4|2,0:0|0:0,0:0:0:0:
437,227,90440,1,2,0:2:0:0:
409,151,90694,2,0,P|449:134|489:126,2,80,8|2|2,0:1|0:0|0:0,0:0:0:0:
336,185,91456,2,0,P|277:183|236:76,1,160,4|2,0:0|0:2,0:0:0:0:
262,30,92219,2,0,L|359:41,1,80,8|0,0:1|0:0,0:0:0:0:
420,23,92728,1,4,0:0:0:0:
476,79,92982,6,0,P|493:110|500:174,2,80,4|0|2,0:1|0:0|0:2,0:0:0:0:
399,102,93745,2,0,P|363:101|304:75,2,80,8|2|6,0:1|0:0|0:0,0:0:0:0:
476,79,94507,2,0,P|499:134|482:223,1,120,4|2,0:0|0:0,0:0:0:0:
458,209,95016,2,0,P|442:252|436:295,1,80,2|8,0:2|0:1,0:0:0:0:
357,295,95524,2,0,P|356:326|359:351,2,40,2|0|0,0:0|0:0|0:0,0:0:0:0:
292,247,96033,6,0,L|194:237,1,80,4|0,0:0|0:0,0:0:0:0:
132,234,96541,1,2,0:2:0:0:
110,157,96795,2,0,L|189:148,1,80,8|0,0:1|0:0,0:0:0:0:
270,144,97304,1,4,0:2:0:0:
331,93,97558,6,0,L|326:52,2,40,4|8|4,0:0|0:1|0:0,0:0:0:0:
357,123,97940,2,0,L|448:119,1,80,8|0,0:1|0:0,0:0:0:0:
470,98,98321,1,4,0:0:0:0:
498,172,98575,1,4,0:0:0:0:
442,322,99084,6,0,B|343:302|371:358|257:348,1,176.000005371094,4|0,0:1|0:0,0:0:0:0:
184,353,99846,2,0,P|170:290|182:244,1,88.000002685547,8|4,0:1|0:0,0:0:0:0:
236,206,100355,1,4,0:0:0:0:
239,118,100609,2,0,P|293:114|382:142,2,132.00000402832,4|8|8,0:2|0:1|0:1,0:0:0:0:
157,150,101626,1,4,0:2:0:0:
69,162,101880,1,0,0:0:0:0:
1,106,102134,6,0,P|34:44|143:38,1,176.000005371094,4|0,0:1|0:0,0:0:0:0:
200,86,102897,1,8,0:1:0:0:
282,55,103151,2,0,P|300:89|305:121,2,44.0000013427735,0|2|0,0:0|0:2|0:0,0:0:0:0:
359,12,103660,6,0,P|411:36|436:93,1,88.000002685547,4|0,0:0|0:0,0:0:0:0:
469,75,104041,1,8,0:1:0:0:
466,162,104295,1,0,0:0:0:0:
422,172,104423,2,0,P|416:221|415:288,1,88.000002685547,8|4,0:1|0:0,0:0:0:0:
379,286,104804,2,0,L|388:340,2,44.0000013427735,0|4|0,0:0|0:0|0:0,0:0:0:0:
336,275,105185,5,4,0:1:0:0:
257,315,105440,2,0,L|198:311,1,44.0000013427735,2|8,0:0|0:1,0:0:0:0:
180,230,105821,2,0,L|239:226,1,44.0000013427735,2|8,0:0|0:1,0:0:0:0:
296,177,106202,5,4,0:2:0:0:
296,177,106329,2,0,P|283:131|254:83,1,88.000002685547,8|4,0:1|0:2,0:0:0:0:
269,52,106711,2,0,P|222:40|166:41,1,88.000002685547,8|2,0:1|0:0,0:0:0:0:
144,17,107092,2,0,P|110:51|83:100,1,88.000002685547,8|2,0:1|0:0,0:0:0:0:
46,90,107473,1,8,0:1:0:0:
19,174,107728,6,0,L|25:226,1,44.0000013427735,2|0,0:2|0:0,0:0:0:0:
53,250,107982,2,0,L|59:302,1,44.0000013427735,8|8,0:0|0:1,0:0:0:0:
84,328,108236,2,0,P|141:321|177:242,2,132.00000402832,4|8|8,0:1|0:1|0:1,0:0:0:0:
64,241,109253,2,0,P|10:232|-9:230,2,44.0000013427735,0|8|8,0:0|0:1|0:0,0:0:0:0:
128,180,109762,6,0,P|181:177|246:237,1,132.00000402832,4|8,0:0|0:1,0:0:0:0:
244,267,110270,2,0,L|373:256,1,88.000002685547,0|10,0:0|0:1,0:0:0:0:
418,272,110779,2,0,P|465:210|467:206,1,44.0000013427735,0|2,0:0|0:1,0:0:0:0:
432,197,111033,2,0,P|385:135|383:131,1,44.0000013427735,2|0,0:1|0:0,0:0:0:0:
422,124,111287,6,0,L|243:111,1,176.000005371094,6|0,0:1|0:0,0:0:0:0:
160,91,112050,2,0,L|173:214,2,88.000002685547,8|4|4,0:1|0:0|0:0,0:0:0:0:
119,74,112685,1,0,0:0:0:0:
119,74,112812,2,0,P|47:80|6:154,1,132.00000402832,4|8,0:0|0:1,0:0:0:0:
39,157,113321,2,0,P|51:241|51:268,1,88.000002685547,0|10,0:0|0:1,0:0:0:0:
34,330,113829,1,10,0:1:0:0:
116,362,114084,2,0,L|167:354,1,44.0000013427735,10|10,0:1|0:1,0:0:0:0:
196,378,114338,6,0,P|227:339|318:323,1,132.00000402832,6|0,0:1|0:0,0:0:0:0:
342,341,114846,1,0,0:0:0:0:
430,337,115101,2,0,P|425:283|431:217,1,88.000002685547,8|8,0:1|0:0,0:0:0:0:
471,173,115609,1,2,0:0:0:0:
408,110,115863,2,0,P|352:143|336:178,1,88.000002685547,4|0,0:0|0:0,0:0:0:0:
331,204,116245,2,0,L|226:192,1,88.000002685547,8|0,0:1|0:0,0:0:0:0:
207,218,116626,1,8,0:1:0:0:
136,165,116880,2,0,L|70:172,2,44.0000013427735,8|0|2,0:0|0:0|0:0,0:0:0:0:
178,87,117389,5,4,0:1:0:0:
256,47,117643,2,0,L|316:55,1,44.0000013427735,0|8,0:0|0:0,0:0:0:0:
346,127,118024,2,0,L|286:135,1,44.0000013427735,0|8,0:0|0:1,0:0:0:0:
238,193,118406,5,2,0:0:0:0:
238,193,118533,2,0,P|251:243|283:276,1,88.000002685547,2|2,0:2|0:0,0:0:0:0:
265,312,118914,2,0,P|314:325|359:314,1,88.000002685547,4|2,0:0|0:0,0:0:0:0:
380,349,119295,2,0,P|416:312|429:268,1,88.000002685547,8|2,0:1|0:2,0:0:0:0:
470,264,119677,1,4,0:0:0:0:
424,188,119931,6,0,L|431:142,1,44.0000013427735,8|2,0:0|0:0,0:0:0:0:
396,116,120185,2,0,L|403:70,1,44.0000013427735,8|8,0:1|0:1,0:0:0:0:
374,38,120440,2,0,B|290:29|323:62|237:60,1,132.00000402832,4|8,0:1|0:0,0:0:0:0:
212,32,120948,1,0,0:0:0:0:
124,35,121202,2,0,P|139:106|140:164,1,88.000002685547,8|8,0:1|0:0,0:0:0:0:
132,164,121584,2,0,L|196:172,2,44.0000013427735,0|2|2,0:0|0:0|0:2,0:0:0:0:
93,184,121965,6,0,P|71:233|84:315,1,132.00000402832,4|8,0:1|0:0,0:0:0:0:
99,348,122473,2,0,L|170:341,1,44.0000013427735,0|2,0:0|0:2,0:0:0:0:
182,323,122728,2,0,L|253:316,1,44.0000013427735,10|2,0:1|0:1,0:0:0:0:
263,341,122982,2,0,B|304:329|304:329|347:343,2,88.000002685547,8|4|4,0:0|0:2|0:1,0:0:0:0:
256,192,131118,12,0,134168,0:0:0:0:
13,185,135694,6,0,P|79:192|147:49,1,239.999992675781,6|2,0:1|0:1,0:0:0:0:
194,37,136456,1,4,1:2:0:0:
269,96,136711,1,2,0:1:0:0:
350,46,136965,2,0,L|401:57,1,47.9999985351563,0|0,0:0|0:0,0:0:0:0:
441,38,137219,2,0,P|411:103|399:160,2,95.9999970703126,4|0|8,0:0|0:1|0:0,0:0:0:0:
498,114,137982,5,2,0:0:0:0:
470,205,138236,1,0,0:0:0:0:
376,226,138490,1,0,0:0:0:0:
287,187,138745,6,0,P|222:194|182:310,1,191.999994140625,4|8,0:1|0:0,0:0:0:0:
264,342,139507,2,0,L|359:343,2,95.9999970703126,10|2|2,0:1|0:1|0:1,0:0:0:0:
176,382,140270,1,4,0:0:0:0:
82,360,140524,2,0,L|94:299,2,47.9999985351563,2|0|8,0:1|0:0|0:0,0:0:0:0:
2,311,141033,5,10,0:1:0:0:
16,216,141287,1,8,0:0:0:0:
31,121,141541,1,4,0:0:0:0:
116,77,141795,6,0,B|226:70|186:125|321:131,1,191.999994140625,6|2,0:1|0:1,0:0:0:0:
393,125,142558,2,0,P|384:75|385:49,2,47.9999985351563,10|0|8,0:1|0:0|0:0,0:0:0:0:
372,168,142940,1,2,0:1:0:0:
372,168,143067,1,2,0:0:0:0:
306,237,143321,2,0,P|249:247|196:373,1,191.999994140625,4|8,0:0|0:0,0:0:0:0:
287,372,144084,1,10,0:1:0:0:
365,316,144338,2,0,L|422:323,2,47.9999985351563,8|0|4,0:0|0:0|0:0,0:0:0:0:
302,243,144846,6,0,P|306:189|312:142,1,95.9999970703126,6|2,0:1|0:1,0:0:0:0:
263,63,145355,1,8,0:0:0:0:
172,32,145609,2,0,P|102:48|67:186,1,191.999994140625,10|4,0:1|0:2,0:0:0:0:
142,190,146372,6,0,B|202:166|202:166|261:187,1,95.9999970703126,4|8,0:1|0:0,0:0:0:0:
265,210,146753,1,4,0:2:0:0:
265,210,146880,1,4,0:0:0:0:
235,301,147134,2,0,B|175:277|175:277|116:298,1,95.9999970703126,4|8,0:1|0:0,0:0:0:0:
112,321,147515,1,8,0:1:0:0:
112,321,147642,1,4,0:0:0:0:
29,271,147897,5,4,0:0:0:0:
45,176,148151,2,0,L|151:183,1,95.9999970703126,2|8,0:1|0:0,0:0:0:0:
223,132,148660,2,0,L|329:139,1,95.9999970703126,8|2,0:1|0:1,0:0:0:0:
360,115,149041,1,2,0:2:0:0:
360,115,149168,1,8,0:0:0:0:
455,125,149423,5,4,0:0:0:0:
439,220,149677,2,0,L|333:213,1,95.9999970703126,2|8,0:1|0:0,0:0:0:0:
261,264,150185,2,0,L|155:257,1,95.9999970703126,8|2,0:0|0:1,0:0:0:0:
124,281,150567,1,2,0:2:0:0:
124,281,150694,1,8,0:0:0:0:
29,271,150948,5,4,0:0:0:0:
44,176,151202,2,0,P|45:112|33:73,2,95.9999970703126,2|8|8,0:1|0:0|0:1,0:0:0:0:
140,177,151965,2,0,P|171:165|206:162,2,47.9999985351563,2|2|8,0:1|0:2|0:0,0:0:0:0:
155,82,152473,5,4,0:0:0:0:
246,111,152728,2,0,P|330:109|378:91,1,95.9999970703126,2|8,0:1|0:0,0:0:0:0:
421,54,153236,1,10,0:1:0:0:
439,148,153490,1,4,0:2:0:0:
457,242,153745,1,4,0:0:0:0:
367,276,153999,6,0,P|310:277|257:249,1,95.9999970703126,4|2,0:1|0:2,0:0:0:0:
226,266,154380,2,0,L|226:212,1,47.9999985351563,2|8,0:2|0:0,0:0:0:0:
169,139,154762,1,8,0:1:0:0:
74,123,155016,1,2,0:0:0:0:
16,199,155270,1,8,0:0:0:0:
69,278,155524,6,0,P|64:351|48:386,2,95.9999970703126,4|2|8,0:0|0:0|0:0,0:0:0:0:
16,199,156287,2,0,P|35:123|157:98,1,191.999994140625,8|2,0:1|0:0,0:0:0:0:
178,110,156923,1,4,0:2:0:0:
225,103,157050,6,0,P|317:88|344:72,2,95.9999970703126,4|0|8,0:1|0:0|0:0,0:0:0:0:
186,190,157812,2,0,P|191:252|322:307,1,191.999994140625,8|8,0:1|0:0,0:0:0:0:
368,252,158575,6,0,P|421:250|455:122,1,191.999994140625,6|0,0:1|0:0,0:0:0:0:
468,39,159338,2,0,B|356:25|392:91|256:75,1,191.999994140625,10|8,0:1|0:0,0:0:0:0:
202,26,160101,6,0,P|126:36|99:52,1,95.9999970703126,6|4,0:1|0:0,0:0:0:0:
64,29,160482,1,2,0:0:0:0:
64,29,160609,2,0,P|61:76|54:107,1,47.9999985351563,4|2,0:0|0:0,0:0:0:0:
22,105,160863,2,0,B|32:171|32:171|17:228|17:228|33:313,1,191.999994140625,8|4,0:1|1:2,0:0:0:0:
106,336,161626,5,4,0:1:0:0:
186,371,161880,2,0,L|236:353,1,44.0000013427735,2|8,0:2|0:1,0:0:0:0:
241,314,162134,2,0,P|285:308|331:287,2,88.000002685547,0|8|4,0:0|0:1|0:0,0:0:0:0:
163,270,162897,2,0,L|175:218,1,44.0000013427735,4|2,0:0|0:0,0:0:0:0:
209,202,163151,2,0,P|206:138|162:71,2,132.00000402832,4|8|8,0:2|0:1|0:1,0:0:0:0:
290,235,164168,1,4,0:2:0:0:
348,168,164423,1,0,0:0:0:0:
331,81,164677,6,0,P|395:86|461:202,1,176.000005371094,4|0,0:1|0:0,0:0:0:0:
446,255,165440,2,0,P|426:310|423:362,2,88.000002685547,8|0|8,0:1|0:0|0:0,0:0:0:0:
372,206,166202,2,0,L|272:213,1,88.000002685547,4|2,0:0|0:2,0:0:0:0:
251,181,166584,2,0,L|151:188,1,88.000002685547,8|2,0:1|0:2,0:0:0:0:
122,170,166965,1,8,0:1:0:0:
46,124,167219,1,4,0:0:0:0:
17,207,167473,1,4,0:0:0:0:
37,292,167728,5,4,0:1:0:0:
107,344,167982,2,0,L|158:333,1,44.0000013427735,2|8,0:0|0:1,0:0:0:0:
214,275,168363,2,0,L|257:284,1,44.0000013427735,2|8,0:0|0:1,0:0:0:0:
330,333,168745,5,4,0:2:0:0:
330,333,168872,2,0,P|380:322|420:279,1,88.000002685547,8|4,0:1|0:2,0:0:0:0:
451,299,169253,2,0,P|466:250|449:194,1,88.000002685547,8|2,0:1|0:0,0:0:0:0:
481,176,169634,2,0,P|446:138|389:125,1,88.000002685547,8|2,0:1|0:0,0:0:0:0:
384,91,170016,1,8,0:1:0:0:
301,121,170270,6,0,L|249:113,1,44.0000013427735,2|0,0:2|0:0,0:0:0:0:
230,79,170524,2,0,L|178:71,1,44.0000013427735,8|8,0:0|0:1,0:0:0:0:
151,45,170779,2,0,P|111:69|100:169,1,132.00000402832,4|8,0:1|0:1,0:0:0:0:
68,185,171287,1,0,0:0:0:0:
66,272,171541,2,0,P|151:269|175:244,1,88.000002685547,8|0,0:1|0:0,0:0:0:0:
180,237,171923,1,8,0:1:0:0:
180,237,172050,1,8,0:0:0:0:
250,289,172304,6,0,L|394:307,2,132.00000402832,4|8|10,0:0|0:1|0:1,0:0:0:0:
234,247,173194,1,0,0:0:0:0:
234,247,173321,2,0,L|244:194,1,44.0000013427735,0|2,0:0|0:1,0:0:0:0:
276,175,173575,2,0,L|286:122,1,44.0000013427735,2|0,0:1|0:0,0:0:0:0:
319,105,173829,5,6,0:1:0:0:
405,88,174084,2,0,L|416:140,1,44.0000013427735,2|8,0:2|0:1,0:0:0:0:
406,174,174338,2,0,L|506:161,2,88.000002685547,0|8|4,0:0|0:1|0:0,0:0:0:0:
348,241,175101,1,4,0:0:0:0:
348,241,175228,1,4,0:2:0:0:
348,241,175355,2,0,P|276:238|233:300,1,132.00000402832,4|8,0:0|0:1,0:0:0:0:
236,322,175863,2,0,L|127:308,1,88.000002685547,0|10,0:0|0:1,0:0:0:0:
60,305,176372,2,0,B|42:265|42:265|57:223,1,88.000002685547,10|10,0:1|0:1,0:0:0:0:
0,150,176880,6,0,L|187:166,1,176.000005371094,6|4,0:1|0:2,0:0:0:0:
262,181,177643,2,0,P|256:108|262:68,2,88.000002685547,8|8|2,0:1|0:0|0:0,0:0:0:0:
346,207,178406,2,0,P|401:227|427:292,2,132.00000402832,4|8|8,0:0|0:1|0:1,0:0:0:0:
278,264,179423,1,8,0:0:0:0:
278,264,179550,2,0,L|226:259,1,44.0000013427735,4|2,0:2|0:0,0:0:0:0:
152,292,179931,6,0,B|167:245|167:245|154:200,1,95.9999970703126,4|0,0:1|0:0,0:0:0:0:
119,167,180312,2,0,L|129:61,1,95.9999970703126,8|0,0:0|0:0,0:0:0:0:
103,29,180694,1,8,0:1:0:0:
198,24,180948,1,2,0:0:0:0:
198,24,181075,2,0,L|304:34,1,95.9999970703126,2|2,0:2|0:0,0:0:0:0:
331,62,181456,2,0,L|437:52,1,95.9999970703126,4|2,0:0|0:0,0:0:0:0:
471,35,181838,1,8,0:1:0:0:
495,127,182092,5,2,0:2:0:0:
495,127,182219,2,0,B|502:154|502:154|497:182,2,47.9999985351563,4|2|8,0:0|0:2|0:0,0:0:0:0:
415,180,182728,2,0,L|340:179,1,47.9999985351563,8|8,0:1|0:1,0:0:0:0:
329,156,182982,2,0,B|236:147|259:210|159:197,1,176.000005371094,4|0,0:1|0:0,0:0:0:0:
81,163,183745,1,8,0:1:0:0:
12,221,183999,2,0,P|21:243|34:284,1,44.0000013427735,8|0,0:0|0:0,0:0:0:0:
34,305,184253,2,0,P|57:308|99:317,1,44.0000013427735,2|4,0:0|0:2,0:0:0:0:
112,285,184507,6,0,B|160:296|160:296|176:320|176:320|239:335,1,132.00000402832,4|8,0:1|0:0,0:0:0:0:
271,343,185016,2,0,L|295:303,1,44.0000013427735,0|6,0:0|0:2,0:0:0:0:
291,261,185270,1,8,0:1:0:0:
291,261,185397,1,2,0:1:0:0:
291,261,185524,2,0,L|336:255,2,44.0000013427735,8|2|4,0:0|0:1|0:2,0:0:0:0:
212,221,186033,5,4,0:1:0:0:
